osu file format v14

[General]
AudioFilename: audio.mp3
AudioLeadIn: 0
PreviewTime: 70628
Countdown: 0
SampleSet: Soft
StackLeniency: 0.7
Mode: 3
LetterboxInBreaks: 0
SpecialStyle: 0
WidescreenStoryboard: 0

[Editor]
DistanceSpacing: 0.8
BeatDivisor: 6
GridSize: 4
TimelineZoom: 2.1

[Metadata]
Title:Protoflicker
TitleUnicode:Protoflicker
Artist:Silentroom
ArtistUnicode:Silentroom
Creator:GTDD
Version:Prototype
Source:Lanota
Tags:chapter iv 4
BeatmapID:2079035
BeatmapSetID:994319

[Difficulty]
HPDrainRate:9
CircleSize:4
OverallDifficulty:9
ApproachRate:5
SliderMultiplier:1.4
SliderTickRate:1

[Events]
//Background and Video events
0,0,"asx.jpg",0,0
//Break Periods
//Storyboard Layer 0 (Background)
//Storyboard Layer 1 (Fail)
//Storyboard Layer 2 (Pass)
//Storyboard Layer 3 (Foreground)
//Storyboard Sound Samples

[TimingPoints]
2206,428.571428571429,4,2,1,50,1,0
2206,-105.263157894737,4,2,1,50,0,0
9063,-100,4,2,1,50,0,0
67348,-100,4,2,1,50,0,0
68206,-111.111111111111,4,2,1,50,0,0
69920,-125,4,2,1,50,0,0
70206,-133.333333333333,4,2,1,50,0,0
70491,-142.857142857143,4,2,1,50,0,0
81063,-133.333333333333,4,2,1,50,0,0
84491,-125,4,2,1,50,0,0
96491,-100,4,2,1,50,0,0
125634,-100,4,2,1,50,0,1
139277,-100,4,2,1,50,0,0
139348,-100,4,2,1,50,0,1
152206,-100,4,2,1,50,0,0
152491,-12.5,4,2,1,50,0,0
152634,-125,4,2,1,50,0,0
154777,-117.647058823529,4,2,1,50,0,0
156491,-111.111111111111,4,2,1,50,0,0
158206,-105.263157894737,4,2,1,50,0,0
159920,-100,4,2,1,50,0,0

[HitObjects]
64,192,2206,5,0,0:0:0:0:
448,192,2206,128,0,2277:0:0:0:0:
320,192,2348,1,0,0:0:0:0:
192,192,2491,128,0,2563:0:0:0:0:
448,192,2634,1,0,0:0:0:0:
64,192,2634,128,0,3063:0:0:0:0:
320,192,2777,128,0,2848:0:0:0:0:
320,192,2920,1,0,0:0:0:0:
448,192,3063,1,0,0:0:0:0:
192,192,3063,128,0,3134:0:0:0:0:
448,192,3206,1,0,0:0:0:0:
192,192,3348,1,0,0:0:0:0:
320,192,3491,1,0,0:0:0:0:
64,192,3491,1,0,0:0:0:0:
448,192,3634,128,0,3706:0:0:0:0:
192,192,3777,128,0,3848:0:0:0:0:
64,192,3920,128,0,3991:0:0:0:0:
192,192,3920,1,0,0:0:0:0:
320,192,4063,1,0,0:0:0:0:
320,192,4206,1,0,0:0:0:0:
448,192,4348,1,0,0:0:0:0:
64,192,4348,1,0,0:0:0:0:
192,192,4491,1,0,0:0:0:0:
320,192,4634,1,0,0:0:0:0:
320,192,4777,1,0,0:0:0:0:
64,192,4777,1,0,0:0:0:0:
448,192,4920,1,0,0:0:0:0:
448,192,5063,1,0,0:0:0:0:
192,192,5206,1,0,0:0:0:0:
64,192,5206,1,0,0:0:0:0:
192,192,5348,128,0,5420:0:0:0:0:
320,192,5491,128,0,5563:0:0:0:0:
448,192,5634,128,0,5706:0:0:0:0:
64,192,5634,1,0,0:0:0:0:
64,192,5777,1,0,0:0:0:0:
320,192,5920,1,0,0:0:0:0:
192,192,6063,1,0,0:0:0:0:
448,192,6063,128,0,6491:0:0:0:0:
64,192,6206,1,0,0:0:0:0:
64,192,6348,1,0,0:0:0:0:
448,192,6634,1,0,0:0:0:0:
448,192,6777,1,0,0:0:0:0:
64,192,6920,1,0,0:0:0:0:
192,192,6920,1,0,0:0:0:0:
320,192,7063,128,0,7134:0:0:0:0:
192,192,7206,128,0,7277:0:0:0:0:
64,192,7348,128,0,7420:0:0:0:0:
448,192,7348,1,0,0:0:0:0:
448,192,7491,128,0,7563:0:0:0:0:
192,192,7634,128,0,7706:0:0:0:0:
192,192,7777,1,0,0:0:0:0:
320,192,7777,1,0,0:0:0:0:
64,192,7920,128,0,7991:0:0:0:0:
320,192,8063,128,0,8134:0:0:0:0:
320,192,8206,1,0,0:0:0:0:
192,192,8206,128,0,8277:0:0:0:0:
448,192,8348,1,0,0:0:0:0:
448,192,8491,1,0,0:0:0:0:
64,192,8634,1,0,0:0:0:0:
192,192,8634,1,0,0:0:0:0:
64,192,8777,1,0,0:0:0:0:
448,192,8920,1,0,0:0:0:0:
192,192,9063,1,0,0:0:0:0:
320,192,9063,1,0,0:0:0:0:
448,192,9063,128,0,9134:0:0:0:0:
320,192,9206,1,0,0:0:0:0:
64,192,9348,128,0,9420:0:0:0:0:
448,192,9491,1,0,0:0:0:0:
192,192,9491,1,0,0:0:0:0:
64,192,9491,1,0,0:0:0:0:
320,192,9634,128,0,9706:0:0:0:0:
192,192,9777,1,0,0:0:0:0:
448,192,9920,1,0,0:0:0:0:
192,192,9920,128,0,9991:0:0:0:0:
64,192,10063,1,0,0:0:0:0:
320,192,10206,1,0,0:0:0:0:
320,192,10348,1,0,0:0:0:0:
448,192,10348,1,0,0:0:0:0:
64,192,10348,1,0,0:0:0:0:
192,192,10491,1,0,0:0:0:0:
320,192,10634,1,0,0:0:0:0:
320,192,10777,1,0,0:0:0:0:
448,192,10777,1,0,0:0:0:0:
64,192,10920,1,0,0:0:0:0:
448,192,11063,1,0,0:0:0:0:
448,192,11206,1,0,0:0:0:0:
320,192,11206,1,0,0:0:0:0:
192,192,11206,1,0,0:0:0:0:
192,192,11348,1,0,0:0:0:0:
320,192,11491,1,0,0:0:0:0:
64,192,11634,1,0,0:0:0:0:
192,192,11634,1,0,0:0:0:0:
448,192,11777,1,0,0:0:0:0:
320,192,11848,1,0,0:0:0:0:
64,192,11920,1,0,0:0:0:0:
448,192,11920,1,0,0:0:0:0:
320,192,12063,1,0,0:0:0:0:
192,192,12063,1,0,0:0:0:0:
64,192,12063,1,0,0:0:0:0:
192,192,12206,1,0,0:0:0:0:
448,192,12348,1,0,0:0:0:0:
448,192,12491,1,0,0:0:0:0:
320,192,12491,1,0,0:0:0:0:
64,192,12491,1,0,0:0:0:0:
320,192,12634,1,0,0:0:0:0:
192,192,12777,1,0,0:0:0:0:
448,192,12777,1,0,0:0:0:0:
64,192,12777,1,0,0:0:0:0:
64,192,12920,1,0,0:0:0:0:
320,192,12920,1,0,0:0:0:0:
448,192,12920,1,0,0:0:0:0:
320,192,13063,1,0,0:0:0:0:
192,192,13206,1,0,0:0:0:0:
192,192,13348,1,0,0:0:0:0:
64,192,13348,1,0,0:0:0:0:
320,192,13348,1,0,0:0:0:0:
448,192,13491,1,0,0:0:0:0:
448,192,13634,1,0,0:0:0:0:
320,192,13634,1,0,0:0:0:0:
64,192,13634,1,0,0:0:0:0:
64,192,13777,1,0,0:0:0:0:
192,192,13777,1,0,0:0:0:0:
320,192,13777,1,0,0:0:0:0:
192,192,13920,128,0,13991:0:0:0:0:
320,192,14063,128,0,14134:0:0:0:0:
64,192,14206,1,0,0:0:0:0:
192,192,14206,1,0,0:0:0:0:
448,192,14206,1,0,0:0:0:0:
448,192,14348,1,0,0:0:0:0:
320,192,14348,1,0,0:0:0:0:
192,192,14491,1,0,0:0:0:0:
448,192,14491,1,0,0:0:0:0:
64,192,14634,1,0,0:0:0:0:
320,192,14634,1,0,0:0:0:0:
64,192,14777,1,0,0:0:0:0:
192,192,14777,1,0,0:0:0:0:
64,192,14920,1,0,0:0:0:0:
320,192,14920,1,0,0:0:0:0:
448,192,15063,1,0,0:0:0:0:
192,192,15063,1,0,0:0:0:0:
448,192,15206,1,0,0:0:0:0:
320,192,15206,1,0,0:0:0:0:
448,192,15348,1,0,0:0:0:0:
192,192,15348,1,0,0:0:0:0:
192,192,15491,128,0,15920:0:0:0:0:
64,192,15491,128,0,15920:0:0:0:0:
320,192,15491,128,0,15848:0:0:0:0:
320,192,15920,1,0,0:0:0:0:
448,192,15920,1,0,0:0:0:0:
192,192,16063,1,0,0:0:0:0:
192,192,16206,1,0,0:0:0:0:
320,192,16348,1,0,0:0:0:0:
64,192,16348,128,0,16777:0:0:0:0:
448,192,16348,128,0,16777:0:0:0:0:
192,192,16777,1,0,0:0:0:0:
320,192,16777,1,0,0:0:0:0:
320,192,16920,1,0,0:0:0:0:
64,192,17063,1,0,0:0:0:0:
64,192,17206,1,0,0:0:0:0:
192,192,17206,1,0,0:0:0:0:
448,192,17206,1,0,0:0:0:0:
320,192,17491,1,0,0:0:0:0:
448,192,17491,1,0,0:0:0:0:
320,192,17634,1,0,0:0:0:0:
192,192,17634,1,0,0:0:0:0:
192,192,17777,1,0,0:0:0:0:
64,192,17920,1,0,0:0:0:0:
64,192,18063,1,0,0:0:0:0:
320,192,18063,1,0,0:0:0:0:
448,192,18063,1,0,0:0:0:0:
320,192,18348,1,0,0:0:0:0:
320,192,18491,1,0,0:0:0:0:
64,192,18491,1,0,0:0:0:0:
192,192,18634,1,0,0:0:0:0:
192,192,18777,1,0,0:0:0:0:
448,192,18777,1,0,0:0:0:0:
448,192,18920,1,0,0:0:0:0:
320,192,18920,1,0,0:0:0:0:
64,192,18920,1,0,0:0:0:0:
320,192,19063,1,0,0:0:0:0:
192,192,19206,1,0,0:0:0:0:
64,192,19348,1,0,0:0:0:0:
192,192,19348,1,0,0:0:0:0:
320,192,19491,1,0,0:0:0:0:
320,192,19634,1,0,0:0:0:0:
192,192,19777,1,0,0:0:0:0:
64,192,19777,128,0,20206:0:0:0:0:
448,192,19777,128,0,20206:0:0:0:0:
320,192,20206,1,0,0:0:0:0:
192,192,20206,1,0,0:0:0:0:
320,192,20348,1,0,0:0:0:0:
64,192,20491,1,0,0:0:0:0:
192,192,20634,1,0,0:0:0:0:
64,192,20634,1,0,0:0:0:0:
448,192,20634,1,0,0:0:0:0:
448,192,20777,128,0,20848:0:0:0:0:
320,192,20777,128,0,20848:0:0:0:0:
320,192,20920,128,0,20991:0:0:0:0:
192,192,20920,128,0,20991:0:0:0:0:
192,192,21063,1,0,0:0:0:0:
64,192,21063,1,0,0:0:0:0:
64,192,21491,1,0,0:0:0:0:
192,192,21491,1,0,0:0:0:0:
448,192,21491,1,0,0:0:0:0:
192,192,21634,1,0,0:0:0:0:
320,192,21777,1,0,0:0:0:0:
64,192,21920,1,0,0:0:0:0:
448,192,21920,1,0,0:0:0:0:
192,192,22206,128,0,22348:0:0:0:0:
320,192,22206,1,0,0:0:0:0:
320,192,22348,128,0,22777:0:0:0:0:
448,192,22348,128,0,22777:0:0:0:0:
64,192,22348,1,0,0:0:0:0:
64,192,22777,1,0,0:0:0:0:
192,192,22777,1,0,0:0:0:0:
320,192,22920,1,0,0:0:0:0:
320,192,23063,1,0,0:0:0:0:
448,192,23206,1,0,0:0:0:0:
192,192,23206,128,0,23634:0:0:0:0:
64,192,23206,128,0,23634:0:0:0:0:
320,192,23634,1,0,0:0:0:0:
448,192,23634,1,0,0:0:0:0:
192,192,23777,1,0,0:0:0:0:
64,192,23920,1,0,0:0:0:0:
64,192,24063,1,0,0:0:0:0:
192,192,24063,1,0,0:0:0:0:
448,192,24063,1,0,0:0:0:0:
192,192,24348,1,0,0:0:0:0:
320,192,24348,1,0,0:0:0:0:
192,192,24491,1,0,0:0:0:0:
64,192,24491,1,0,0:0:0:0:
448,192,24634,1,0,0:0:0:0:
320,192,24777,1,0,0:0:0:0:
448,192,24920,1,0,0:0:0:0:
320,192,24920,1,0,0:0:0:0:
64,192,24920,1,0,0:0:0:0:
192,192,25206,1,0,0:0:0:0:
320,192,25206,1,0,0:0:0:0:
448,192,25348,1,0,0:0:0:0:
320,192,25348,1,0,0:0:0:0:
448,192,25491,1,0,0:0:0:0:
192,192,25634,1,0,0:0:0:0:
64,192,25634,1,0,0:0:0:0:
192,192,25777,1,0,0:0:0:0:
320,192,25777,1,0,0:0:0:0:
448,192,25777,1,0,0:0:0:0:
64,192,25920,1,0,0:0:0:0:
64,192,26063,1,0,0:0:0:0:
320,192,26206,1,0,0:0:0:0:
448,192,26206,1,0,0:0:0:0:
192,192,26348,1,0,0:0:0:0:
192,192,26491,1,0,0:0:0:0:
64,192,26634,1,0,0:0:0:0:
320,192,26634,128,0,27063:0:0:0:0:
448,192,26634,128,0,27063:0:0:0:0:
192,192,27063,1,0,0:0:0:0:
64,192,27063,1,0,0:0:0:0:
192,192,27206,1,0,0:0:0:0:
448,192,27348,1,0,0:0:0:0:
448,192,27491,1,0,0:0:0:0:
320,192,27491,1,0,0:0:0:0:
64,192,27491,1,0,0:0:0:0:
64,192,27634,128,0,27706:0:0:0:0:
192,192,27634,128,0,27706:0:0:0:0:
192,192,27777,128,0,27848:0:0:0:0:
320,192,27777,128,0,27848:0:0:0:0:
448,192,27920,1,0,0:0:0:0:
320,192,27920,1,0,0:0:0:0:
192,192,28206,1,0,0:0:0:0:
64,192,28348,1,0,0:0:0:0:
192,192,28348,1,0,0:0:0:0:
320,192,28348,1,0,0:0:0:0:
320,192,28491,1,0,0:0:0:0:
448,192,28634,1,0,0:0:0:0:
64,192,28777,1,0,0:0:0:0:
448,192,28777,1,0,0:0:0:0:
192,192,29063,1,0,0:0:0:0:
320,192,29063,128,0,29206:0:0:0:0:
192,192,29206,128,0,29634:0:0:0:0:
64,192,29206,128,0,29634:0:0:0:0:
448,192,29206,1,0,0:0:0:0:
320,192,29634,1,0,0:0:0:0:
448,192,29634,128,0,29706:0:0:0:0:
320,192,29777,1,0,0:0:0:0:
192,192,29920,128,0,29991:0:0:0:0:
64,192,30063,128,0,30491:0:0:0:0:
448,192,30063,128,0,30491:0:0:0:0:
320,192,30063,1,0,0:0:0:0:
320,192,30206,128,0,30277:0:0:0:0:
192,192,30348,1,0,0:0:0:0:
320,192,30491,1,0,0:0:0:0:
192,192,30491,128,0,30563:0:0:0:0:
448,192,30634,1,0,0:0:0:0:
64,192,30777,1,0,0:0:0:0:
192,192,30920,1,0,0:0:0:0:
64,192,30920,1,0,0:0:0:0:
448,192,30920,1,0,0:0:0:0:
320,192,31063,1,0,0:0:0:0:
192,192,31206,1,0,0:0:0:0:
320,192,31206,1,0,0:0:0:0:
192,192,31348,1,0,0:0:0:0:
448,192,31348,1,0,0:0:0:0:
64,192,31491,1,0,0:0:0:0:
320,192,31634,1,0,0:0:0:0:
320,192,31777,1,0,0:0:0:0:
448,192,31777,1,0,0:0:0:0:
192,192,31777,1,0,0:0:0:0:
64,192,31920,1,0,0:0:0:0:
448,192,32063,1,0,0:0:0:0:
448,192,32206,1,0,0:0:0:0:
192,192,32206,1,0,0:0:0:0:
320,192,32348,1,0,0:0:0:0:
64,192,32491,1,0,0:0:0:0:
320,192,32491,1,0,0:0:0:0:
64,192,32634,1,0,0:0:0:0:
192,192,32634,1,0,0:0:0:0:
448,192,32634,1,0,0:0:0:0:
192,192,32777,1,0,0:0:0:0:
448,192,32920,1,0,0:0:0:0:
64,192,33063,1,0,0:0:0:0:
448,192,33063,1,0,0:0:0:0:
320,192,33206,1,0,0:0:0:0:
320,192,33348,1,0,0:0:0:0:
64,192,33491,1,0,0:0:0:0:
448,192,33491,128,0,33920:0:0:0:0:
192,192,33491,128,0,33920:0:0:0:0:
320,192,33634,1,0,0:0:0:0:
64,192,33777,1,0,0:0:0:0:
64,192,33920,1,0,0:0:0:0:
320,192,33920,1,0,0:0:0:0:
192,192,34063,1,0,0:0:0:0:
448,192,34206,1,0,0:0:0:0:
448,192,34348,1,0,0:0:0:0:
320,192,34348,1,0,0:0:0:0:
64,192,34348,1,0,0:0:0:0:
64,192,34491,128,0,34563:0:0:0:0:
192,192,34491,128,0,34563:0:0:0:0:
192,192,34634,128,0,34706:0:0:0:0:
320,192,34634,128,0,34706:0:0:0:0:
320,192,34777,1,0,0:0:0:0:
448,192,34777,1,0,0:0:0:0:
448,192,34920,1,0,0:0:0:0:
192,192,35063,1,0,0:0:0:0:
192,192,35206,1,0,0:0:0:0:
320,192,35206,1,0,0:0:0:0:
64,192,35206,1,0,0:0:0:0:
320,192,35348,1,0,0:0:0:0:
64,192,35491,1,0,0:0:0:0:
64,192,35634,1,0,0:0:0:0:
448,192,35634,1,0,0:0:0:0:
320,192,35777,1,0,0:0:0:0:
448,192,35848,1,0,0:0:0:0:
64,192,35920,128,0,36063:0:0:0:0:
192,192,35920,1,0,0:0:0:0:
192,192,36063,128,0,36491:0:0:0:0:
320,192,36063,128,0,36491:0:0:0:0:
64,192,36206,1,0,0:0:0:0:
448,192,36348,1,0,0:0:0:0:
64,192,36491,1,0,0:0:0:0:
448,192,36491,1,0,0:0:0:0:
192,192,36634,1,0,0:0:0:0:
192,192,36777,1,0,0:0:0:0:
448,192,36920,1,0,0:0:0:0:
64,192,36920,128,0,37348:0:0:0:0:
320,192,36920,128,0,37348:0:0:0:0:
192,192,37063,1,0,0:0:0:0:
448,192,37206,1,0,0:0:0:0:
448,192,37348,1,0,0:0:0:0:
192,192,37348,1,0,0:0:0:0:
320,192,37491,1,0,0:0:0:0:
64,192,37634,1,0,0:0:0:0:
64,192,37777,1,0,0:0:0:0:
192,192,37777,1,0,0:0:0:0:
448,192,37777,1,0,0:0:0:0:
192,192,37920,1,0,0:0:0:0:
320,192,38063,1,0,0:0:0:0:
320,192,38206,1,0,0:0:0:0:
64,192,38206,1,0,0:0:0:0:
448,192,38348,1,0,0:0:0:0:
448,192,38491,1,0,0:0:0:0:
64,192,38634,1,0,0:0:0:0:
192,192,38634,1,0,0:0:0:0:
320,192,38634,1,0,0:0:0:0:
192,192,38777,1,0,0:0:0:0:
320,192,38920,1,0,0:0:0:0:
64,192,39063,1,0,0:0:0:0:
320,192,39063,1,0,0:0:0:0:
192,192,39206,1,0,0:0:0:0:
448,192,39277,1,0,0:0:0:0:
320,192,39348,1,0,0:0:0:0:
64,192,39348,1,0,0:0:0:0:
64,192,39491,1,0,0:0:0:0:
192,192,39491,1,0,0:0:0:0:
448,192,39491,1,0,0:0:0:0:
448,192,39634,1,0,0:0:0:0:
192,192,39777,1,0,0:0:0:0:
320,192,39920,1,0,0:0:0:0:
448,192,39920,1,0,0:0:0:0:
64,192,40063,1,0,0:0:0:0:
64,192,40206,1,0,0:0:0:0:
192,192,40348,128,0,40777:0:0:0:0:
448,192,40348,128,0,40777:0:0:0:0:
320,192,40348,1,0,0:0:0:0:
64,192,40491,1,0,0:0:0:0:
320,192,40634,1,0,0:0:0:0:
320,192,40777,1,0,0:0:0:0:
64,192,40777,1,0,0:0:0:0:
192,192,40920,1,0,0:0:0:0:
448,192,41063,1,0,0:0:0:0:
448,192,41206,1,0,0:0:0:0:
320,192,41206,1,0,0:0:0:0:
64,192,41206,1,0,0:0:0:0:
192,192,41348,128,0,41420:0:0:0:0:
320,192,41348,128,0,41420:0:0:0:0:
192,192,41491,128,0,41563:0:0:0:0:
64,192,41491,128,0,41563:0:0:0:0:
64,192,41634,1,0,0:0:0:0:
448,192,41634,1,0,0:0:0:0:
320,192,41777,1,0,0:0:0:0:
320,192,41920,1,0,0:0:0:0:
448,192,42063,1,0,0:0:0:0:
192,192,42063,1,0,0:0:0:0:
64,192,42063,1,0,0:0:0:0:
192,192,42206,1,0,0:0:0:0:
448,192,42348,1,0,0:0:0:0:
448,192,42491,1,0,0:0:0:0:
64,192,42491,1,0,0:0:0:0:
320,192,42634,1,0,0:0:0:0:
192,192,42706,1,0,0:0:0:0:
64,192,42777,1,0,0:0:0:0:
448,192,42777,1,0,0:0:0:0:
64,192,42920,1,0,0:0:0:0:
320,192,42920,1,0,0:0:0:0:
448,192,42920,1,0,0:0:0:0:
192,192,42991,1,0,0:0:0:0:
320,192,43063,1,0,0:0:0:0:
448,192,43134,1,0,0:0:0:0:
192,192,43206,1,0,0:0:0:0:
320,192,43277,1,0,0:0:0:0:
64,192,43348,1,0,0:0:0:0:
192,192,43348,1,0,0:0:0:0:
448,192,43348,128,0,43420:0:0:0:0:
64,192,43491,1,0,0:0:0:0:
320,192,43634,128,0,43706:0:0:0:0:
192,192,43777,1,0,0:0:0:0:
448,192,43777,128,0,46206:0:0:0:0:
320,192,43777,128,0,44206:0:0:0:0:
192,192,43920,128,0,43991:0:0:0:0:
64,192,44063,1,0,0:0:0:0:
192,192,44206,1,0,0:0:0:0:
64,192,44206,128,0,44277:0:0:0:0:
320,192,44348,1,0,0:0:0:0:
192,192,44491,1,0,0:0:0:0:
192,192,44634,1,0,0:0:0:0:
320,192,44634,1,0,0:0:0:0:
64,192,44634,1,0,0:0:0:0:
64,192,44777,1,0,0:0:0:0:
320,192,44920,1,0,0:0:0:0:
192,192,45063,1,0,0:0:0:0:
320,192,45063,1,0,0:0:0:0:
64,192,45206,1,0,0:0:0:0:
192,192,45348,1,0,0:0:0:0:
64,192,45491,1,0,0:0:0:0:
192,192,45491,1,0,0:0:0:0:
320,192,45491,1,0,0:0:0:0:
64,192,45634,1,0,0:0:0:0:
320,192,45777,1,0,0:0:0:0:
64,192,45920,1,0,0:0:0:0:
192,192,45920,1,0,0:0:0:0:
192,192,46063,1,0,0:0:0:0:
320,192,46134,1,0,0:0:0:0:
64,192,46206,128,0,46491:0:0:0:0:
192,192,46348,1,0,0:0:0:0:
320,192,46348,1,0,0:0:0:0:
448,192,46348,1,0,0:0:0:0:
192,192,46491,128,0,46777:0:0:0:0:
448,192,46491,1,0,0:0:0:0:
64,192,46634,1,0,0:0:0:0:
320,192,46777,128,0,47348:0:0:0:0:
64,192,46777,1,0,0:0:0:0:
192,192,46920,1,0,0:0:0:0:
448,192,47063,1,0,0:0:0:0:
64,192,47206,1,0,0:0:0:0:
448,192,47206,128,0,47634:0:0:0:0:
192,192,47206,128,0,47634:0:0:0:0:
64,192,47348,128,0,47491:0:0:0:0:
320,192,47491,128,0,47634:0:0:0:0:
64,192,47634,128,0,49920:0:0:0:0:
320,192,47777,1,0,0:0:0:0:
448,192,47920,1,0,0:0:0:0:
448,192,48063,1,0,0:0:0:0:
192,192,48063,1,0,0:0:0:0:
320,192,48063,1,0,0:0:0:0:
192,192,48206,128,0,48277:0:0:0:0:
320,192,48348,128,0,48420:0:0:0:0:
192,192,48491,1,0,0:0:0:0:
320,192,48491,1,0,0:0:0:0:
448,192,48634,1,0,0:0:0:0:
192,192,48777,1,0,0:0:0:0:
320,192,48920,1,0,0:0:0:0:
192,192,48920,1,0,0:0:0:0:
448,192,48920,1,0,0:0:0:0:
320,192,49063,1,0,0:0:0:0:
448,192,49206,1,0,0:0:0:0:
192,192,49348,1,0,0:0:0:0:
448,192,49348,1,0,0:0:0:0:
192,192,49491,1,0,0:0:0:0:
320,192,49563,1,0,0:0:0:0:
448,192,49634,128,0,50206:0:0:0:0:
320,192,49777,128,0,50206:0:0:0:0:
192,192,49777,1,0,0:0:0:0:
192,192,49920,128,0,50063:0:0:0:0:
64,192,50063,128,0,50206:0:0:0:0:
192,192,50206,128,0,51063:0:0:0:0:
320,192,50348,1,0,0:0:0:0:
448,192,50491,128,0,50563:0:0:0:0:
448,192,50634,1,0,0:0:0:0:
320,192,50634,1,0,0:0:0:0:
64,192,50634,128,0,51063:0:0:0:0:
320,192,50777,128,0,50920:0:0:0:0:
448,192,50920,128,0,51063:0:0:0:0:
320,192,51063,128,0,53348:0:0:0:0:
192,192,51206,1,0,0:0:0:0:
64,192,51348,1,0,0:0:0:0:
64,192,51491,1,0,0:0:0:0:
192,192,51491,1,0,0:0:0:0:
448,192,51491,1,0,0:0:0:0:
192,192,51634,1,0,0:0:0:0:
448,192,51777,1,0,0:0:0:0:
192,192,51920,1,0,0:0:0:0:
64,192,51920,1,0,0:0:0:0:
64,192,52063,1,0,0:0:0:0:
448,192,52206,1,0,0:0:0:0:
64,192,52348,1,0,0:0:0:0:
192,192,52348,1,0,0:0:0:0:
448,192,52348,1,0,0:0:0:0:
192,192,52491,1,0,0:0:0:0:
448,192,52634,1,0,0:0:0:0:
448,192,52777,1,0,0:0:0:0:
64,192,52777,1,0,0:0:0:0:
64,192,52920,1,0,0:0:0:0:
192,192,52991,1,0,0:0:0:0:
448,192,53063,1,0,0:0:0:0:
448,192,53206,1,0,0:0:0:0:
192,192,53206,1,0,0:0:0:0:
64,192,53206,1,0,0:0:0:0:
192,192,53348,128,0,53491:0:0:0:0:
64,192,53348,1,0,0:0:0:0:
448,192,53491,128,0,53634:0:0:0:0:
320,192,53491,1,0,0:0:0:0:
64,192,53634,128,0,54206:0:0:0:0:
320,192,53634,1,0,0:0:0:0:
192,192,53777,1,0,0:0:0:0:
448,192,53920,1,0,0:0:0:0:
448,192,54063,128,0,54491:0:0:0:0:
192,192,54063,128,0,54491:0:0:0:0:
320,192,54063,1,0,0:0:0:0:
320,192,54206,128,0,54348:0:0:0:0:
64,192,54348,128,0,54491:0:0:0:0:
320,192,54491,128,0,56777:0:0:0:0:
192,192,54634,1,0,0:0:0:0:
448,192,54777,1,0,0:0:0:0:
448,192,54920,1,0,0:0:0:0:
192,192,54920,1,0,0:0:0:0:
64,192,54920,1,0,0:0:0:0:
192,192,55063,128,0,55134:0:0:0:0:
64,192,55206,128,0,55277:0:0:0:0:
64,192,55348,1,0,0:0:0:0:
448,192,55348,1,0,0:0:0:0:
448,192,55491,1,0,0:0:0:0:
192,192,55634,1,0,0:0:0:0:
192,192,55777,1,0,0:0:0:0:
64,192,55777,1,0,0:0:0:0:
448,192,55777,1,0,0:0:0:0:
64,192,55920,1,0,0:0:0:0:
192,192,56063,1,0,0:0:0:0:
448,192,56206,1,0,0:0:0:0:
64,192,56206,1,0,0:0:0:0:
448,192,56348,1,0,0:0:0:0:
192,192,56491,128,0,57063:0:0:0:0:
448,192,56634,128,0,57063:0:0:0:0:
64,192,56634,1,0,0:0:0:0:
64,192,56777,128,0,56920:0:0:0:0:
320,192,56920,128,0,57063:0:0:0:0:
64,192,57063,128,0,57634:0:0:0:0:
448,192,57206,1,0,0:0:0:0:
320,192,57348,128,0,57420:0:0:0:0:
448,192,57491,1,0,0:0:0:0:
192,192,57491,128,0,57920:0:0:0:0:
320,192,57491,128,0,57920:0:0:0:0:
448,192,57634,128,0,57777:0:0:0:0:
64,192,57777,128,0,57920:0:0:0:0:
448,192,57920,128,0,60063:0:0:0:0:
192,192,58063,1,0,0:0:0:0:
320,192,58206,1,0,0:0:0:0:
64,192,58348,1,0,0:0:0:0:
320,192,58348,1,0,0:0:0:0:
192,192,58348,1,0,0:0:0:0:
64,192,58491,1,0,0:0:0:0:
192,192,58634,1,0,0:0:0:0:
192,192,58777,1,0,0:0:0:0:
320,192,58777,1,0,0:0:0:0:
320,192,58920,1,0,0:0:0:0:
64,192,59063,1,0,0:0:0:0:
64,192,59206,1,0,0:0:0:0:
320,192,59206,1,0,0:0:0:0:
192,192,59206,1,0,0:0:0:0:
192,192,59348,1,0,0:0:0:0:
320,192,59491,1,0,0:0:0:0:
64,192,59634,1,0,0:0:0:0:
192,192,59634,1,0,0:0:0:0:
64,192,59777,1,0,0:0:0:0:
320,192,59848,1,0,0:0:0:0:
192,192,59920,1,0,0:0:0:0:
320,192,60063,1,0,0:0:0:0:
192,192,60063,1,0,0:0:0:0:
64,192,60063,128,0,60206:0:0:0:0:
320,192,60206,128,0,60348:0:0:0:0:
448,192,60206,1,0,0:0:0:0:
192,192,60348,128,0,60491:0:0:0:0:
448,192,60348,1,0,0:0:0:0:
64,192,60491,128,0,61920:0:0:0:0:
320,192,60491,1,0,0:0:0:0:
448,192,60634,1,0,0:0:0:0:
192,192,60777,1,0,0:0:0:0:
192,192,60920,128,0,61348:0:0:0:0:
320,192,60920,1,0,0:0:0:0:
448,192,60920,1,0,0:0:0:0:
448,192,61063,1,0,0:0:0:0:
320,192,61206,1,0,0:0:0:0:
320,192,61348,1,0,0:0:0:0:
448,192,61348,1,0,0:0:0:0:
448,192,61491,1,0,0:0:0:0:
192,192,61634,1,0,0:0:0:0:
448,192,61777,1,0,0:0:0:0:
320,192,61777,1,0,0:0:0:0:
192,192,61777,1,0,0:0:0:0:
320,192,61920,128,0,62063:0:0:0:0:
448,192,61920,1,0,0:0:0:0:
192,192,62063,128,0,62206:0:0:0:0:
64,192,62063,1,0,0:0:0:0:
448,192,62206,128,0,63063:0:0:0:0:
64,192,62206,1,0,0:0:0:0:
320,192,62348,1,0,0:0:0:0:
192,192,62491,1,0,0:0:0:0:
64,192,62634,1,0,0:0:0:0:
192,192,62634,1,0,0:0:0:0:
320,192,62634,1,0,0:0:0:0:
64,192,62777,1,0,0:0:0:0:
320,192,62920,1,0,0:0:0:0:
192,192,63063,128,0,63634:0:0:0:0:
320,192,63063,1,0,0:0:0:0:
448,192,63206,1,0,0:0:0:0:
320,192,63277,1,0,0:0:0:0:
64,192,63348,128,0,63491:0:0:0:0:
320,192,63491,128,0,63920:0:0:0:0:
448,192,63491,128,0,63920:0:0:0:0:
64,192,63634,128,0,63777:0:0:0:0:
192,192,63777,128,0,63920:0:0:0:0:
64,192,63920,128,0,66491:0:0:0:0:
448,192,64063,1,0,0:0:0:0:
320,192,64206,128,0,64277:0:0:0:0:
192,192,64348,1,0,0:0:0:0:
320,192,64348,1,0,0:0:0:0:
448,192,64348,128,0,64777:0:0:0:0:
192,192,64491,1,0,0:0:0:0:
320,192,64634,1,0,0:0:0:0:
192,192,64777,1,0,0:0:0:0:
320,192,64777,1,0,0:0:0:0:
448,192,64920,1,0,0:0:0:0:
192,192,65063,1,0,0:0:0:0:
192,192,65206,1,0,0:0:0:0:
320,192,65206,1,0,0:0:0:0:
448,192,65206,1,0,0:0:0:0:
320,192,65348,1,0,0:0:0:0:
448,192,65491,1,0,0:0:0:0:
192,192,65634,1,0,0:0:0:0:
448,192,65634,1,0,0:0:0:0:
192,192,65777,1,0,0:0:0:0:
320,192,65920,1,0,0:0:0:0:
192,192,66063,1,0,0:0:0:0:
448,192,66063,1,0,0:0:0:0:
320,192,66063,1,0,0:0:0:0:
448,192,66206,1,0,0:0:0:0:
192,192,66348,1,0,0:0:0:0:
192,192,66491,1,0,0:0:0:0:
320,192,66491,128,0,67348:0:0:0:0:
64,192,66634,1,0,0:0:0:0:
192,192,66706,1,0,0:0:0:0:
448,192,66777,1,0,0:0:0:0:
64,192,66920,1,0,0:0:0:0:
192,192,66920,1,0,0:0:0:0:
448,192,66920,1,0,0:0:0:0:
64,192,67063,1,0,0:0:0:0:
192,192,67206,1,0,0:0:0:0:
448,192,67348,1,0,0:0:0:0:
192,192,67348,128,0,70634:0:0:0:0:
448,192,67634,128,0,70777:0:0:0:0:
64,192,68206,128,0,70634:0:0:0:0:
320,192,69920,128,0,70777:0:0:0:0:
192,192,70777,128,0,70848:0:0:0:0:
64,192,70777,1,0,0:0:0:0:
448,192,71063,1,0,0:0:0:0:
64,192,71348,1,0,0:0:0:0:
320,192,71634,1,0,0:0:0:0:
192,192,71920,1,0,0:0:0:0:
448,192,72206,1,0,0:0:0:0:
320,192,72206,128,0,72277:0:0:0:0:
192,192,72348,128,0,72420:0:0:0:0:
448,192,72491,1,0,0:0:0:0:
64,192,72491,128,0,72563:0:0:0:0:
320,192,72777,1,0,0:0:0:0:
64,192,73063,1,0,0:0:0:0:
448,192,73348,1,0,0:0:0:0:
192,192,73634,1,0,0:0:0:0:
320,192,73920,1,0,0:0:0:0:
64,192,73920,128,0,73991:0:0:0:0:
448,192,74063,128,0,74134:0:0:0:0:
64,192,74206,1,0,0:0:0:0:
192,192,74206,128,0,74277:0:0:0:0:
448,192,74491,1,0,0:0:0:0:
320,192,74777,1,0,0:0:0:0:
64,192,75063,1,0,0:0:0:0:
448,192,75348,1,0,0:0:0:0:
192,192,75634,1,0,0:0:0:0:
320,192,75634,128,0,75706:0:0:0:0:
64,192,75777,128,0,75848:0:0:0:0:
320,192,75920,1,0,0:0:0:0:
448,192,75920,128,0,75991:0:0:0:0:
192,192,76206,1,0,0:0:0:0:
64,192,76491,1,0,0:0:0:0:
448,192,76777,1,0,0:0:0:0:
192,192,77063,1,0,0:0:0:0:
64,192,77348,1,0,0:0:0:0:
320,192,77348,128,0,77420:0:0:0:0:
448,192,77491,128,0,77563:0:0:0:0:
192,192,77634,1,0,0:0:0:0:
64,192,77634,128,0,77706:0:0:0:0:
320,192,77920,1,0,0:0:0:0:
192,192,78206,1,0,0:0:0:0:
448,192,78491,1,0,0:0:0:0:
64,192,78777,1,0,0:0:0:0:
448,192,79063,1,0,0:0:0:0:
320,192,79063,128,0,79134:0:0:0:0:
64,192,79206,128,0,79277:0:0:0:0:
448,192,79348,1,0,0:0:0:0:
192,192,79348,128,0,79420:0:0:0:0:
320,192,79634,128,0,79920:0:0:0:0:
192,192,79777,1,0,0:0:0:0:
448,192,79920,128,0,80206:0:0:0:0:
320,192,80063,1,0,0:0:0:0:
64,192,80206,128,0,80491:0:0:0:0:
448,192,80348,1,0,0:0:0:0:
192,192,80491,128,0,80777:0:0:0:0:
320,192,80634,1,0,0:0:0:0:
448,192,80777,128,0,81063:0:0:0:0:
64,192,80777,128,0,80848:0:0:0:0:
320,192,80920,128,0,80991:0:0:0:0:
64,192,81063,128,0,82777:0:0:0:0:
192,192,81063,128,0,81348:0:0:0:0:
448,192,81348,128,0,81634:0:0:0:0:
320,192,81634,128,0,81920:0:0:0:0:
192,192,81920,128,0,82206:0:0:0:0:
448,192,82206,128,0,82491:0:0:0:0:
192,192,82491,128,0,82563:0:0:0:0:
320,192,82634,128,0,82706:0:0:0:0:
448,192,82777,128,0,83634:0:0:0:0:
192,192,82777,128,0,83063:0:0:0:0:
320,192,83063,128,0,83348:0:0:0:0:
64,192,83348,128,0,83634:0:0:0:0:
320,192,83634,128,0,84491:0:0:0:0:
192,192,83634,128,0,83920:0:0:0:0:
448,192,83920,128,0,84206:0:0:0:0:
192,192,84206,128,0,84491:0:0:0:0:
64,192,84206,128,0,84277:0:0:0:0:
448,192,84348,128,0,84420:0:0:0:0:
448,192,84491,1,0,0:0:0:0:
64,192,84491,128,0,84563:0:0:0:0:
320,192,84634,1,0,0:0:0:0:
192,192,84777,1,0,0:0:0:0:
192,192,84920,1,0,0:0:0:0:
448,192,84920,1,0,0:0:0:0:
320,192,85063,1,0,0:0:0:0:
64,192,85206,1,0,0:0:0:0:
192,192,85348,1,0,0:0:0:0:
64,192,85348,1,0,0:0:0:0:
448,192,85491,1,0,0:0:0:0:
320,192,85634,1,0,0:0:0:0:
320,192,85777,1,0,0:0:0:0:
192,192,85777,1,0,0:0:0:0:
192,192,85920,128,0,85991:0:0:0:0:
64,192,86063,128,0,86134:0:0:0:0:
64,192,86206,1,0,0:0:0:0:
448,192,86206,128,0,86277:0:0:0:0:
448,192,86348,1,0,0:0:0:0:
192,192,86491,1,0,0:0:0:0:
192,192,86634,1,0,0:0:0:0:
320,192,86634,1,0,0:0:0:0:
320,192,86777,1,0,0:0:0:0:
448,192,86920,1,0,0:0:0:0:
64,192,87063,1,0,0:0:0:0:
192,192,87063,1,0,0:0:0:0:
320,192,87206,1,0,0:0:0:0:
448,192,87277,1,0,0:0:0:0:
192,192,87348,1,0,0:0:0:0:
320,192,87491,1,0,0:0:0:0:
192,192,87491,1,0,0:0:0:0:
448,192,87634,128,0,87706:0:0:0:0:
64,192,87777,128,0,87848:0:0:0:0:
64,192,87920,1,0,0:0:0:0:
320,192,87920,128,0,87991:0:0:0:0:
320,192,88063,1,0,0:0:0:0:
448,192,88206,1,0,0:0:0:0:
448,192,88348,1,0,0:0:0:0:
192,192,88348,1,0,0:0:0:0:
320,192,88491,1,0,0:0:0:0:
320,192,88634,1,0,0:0:0:0:
64,192,88777,1,0,0:0:0:0:
192,192,88777,1,0,0:0:0:0:
448,192,88848,1,0,0:0:0:0:
64,192,88920,1,0,0:0:0:0:
448,192,89063,128,0,89134:0:0:0:0:
448,192,89206,1,0,0:0:0:0:
192,192,89206,1,0,0:0:0:0:
192,192,89348,128,0,89420:0:0:0:0:
320,192,89491,128,0,89563:0:0:0:0:
64,192,89634,1,0,0:0:0:0:
320,192,89634,128,0,89706:0:0:0:0:
448,192,89777,1,0,0:0:0:0:
192,192,89920,1,0,0:0:0:0:
192,192,90063,1,0,0:0:0:0:
448,192,90063,1,0,0:0:0:0:
320,192,90206,1,0,0:0:0:0:
320,192,90348,1,0,0:0:0:0:
64,192,90491,1,0,0:0:0:0:
192,192,90491,1,0,0:0:0:0:
64,192,90634,1,0,0:0:0:0:
320,192,90706,1,0,0:0:0:0:
448,192,90777,1,0,0:0:0:0:
64,192,90920,1,0,0:0:0:0:
448,192,90920,1,0,0:0:0:0:
192,192,91063,128,0,91134:0:0:0:0:
320,192,91206,128,0,91277:0:0:0:0:
320,192,91348,1,0,0:0:0:0:
64,192,91348,128,0,91420:0:0:0:0:
192,192,91491,1,0,0:0:0:0:
448,192,91634,1,0,0:0:0:0:
448,192,91777,1,0,0:0:0:0:
64,192,91777,1,0,0:0:0:0:
320,192,91920,1,0,0:0:0:0:
192,192,92063,1,0,0:0:0:0:
192,192,92206,1,0,0:0:0:0:
64,192,92206,1,0,0:0:0:0:
448,192,92348,1,0,0:0:0:0:
448,192,92491,1,0,0:0:0:0:
64,192,92634,1,0,0:0:0:0:
192,192,92634,1,0,0:0:0:0:
192,192,92777,128,0,92848:0:0:0:0:
320,192,92920,128,0,92991:0:0:0:0:
64,192,93063,1,0,0:0:0:0:
448,192,93063,128,0,93134:0:0:0:0:
448,192,93206,1,0,0:0:0:0:
320,192,93348,1,0,0:0:0:0:
320,192,93491,1,0,0:0:0:0:
192,192,93491,1,0,0:0:0:0:
64,192,93634,1,0,0:0:0:0:
64,192,93777,1,0,0:0:0:0:
320,192,93920,1,0,0:0:0:0:
448,192,93920,1,0,0:0:0:0:
192,192,94063,1,0,0:0:0:0:
320,192,94134,1,0,0:0:0:0:
448,192,94206,1,0,0:0:0:0:
192,192,94348,1,0,0:0:0:0:
64,192,94348,1,0,0:0:0:0:
192,192,94491,128,0,94563:0:0:0:0:
448,192,94634,128,0,94706:0:0:0:0:
448,192,94777,1,0,0:0:0:0:
64,192,94777,128,0,94848:0:0:0:0:
320,192,94920,1,0,0:0:0:0:
320,192,95063,1,0,0:0:0:0:
192,192,95206,1,0,0:0:0:0:
64,192,95206,1,0,0:0:0:0:
64,192,95348,1,0,0:0:0:0:
448,192,95491,1,0,0:0:0:0:
320,192,95634,1,0,0:0:0:0:
192,192,95634,1,0,0:0:0:0:
320,192,95777,1,0,0:0:0:0:
64,192,95920,1,0,0:0:0:0:
64,192,96063,1,0,0:0:0:0:
448,192,96063,1,0,0:0:0:0:
192,192,96206,1,0,0:0:0:0:
320,192,96348,1,0,0:0:0:0:
64,192,96491,128,0,98206:0:0:0:0:
448,192,96491,1,0,0:0:0:0:
192,192,98206,1,0,0:0:0:0:
320,192,98206,1,0,0:0:0:0:
448,192,98206,1,0,0:0:0:0:
64,192,98348,1,0,0:0:0:0:
192,192,98348,1,0,0:0:0:0:
448,192,98491,1,0,0:0:0:0:
320,192,98491,1,0,0:0:0:0:
192,192,98634,1,0,0:0:0:0:
64,192,98634,1,0,0:0:0:0:
320,192,98634,1,0,0:0:0:0:
192,192,98777,1,0,0:0:0:0:
448,192,98777,1,0,0:0:0:0:
64,192,98920,1,0,0:0:0:0:
320,192,98920,1,0,0:0:0:0:
448,192,99063,1,0,0:0:0:0:
320,192,99063,1,0,0:0:0:0:
64,192,99063,1,0,0:0:0:0:
192,192,99206,1,0,0:0:0:0:
448,192,99206,1,0,0:0:0:0:
192,192,99348,1,0,0:0:0:0:
64,192,99348,1,0,0:0:0:0:
64,192,99491,1,0,0:0:0:0:
448,192,99491,1,0,0:0:0:0:
320,192,99491,1,0,0:0:0:0:
448,192,99563,1,0,0:0:0:0:
320,192,99634,1,0,0:0:0:0:
192,192,99634,1,0,0:0:0:0:
448,192,99777,1,0,0:0:0:0:
64,192,99777,1,0,0:0:0:0:
64,192,99920,1,0,0:0:0:0:
320,192,99920,1,0,0:0:0:0:
192,192,99920,1,0,0:0:0:0:
320,192,100063,1,0,0:0:0:0:
448,192,100063,1,0,0:0:0:0:
192,192,100206,1,0,0:0:0:0:
64,192,100206,1,0,0:0:0:0:
320,192,100348,1,0,0:0:0:0:
64,192,100348,1,0,0:0:0:0:
448,192,100348,1,0,0:0:0:0:
192,192,100491,1,0,0:0:0:0:
448,192,100491,1,0,0:0:0:0:
320,192,100634,1,0,0:0:0:0:
64,192,100634,1,0,0:0:0:0:
192,192,100777,1,0,0:0:0:0:
64,192,100777,1,0,0:0:0:0:
448,192,100777,1,0,0:0:0:0:
320,192,100920,1,0,0:0:0:0:
192,192,100920,1,0,0:0:0:0:
192,192,100991,1,0,0:0:0:0:
448,192,101063,1,0,0:0:0:0:
64,192,101063,1,0,0:0:0:0:
320,192,101206,1,0,0:0:0:0:
448,192,101206,1,0,0:0:0:0:
192,192,101206,1,0,0:0:0:0:
320,192,101348,1,0,0:0:0:0:
64,192,101348,1,0,0:0:0:0:
192,192,101491,1,0,0:0:0:0:
448,192,101491,1,0,0:0:0:0:
448,192,101634,1,0,0:0:0:0:
64,192,101634,1,0,0:0:0:0:
320,192,101634,1,0,0:0:0:0:
192,192,101777,1,0,0:0:0:0:
320,192,101777,1,0,0:0:0:0:
64,192,101920,1,0,0:0:0:0:
448,192,101920,1,0,0:0:0:0:
64,192,102063,1,0,0:0:0:0:
192,192,102063,1,0,0:0:0:0:
320,192,102063,1,0,0:0:0:0:
448,192,102206,1,0,0:0:0:0:
192,192,102206,1,0,0:0:0:0:
64,192,102348,1,0,0:0:0:0:
320,192,102348,1,0,0:0:0:0:
192,192,102491,1,0,0:0:0:0:
320,192,102491,1,0,0:0:0:0:
448,192,102491,1,0,0:0:0:0:
192,192,102563,1,0,0:0:0:0:
320,192,102634,1,0,0:0:0:0:
64,192,102634,1,0,0:0:0:0:
192,192,102777,1,0,0:0:0:0:
448,192,102777,1,0,0:0:0:0:
64,192,102920,1,0,0:0:0:0:
320,192,102920,1,0,0:0:0:0:
448,192,102920,1,0,0:0:0:0:
64,192,103063,1,0,0:0:0:0:
192,192,103063,1,0,0:0:0:0:
320,192,103206,1,0,0:0:0:0:
448,192,103206,1,0,0:0:0:0:
448,192,103348,1,0,0:0:0:0:
192,192,103348,1,0,0:0:0:0:
64,192,103348,1,0,0:0:0:0:
192,192,103491,1,0,0:0:0:0:
320,192,103491,1,0,0:0:0:0:
64,192,103634,1,0,0:0:0:0:
448,192,103634,1,0,0:0:0:0:
320,192,103777,1,0,0:0:0:0:
192,192,103777,1,0,0:0:0:0:
64,192,103777,1,0,0:0:0:0:
192,192,103920,1,0,0:0:0:0:
448,192,103920,1,0,0:0:0:0:
320,192,104063,1,0,0:0:0:0:
64,192,104063,1,0,0:0:0:0:
64,192,104206,1,0,0:0:0:0:
448,192,104206,1,0,0:0:0:0:
192,192,104206,1,0,0:0:0:0:
448,192,104348,1,0,0:0:0:0:
320,192,104348,1,0,0:0:0:0:
320,192,104420,1,0,0:0:0:0:
192,192,104491,1,0,0:0:0:0:
64,192,104491,1,0,0:0:0:0:
192,192,104634,1,0,0:0:0:0:
320,192,104634,1,0,0:0:0:0:
448,192,104634,1,0,0:0:0:0:
448,192,104777,1,0,0:0:0:0:
64,192,104777,1,0,0:0:0:0:
192,192,104920,1,0,0:0:0:0:
320,192,104920,1,0,0:0:0:0:
320,192,105063,1,0,0:0:0:0:
448,192,105063,1,0,0:0:0:0:
64,192,105063,1,0,0:0:0:0:
64,192,105206,1,0,0:0:0:0:
192,192,105206,1,0,0:0:0:0:
320,192,105348,1,0,0:0:0:0:
448,192,105348,1,0,0:0:0:0:
320,192,105491,1,0,0:0:0:0:
192,192,105491,1,0,0:0:0:0:
64,192,105491,1,0,0:0:0:0:
192,192,105634,1,0,0:0:0:0:
448,192,105634,1,0,0:0:0:0:
320,192,105777,1,0,0:0:0:0:
64,192,105777,1,0,0:0:0:0:
64,192,105920,1,0,0:0:0:0:
192,192,105920,1,0,0:0:0:0:
448,192,105920,1,0,0:0:0:0:
448,192,106063,1,0,0:0:0:0:
320,192,106063,1,0,0:0:0:0:
192,192,106206,1,0,0:0:0:0:
64,192,106206,1,0,0:0:0:0:
320,192,106348,1,0,0:0:0:0:
448,192,106348,1,0,0:0:0:0:
192,192,106348,1,0,0:0:0:0:
448,192,106420,1,0,0:0:0:0:
320,192,106491,1,0,0:0:0:0:
64,192,106491,1,0,0:0:0:0:
448,192,106634,1,0,0:0:0:0:
192,192,106634,1,0,0:0:0:0:
64,192,106777,1,0,0:0:0:0:
192,192,106777,1,0,0:0:0:0:
320,192,106777,1,0,0:0:0:0:
320,192,106920,1,0,0:0:0:0:
448,192,106920,1,0,0:0:0:0:
64,192,107063,1,0,0:0:0:0:
192,192,107063,1,0,0:0:0:0:
64,192,107206,1,0,0:0:0:0:
320,192,107206,1,0,0:0:0:0:
448,192,107206,1,0,0:0:0:0:
192,192,107348,1,0,0:0:0:0:
320,192,107348,1,0,0:0:0:0:
448,192,107491,1,0,0:0:0:0:
64,192,107491,1,0,0:0:0:0:
192,192,107634,1,0,0:0:0:0:
320,192,107634,1,0,0:0:0:0:
448,192,107634,1,0,0:0:0:0:
192,192,107777,1,0,0:0:0:0:
64,192,107777,1,0,0:0:0:0:
64,192,107848,1,0,0:0:0:0:
320,192,107920,1,0,0:0:0:0:
448,192,107920,1,0,0:0:0:0:
192,192,108063,1,0,0:0:0:0:
64,192,108063,1,0,0:0:0:0:
320,192,108063,1,0,0:0:0:0:
448,192,108206,1,0,0:0:0:0:
192,192,108206,1,0,0:0:0:0:
320,192,108348,1,0,0:0:0:0:
64,192,108348,1,0,0:0:0:0:
192,192,108491,1,0,0:0:0:0:
64,192,108491,1,0,0:0:0:0:
448,192,108491,1,0,0:0:0:0:
320,192,108634,1,0,0:0:0:0:
448,192,108634,1,0,0:0:0:0:
192,192,108777,1,0,0:0:0:0:
64,192,108777,1,0,0:0:0:0:
192,192,108920,1,0,0:0:0:0:
320,192,108920,1,0,0:0:0:0:
448,192,108920,1,0,0:0:0:0:
64,192,109063,1,0,0:0:0:0:
448,192,109063,1,0,0:0:0:0:
192,192,109206,1,0,0:0:0:0:
320,192,109206,1,0,0:0:0:0:
64,192,109348,1,0,0:0:0:0:
320,192,109348,1,0,0:0:0:0:
448,192,109348,1,0,0:0:0:0:
448,192,109420,1,0,0:0:0:0:
192,192,109491,1,0,0:0:0:0:
64,192,109491,1,0,0:0:0:0:
320,192,109634,1,0,0:0:0:0:
448,192,109634,1,0,0:0:0:0:
64,192,109777,1,0,0:0:0:0:
192,192,109777,1,0,0:0:0:0:
448,192,109777,1,0,0:0:0:0:
64,192,109920,1,0,0:0:0:0:
320,192,109920,1,0,0:0:0:0:
192,192,110063,1,0,0:0:0:0:
448,192,110063,1,0,0:0:0:0:
64,192,110206,1,0,0:0:0:0:
320,192,110206,1,0,0:0:0:0:
192,192,110206,1,0,0:0:0:0:
448,192,110348,1,0,0:0:0:0:
64,192,110348,1,0,0:0:0:0:
192,192,110491,1,0,0:0:0:0:
320,192,110491,1,0,0:0:0:0:
320,192,110634,1,0,0:0:0:0:
448,192,110634,1,0,0:0:0:0:
64,192,110634,1,0,0:0:0:0:
448,192,110777,1,0,0:0:0:0:
192,192,110777,1,0,0:0:0:0:
320,192,110920,1,0,0:0:0:0:
64,192,110920,1,0,0:0:0:0:
448,192,111063,1,0,0:0:0:0:
64,192,111063,1,0,0:0:0:0:
192,192,111063,1,0,0:0:0:0:
192,192,111206,1,0,0:0:0:0:
320,192,111206,1,0,0:0:0:0:
448,192,111348,1,0,0:0:0:0:
64,192,111348,1,0,0:0:0:0:
64,192,111491,1,0,0:0:0:0:
192,192,111491,1,0,0:0:0:0:
320,192,111491,1,0,0:0:0:0:
320,192,111634,1,0,0:0:0:0:
448,192,111634,1,0,0:0:0:0:
192,192,111777,1,0,0:0:0:0:
64,192,111777,1,0,0:0:0:0:
64,192,111920,1,0,0:0:0:0:
320,192,111920,1,0,0:0:0:0:
448,192,111920,1,0,0:0:0:0:
192,192,112063,1,0,0:0:0:0:
448,192,112063,1,0,0:0:0:0:
320,192,112206,1,0,0:0:0:0:
64,192,112206,1,0,0:0:0:0:
192,192,112348,1,0,0:0:0:0:
448,192,112348,1,0,0:0:0:0:
320,192,112348,1,0,0:0:0:0:
192,192,112491,1,0,0:0:0:0:
64,192,112491,1,0,0:0:0:0:
320,192,112634,1,0,0:0:0:0:
448,192,112634,1,0,0:0:0:0:
64,192,112777,1,0,0:0:0:0:
192,192,112777,1,0,0:0:0:0:
448,192,112777,1,0,0:0:0:0:
192,192,112920,1,0,0:0:0:0:
320,192,112920,1,0,0:0:0:0:
64,192,113063,1,0,0:0:0:0:
448,192,113063,1,0,0:0:0:0:
192,192,113206,1,0,0:0:0:0:
64,192,113206,1,0,0:0:0:0:
320,192,113206,1,0,0:0:0:0:
192,192,113277,1,0,0:0:0:0:
320,192,113348,1,0,0:0:0:0:
448,192,113348,1,0,0:0:0:0:
192,192,113491,1,0,0:0:0:0:
64,192,113491,1,0,0:0:0:0:
64,192,113634,1,0,0:0:0:0:
320,192,113634,1,0,0:0:0:0:
448,192,113634,1,0,0:0:0:0:
192,192,113777,1,0,0:0:0:0:
448,192,113777,1,0,0:0:0:0:
320,192,113920,1,0,0:0:0:0:
64,192,113920,1,0,0:0:0:0:
64,192,114063,1,0,0:0:0:0:
192,192,114063,1,0,0:0:0:0:
448,192,114063,1,0,0:0:0:0:
320,192,114206,1,0,0:0:0:0:
448,192,114206,1,0,0:0:0:0:
192,192,114348,1,0,0:0:0:0:
64,192,114348,1,0,0:0:0:0:
192,192,114491,1,0,0:0:0:0:
320,192,114491,1,0,0:0:0:0:
448,192,114491,1,0,0:0:0:0:
448,192,114634,1,0,0:0:0:0:
64,192,114634,1,0,0:0:0:0:
64,192,114706,1,0,0:0:0:0:
320,192,114777,1,0,0:0:0:0:
192,192,114777,1,0,0:0:0:0:
64,192,114920,1,0,0:0:0:0:
320,192,114920,1,0,0:0:0:0:
448,192,114920,1,0,0:0:0:0:
192,192,115063,1,0,0:0:0:0:
64,192,115063,1,0,0:0:0:0:
320,192,115206,1,0,0:0:0:0:
448,192,115206,1,0,0:0:0:0:
448,192,115348,1,0,0:0:0:0:
192,192,115348,1,0,0:0:0:0:
64,192,115348,1,0,0:0:0:0:
64,192,115491,1,0,0:0:0:0:
320,192,115491,1,0,0:0:0:0:
192,192,115634,1,0,0:0:0:0:
448,192,115634,1,0,0:0:0:0:
320,192,115777,1,0,0:0:0:0:
64,192,115777,1,0,0:0:0:0:
448,192,115777,1,0,0:0:0:0:
320,192,115920,1,0,0:0:0:0:
192,192,115920,1,0,0:0:0:0:
64,192,116063,1,0,0:0:0:0:
448,192,116063,1,0,0:0:0:0:
64,192,116206,1,0,0:0:0:0:
192,192,116206,1,0,0:0:0:0:
320,192,116206,1,0,0:0:0:0:
320,192,116277,1,0,0:0:0:0:
192,192,116348,1,0,0:0:0:0:
448,192,116348,1,0,0:0:0:0:
320,192,116491,1,0,0:0:0:0:
64,192,116491,1,0,0:0:0:0:
64,192,116634,1,0,0:0:0:0:
192,192,116634,1,0,0:0:0:0:
448,192,116634,1,0,0:0:0:0:
448,192,116777,1,0,0:0:0:0:
320,192,116777,1,0,0:0:0:0:
192,192,116920,1,0,0:0:0:0:
64,192,116920,1,0,0:0:0:0:
192,192,117063,1,0,0:0:0:0:
320,192,117063,1,0,0:0:0:0:
448,192,117063,1,0,0:0:0:0:
320,192,117206,1,0,0:0:0:0:
64,192,117206,1,0,0:0:0:0:
192,192,117348,1,0,0:0:0:0:
448,192,117348,1,0,0:0:0:0:
64,192,117491,1,0,0:0:0:0:
320,192,117491,1,0,0:0:0:0:
192,192,117491,1,0,0:0:0:0:
448,192,117634,1,0,0:0:0:0:
64,192,117634,1,0,0:0:0:0:
192,192,117777,1,0,0:0:0:0:
320,192,117777,1,0,0:0:0:0:
320,192,117920,1,0,0:0:0:0:
448,192,117920,1,0,0:0:0:0:
64,192,117920,1,0,0:0:0:0:
192,192,118063,1,0,0:0:0:0:
448,192,118063,1,0,0:0:0:0:
448,192,118134,1,0,0:0:0:0:
64,192,118206,1,0,0:0:0:0:
320,192,118206,1,0,0:0:0:0:
192,192,118348,1,0,0:0:0:0:
448,192,118348,1,0,0:0:0:0:
64,192,118348,1,0,0:0:0:0:
320,192,118491,1,0,0:0:0:0:
192,192,118491,1,0,0:0:0:0:
64,192,118634,1,0,0:0:0:0:
448,192,118634,1,0,0:0:0:0:
192,192,118777,1,0,0:0:0:0:
320,192,118777,1,0,0:0:0:0:
448,192,118777,1,0,0:0:0:0:
64,192,118920,1,0,0:0:0:0:
192,192,118920,1,0,0:0:0:0:
320,192,119063,1,0,0:0:0:0:
448,192,119063,1,0,0:0:0:0:
64,192,119206,1,0,0:0:0:0:
192,192,119206,1,0,0:0:0:0:
448,192,119206,1,0,0:0:0:0:
64,192,119348,1,0,0:0:0:0:
320,192,119348,1,0,0:0:0:0:
192,192,119491,1,0,0:0:0:0:
448,192,119491,1,0,0:0:0:0:
320,192,119634,1,0,0:0:0:0:
64,192,119634,1,0,0:0:0:0:
192,192,119634,1,0,0:0:0:0:
64,192,119777,1,0,0:0:0:0:
448,192,119777,1,0,0:0:0:0:
320,192,119920,1,0,0:0:0:0:
192,192,119920,1,0,0:0:0:0:
320,192,120063,1,0,0:0:0:0:
448,192,120063,1,0,0:0:0:0:
64,192,120063,1,0,0:0:0:0:
64,192,120134,1,0,0:0:0:0:
192,192,120206,1,0,0:0:0:0:
448,192,120206,1,0,0:0:0:0:
320,192,120348,1,0,0:0:0:0:
64,192,120348,1,0,0:0:0:0:
64,192,120491,1,0,0:0:0:0:
192,192,120491,1,0,0:0:0:0:
448,192,120491,1,0,0:0:0:0:
448,192,120634,1,0,0:0:0:0:
320,192,120634,1,0,0:0:0:0:
192,192,120777,1,0,0:0:0:0:
64,192,120777,1,0,0:0:0:0:
320,192,120920,1,0,0:0:0:0:
448,192,120920,1,0,0:0:0:0:
64,192,120920,1,0,0:0:0:0:
192,192,121063,1,0,0:0:0:0:
448,192,121063,1,0,0:0:0:0:
64,192,121206,1,0,0:0:0:0:
320,192,121206,1,0,0:0:0:0:
448,192,121348,1,0,0:0:0:0:
320,192,121348,1,0,0:0:0:0:
192,192,121348,1,0,0:0:0:0:
64,192,121491,1,0,0:0:0:0:
192,192,121491,1,0,0:0:0:0:
192,192,121563,1,0,0:0:0:0:
320,192,121634,1,0,0:0:0:0:
448,192,121634,1,0,0:0:0:0:
64,192,121777,1,0,0:0:0:0:
192,192,121777,1,0,0:0:0:0:
448,192,121777,1,0,0:0:0:0:
320,192,121920,1,0,0:0:0:0:
64,192,121920,1,0,0:0:0:0:
192,192,122063,1,0,0:0:0:0:
448,192,122063,1,0,0:0:0:0:
192,192,122206,1,0,0:0:0:0:
320,192,122206,1,0,0:0:0:0:
64,192,122206,1,0,0:0:0:0:
320,192,122348,1,0,0:0:0:0:
448,192,122348,1,0,0:0:0:0:
192,192,122491,1,0,0:0:0:0:
64,192,122491,1,0,0:0:0:0:
192,192,122634,1,0,0:0:0:0:
320,192,122634,1,0,0:0:0:0:
448,192,122634,1,0,0:0:0:0:
320,192,122777,1,0,0:0:0:0:
64,192,122777,1,0,0:0:0:0:
448,192,122920,1,0,0:0:0:0:
192,192,122920,1,0,0:0:0:0:
64,192,123063,1,0,0:0:0:0:
320,192,123063,1,0,0:0:0:0:
192,192,123063,1,0,0:0:0:0:
64,192,123206,1,0,0:0:0:0:
448,192,123206,1,0,0:0:0:0:
320,192,123348,1,0,0:0:0:0:
192,192,123348,1,0,0:0:0:0:
320,192,123491,1,0,0:0:0:0:
448,192,123491,1,0,0:0:0:0:
64,192,123491,1,0,0:0:0:0:
64,192,123634,1,0,0:0:0:0:
192,192,123634,1,0,0:0:0:0:
320,192,123777,1,0,0:0:0:0:
448,192,123777,1,0,0:0:0:0:
192,192,123920,1,0,0:0:0:0:
64,192,123920,1,0,0:0:0:0:
448,192,123920,1,0,0:0:0:0:
320,192,124063,1,0,0:0:0:0:
192,192,124063,1,0,0:0:0:0:
448,192,124206,1,0,0:0:0:0:
64,192,124206,1,0,0:0:0:0:
64,192,124348,1,0,0:0:0:0:
320,192,124348,1,0,0:0:0:0:
192,192,124348,1,0,0:0:0:0:
448,192,124491,1,0,0:0:0:0:
192,192,124491,1,0,0:0:0:0:
64,192,124634,1,0,0:0:0:0:
320,192,124634,1,0,0:0:0:0:
192,192,124777,1,0,0:0:0:0:
320,192,124777,1,0,0:0:0:0:
448,192,124777,1,0,0:0:0:0:
64,192,124920,1,0,0:0:0:0:
448,192,124920,1,0,0:0:0:0:
448,192,124991,1,0,0:0:0:0:
192,192,125063,1,0,0:0:0:0:
320,192,125063,1,0,0:0:0:0:
448,192,125206,1,0,0:0:0:0:
64,192,125206,1,0,0:0:0:0:
192,192,125206,1,0,0:0:0:0:
320,192,125277,1,0,0:0:0:0:
192,192,125348,128,0,125420:0:0:0:0:
64,192,125420,1,0,0:0:0:0:
320,192,125491,128,0,125563:0:0:0:0:
192,192,125563,1,0,0:0:0:0:
320,192,125634,1,0,0:0:0:0:
64,192,125634,1,0,0:0:0:0:
448,192,125634,128,0,125706:0:0:0:0:
64,192,125777,1,0,0:0:0:0:
192,192,125777,1,0,0:0:0:0:
320,192,125920,1,0,0:0:0:0:
448,192,125920,1,0,0:0:0:0:
64,192,126063,1,0,0:0:0:0:
192,192,126063,1,0,0:0:0:0:
320,192,126063,1,0,0:0:0:0:
448,192,126206,1,0,0:0:0:0:
64,192,126206,1,0,0:0:0:0:
320,192,126348,1,0,0:0:0:0:
192,192,126348,1,0,0:0:0:0:
64,192,126491,1,0,0:0:0:0:
448,192,126491,1,0,0:0:0:0:
192,192,126491,1,0,0:0:0:0:
320,192,126634,1,0,0:0:0:0:
64,192,126634,1,0,0:0:0:0:
448,192,126777,1,0,0:0:0:0:
192,192,126777,1,0,0:0:0:0:
64,192,126920,1,0,0:0:0:0:
192,192,126920,1,0,0:0:0:0:
320,192,126920,1,0,0:0:0:0:
64,192,126991,1,0,0:0:0:0:
448,192,127063,1,0,0:0:0:0:
320,192,127063,128,0,127134:0:0:0:0:
64,192,127206,1,0,0:0:0:0:
192,192,127206,128,0,127277:0:0:0:0:
320,192,127348,1,0,0:0:0:0:
448,192,127348,1,0,0:0:0:0:
64,192,127348,128,0,127420:0:0:0:0:
192,192,127491,1,0,0:0:0:0:
320,192,127491,1,0,0:0:0:0:
448,192,127634,1,0,0:0:0:0:
64,192,127634,1,0,0:0:0:0:
192,192,127777,1,0,0:0:0:0:
448,192,127777,1,0,0:0:0:0:
320,192,127777,1,0,0:0:0:0:
64,192,127920,1,0,0:0:0:0:
320,192,127920,1,0,0:0:0:0:
192,192,128063,1,0,0:0:0:0:
448,192,128063,1,0,0:0:0:0:
320,192,128206,1,0,0:0:0:0:
64,192,128206,1,0,0:0:0:0:
192,192,128206,1,0,0:0:0:0:
64,192,128348,1,0,0:0:0:0:
448,192,128348,1,0,0:0:0:0:
448,192,128420,1,0,0:0:0:0:
192,192,128491,1,0,0:0:0:0:
320,192,128491,1,0,0:0:0:0:
64,192,128634,1,0,0:0:0:0:
320,192,128634,1,0,0:0:0:0:
448,192,128634,1,0,0:0:0:0:
64,192,128777,1,0,0:0:0:0:
192,192,128777,128,0,128848:0:0:0:0:
448,192,128920,1,0,0:0:0:0:
320,192,128920,128,0,128991:0:0:0:0:
192,192,129063,1,0,0:0:0:0:
320,192,129063,1,0,0:0:0:0:
64,192,129063,128,0,129134:0:0:0:0:
448,192,129206,1,0,0:0:0:0:
192,192,129206,1,0,0:0:0:0:
320,192,129348,1,0,0:0:0:0:
64,192,129348,1,0,0:0:0:0:
64,192,129491,1,0,0:0:0:0:
192,192,129491,1,0,0:0:0:0:
448,192,129491,1,0,0:0:0:0:
192,192,129634,1,0,0:0:0:0:
320,192,129634,1,0,0:0:0:0:
448,192,129777,1,0,0:0:0:0:
64,192,129777,1,0,0:0:0:0:
192,192,129920,1,0,0:0:0:0:
320,192,129920,1,0,0:0:0:0:
448,192,129920,1,0,0:0:0:0:
192,192,129991,1,0,0:0:0:0:
320,192,130063,1,0,0:0:0:0:
64,192,130063,1,0,0:0:0:0:
192,192,130206,1,0,0:0:0:0:
448,192,130206,1,0,0:0:0:0:
64,192,130348,1,0,0:0:0:0:
192,192,130348,1,0,0:0:0:0:
320,192,130348,1,0,0:0:0:0:
320,192,130491,1,0,0:0:0:0:
448,192,130491,128,0,130563:0:0:0:0:
64,192,130634,1,0,0:0:0:0:
192,192,130634,128,0,130706:0:0:0:0:
320,192,130777,1,0,0:0:0:0:
448,192,130777,1,0,0:0:0:0:
64,192,130777,128,0,130848:0:0:0:0:
192,192,130920,1,0,0:0:0:0:
448,192,130920,1,0,0:0:0:0:
320,192,131063,1,0,0:0:0:0:
64,192,131063,1,0,0:0:0:0:
192,192,131206,1,0,0:0:0:0:
448,192,131206,1,0,0:0:0:0:
320,192,131206,1,0,0:0:0:0:
64,192,131348,1,0,0:0:0:0:
192,192,131348,1,0,0:0:0:0:
320,192,131491,1,0,0:0:0:0:
448,192,131491,1,0,0:0:0:0:
448,192,131634,1,0,0:0:0:0:
192,192,131634,1,0,0:0:0:0:
64,192,131634,1,0,0:0:0:0:
192,192,131777,1,0,0:0:0:0:
320,192,131777,1,0,0:0:0:0:
320,192,131848,1,0,0:0:0:0:
64,192,131920,1,0,0:0:0:0:
448,192,131920,1,0,0:0:0:0:
192,192,132063,1,0,0:0:0:0:
448,192,132063,1,0,0:0:0:0:
320,192,132063,1,0,0:0:0:0:
320,192,132206,1,0,0:0:0:0:
64,192,132206,128,0,132277:0:0:0:0:
448,192,132348,1,0,0:0:0:0:
192,192,132348,128,0,132420:0:0:0:0:
64,192,132491,1,0,0:0:0:0:
192,192,132491,1,0,0:0:0:0:
320,192,132491,128,0,132563:0:0:0:0:
320,192,132634,1,0,0:0:0:0:
448,192,132634,1,0,0:0:0:0:
192,192,132777,1,0,0:0:0:0:
64,192,132777,1,0,0:0:0:0:
320,192,132920,1,0,0:0:0:0:
448,192,132920,1,0,0:0:0:0:
192,192,132920,1,0,0:0:0:0:
64,192,133063,1,0,0:0:0:0:
448,192,133063,1,0,0:0:0:0:
192,192,133206,1,0,0:0:0:0:
320,192,133206,1,0,0:0:0:0:
64,192,133348,1,0,0:0:0:0:
448,192,133348,1,0,0:0:0:0:
320,192,133348,1,0,0:0:0:0:
192,192,133491,1,0,0:0:0:0:
448,192,133491,1,0,0:0:0:0:
320,192,133634,1,0,0:0:0:0:
64,192,133634,1,0,0:0:0:0:
64,192,133777,1,0,0:0:0:0:
192,192,133777,1,0,0:0:0:0:
448,192,133777,1,0,0:0:0:0:
448,192,133848,1,0,0:0:0:0:
192,192,133920,1,0,0:0:0:0:
320,192,133920,128,0,133991:0:0:0:0:
448,192,134063,1,0,0:0:0:0:
64,192,134063,128,0,134134:0:0:0:0:
192,192,134206,1,0,0:0:0:0:
320,192,134206,1,0,0:0:0:0:
448,192,134206,128,0,134277:0:0:0:0:
64,192,134348,1,0,0:0:0:0:
192,192,134348,1,0,0:0:0:0:
320,192,134491,1,0,0:0:0:0:
448,192,134491,1,0,0:0:0:0:
64,192,134634,1,0,0:0:0:0:
192,192,134634,1,0,0:0:0:0:
320,192,134634,1,0,0:0:0:0:
64,192,134777,1,0,0:0:0:0:
448,192,134777,1,0,0:0:0:0:
320,192,134920,1,0,0:0:0:0:
192,192,134920,1,0,0:0:0:0:
64,192,135063,1,0,0:0:0:0:
192,192,135063,1,0,0:0:0:0:
448,192,135063,1,0,0:0:0:0:
64,192,135206,1,0,0:0:0:0:
320,192,135206,1,0,0:0:0:0:
320,192,135277,1,0,0:0:0:0:
192,192,135348,1,0,0:0:0:0:
448,192,135348,1,0,0:0:0:0:
64,192,135491,1,0,0:0:0:0:
192,192,135491,1,0,0:0:0:0:
320,192,135491,1,0,0:0:0:0:
320,192,135634,1,0,0:0:0:0:
448,192,135634,128,0,135706:0:0:0:0:
192,192,135777,1,0,0:0:0:0:
64,192,135777,128,0,135848:0:0:0:0:
64,192,135920,1,0,0:0:0:0:
448,192,135920,1,0,0:0:0:0:
320,192,135920,128,0,135991:0:0:0:0:
192,192,136063,1,0,0:0:0:0:
320,192,136063,1,0,0:0:0:0:
64,192,136206,1,0,0:0:0:0:
448,192,136206,1,0,0:0:0:0:
192,192,136348,1,0,0:0:0:0:
320,192,136348,1,0,0:0:0:0:
64,192,136348,1,0,0:0:0:0:
448,192,136491,1,0,0:0:0:0:
192,192,136491,1,0,0:0:0:0:
64,192,136634,1,0,0:0:0:0:
320,192,136634,1,0,0:0:0:0:
192,192,136777,1,0,0:0:0:0:
320,192,136777,1,0,0:0:0:0:
448,192,136777,1,0,0:0:0:0:
448,192,136848,1,0,0:0:0:0:
64,192,136920,1,0,0:0:0:0:
192,192,136920,1,0,0:0:0:0:
320,192,137063,1,0,0:0:0:0:
448,192,137063,1,0,0:0:0:0:
64,192,137206,1,0,0:0:0:0:
192,192,137206,1,0,0:0:0:0:
448,192,137206,1,0,0:0:0:0:
64,192,137348,1,0,0:0:0:0:
320,192,137348,128,0,137420:0:0:0:0:
448,192,137491,1,0,0:0:0:0:
192,192,137491,128,0,137563:0:0:0:0:
320,192,137634,1,0,0:0:0:0:
192,192,137634,1,0,0:0:0:0:
64,192,137634,128,0,137706:0:0:0:0:
64,192,137777,1,0,0:0:0:0:
448,192,137777,1,0,0:0:0:0:
320,192,137920,1,0,0:0:0:0:
192,192,137920,1,0,0:0:0:0:
64,192,138063,1,0,0:0:0:0:
192,192,138063,1,0,0:0:0:0:
448,192,138063,1,0,0:0:0:0:
448,192,138206,1,0,0:0:0:0:
320,192,138206,1,0,0:0:0:0:
192,192,138348,1,0,0:0:0:0:
64,192,138348,1,0,0:0:0:0:
320,192,138491,1,0,0:0:0:0:
448,192,138491,1,0,0:0:0:0:
64,192,138491,1,0,0:0:0:0:
320,192,138634,1,0,0:0:0:0:
192,192,138634,1,0,0:0:0:0:
448,192,138777,1,0,0:0:0:0:
64,192,138777,1,0,0:0:0:0:
320,192,138920,1,0,0:0:0:0:
192,192,138920,1,0,0:0:0:0:
64,192,138920,1,0,0:0:0:0:
448,192,139063,1,0,0:0:0:0:
192,192,139063,128,0,139134:0:0:0:0:
64,192,139206,1,0,0:0:0:0:
320,192,139206,128,0,139277:0:0:0:0:
192,192,139348,1,0,0:0:0:0:
320,192,139348,1,0,0:0:0:0:
448,192,139348,128,0,139420:0:0:0:0:
64,192,139491,1,0,0:0:0:0:
192,192,139491,1,0,0:0:0:0:
320,192,139634,1,0,0:0:0:0:
448,192,139634,1,0,0:0:0:0:
64,192,139777,1,0,0:0:0:0:
192,192,139777,1,0,0:0:0:0:
320,192,139777,1,0,0:0:0:0:
448,192,139920,1,0,0:0:0:0:
64,192,139920,1,0,0:0:0:0:
320,192,140063,1,0,0:0:0:0:
192,192,140063,1,0,0:0:0:0:
64,192,140206,1,0,0:0:0:0:
192,192,140206,1,0,0:0:0:0:
448,192,140206,1,0,0:0:0:0:
448,192,140348,1,0,0:0:0:0:
320,192,140348,1,0,0:0:0:0:
192,192,140491,1,0,0:0:0:0:
64,192,140491,1,0,0:0:0:0:
320,192,140634,1,0,0:0:0:0:
448,192,140634,1,0,0:0:0:0:
192,192,140634,1,0,0:0:0:0:
448,192,140706,1,0,0:0:0:0:
64,192,140777,1,0,0:0:0:0:
320,192,140777,128,0,140848:0:0:0:0:
448,192,140920,1,0,0:0:0:0:
192,192,140920,128,0,140991:0:0:0:0:
320,192,141063,1,0,0:0:0:0:
192,192,141063,1,0,0:0:0:0:
64,192,141063,128,0,141134:0:0:0:0:
448,192,141206,1,0,0:0:0:0:
64,192,141206,1,0,0:0:0:0:
192,192,141348,1,0,0:0:0:0:
320,192,141348,1,0,0:0:0:0:
320,192,141491,1,0,0:0:0:0:
448,192,141491,1,0,0:0:0:0:
64,192,141491,1,0,0:0:0:0:
192,192,141634,1,0,0:0:0:0:
448,192,141634,1,0,0:0:0:0:
320,192,141777,1,0,0:0:0:0:
64,192,141777,1,0,0:0:0:0:
192,192,141920,1,0,0:0:0:0:
448,192,141920,1,0,0:0:0:0:
320,192,141920,1,0,0:0:0:0:
64,192,142063,1,0,0:0:0:0:
192,192,142063,1,0,0:0:0:0:
64,192,142134,1,0,0:0:0:0:
320,192,142206,1,0,0:0:0:0:
448,192,142206,1,0,0:0:0:0:
64,192,142348,1,0,0:0:0:0:
192,192,142348,1,0,0:0:0:0:
448,192,142348,1,0,0:0:0:0:
192,192,142491,1,0,0:0:0:0:
320,192,142491,128,0,142563:0:0:0:0:
64,192,142634,1,0,0:0:0:0:
448,192,142634,128,0,142706:0:0:0:0:
64,192,142777,1,0,0:0:0:0:
320,192,142777,1,0,0:0:0:0:
192,192,142777,128,0,142848:0:0:0:0:
448,192,142920,1,0,0:0:0:0:
320,192,142920,1,0,0:0:0:0:
64,192,143063,1,0,0:0:0:0:
192,192,143063,1,0,0:0:0:0:
320,192,143206,1,0,0:0:0:0:
448,192,143206,1,0,0:0:0:0:
192,192,143206,1,0,0:0:0:0:
64,192,143348,1,0,0:0:0:0:
320,192,143348,1,0,0:0:0:0:
192,192,143491,1,0,0:0:0:0:
448,192,143491,1,0,0:0:0:0:
320,192,143634,1,0,0:0:0:0:
64,192,143634,1,0,0:0:0:0:
448,192,143634,1,0,0:0:0:0:
320,192,143706,1,0,0:0:0:0:
192,192,143777,1,0,0:0:0:0:
64,192,143777,1,0,0:0:0:0:
320,192,143920,1,0,0:0:0:0:
448,192,143920,128,0,143991:0:0:0:0:
192,192,144063,1,0,0:0:0:0:
64,192,144063,1,0,0:0:0:0:
320,192,144063,1,0,0:0:0:0:
448,192,144206,1,0,0:0:0:0:
64,192,144206,128,0,144277:0:0:0:0:
320,192,144348,1,0,0:0:0:0:
192,192,144348,128,0,144420:0:0:0:0:
64,192,144491,1,0,0:0:0:0:
448,192,144491,1,0,0:0:0:0:
320,192,144491,128,0,144563:0:0:0:0:
192,192,144634,1,0,0:0:0:0:
448,192,144634,1,0,0:0:0:0:
320,192,144777,1,0,0:0:0:0:
64,192,144777,128,0,144848:0:0:0:0:
64,192,144920,1,0,0:0:0:0:
192,192,144920,1,0,0:0:0:0:
448,192,144920,1,0,0:0:0:0:
320,192,145063,1,0,0:0:0:0:
448,192,145063,128,0,145134:0:0:0:0:
192,192,145206,1,0,0:0:0:0:
64,192,145206,1,0,0:0:0:0:
448,192,145348,1,0,0:0:0:0:
320,192,145348,1,0,0:0:0:0:
192,192,145348,128,0,145420:0:0:0:0:
64,192,145491,1,0,0:0:0:0:
320,192,145491,1,0,0:0:0:0:
64,192,145563,1,0,0:0:0:0:
192,192,145634,1,0,0:0:0:0:
448,192,145634,128,0,145706:0:0:0:0:
64,192,145777,1,0,0:0:0:0:
320,192,145777,1,0,0:0:0:0:
448,192,145777,1,0,0:0:0:0:
192,192,145920,1,0,0:0:0:0:
320,192,145920,128,0,145991:0:0:0:0:
448,192,146063,1,0,0:0:0:0:
64,192,146063,128,0,146134:0:0:0:0:
192,192,146206,1,0,0:0:0:0:
64,192,146206,1,0,0:0:0:0:
320,192,146206,128,0,146277:0:0:0:0:
448,192,146348,1,0,0:0:0:0:
192,192,146348,1,0,0:0:0:0:
64,192,146491,1,0,0:0:0:0:
320,192,146491,1,0,0:0:0:0:
192,192,146634,1,0,0:0:0:0:
320,192,146634,1,0,0:0:0:0:
448,192,146634,1,0,0:0:0:0:
64,192,146777,1,0,0:0:0:0:
448,192,146777,1,0,0:0:0:0:
192,192,146920,1,0,0:0:0:0:
320,192,146920,1,0,0:0:0:0:
64,192,147063,1,0,0:0:0:0:
448,192,147063,1,0,0:0:0:0:
320,192,147063,1,0,0:0:0:0:
64,192,147206,1,0,0:0:0:0:
192,192,147206,1,0,0:0:0:0:
320,192,147348,1,0,0:0:0:0:
448,192,147348,1,0,0:0:0:0:
192,192,147491,1,0,0:0:0:0:
64,192,147491,1,0,0:0:0:0:
448,192,147491,1,0,0:0:0:0:
64,192,147563,1,0,0:0:0:0:
192,192,147634,1,0,0:0:0:0:
320,192,147634,128,0,147706:0:0:0:0:
64,192,147777,1,0,0:0:0:0:
448,192,147777,128,0,147848:0:0:0:0:
320,192,147920,1,0,0:0:0:0:
448,192,147920,1,0,0:0:0:0:
192,192,147920,128,0,147991:0:0:0:0:
64,192,148063,1,0,0:0:0:0:
320,192,148063,1,0,0:0:0:0:
192,192,148206,1,0,0:0:0:0:
448,192,148206,1,0,0:0:0:0:
64,192,148348,1,0,0:0:0:0:
192,192,148348,1,0,0:0:0:0:
320,192,148348,1,0,0:0:0:0:
64,192,148491,1,0,0:0:0:0:
448,192,148491,1,0,0:0:0:0:
320,192,148634,1,0,0:0:0:0:
192,192,148634,1,0,0:0:0:0:
448,192,148777,1,0,0:0:0:0:
320,192,148777,1,0,0:0:0:0:
64,192,148777,1,0,0:0:0:0:
64,192,148920,1,0,0:0:0:0:
192,192,148920,1,0,0:0:0:0:
192,192,148991,1,0,0:0:0:0:
448,192,149063,1,0,0:0:0:0:
320,192,149063,1,0,0:0:0:0:
448,192,149206,1,0,0:0:0:0:
192,192,149206,1,0,0:0:0:0:
64,192,149206,1,0,0:0:0:0:
192,192,149348,1,0,0:0:0:0:
320,192,149348,128,0,149420:0:0:0:0:
64,192,149491,1,0,0:0:0:0:
448,192,149491,128,0,149563:0:0:0:0:
192,192,149634,1,0,0:0:0:0:
320,192,149634,1,0,0:0:0:0:
64,192,149634,128,0,149706:0:0:0:0:
448,192,149777,1,0,0:0:0:0:
320,192,149777,1,0,0:0:0:0:
192,192,149848,1,0,0:0:0:0:
64,192,149920,1,0,0:0:0:0:
448,192,149920,1,0,0:0:0:0:
320,192,149991,1,0,0:0:0:0:
64,192,150063,1,0,0:0:0:0:
192,192,150063,1,0,0:0:0:0:
448,192,150063,1,0,0:0:0:0:
192,192,150206,1,0,0:0:0:0:
320,192,150206,1,0,0:0:0:0:
448,192,150277,1,0,0:0:0:0:
64,192,150348,1,0,0:0:0:0:
192,192,150348,1,0,0:0:0:0:
320,192,150420,1,0,0:0:0:0:
448,192,150491,1,0,0:0:0:0:
192,192,150491,1,0,0:0:0:0:
64,192,150491,1,0,0:0:0:0:
320,192,150634,1,0,0:0:0:0:
64,192,150634,1,0,0:0:0:0:
192,192,150706,1,0,0:0:0:0:
320,192,150777,1,0,0:0:0:0:
448,192,150777,1,0,0:0:0:0:
64,192,150848,1,0,0:0:0:0:
320,192,150920,1,0,0:0:0:0:
192,192,150920,1,0,0:0:0:0:
448,192,150920,1,0,0:0:0:0:
448,192,151063,1,0,0:0:0:0:
64,192,151063,128,0,151134:0:0:0:0:
320,192,151134,1,0,0:0:0:0:
64,192,151206,1,0,0:0:0:0:
192,192,151206,128,0,151277:0:0:0:0:
320,192,151277,1,0,0:0:0:0:
64,192,151348,1,0,0:0:0:0:
192,192,151348,1,0,0:0:0:0:
448,192,151348,128,0,151420:0:0:0:0:
320,192,151491,1,0,0:0:0:0:
448,192,151491,1,0,0:0:0:0:
192,192,151563,1,0,0:0:0:0:
64,192,151634,1,0,0:0:0:0:
320,192,151634,1,0,0:0:0:0:
448,192,151706,1,0,0:0:0:0:
64,192,151777,1,0,0:0:0:0:
320,192,151777,1,0,0:0:0:0:
192,192,151777,1,0,0:0:0:0:
192,192,151920,1,0,0:0:0:0:
448,192,151920,1,0,0:0:0:0:
320,192,151991,1,0,0:0:0:0:
192,192,152063,1,0,0:0:0:0:
64,192,152063,1,0,0:0:0:0:
448,192,152134,1,0,0:0:0:0:
320,192,152206,1,0,0:0:0:0:
192,192,152206,1,0,0:0:0:0:
64,192,152206,1,0,0:0:0:0:
320,192,152348,1,0,0:0:0:0:
192,192,152491,1,0,0:0:0:0:
448,192,152491,1,0,0:0:0:0:
64,192,152491,1,0,0:0:0:0:
320,192,153063,1,0,0:0:0:0:
448,192,153063,1,0,0:0:0:0:
192,192,153206,1,0,0:0:0:0:
192,192,153348,1,0,0:0:0:0:
448,192,153491,1,0,0:0:0:0:
64,192,153491,128,0,153920:0:0:0:0:
448,192,153634,1,0,0:0:0:0:
320,192,153777,1,0,0:0:0:0:
192,192,153920,1,0,0:0:0:0:
320,192,153920,1,0,0:0:0:0:
192,192,154063,1,0,0:0:0:0:
448,192,154206,1,0,0:0:0:0:
64,192,154348,1,0,0:0:0:0:
448,192,154348,1,0,0:0:0:0:
64,192,154491,1,0,0:0:0:0:
192,192,154634,1,0,0:0:0:0:
320,192,154777,1,0,0:0:0:0:
448,192,154777,1,0,0:0:0:0:
320,192,154920,1,0,0:0:0:0:
64,192,155063,1,0,0:0:0:0:
64,192,155206,1,0,0:0:0:0:
192,192,155206,1,0,0:0:0:0:
448,192,155348,1,0,0:0:0:0:
448,192,155491,1,0,0:0:0:0:
320,192,155634,1,0,0:0:0:0:
192,192,155634,1,0,0:0:0:0:
320,192,155777,1,0,0:0:0:0:
448,192,155848,1,0,0:0:0:0:
192,192,155920,1,0,0:0:0:0:
64,192,155920,1,0,0:0:0:0:
64,192,156063,1,0,0:0:0:0:
192,192,156063,1,0,0:0:0:0:
448,192,156206,1,0,0:0:0:0:
448,192,156348,1,0,0:0:0:0:
64,192,156491,1,0,0:0:0:0:
320,192,156491,1,0,0:0:0:0:
192,192,156634,1,0,0:0:0:0:
192,192,156777,1,0,0:0:0:0:
448,192,156920,128,0,157348:0:0:0:0:
320,192,156920,1,0,0:0:0:0:
64,192,157063,1,0,0:0:0:0:
64,192,157206,1,0,0:0:0:0:
192,192,157348,1,0,0:0:0:0:
320,192,157420,1,0,0:0:0:0:
64,192,157491,1,0,0:0:0:0:
448,192,157634,1,0,0:0:0:0:
320,192,157777,1,0,0:0:0:0:
64,192,157777,1,0,0:0:0:0:
320,192,157920,128,0,157991:0:0:0:0:
192,192,158063,128,0,158134:0:0:0:0:
192,192,158206,1,0,0:0:0:0:
448,192,158206,1,0,0:0:0:0:
64,192,158348,1,0,0:0:0:0:
448,192,158491,128,0,158563:0:0:0:0:
448,192,158634,1,0,0:0:0:0:
320,192,158634,1,0,0:0:0:0:
192,192,158777,1,0,0:0:0:0:
64,192,158920,1,0,0:0:0:0:
320,192,159063,1,0,0:0:0:0:
64,192,159063,128,0,159134:0:0:0:0:
320,192,159206,1,0,0:0:0:0:
448,192,159277,1,0,0:0:0:0:
192,192,159348,1,0,0:0:0:0:
64,192,159491,1,0,0:0:0:0:
192,192,159491,128,0,159563:0:0:0:0:
448,192,159634,1,0,0:0:0:0:
448,192,159777,128,0,159848:0:0:0:0:
192,192,159920,1,0,0:0:0:0:
320,192,159920,128,0,159991:0:0:0:0:
320,192,160063,1,0,0:0:0:0:
64,192,160206,128,0,160277:0:0:0:0:
64,192,160348,1,0,0:0:0:0:
320,192,160348,1,0,0:0:0:0:
448,192,160348,1,0,0:0:0:0:
448,192,160491,128,0,160563:0:0:0:0:
192,192,160634,1,0,0:0:0:0:
320,192,160777,1,0,0:0:0:0:
192,192,160777,128,0,160848:0:0:0:0:
64,192,160920,1,0,0:0:0:0:
448,192,161063,1,0,0:0:0:0:
192,192,161206,1,0,0:0:0:0:
64,192,161206,1,0,0:0:0:0:
448,192,161206,1,0,0:0:0:0:
320,192,161277,1,0,0:0:0:0:
192,192,161348,1,0,0:0:0:0:
320,192,161491,1,0,0:0:0:0:
64,192,161634,1,0,0:0:0:0:
320,192,161634,1,0,0:0:0:0:
192,192,161777,1,0,0:0:0:0:
192,192,161920,1,0,0:0:0:0:
448,192,162063,1,0,0:0:0:0:
320,192,162063,1,0,0:0:0:0:
64,192,162063,1,0,0:0:0:0:
448,192,162206,1,0,0:0:0:0:
192,192,162348,1,0,0:0:0:0:
192,192,162491,1,0,0:0:0:0:
64,192,162491,1,0,0:0:0:0:
320,192,162634,1,0,0:0:0:0:
192,192,162706,1,0,0:0:0:0:
64,192,162777,1,0,0:0:0:0:
448,192,162777,1,0,0:0:0:0:
320,192,162920,1,0,0:0:0:0:
192,192,162920,1,0,0:0:0:0:
448,192,162920,1,0,0:0:0:0:
192,192,163063,1,0,0:0:0:0:
448,192,163206,1,0,0:0:0:0:
448,192,163348,1,0,0:0:0:0:
64,192,163348,1,0,0:0:0:0:
64,192,163491,1,0,0:0:0:0:
320,192,163634,1,0,0:0:0:0:
192,192,163634,1,0,0:0:0:0:
448,192,163634,1,0,0:0:0:0:
320,192,163777,1,0,0:0:0:0:
448,192,163777,1,0,0:0:0:0:
64,192,163777,1,0,0:0:0:0:
192,192,163920,1,0,0:0:0:0:
320,192,164063,1,0,0:0:0:0:
320,192,164206,1,0,0:0:0:0:
64,192,164206,1,0,0:0:0:0:
192,192,164348,1,0,0:0:0:0:
320,192,164491,1,0,0:0:0:0:
448,192,164491,1,0,0:0:0:0:
64,192,164491,1,0,0:0:0:0:
64,192,164634,1,0,0:0:0:0:
448,192,164634,1,0,0:0:0:0:
192,192,164634,1,0,0:0:0:0:
320,192,164777,128,0,164848:0:0:0:0:
192,192,164920,128,0,164991:0:0:0:0:
192,192,165063,1,0,0:0:0:0:
448,192,165063,1,0,0:0:0:0:
320,192,165206,1,0,0:0:0:0:
64,192,165348,1,0,0:0:0:0:
192,192,165348,1,0,0:0:0:0:
320,192,165348,1,0,0:0:0:0:
64,192,165491,1,0,0:0:0:0:
192,192,165491,1,0,0:0:0:0:
448,192,165491,1,0,0:0:0:0:
448,192,165634,1,0,0:0:0:0:
192,192,165777,1,0,0:0:0:0:
64,192,165920,1,0,0:0:0:0:
320,192,165920,1,0,0:0:0:0:
448,192,165920,1,0,0:0:0:0:
192,192,166063,1,0,0:0:0:0:
448,192,166206,1,0,0:0:0:0:
320,192,166206,1,0,0:0:0:0:
192,192,166206,1,0,0:0:0:0:
64,192,166206,1,0,0:0:0:0:
