osu file format v14

[General]
AudioFilename: audio.mp3
AudioLeadIn: 0
PreviewTime: 70628
Countdown: 0
SampleSet: None
StackLeniency: 0.7
Mode: 3
LetterboxInBreaks: 0
SpecialStyle: 0
WidescreenStoryboard: 1

[Editor]
DistanceSpacing: 0.8
BeatDivisor: 6
GridSize: 4
TimelineZoom: 1.3

[Metadata]
Title:Protoflicker
TitleUnicode:Protoflicker
Artist:Silentroom
ArtistUnicode:Silentroom
Creator:GTDD
Version:Protosounds
Source:Lanota
Tags:chapter iv 4
BeatmapID:2079088
BeatmapSetID:994319

[Difficulty]
HPDrainRate:9
CircleSize:9
OverallDifficulty:9
ApproachRate:5
SliderMultiplier:1.4
SliderTickRate:1

[Events]
//Background and Video events
0,0,"asx.jpg",0,0
//Break Periods
2,67548,83720
//Storyboard Layer 0 (Background)
//Storyboard Layer 1 (Fail)
//Storyboard Layer 2 (Pass)
//Storyboard Layer 3 (Foreground)
//Storyboard Sound Samples

[TimingPoints]
2206,428.571428571429,4,2,1,50,1,0
2206,-105.263157894737,4,2,1,50,0,0
9063,-100,4,2,1,50,0,0
67348,-100,4,2,1,50,0,0
68206,-111.111111111111,4,2,1,50,0,0
69920,-125,4,2,1,50,0,0
70206,-133.333333333333,4,2,1,50,0,0
70491,-142.857142857143,4,2,1,50,0,0
81063,-133.333333333333,4,2,1,50,0,0
84491,-125,4,2,1,50,0,0
96491,-100,4,2,1,50,0,0
125634,-100,4,2,1,50,0,1
139277,-100,4,2,1,50,0,0
139348,-100,4,2,1,50,0,1
152206,-100,4,2,1,50,0,0
152491,-12.5,4,2,1,50,0,0
152634,-125,4,2,1,50,0,0
154777,-117.647058823529,4,2,1,50,0,0
156491,-111.111111111111,4,2,1,50,0,0
158206,-105.263157894737,4,2,1,50,0,0
159920,-100,4,2,1,50,0,0

[HitObjects]
142,192,2634,5,0,0:0:0:70:clap.wav
142,192,3491,1,0,0:0:0:70:clap.wav
142,192,4348,1,0,0:0:0:70:clap.wav
142,192,5206,1,0,0:0:0:70:clap.wav
142,192,6063,1,0,0:0:0:70:clap.wav
142,192,6920,1,0,0:0:0:70:clap.wav
142,192,7777,1,0,0:0:0:70:clap.wav
142,192,8634,1,0,0:0:0:70:clap.wav
28,192,9063,1,0,0:0:0:70:K.wav
483,192,9063,1,0,0:0:0:70:BassKickReverbXD.wav
142,192,9491,1,0,0:0:0:70:clap.wav
28,192,9491,1,0,0:0:0:70:K.wav
28,192,9920,1,0,0:0:0:70:K.wav
142,192,10348,1,0,0:0:0:70:clap.wav
28,192,10348,1,0,0:0:0:70:K.wav
42,192,10777,5,0,0:0:0:70:K.wav
42,192,11206,5,0,0:0:0:70:K.wav
142,192,11206,1,0,0:0:0:70:clap.wav
42,192,11634,1,0,0:0:0:70:K.wav
85,192,11920,1,0,0:0:0:70:Tom.wav
142,192,12063,1,0,0:0:0:70:clap.wav
42,192,12063,1,0,0:0:0:70:K.wav
199,192,12491,1,0,0:0:0:70:CrashS.wav
28,192,12491,1,0,0:0:0:70:K.wav
199,192,12777,1,0,0:0:0:70:CrashS.wav
28,192,12777,1,0,0:0:0:70:K.wav
142,192,12920,1,0,0:0:0:70:clap.wav
28,192,13348,1,0,0:0:0:70:K.wav
199,192,13348,1,0,0:0:0:70:CrashS.wav
28,192,13634,1,0,0:0:0:70:K.wav
199,192,13634,1,0,0:0:0:70:CrashS.wav
142,192,13777,1,0,0:0:0:70:clap.wav
256,192,14206,1,0,0:0:0:70:S2.wav
28,192,14206,1,0,0:0:0:70:K.wav
199,192,14206,1,0,0:0:0:70:CrashS.wav
256,192,14348,1,0,0:0:0:70:S2.wav
256,192,14491,1,0,0:0:0:70:S2.wav
256,192,14634,1,0,0:0:0:70:S2.wav
142,192,14634,1,0,0:0:0:70:clap.wav
256,192,14777,1,0,0:0:0:70:S2.wav
256,192,14920,1,0,0:0:0:70:S2.wav
256,192,15063,1,0,0:0:0:70:S2.wav
256,192,15206,1,0,0:0:0:70:S2.wav
256,192,15348,1,0,0:0:0:70:S2.wav
312,192,15491,1,0,0:0:0:100:Clap Finish.wav
28,192,15920,1,0,0:0:0:70:K.wav
142,192,16348,1,0,0:0:0:70:clap.wav
28,192,16348,1,0,0:0:0:70:K.wav
28,192,16777,1,0,0:0:0:70:K.wav
142,192,17206,1,0,0:0:0:70:clap.wav
28,192,17206,1,0,0:0:0:70:K.wav
28,192,17634,1,0,0:0:0:70:K.wav
42,192,18063,5,0,0:0:0:70:K.wav
142,192,18063,1,0,0:0:0:70:clap.wav
28,192,18491,1,0,0:0:0:70:K.wav
85,192,18777,1,0,0:0:0:70:Tom.wav
142,192,18920,1,0,0:0:0:70:clap.wav
42,192,18920,1,0,0:0:0:70:K.wav
28,192,19348,1,0,0:0:0:70:K.wav
142,192,19777,1,0,0:0:0:70:clap.wav
28,192,19777,1,0,0:0:0:70:K.wav
28,192,20206,1,0,0:0:0:70:K.wav
142,192,20634,1,0,0:0:0:70:clap.wav
28,192,20634,1,0,0:0:0:70:K.wav
28,192,21063,1,0,0:0:0:70:K.wav
42,192,21491,5,0,0:0:0:70:K.wav
142,192,21491,1,0,0:0:0:70:clap.wav
28,192,21920,1,0,0:0:0:70:K.wav
142,192,22348,1,0,0:0:0:70:clap.wav
42,192,22348,1,0,0:0:0:70:K.wav
28,192,22777,1,0,0:0:0:70:K.wav
142,192,23206,1,0,0:0:0:70:clap.wav
28,192,23206,1,0,0:0:0:70:K.wav
28,192,23634,1,0,0:0:0:70:K.wav
142,192,24063,1,0,0:0:0:70:clap.wav
28,192,24063,1,0,0:0:0:70:K.wav
28,192,24491,1,0,0:0:0:70:K.wav
42,192,24920,5,0,0:0:0:70:K.wav
142,192,24920,1,0,0:0:0:70:clap.wav
28,192,25348,1,0,0:0:0:70:K.wav
85,192,25634,1,0,0:0:0:70:Tom.wav
142,192,25777,1,0,0:0:0:70:clap.wav
42,192,25777,1,0,0:0:0:70:K.wav
28,192,26206,1,0,0:0:0:70:K.wav
142,192,26634,1,0,0:0:0:70:clap.wav
28,192,26634,1,0,0:0:0:70:K.wav
28,192,27063,1,0,0:0:0:70:K.wav
142,192,27491,1,0,0:0:0:70:clap.wav
28,192,27491,1,0,0:0:0:70:K.wav
28,192,27920,1,0,0:0:0:70:K.wav
42,192,28348,5,0,0:0:0:70:K.wav
142,192,28348,1,0,0:0:0:70:clap.wav
28,192,28777,1,0,0:0:0:70:K.wav
142,192,29206,1,0,0:0:0:70:clap.wav
42,192,29206,1,0,0:0:0:70:K.wav
28,192,29634,1,0,0:0:0:70:K.wav
142,192,30063,1,0,0:0:0:70:clap.wav
28,192,30063,1,0,0:0:0:70:K.wav
28,192,30491,1,0,0:0:0:70:K.wav
142,192,30920,1,0,0:0:0:70:clap.wav
28,192,30920,1,0,0:0:0:70:K.wav
28,192,31348,1,0,0:0:0:70:K.wav
42,192,31777,5,0,0:0:0:70:K.wav
142,192,31777,1,0,0:0:0:70:clap.wav
28,192,32206,1,0,0:0:0:70:K.wav
142,192,32634,1,0,0:0:0:70:clap.wav
42,192,32634,1,0,0:0:0:70:K.wav
28,192,33063,1,0,0:0:0:70:K.wav
142,192,33491,1,0,0:0:0:70:clap.wav
28,192,33491,1,0,0:0:0:70:K.wav
28,192,33920,1,0,0:0:0:70:K.wav
142,192,34348,1,0,0:0:0:70:clap.wav
28,192,34348,1,0,0:0:0:70:K.wav
28,192,34777,1,0,0:0:0:70:K.wav
42,192,35206,5,0,0:0:0:70:K.wav
142,192,35206,1,0,0:0:0:70:clap.wav
28,192,35634,1,0,0:0:0:70:K.wav
142,192,36063,1,0,0:0:0:70:clap.wav
42,192,36063,1,0,0:0:0:70:K.wav
28,192,36491,1,0,0:0:0:70:K.wav
142,192,36920,1,0,0:0:0:70:clap.wav
28,192,36920,1,0,0:0:0:70:K.wav
28,192,37348,1,0,0:0:0:70:K.wav
142,192,37777,1,0,0:0:0:70:clap.wav
28,192,37777,1,0,0:0:0:70:K.wav
28,192,38206,1,0,0:0:0:70:K.wav
42,192,38634,5,0,0:0:0:70:K.wav
142,192,38634,1,0,0:0:0:70:clap.wav
28,192,39063,1,0,0:0:0:70:K.wav
85,192,39348,1,0,0:0:0:70:Tom.wav
142,192,39491,1,0,0:0:0:70:clap.wav
42,192,39491,1,0,0:0:0:70:K.wav
28,192,39920,1,0,0:0:0:70:K.wav
142,192,40348,1,0,0:0:0:70:clap.wav
28,192,40348,1,0,0:0:0:70:K.wav
28,192,40777,1,0,0:0:0:70:K.wav
142,192,41206,1,0,0:0:0:70:clap.wav
28,192,41206,1,0,0:0:0:70:K.wav
28,192,41634,1,0,0:0:0:70:K.wav
42,192,42063,5,0,0:0:0:70:K.wav
142,192,42063,1,0,0:0:0:70:clap.wav
28,192,42491,1,0,0:0:0:70:K.wav
142,192,42920,1,0,0:0:0:70:clap.wav
42,192,42920,1,0,0:0:0:70:K.wav
28,192,43348,1,0,0:0:0:70:K.wav
483,192,43348,1,0,0:0:0:100:BassKickReverbXD.wav
142,192,43777,1,0,0:0:0:70:clap.wav
28,192,43777,1,0,0:0:0:70:K.wav
28,192,44206,1,0,0:0:0:70:K.wav
142,192,44634,1,0,0:0:0:70:clap.wav
28,192,44634,1,0,0:0:0:70:K.wav
28,192,45063,1,0,0:0:0:70:K.wav
42,192,45491,5,0,0:0:0:70:K.wav
142,192,45491,1,0,0:0:0:70:clap.wav
28,192,45920,1,0,0:0:0:70:K.wav
85,192,46206,1,0,0:0:0:70:Tom.wav
142,192,46348,1,0,0:0:0:70:clap.wav
42,192,46348,1,0,0:0:0:70:K.wav
28,192,46777,1,0,0:0:0:70:K.wav
142,192,47206,1,0,0:0:0:70:clap.wav
28,192,47206,1,0,0:0:0:70:K.wav
28,192,47634,1,0,0:0:0:70:K.wav
142,192,48063,1,0,0:0:0:70:clap.wav
28,192,48063,1,0,0:0:0:70:K.wav
28,192,48491,1,0,0:0:0:70:K.wav
42,192,48920,5,0,0:0:0:70:K.wav
142,192,48920,1,0,0:0:0:70:clap.wav
28,192,49348,1,0,0:0:0:70:K.wav
142,192,49777,1,0,0:0:0:70:clap.wav
42,192,49777,1,0,0:0:0:70:K.wav
28,192,50206,1,0,0:0:0:70:K.wav
142,192,50634,1,0,0:0:0:70:clap.wav
28,192,50634,1,0,0:0:0:70:K.wav
28,192,51063,1,0,0:0:0:70:K.wav
142,192,51491,1,0,0:0:0:70:clap.wav
28,192,51491,1,0,0:0:0:70:K.wav
28,192,51920,1,0,0:0:0:70:K.wav
42,192,52348,5,0,0:0:0:70:K.wav
142,192,52348,1,0,0:0:0:70:clap.wav
28,192,52777,1,0,0:0:0:70:K.wav
85,192,53063,1,0,0:0:0:70:Tom.wav
142,192,53206,1,0,0:0:0:70:clap.wav
42,192,53206,1,0,0:0:0:70:K.wav
28,192,53634,1,0,0:0:0:70:K.wav
142,192,54063,1,0,0:0:0:70:clap.wav
28,192,54063,1,0,0:0:0:70:K.wav
28,192,54491,1,0,0:0:0:70:K.wav
142,192,54920,1,0,0:0:0:70:clap.wav
28,192,54920,1,0,0:0:0:70:K.wav
28,192,55348,1,0,0:0:0:70:K.wav
42,192,55777,5,0,0:0:0:70:K.wav
142,192,55777,1,0,0:0:0:70:clap.wav
28,192,56206,1,0,0:0:0:70:K.wav
142,192,56634,1,0,0:0:0:70:clap.wav
42,192,56634,1,0,0:0:0:70:K.wav
28,192,57063,1,0,0:0:0:70:K.wav
142,192,57491,1,0,0:0:0:70:clap.wav
28,192,57491,1,0,0:0:0:70:K.wav
28,192,57920,1,0,0:0:0:70:K.wav
142,192,58348,1,0,0:0:0:70:clap.wav
28,192,58348,1,0,0:0:0:70:K.wav
28,192,58777,1,0,0:0:0:70:K.wav
42,192,59206,5,0,0:0:0:70:K.wav
142,192,59206,1,0,0:0:0:70:clap.wav
28,192,59634,1,0,0:0:0:70:K.wav
85,192,59920,1,0,0:0:0:70:Tom.wav
142,192,60063,1,0,0:0:0:70:clap.wav
42,192,60063,1,0,0:0:0:70:K.wav
28,192,60491,1,0,0:0:0:70:K.wav
142,192,60920,1,0,0:0:0:70:clap.wav
28,192,60920,1,0,0:0:0:70:K.wav
28,192,61348,1,0,0:0:0:70:K.wav
142,192,61777,1,0,0:0:0:70:clap.wav
28,192,61777,1,0,0:0:0:70:K.wav
28,192,62206,1,0,0:0:0:70:K.wav
42,192,62634,5,0,0:0:0:70:K.wav
142,192,62634,1,0,0:0:0:70:clap.wav
28,192,63063,1,0,0:0:0:70:K.wav
142,192,63491,1,0,0:0:0:70:clap.wav
42,192,63491,1,0,0:0:0:70:K.wav
28,192,63920,1,0,0:0:0:70:K.wav
142,192,64348,1,0,0:0:0:70:clap.wav
28,192,64348,1,0,0:0:0:70:K.wav
28,192,64777,1,0,0:0:0:70:K.wav
142,192,65206,1,0,0:0:0:70:clap.wav
28,192,65206,1,0,0:0:0:70:K.wav
28,192,65634,1,0,0:0:0:70:K.wav
42,192,66063,5,0,0:0:0:70:K.wav
142,192,66063,1,0,0:0:0:70:clap.wav
28,192,66491,1,0,0:0:0:70:K.wav
85,192,66777,1,0,0:0:0:70:Tom.wav
142,192,66920,1,0,0:0:0:70:clap.wav
42,192,66920,1,0,0:0:0:70:K.wav
28,192,67348,1,0,0:0:0:70:K.wav
426,192,67348,1,0,0:0:0:100:bassdrop.wav
142,192,84920,5,0,0:0:0:70:clap.wav
142,192,85777,1,0,0:0:0:70:clap.wav
142,192,86634,1,0,0:0:0:70:clap.wav
142,192,87491,1,0,0:0:0:70:clap.wav
142,192,88348,1,0,0:0:0:70:clap.wav
142,192,89206,1,0,0:0:0:70:clap.wav
142,192,90063,1,0,0:0:0:70:clap.wav
142,192,90920,1,0,0:0:0:70:clap.wav
142,192,91777,1,0,0:0:0:70:clap.wav
142,192,92634,1,0,0:0:0:70:clap.wav
142,192,93491,1,0,0:0:0:70:clap.wav
142,192,94348,1,0,0:0:0:70:clap.wav
142,192,95206,1,0,0:0:0:70:clap.wav
142,192,96063,1,0,0:0:0:70:clap.wav
426,192,96491,1,0,0:0:0:70:bassdrop.wav
28,192,96491,1,0,0:0:0:70:K.wav
483,192,98206,1,0,0:0:0:70:BassKickReverbXD.wav
28,192,98206,1,0,0:0:0:70:K.wav
142,192,98634,1,0,0:0:0:70:clap.wav
28,192,98634,1,0,0:0:0:70:K.wav
28,192,99063,1,0,0:0:0:70:K.wav
142,192,99491,1,0,0:0:0:70:clap.wav
28,192,99491,1,0,0:0:0:70:K.wav
28,192,99920,1,0,0:0:0:70:K.wav
42,192,100348,5,0,0:0:0:70:K.wav
142,192,100348,1,0,0:0:0:70:clap.wav
28,192,100777,1,0,0:0:0:70:K.wav
85,192,101063,1,0,0:0:0:70:Tom.wav
142,192,101206,1,0,0:0:0:70:clap.wav
42,192,101206,1,0,0:0:0:70:K.wav
28,192,101634,1,0,0:0:0:70:K.wav
142,192,102063,1,0,0:0:0:70:clap.wav
28,192,102063,1,0,0:0:0:70:K.wav
28,192,102491,1,0,0:0:0:70:K.wav
142,192,102920,1,0,0:0:0:70:clap.wav
28,192,102920,1,0,0:0:0:70:K.wav
28,192,103348,1,0,0:0:0:70:K.wav
42,192,103777,5,0,0:0:0:70:K.wav
142,192,103777,1,0,0:0:0:70:clap.wav
28,192,104206,1,0,0:0:0:70:K.wav
142,192,104634,1,0,0:0:0:70:clap.wav
42,192,104634,1,0,0:0:0:70:K.wav
28,192,105063,1,0,0:0:0:70:K.wav
28,192,105491,1,0,0:0:0:70:K.wav
142,192,105491,1,0,0:0:0:70:clap.wav
28,192,105920,1,0,0:0:0:70:K.wav
28,192,106348,1,0,0:0:0:70:K.wav
142,192,106348,1,0,0:0:0:70:clap.wav
28,192,106777,1,0,0:0:0:70:K.wav
42,192,107206,5,0,0:0:0:70:K.wav
142,192,107206,1,0,0:0:0:70:clap.wav
28,192,107634,1,0,0:0:0:70:K.wav
85,192,107920,1,0,0:0:0:70:Tom.wav
42,192,108063,1,0,0:0:0:70:K.wav
142,192,108063,1,0,0:0:0:70:clap.wav
28,192,108491,1,0,0:0:0:70:K.wav
28,192,108920,1,0,0:0:0:70:K.wav
142,192,108920,1,0,0:0:0:70:clap.wav
28,192,109348,1,0,0:0:0:70:K.wav
28,192,109777,1,0,0:0:0:70:K.wav
142,192,109777,1,0,0:0:0:70:clap.wav
28,192,110206,1,0,0:0:0:70:K.wav
42,192,110634,5,0,0:0:0:70:K.wav
142,192,110634,1,0,0:0:0:70:clap.wav
28,192,111063,1,0,0:0:0:70:K.wav
42,192,111491,1,0,0:0:0:70:K.wav
142,192,111491,1,0,0:0:0:70:clap.wav
28,192,111920,1,0,0:0:0:70:K.wav
142,192,112348,1,0,0:0:0:70:clap.wav
28,192,112348,1,0,0:0:0:70:K.wav
28,192,112777,1,0,0:0:0:70:K.wav
142,192,113206,1,0,0:0:0:70:clap.wav
28,192,113206,1,0,0:0:0:70:K.wav
28,192,113634,1,0,0:0:0:70:K.wav
42,192,114063,5,0,0:0:0:70:K.wav
142,192,114063,1,0,0:0:0:70:clap.wav
28,192,114491,1,0,0:0:0:70:K.wav
85,192,114777,1,0,0:0:0:70:Tom.wav
142,192,114920,1,0,0:0:0:70:clap.wav
42,192,114920,1,0,0:0:0:70:K.wav
28,192,115348,1,0,0:0:0:70:K.wav
142,192,115777,1,0,0:0:0:70:clap.wav
28,192,115777,1,0,0:0:0:70:K.wav
28,192,116206,1,0,0:0:0:70:K.wav
142,192,116634,1,0,0:0:0:70:clap.wav
28,192,116634,1,0,0:0:0:70:K.wav
28,192,117063,1,0,0:0:0:70:K.wav
42,192,117491,5,0,0:0:0:70:K.wav
142,192,117491,1,0,0:0:0:70:clap.wav
28,192,117920,1,0,0:0:0:70:K.wav
142,192,118348,1,0,0:0:0:70:clap.wav
42,192,118348,1,0,0:0:0:70:K.wav
28,192,118777,1,0,0:0:0:70:K.wav
28,192,119206,1,0,0:0:0:70:K.wav
142,192,119206,1,0,0:0:0:70:clap.wav
28,192,119634,1,0,0:0:0:70:K.wav
28,192,120063,1,0,0:0:0:70:K.wav
142,192,120063,1,0,0:0:0:70:clap.wav
28,192,120491,1,0,0:0:0:70:K.wav
42,192,120920,5,0,0:0:0:70:K.wav
142,192,120920,1,0,0:0:0:70:clap.wav
28,192,121348,1,0,0:0:0:70:K.wav
85,192,121634,1,0,0:0:0:70:Tom.wav
42,192,121777,1,0,0:0:0:70:K.wav
142,192,121777,1,0,0:0:0:70:clap.wav
28,192,122206,1,0,0:0:0:70:K.wav
28,192,122634,1,0,0:0:0:70:K.wav
142,192,122634,1,0,0:0:0:70:clap.wav
28,192,123063,1,0,0:0:0:70:K.wav
28,192,123491,1,0,0:0:0:70:K.wav
142,192,123491,1,0,0:0:0:70:clap.wav
28,192,123920,1,0,0:0:0:70:K.wav
42,192,124348,5,0,0:0:0:70:K.wav
142,192,124348,1,0,0:0:0:70:clap.wav
28,192,124777,1,0,0:0:0:70:K.wav
42,192,125206,1,0,0:0:0:70:K.wav
142,192,125206,1,0,0:0:0:70:clap.wav
28,192,125634,1,0,0:0:0:70:K.wav
483,192,125634,1,0,0:0:0:70:BassKickReverbXD.wav
369,192,125634,1,0,0:0:0:70:C.wav
142,192,126063,1,0,0:0:0:70:clap.wav
28,192,126063,1,0,0:0:0:70:K.wav
28,192,126491,1,0,0:0:0:70:K.wav
142,192,126920,1,0,0:0:0:70:clap.wav
28,192,126920,1,0,0:0:0:70:K.wav
28,192,127348,1,0,0:0:0:70:K.wav
42,192,127777,5,0,0:0:0:70:K.wav
142,192,127777,1,0,0:0:0:70:clap.wav
28,192,128206,1,0,0:0:0:70:K.wav
85,192,128491,1,0,0:0:0:70:Tom.wav
142,192,128634,1,0,0:0:0:70:clap.wav
42,192,128634,1,0,0:0:0:70:K.wav
28,192,129063,1,0,0:0:0:70:K.wav
142,192,129491,1,0,0:0:0:70:clap.wav
28,192,129491,1,0,0:0:0:70:K.wav
28,192,129920,1,0,0:0:0:70:K.wav
142,192,130348,1,0,0:0:0:70:clap.wav
28,192,130348,1,0,0:0:0:70:K.wav
28,192,130777,1,0,0:0:0:70:K.wav
42,192,131206,5,0,0:0:0:70:K.wav
142,192,131206,1,0,0:0:0:70:clap.wav
28,192,131634,1,0,0:0:0:70:K.wav
142,192,132063,1,0,0:0:0:70:clap.wav
42,192,132063,1,0,0:0:0:70:K.wav
28,192,132491,1,0,0:0:0:70:K.wav
28,192,132920,1,0,0:0:0:70:K.wav
142,192,132920,1,0,0:0:0:70:clap.wav
28,192,133348,1,0,0:0:0:70:K.wav
28,192,133777,1,0,0:0:0:70:K.wav
142,192,133777,1,0,0:0:0:70:clap.wav
28,192,134206,1,0,0:0:0:70:K.wav
42,192,134634,5,0,0:0:0:70:K.wav
142,192,134634,1,0,0:0:0:70:clap.wav
28,192,135063,1,0,0:0:0:70:K.wav
85,192,135348,1,0,0:0:0:70:Tom.wav
42,192,135491,1,0,0:0:0:70:K.wav
142,192,135491,1,0,0:0:0:70:clap.wav
28,192,135920,1,0,0:0:0:70:K.wav
28,192,136348,1,0,0:0:0:70:K.wav
142,192,136348,1,0,0:0:0:70:clap.wav
28,192,136777,1,0,0:0:0:70:K.wav
28,192,137206,1,0,0:0:0:70:K.wav
142,192,137206,1,0,0:0:0:70:clap.wav
28,192,137634,1,0,0:0:0:70:K.wav
42,192,138063,5,0,0:0:0:70:K.wav
142,192,138063,1,0,0:0:0:70:clap.wav
28,192,138491,1,0,0:0:0:70:K.wav
42,192,138920,1,0,0:0:0:70:K.wav
142,192,138920,1,0,0:0:0:70:clap.wav
28,192,139348,1,0,0:0:0:70:K.wav
312,192,139491,1,0,0:0:0:70:drum.wav
312,192,139634,1,0,0:0:0:70:drum.wav
142,192,139777,1,0,0:0:0:70:clap.wav
28,192,139777,1,0,0:0:0:70:K.wav
312,192,139920,1,0,0:0:0:70:drum.wav
312,192,140063,1,0,0:0:0:70:drum.wav
28,192,140206,1,0,0:0:0:70:K.wav
312,192,140348,1,0,0:0:0:70:drum.wav
312,192,140491,1,0,0:0:0:70:drum.wav
142,192,140634,1,0,0:0:0:70:clap.wav
28,192,140634,1,0,0:0:0:70:K.wav
312,192,140777,1,0,0:0:0:70:drum.wav
312,192,140920,1,0,0:0:0:70:drum.wav
28,192,141063,1,0,0:0:0:70:K.wav
312,192,141206,1,0,0:0:0:70:drum.wav
312,192,141348,1,0,0:0:0:70:drum.wav
42,192,141491,5,0,0:0:0:70:K.wav
142,192,141491,1,0,0:0:0:70:clap.wav
312,192,141634,1,0,0:0:0:70:drum.wav
312,192,141777,1,0,0:0:0:70:drum.wav
28,192,141920,1,0,0:0:0:70:K.wav
312,192,142063,1,0,0:0:0:70:drum.wav
85,192,142206,1,0,0:0:0:70:Tom.wav
312,192,142206,1,0,0:0:0:70:drum.wav
142,192,142348,1,0,0:0:0:70:clap.wav
42,192,142348,1,0,0:0:0:70:K.wav
312,192,142491,1,0,0:0:0:70:drum.wav
312,192,142634,1,0,0:0:0:70:drum.wav
28,192,142777,1,0,0:0:0:70:K.wav
312,192,142920,1,0,0:0:0:70:drum.wav
312,192,143063,1,0,0:0:0:70:drum.wav
142,192,143206,1,0,0:0:0:70:clap.wav
28,192,143206,1,0,0:0:0:70:K.wav
312,192,143348,1,0,0:0:0:70:drum.wav
312,192,143491,1,0,0:0:0:70:drum.wav
28,192,143634,1,0,0:0:0:70:K.wav
312,192,143777,1,0,0:0:0:70:drum.wav
312,192,143920,1,0,0:0:0:70:drum.wav
142,192,144063,1,0,0:0:0:70:clap.wav
28,192,144063,1,0,0:0:0:70:K.wav
312,192,144206,1,0,0:0:0:70:drum.wav
312,192,144348,1,0,0:0:0:70:drum.wav
28,192,144491,1,0,0:0:0:70:K.wav
312,192,144634,1,0,0:0:0:70:drum.wav
312,192,144777,1,0,0:0:0:70:drum.wav
42,192,144920,5,0,0:0:0:70:K.wav
142,192,144920,1,0,0:0:0:70:clap.wav
312,192,145063,1,0,0:0:0:70:drum.wav
312,192,145206,1,0,0:0:0:70:drum.wav
28,192,145348,1,0,0:0:0:70:K.wav
312,192,145491,1,0,0:0:0:70:drum.wav
312,192,145634,1,0,0:0:0:70:drum.wav
142,192,145777,1,0,0:0:0:70:clap.wav
42,192,145777,1,0,0:0:0:70:K.wav
312,192,145920,1,0,0:0:0:70:drum.wav
312,192,146063,1,0,0:0:0:70:drum.wav
28,192,146206,1,0,0:0:0:70:K.wav
312,192,146348,1,0,0:0:0:70:drum.wav
312,192,146491,1,0,0:0:0:70:drum.wav
28,192,146634,1,0,0:0:0:70:K.wav
142,192,146634,1,0,0:0:0:70:clap.wav
312,192,146777,1,0,0:0:0:70:drum.wav
312,192,146920,1,0,0:0:0:70:drum.wav
28,192,147063,1,0,0:0:0:70:K.wav
312,192,147206,1,0,0:0:0:70:drum.wav
312,192,147348,1,0,0:0:0:70:drum.wav
28,192,147491,1,0,0:0:0:70:K.wav
142,192,147491,1,0,0:0:0:70:clap.wav
312,192,147634,1,0,0:0:0:70:drum.wav
312,192,147777,1,0,0:0:0:70:drum.wav
28,192,147920,1,0,0:0:0:70:K.wav
312,192,148063,1,0,0:0:0:70:drum.wav
312,192,148206,1,0,0:0:0:70:drum.wav
42,192,148348,5,0,0:0:0:70:K.wav
142,192,148348,1,0,0:0:0:70:clap.wav
312,192,148491,1,0,0:0:0:70:drum.wav
312,192,148634,1,0,0:0:0:70:drum.wav
28,192,148777,1,0,0:0:0:70:K.wav
312,192,148920,1,0,0:0:0:70:drum.wav
85,192,149063,1,0,0:0:0:70:Tom.wav
312,192,149063,1,0,0:0:0:70:drum.wav
42,192,149206,1,0,0:0:0:70:K.wav
142,192,149206,1,0,0:0:0:70:clap.wav
312,192,149348,1,0,0:0:0:70:drum.wav
312,192,149491,1,0,0:0:0:70:drum.wav
28,192,149634,1,0,0:0:0:70:K.wav
312,192,149777,1,0,0:0:0:70:drum.wav
312,192,149848,1,0,0:0:0:70:drum.wav
312,192,149920,1,0,0:0:0:70:drum.wav
312,192,149991,1,0,0:0:0:70:drum.wav
28,192,150063,1,0,0:0:0:70:K.wav
142,192,150063,1,0,0:0:0:70:clap.wav
312,192,150206,1,0,0:0:0:70:drum.wav
312,192,150277,1,0,0:0:0:70:drum.wav
312,192,150348,1,0,0:0:0:70:drum.wav
312,192,150420,1,0,0:0:0:70:drum.wav
28,192,150491,1,0,0:0:0:70:K.wav
312,192,150634,1,0,0:0:0:70:drum.wav
312,192,150706,1,0,0:0:0:70:drum.wav
312,192,150777,1,0,0:0:0:70:drum.wav
312,192,150848,1,0,0:0:0:70:drum.wav
28,192,150920,1,0,0:0:0:70:K.wav
142,192,150920,1,0,0:0:0:70:clap.wav
312,192,151063,1,0,0:0:0:70:drum.wav
312,192,151134,1,0,0:0:0:70:drum.wav
312,192,151206,1,0,0:0:0:70:drum.wav
312,192,151277,1,0,0:0:0:70:drum.wav
28,192,151348,1,0,0:0:0:70:K.wav
312,192,151491,1,0,0:0:0:70:drum.wav
312,192,151563,1,0,0:0:0:70:drum.wav
312,192,151634,1,0,0:0:0:70:drum.wav
312,192,151706,1,0,0:0:0:70:drum.wav
42,192,151777,5,0,0:0:0:70:K.wav
142,192,151777,1,0,0:0:0:70:clap.wav
312,192,151920,1,0,0:0:0:70:drum.wav
312,192,151991,1,0,0:0:0:70:drum.wav
312,192,152063,1,0,0:0:0:70:drum.wav
312,192,152134,1,0,0:0:0:70:drum.wav
28,192,152206,1,0,0:0:0:70:K.wav
199,192,152206,1,0,0:0:0:70:CrashS.wav
28,192,152491,1,0,0:0:0:70:K.wav
199,192,152491,1,0,0:0:0:70:CrashS.wav
142,192,153491,1,0,0:0:0:70:clap.wav
142,192,154348,1,0,0:0:0:70:clap.wav
142,192,155206,1,0,0:0:0:70:clap.wav
85,192,155920,1,0,0:0:0:70:Tom.wav
142,192,156063,1,0,0:0:0:70:clap.wav
142,192,156920,1,0,0:0:0:70:clap.wav
142,192,157777,1,0,0:0:0:70:clap.wav
142,192,158634,1,0,0:0:0:70:clap.wav
142,192,159491,1,0,0:0:0:70:clap.wav
28,192,159920,1,0,0:0:0:70:K.wav
483,192,159920,1,0,0:0:0:70:BassKickReverbXD.wav
142,192,160348,1,0,0:0:0:70:clap.wav
28,192,160348,1,0,0:0:0:70:K.wav
28,192,160777,1,0,0:0:0:70:K.wav
142,192,161206,1,0,0:0:0:70:clap.wav
28,192,161206,1,0,0:0:0:70:K.wav
42,192,161634,5,0,0:0:0:70:K.wav
42,192,162063,5,0,0:0:0:70:K.wav
142,192,162063,1,0,0:0:0:70:clap.wav
42,192,162491,1,0,0:0:0:70:K.wav
85,192,162777,1,0,0:0:0:70:Tom.wav
142,192,162920,1,0,0:0:0:70:clap.wav
42,192,162920,1,0,0:0:0:70:K.wav
199,192,163348,1,0,0:0:0:70:CrashS.wav
28,192,163348,1,0,0:0:0:70:K.wav
199,192,163634,1,0,0:0:0:70:CrashS.wav
28,192,163634,1,0,0:0:0:70:K.wav
142,192,163777,1,0,0:0:0:70:clap.wav
28,192,164206,1,0,0:0:0:70:K.wav
199,192,164206,1,0,0:0:0:70:CrashS.wav
28,192,164491,1,0,0:0:0:70:K.wav
199,192,164491,1,0,0:0:0:70:CrashS.wav
142,192,164634,1,0,0:0:0:70:clap.wav
199,192,165063,1,0,0:0:0:70:CrashS.wav
28,192,165063,1,0,0:0:0:70:K.wav
199,192,165348,1,0,0:0:0:70:CrashS.wav
28,192,165348,1,0,0:0:0:70:K.wav
142,192,165491,1,0,0:0:0:70:clap.wav
28,192,165920,1,0,0:0:0:70:K.wav
199,192,165920,1,0,0:0:0:70:CrashS.wav
199,192,166206,1,0,0:0:0:70:CrashS.wav
28,192,166206,1,0,0:0:0:70:K.wav
483,192,166206,1,0,0:0:0:70:BassKickReverbXD.wav
