osu file format v14

[General]
AudioFilename: audio.mp3
AudioLeadIn: 0
PreviewTime: 14729
Countdown: 0
SampleSet: Normal
StackLeniency: 0.7
Mode: 1
LetterboxInBreaks: 0
WidescreenStoryboard: 1

[Editor]
Bookmarks: 14769,27569,40369,53169,62769,78769,91569,110779,117169
DistanceSpacing: 0.5
BeatDivisor: 4
GridSize: 32
TimelineZoom: 1.5

[Metadata]
Title:Primatrix
TitleUnicode:Primatrix
Artist:Silentroom
ArtistUnicode:Silentroom
Creator:op45667
Version:Oni
Source:BOFU2017 - LEGENDA EST A MYTH -
Tags:fa featured artist instrumental electronic hi-tech extreme memory waves バンバンアカウント作成太郎 bang bang account creation taro bms of fighters ultimate
BeatmapID:3919099
BeatmapSetID:1901019

[Difficulty]
HPDrainRate:5.5
CircleSize:5
OverallDifficulty:6
ApproachRate:5
SliderMultiplier:1.4
SliderTickRate:1

[Events]
//Background and Video events
0,0,"ddpcpd5-2652a1e9-8d33-46d4-95b7-84fccb3a8694_auto_x2.jpg",0,-80
//Break Periods
2,66179,71179
//Storyboard Layer 0 (Background)
//Storyboard Layer 1 (Fail)
//Storyboard Layer 2 (Pass)
//Storyboard Layer 3 (Foreground)
//Storyboard Layer 4 (Overlay)
//Storyboard Sound Samples

[TimingPoints]
379,400,4,1,0,60,1,8
977,-71.42857,4,1,0,60,0,0
1027,-72.12007,4,1,0,60,0,0
1077,-72.81827,4,1,0,60,0,0
1127,-73.52321,4,1,0,60,0,0
1177,-74.23499,4,1,0,60,0,0
1277,-75.67928,4,1,0,60,0,0
1377,-77.15167,4,1,0,60,0,0
1477,-78.65272,4,1,0,60,0,0
1577,-80.18296,4,1,0,60,0,0
1627,-80.959206,4,1,0,60,0,0
1677,-81.742966,4,1,0,60,0,0
1727,-82.53432,4,1,0,60,0,0
1777,-83.33333,4,1,0,60,0,0
1979,400,4,1,0,80,1,0
1979,-71.4285714285714,4,1,0,80,0,0
2179,-90.9090909090909,4,1,0,80,0,0
5178,-71.42857,4,1,0,80,0,0
5228,-72.51334,4,1,0,80,0,0
5278,-73.614586,4,1,0,80,0,0
5328,-74.73256,4,1,0,80,0,0
5378,-75.86751,4,1,0,80,0,0
5478,-78.18938,4,1,0,80,0,0
5578,-80.582306,4,1,0,80,0,0
5678,-83.04846,4,1,0,80,0,0
5778,-85.590096,4,1,0,80,0,0
5878,-88.20951,4,1,0,80,0,0
5978,-90.90909,4,1,0,80,0,0
7976,-71.42857,4,1,0,80,0,0
8078,-75.89713,4,1,0,80,0,0
8109,-77.30984,4,1,0,80,0,0
8176,-80.453575,4,1,0,80,0,0
8277,-85.4359,4,1,0,80,0,0
8374,-90.51112,4,1,0,80,0,0
8577,-89.175385,4,1,0,80,0,0
8677,-88.518196,4,1,0,80,0,0
8877,-87.218315,4,1,0,80,0,0
8977,-86.57554,4,1,0,80,0,0
9177,-85.304184,4,1,0,80,0,0
9277,-84.67554,4,1,0,80,0,0
9477,-83.432076,4,1,0,80,0,0
9577,-82.817215,4,1,0,80,0,0
9777,-81.60105,4,1,0,80,0,0
9877,-80.99969,4,1,0,80,0,0
10077,-79.81022,4,1,0,80,0,0
10177,-79.22204,4,1,0,80,0,0
10377,-78.05868,4,1,0,80,0,0
10477,-77.483406,4,1,0,80,0,0
10677,-76.34557,4,1,0,80,0,0
10777,-75.782936,4,1,0,80,0,0
10977,-74.67007,4,1,0,80,0,0
11077,-74.119774,4,1,0,80,0,0
11277,-73.031334,4,1,0,80,0,0
11377,-72.493126,4,1,0,80,0,0
11576,-71.440506,4,1,0,80,0,0
11677,-70.84011,4,1,0,80,0,0
11777,-70.25063,4,1,0,80,0,0
11877,-69.666046,4,1,0,80,0,0
11977,-69.08633,4,1,0,80,0,0
12077,-68.51144,4,1,0,80,0,0
12177,-67.94133,4,1,0,80,0,0
12277,-67.37597,4,1,0,80,0,0
12376,-66.82089,4,1,0,80,0,0
12476,-66.264854,4,1,0,80,0,0
12576,-65.71344,4,1,0,80,0,0
12676,-65.16661,4,1,0,80,0,0
12776,-64.624344,4,1,0,80,0,0
12876,-64.08658,4,1,0,80,0,0
12976,-63.553295,4,1,0,80,0,0
13076,-63.024445,4,1,0,80,0,0
13176,-62.499996,4,1,0,80,0,0
13379,-64.5161290322581,4,1,0,80,0,0
13679,-68.9655172413793,4,1,0,80,0,0
13779,-71.4285714285714,4,1,0,80,0,0
13978,-71.42857,4,1,0,80,0,0
14078,-73.9323,4,1,0,80,0,0
14178,-76.52377,4,1,0,80,0,0
14278,-79.206085,4,1,0,80,0,0
14378,-81.98242,4,1,0,80,0,0
14478,-84.85608,4,1,0,80,0,0
14578,-87.83046,4,1,0,80,0,0
14678,-90.90909,4,1,0,80,0,0
14777,-76.92307,4,1,0,80,0,0
14877,-82.13769,4,1,0,80,0,0
14977,-87.7058,4,1,0,80,0,0
15077,-93.65137,4,1,0,80,0,0
15177,-100,4,1,0,70,0,0
17954,-76.92307,4,1,0,80,0,0
18054,-82.13769,4,1,0,80,0,0
18154,-87.7058,4,1,0,80,0,0
18254,-93.65137,4,1,0,80,0,0
18354,-100,4,1,0,70,0,0
21154,-76.92307,4,1,0,80,0,0
21254,-82.13769,4,1,0,80,0,0
21354,-87.7058,4,1,0,80,0,0
21454,-93.65137,4,1,0,80,0,0
21554,-100,4,1,0,70,0,0
24179,-102.564102564103,4,1,0,70,0,0
24379,-105.263157894737,4,1,0,70,0,0
24578,-111.111115,4,1,0,70,0,0
24678,-107.39821,4,1,0,70,0,0
24778,-103.80939,4,1,0,70,0,0
24878,-100.34049,4,1,0,70,0,0
24978,-96.9875,4,1,0,70,0,0
25078,-93.74657,4,1,0,70,0,0
25178,-90.61392,4,1,0,70,0,0
25278,-87.58597,4,1,0,70,0,0
25378,-84.65918,4,1,0,70,0,0
25478,-81.8302,4,1,0,70,0,0
25578,-79.095764,4,1,0,70,0,0
25678,-76.4527,4,1,0,70,0,0
25778,-73.89794,4,1,0,70,0,0
25878,-71.42857,4,1,0,70,0,0
25979,-62.49999890625,4,1,0,70,0,0
26379,-76.9230752662722,4,1,0,70,0,0
26579,-62.49999890625,4,1,0,70,0,0
26978,-66.666664,4,1,0,70,0,0
27078,-69.7093,4,1,0,70,0,0
27178,-72.8908,4,1,0,70,0,0
27278,-76.21751,4,1,0,70,0,0
27378,-79.69604,4,1,0,70,0,0
27478,-83.33333,4,1,0,70,0,0
27577,-71.42857,4,1,0,80,0,0
27677,-73.66049,4,1,0,80,0,0
27777,-75.96214,4,1,0,80,0,0
27877,-78.33572,4,1,0,80,0,0
27979,-83.3333333333333,4,1,0,80,0,0
37177,-83.33333,4,1,0,80,0,0
37378,-82.915535,4,1,0,80,0,0
37578,-82.50191,4,1,0,80,0,0
37678,-82.29587,4,1,0,80,0,0
37878,-81.885315,4,1,0,80,0,0
37978,-81.68081,4,1,0,80,0,0
38378,-80.867905,4,1,0,80,0,0
38578,-80.46448,4,1,0,80,0,0
38778,-80.06308,4,1,0,80,0,0
38978,-79.663666,4,1,0,80,0,0
39178,-79.266266,4,1,0,80,0,0
39278,-79.068306,4,1,0,80,0,0
39378,-78.87084,4,1,0,80,0,0
39578,-78.47738,4,1,0,80,0,0
39678,-78.28139,4,1,0,80,0,0
39878,-77.89087,4,1,0,80,0,0
39978,-77.69634,4,1,0,80,0,0
40178,-77.308754,4,1,0,80,0,0
40379,-76.92308,4,1,0,90,0,1
51778,-76.92308,4,1,0,90,0,1
51878,-76.516975,4,1,0,90,0,1
51978,-76.113,4,1,0,90,0,1
52078,-75.71117,4,1,0,90,0,1
52178,-75.311455,4,1,0,90,0,1
52278,-74.91385,4,1,0,90,0,1
52378,-74.51836,4,1,0,90,0,1
52478,-74.12494,4,1,0,90,0,1
52578,-73.7336,4,1,0,90,0,1
52678,-73.34432,4,1,0,90,0,1
52778,-72.95711,4,1,0,90,0,1
52878,-72.57194,4,1,0,90,0,1
52978,-72.1888,4,1,0,90,0,1
53078,-71.80768,4,1,0,90,0,1
53178,-71.42857,4,1,0,90,0,1
62779,-71.4285714285714,4,1,0,80,0,0
63179,-90.9090909090909,4,1,0,80,0,0
64379,-95.2380952380952,4,1,0,80,0,0
64979,-100,4,1,0,80,0,0
66045,-100,4,1,0,30,0,0
72377,-86.95652,4,1,0,70,0,0
72477,-88.068405,4,1,0,70,0,0
72577,-89.19451,4,1,0,70,0,0
72677,-90.335014,4,1,0,70,0,0
72777,-91.4901,4,1,0,70,0,0
72877,-92.65995,4,1,0,70,0,0
72977,-93.844765,4,1,0,70,0,0
73077,-95.04473,4,1,0,70,0,0
73177,-96.26004,4,1,0,70,0,0
73277,-97.4909,4,1,0,70,0,0
73477,-100,4,1,0,70,0,0
75178,-90.90909,4,1,0,70,0,0
75278,-93.84365,4,1,0,70,0,0
75378,-96.872925,4,1,0,70,0,0
75478,-100,4,1,0,70,0,0
75578,-86.95652,4,1,0,70,0,0
75678,-88.068405,4,1,0,70,0,0
75778,-89.19451,4,1,0,70,0,0
75878,-90.335014,4,1,0,70,0,0
75978,-91.4901,4,1,0,70,0,0
76078,-92.65995,4,1,0,70,0,0
76178,-93.844765,4,1,0,70,0,0
76278,-95.04473,4,1,0,70,0,0
76378,-96.26004,4,1,0,70,0,0
76478,-97.4909,4,1,0,70,0,0
76678,-100,4,1,0,70,0,0
76779,-103.092783505155,4,1,0,50,0,0
78778,-100,4,1,0,80,0,0
78978,-99.56419,4,1,0,80,0,0
79178,-99.130295,4,1,0,80,0,0
79278,-98.914055,4,1,0,80,0,0
79478,-98.48298,4,1,0,80,0,0
79578,-98.26814,4,1,0,80,0,0
79678,-98.05378,4,1,0,80,0,0
79878,-97.626465,4,1,0,80,0,0
79978,-97.413506,4,1,0,80,0,0
80078,-97.201004,4,1,0,80,0,0
80178,-96.98897,4,1,0,80,0,0
80378,-96.566284,4,1,0,80,0,0
80578,-96.145454,4,1,0,80,0,0
80778,-95.72645,4,1,0,80,0,0
80878,-95.517624,4,1,0,80,0,0
81078,-95.10136,4,1,0,80,0,0
81178,-94.893906,4,1,0,80,0,0
81278,-94.686905,4,1,0,80,0,0
81478,-94.274254,4,1,0,80,0,0
81578,-94.0686,4,1,0,80,0,0
81678,-93.8634,4,1,0,80,0,0
81778,-93.658646,4,1,0,80,0,0
81978,-93.25048,4,1,0,80,0,0
82178,-92.84409,4,1,0,80,0,0
82378,-92.439476,4,1,0,80,0,0
82478,-92.23783,4,1,0,80,0,0
82678,-91.83585,4,1,0,80,0,0
82778,-91.63552,4,1,0,80,0,0
82878,-91.43563,4,1,0,80,0,0
83078,-91.03715,4,1,0,80,0,0
83178,-90.83856,4,1,0,80,0,0
83278,-90.6404,4,1,0,80,0,0
83378,-90.44269,4,1,0,80,0,0
83578,-90.04853,4,1,0,80,0,0
83778,-89.6561,4,1,0,80,0,0
83978,-89.26537,4,1,0,80,0,0
84078,-89.07065,4,1,0,80,0,0
84278,-88.68247,4,1,0,80,0,0
84378,-88.48902,4,1,0,80,0,0
84478,-88.296,4,1,0,80,0,0
84678,-87.9112,4,1,0,80,0,0
84778,-87.71943,4,1,0,80,0,0
84878,-87.528076,4,1,0,80,0,0
84978,-87.33714,4,1,0,80,0,0
85078,-87.14663,4,1,0,80,0,0
85177,-86.95652,4,1,0,80,0,0
85378,-85.62831,4,1,0,80,0,0
85578,-84.32685,4,1,0,80,0,0
85678,-83.68354,4,1,0,80,0,0
85878,-82.41164,4,1,0,80,0,0
85978,-81.78295,4,1,0,80,0,0
86078,-81.159065,4,1,0,80,0,0
86278,-79.925514,4,1,0,80,0,0
86378,-79.3158,4,1,0,80,0,0
86478,-78.71073,4,1,0,80,0,0
86578,-78.11028,4,1,0,80,0,0
86678,-77.514404,4,1,0,80,0,0
86778,-76.92308,4,1,0,80,0,0
86978,-83.33333,4,1,0,80,0,0
87178,-81.21961,4,1,0,80,0,0
87278,-80.18296,4,1,0,80,0,0
87478,-78.14915,4,1,0,80,0,0
87578,-77.15168,4,1,0,80,0,0
87678,-76.16693,4,1,0,80,0,0
87778,-75.194756,4,1,0,80,0,0
87878,-74.23499,4,1,0,80,0,0
87978,-73.287476,4,1,0,80,0,0
88078,-72.35206,4,1,0,80,0,0
88178,-71.42857,4,1,0,80,0,0
88378,-80,4,1,0,80,0,0
88478,-79.09357,4,1,0,80,0,0
88578,-78.1974,4,1,0,80,0,0
88678,-77.311386,4,1,0,80,0,0
88778,-76.435425,4,1,0,80,0,0
88878,-75.569374,4,1,0,80,0,0
88978,-74.71314,4,1,0,80,0,0
89078,-73.866615,4,1,0,80,0,0
89178,-73.02967,4,1,0,80,0,0
89278,-72.20222,4,1,0,80,0,0
89378,-71.384125,4,1,0,80,0,0
89478,-70.57532,4,1,0,80,0,0
89578,-69.77568,4,1,0,80,0,0
89678,-68.985085,4,1,0,80,0,0
89778,-68.20345,4,1,0,80,0,0
89878,-67.43069,4,1,0,80,0,0
89978,-66.666664,4,1,0,80,0,0
90378,-100,4,1,0,50,0,0
90478,-94.29421,4,1,0,50,0,0
90578,-88.91397,4,1,0,60,0,0
90678,-83.84072,4,1,0,60,0,0
90778,-79.056946,4,1,0,70,0,0
90878,-74.54611,4,1,0,70,0,0
90978,-70.29266,4,1,0,80,0,0
91078,-66.281906,4,1,0,80,0,0
91178,-62.5,4,1,0,100,0,0
91245,-100,4,1,0,20,0,0
91579,-71.4285714285714,4,1,0,91,0,1
103578,-71.42857,4,1,0,91,0,1
103628,-71.12123,4,1,0,91,0,1
103678,-70.815216,4,1,0,91,0,1
103728,-70.51051,4,1,0,91,0,1
103778,-70.20712,4,1,0,91,0,1
103878,-69.60425,4,1,0,91,0,1
103978,-69.006546,4,1,0,91,0,1
104078,-68.41399,4,1,0,91,0,1
104178,-67.826515,4,1,0,91,0,1
104228,-67.534676,4,1,0,91,0,1
104278,-67.244095,4,1,0,91,0,1
104328,-66.95475,4,1,0,91,0,1
104378,-66.666664,4,1,0,100,0,1
110779,-66.6666666666667,4,1,0,70,0,0
112379,-111.111111111111,4,1,0,70,0,0
112779,-111.111111111111,4,1,0,70,0,0
113978,-111.111115,4,1,0,80,0,0
114178,-106.923164,4,1,0,80,0,0
114378,-102.89307,4,1,0,80,0,0
114578,-99.014854,4,1,0,80,0,0
114678,-97.13093,4,1,0,80,0,0
114778,-95.28285,4,1,0,80,0,0
114878,-93.46992,4,1,0,80,0,0
114978,-91.691475,4,1,0,80,0,0
115078,-89.94689,4,1,0,80,0,0
115178,-88.23549,4,1,0,80,0,0
115378,-84.90976,4,1,0,80,0,0
115478,-83.29419,4,1,0,80,0,0
115578,-81.70938,4,1,0,80,0,0
115678,-80.15471,4,1,0,80,0,0
115778,-78.62962,4,1,0,80,0,0
115878,-77.13355,4,1,0,80,0,0
115978,-75.66595,4,1,0,80,0,0
116078,-74.22627,4,1,0,80,0,0
116178,-72.81399,4,1,0,80,0,0
116278,-71.42857,4,1,0,80,0,0
116379,-62.5,4,1,0,90,0,0
117178,-66.666664,4,1,0,90,0,0
117244,-68.323296,4,1,0,90,0,0
117311,-70.04714,4,1,0,90,0,0
117378,-71.81449,4,1,0,90,0,0
117444,-73.599045,4,1,0,90,0,0
117511,-75.456,4,1,0,90,0,0
117579,-80,4,1,0,90,0,0
120378,-62.5,4,1,0,90,0,0
120444,-63.2461,4,1,0,90,0,0
120511,-64.01261,4,1,0,90,0,0
120578,-64.788414,4,1,0,90,0,0
120678,-65.96385,4,1,0,90,0,0
120778,-67.16062,4,1,0,90,0,0
120844,-67.96236,4,1,0,90,0,0
120911,-68.78603,4,1,0,90,0,0
120978,-69.61968,4,1,0,90,0,0
121044,-70.450775,4,1,0,90,0,0
121111,-71.304596,4,1,0,90,0,0
121178,-72.168785,4,1,0,90,0,0
121278,-73.47813,4,1,0,90,0,0
121378,-74.81121,4,1,0,90,0,0
121478,-76.16849,4,1,0,90,0,0
121578,-77.5504,4,1,0,90,0,0
121678,-78.957375,4,1,0,90,0,0
121778,-80.38988,4,1,0,90,0,0
121878,-81.848366,4,1,0,90,0,0
121978,-83.33333,4,1,0,90,0,0
123579,-66.6666666666667,4,1,0,90,0,1
124779,-60.6060606060606,4,1,0,90,0,0
124844,-65.31566,4,1,0,90,0,0
124911,-68.30377,4,1,0,90,0,0
124978,-71.42857,4,1,0,90,0,0
125179,-66.6666666666667,4,1,0,90,0,1
125977,-62.5,4,1,0,90,0,1
126027,-63.51659,4,1,0,90,0,1
126077,-64.54972,4,1,0,90,0,1
126127,-65.599655,4,1,0,90,0,1
126177,-66.666664,4,1,0,90,0,1
126278,-63.927628,4,1,0,90,0,1
126328,-64.82037,4,1,0,90,0,1
126379,-65.725586,4,1,0,90,0,0
126428,-66.64343,4,1,0,90,0,0
126478,-68.4931506849315,4,1,0,90,0,0
126578,-70.4225352112676,4,1,0,90,0,0
126628,-70.444824,4,1,0,90,0,0
126678,-71.42857,4,1,0,90,0,0
126779,-66.666664,4,1,0,90,0,1
126978,-65.56334,4,1,0,90,0,1
127078,-65.01853,4,1,0,90,0,1
127178,-64.478264,4,1,0,90,0,1
127278,-63.94248,4,1,0,90,0,1
127378,-63.411156,4,1,0,90,0,1
127478,-62.884247,4,1,0,90,0,1
127578,-62.361706,4,1,0,90,0,1
127628,-62.10207,4,1,0,90,0,1
127678,-61.843513,4,1,0,90,0,1
127728,-61.586025,4,1,0,90,0,1
127778,-61.329628,4,1,0,90,0,1
127878,-60.820004,4,1,0,90,0,1
127978,-60.314625,4,1,0,90,0,1
128028,-60.063507,4,1,0,90,0,1
128078,-59.813442,4,1,0,90,0,1
128178,-59.316418,4,1,0,90,0,1
128228,-59.06946,4,1,0,90,0,1
128278,-58.823532,4,1,0,90,0,1
128379,-58.82353,4,1,0,70,0,0
128578,-63.45595,4,1,0,70,0,0
128678,-65.90722,4,1,0,70,0,0
128878,-71.09749,4,1,0,70,0,0
128978,-73.84394,4,1,0,70,0,0
129078,-76.6964950000002,4,1,0,70,0,0
129378,-85.932495,4,1,0,70,0,0
129578,-92.69978,4,1,0,70,0,0
129778,-100,4,1,0,70,0,0

[HitObjects]
353,125,979,5,8,0:0:0:0:
353,125,1079,1,8,0:0:0:0:
353,125,1179,1,0,0:0:0:0:
272,95,1279,1,8,0:0:0:0:
272,95,1379,1,0,0:0:0:0:
272,95,1579,1,8,0:0:0:0:
220,135,1979,1,4,0:0:0:0:
320,109,2179,1,8,0:0:0:0:
320,109,2279,1,0,0:0:0:0:
320,109,2379,1,8,0:0:0:0:
219,122,2579,1,0,0:0:0:0:
402,117,2779,1,8,0:0:0:0:
402,117,2879,1,8,0:0:0:0:
402,117,2979,1,0,0:0:0:0:
402,117,3179,1,8,0:0:0:0:
402,117,3379,1,0,0:0:0:0:
402,117,3579,1,8,0:0:0:0:
402,117,3779,1,0,0:0:0:0:
402,117,3879,1,0,0:0:0:0:
402,117,3979,1,8,0:0:0:0:
402,117,4179,1,0,0:0:0:0:
402,117,4279,1,8,0:0:0:0:
402,117,4379,1,8,0:0:0:0:
363,115,4579,1,0,0:0:0:0:
368,75,4779,1,8,0:0:0:0:
368,75,5179,1,0,0:0:0:0:
280,90,5279,1,0,0:0:0:0:
280,90,5379,1,0,0:0:0:0:
410,120,5479,1,0,0:0:0:0:
410,120,5579,1,8,0:0:0:0:
410,120,5779,1,0,0:0:0:0:
410,120,5879,1,8,0:0:0:0:
410,120,5979,1,0,0:0:0:0:
345,159,6179,1,8,0:0:0:0:
208,122,6379,1,8,0:0:0:0:
208,122,6579,1,0,0:0:0:0:
208,122,6679,1,0,0:0:0:0:
208,122,6779,1,8,0:0:0:0:
208,122,6979,1,0,0:0:0:0:
208,122,7179,1,8,0:0:0:0:
208,122,7379,1,8,0:0:0:0:
304,118,7479,1,8,0:0:0:0:
208,122,7579,1,0,0:0:0:0:
206,139,7979,5,8,0:0:0:0:
206,139,8079,1,8,0:0:0:0:
267,34,8179,1,8,0:0:0:0:
257,57,8279,1,8,0:0:0:0:
296,82,8379,1,0,0:0:0:0:
343,200,8579,1,8,0:0:0:0:
343,200,8679,1,0,0:0:0:0:
238,144,8879,1,8,0:0:0:0:
238,144,8979,1,0,0:0:0:0:
343,200,9179,1,8,0:0:0:0:
343,200,9279,1,0,0:0:0:0:
238,144,9479,1,8,0:0:0:0:
238,144,9579,1,0,0:0:0:0:
343,200,9779,1,8,0:0:0:0:
343,200,9879,1,0,0:0:0:0:
238,144,10079,1,0,0:0:0:0:
238,144,10179,1,8,0:0:0:0:
343,200,10379,1,0,0:0:0:0:
343,200,10479,1,8,0:0:0:0:
238,144,10679,1,0,0:0:0:0:
238,144,10779,1,8,0:0:0:0:
343,200,10979,1,0,0:0:0:0:
343,200,11079,1,8,0:0:0:0:
238,144,11279,1,0,0:0:0:0:
238,144,11379,1,8,0:0:0:0:
364,239,11579,1,0,0:0:0:0:
364,239,11679,1,0,0:0:0:0:
364,239,11779,1,8,0:0:0:0:
364,239,11879,1,8,0:0:0:0:
364,239,11979,1,0,0:0:0:0:
364,239,12179,1,8,0:0:0:0:
364,239,12379,1,8,0:0:0:0:
364,239,12479,1,0,0:0:0:0:
364,239,12579,1,8,0:0:0:0:
316,227,12679,1,8,0:0:0:0:
316,227,12779,1,0,0:0:0:0:
316,227,12979,1,8,0:0:0:0:
316,227,13179,1,0,0:0:0:0:
249,244,13979,1,0,0:0:0:0:
249,244,14079,1,8,0:0:0:0:
249,244,14179,1,0,0:0:0:0:
249,244,14379,1,8,0:0:0:0:
229,75,14579,1,8,0:0:0:0:
332,88,14779,1,0,0:0:0:0:
263,95,14879,1,0,0:0:0:0:
263,95,14979,1,8,0:0:0:0:
263,95,15079,1,8,0:0:0:0:
263,95,15179,1,0,0:0:0:0:
261,103,15579,1,0,0:0:0:0:
261,103,15779,1,8,0:0:0:0:
261,103,15879,1,0,0:0:0:0:
151,101,16079,1,0,0:0:0:0:
151,101,16179,1,8,0:0:0:0:
151,101,16379,1,0,0:0:0:0:
151,101,16479,1,0,0:0:0:0:
151,101,16579,1,8,0:0:0:0:
151,101,16779,1,0,0:0:0:0:
154,110,17179,1,0,0:0:0:0:
259,119,17279,1,8,0:0:0:0:
259,119,17479,1,0,0:0:0:0:
259,119,17579,1,8,0:0:0:0:
259,119,17779,1,0,0:0:0:0:
332,88,17979,1,0,0:0:0:0:
263,95,18079,1,0,0:0:0:0:
263,95,18179,1,8,0:0:0:0:
263,95,18279,1,8,0:0:0:0:
263,95,18379,1,0,0:0:0:0:
261,103,18779,1,0,0:0:0:0:
261,103,18979,1,8,0:0:0:0:
261,103,19079,1,0,0:0:0:0:
151,101,19279,1,0,0:0:0:0:
151,101,19379,1,8,0:0:0:0:
151,101,19579,1,0,0:0:0:0:
151,101,19679,1,0,0:0:0:0:
151,101,19779,1,8,0:0:0:0:
151,101,19979,1,0,0:0:0:0:
154,110,20379,1,0,0:0:0:0:
238,67,20579,1,8,0:0:0:0:
259,119,20779,1,0,0:0:0:0:
261,89,20879,1,0,0:0:0:0:
259,119,20979,1,8,0:0:0:0:
259,119,21179,1,0,0:0:0:0:
365,165,21279,1,0,0:0:0:0:
365,165,21379,1,8,0:0:0:0:
365,165,21479,1,8,0:0:0:0:
365,165,21579,1,0,0:0:0:0:
261,103,21979,1,0,0:0:0:0:
261,103,22179,1,8,0:0:0:0:
261,103,22279,1,0,0:0:0:0:
151,101,22479,1,0,0:0:0:0:
151,101,22579,1,8,0:0:0:0:
151,101,22779,1,0,0:0:0:0:
151,101,22879,1,0,0:0:0:0:
151,101,22979,1,8,0:0:0:0:
151,101,23179,1,0,0:0:0:0:
154,110,23579,1,0,0:0:0:0:
259,119,23679,1,8,0:0:0:0:
259,119,23879,1,0,0:0:0:0:
259,119,23979,1,8,0:0:0:0:
259,119,24179,1,0,0:0:0:0:
332,88,24379,1,0,0:0:0:0:
263,95,24579,1,8,0:0:0:0:
263,95,24679,1,8,0:0:0:0:
263,95,24779,1,0,0:0:0:0:
316,191,24979,1,0,0:0:0:0:
316,191,25179,1,8,0:0:0:0:
316,191,25279,1,8,0:0:0:0:
316,191,25379,1,8,0:0:0:0:
316,191,25479,1,8,0:0:0:0:
288,189,25579,1,0,0:0:0:0:
288,189,25779,1,8,0:0:0:0:
187,126,25979,1,4,0:0:0:0:
340,228,26379,1,8,0:0:0:0:
204,138,26579,1,4,0:0:0:0:
463,268,26979,1,0,0:0:0:0:
463,268,27079,1,0,0:0:0:0:
463,268,27179,1,8,0:0:0:0:
463,268,27279,1,8,0:0:0:0:
463,268,27379,1,8,0:0:0:0:
463,268,27579,1,4,0:0:0:0:
283,220,27979,1,0,0:0:0:0:
310,277,28079,1,8,0:0:0:0:
310,277,28279,1,8,0:0:0:0:
310,277,28479,1,0,0:0:0:0:
174,235,28579,1,8,0:0:0:0:
174,235,28779,1,0,0:0:0:0:
229,140,28979,1,8,0:0:0:0:
229,140,29179,1,0,0:0:0:0:
230,163,29279,1,8,0:0:0:0:
313,49,29379,1,0,0:0:0:0:
230,163,29579,1,0,0:0:0:0:
188,138,29679,1,8,0:0:0:0:
188,138,29879,1,8,0:0:0:0:
188,138,30079,1,8,0:0:0:0:
188,138,30179,1,0,0:0:0:0:
235,125,30379,1,0,0:0:0:0:
463,268,30779,1,0,0:0:0:0:
294,224,30979,1,8,0:0:0:0:
283,220,31179,1,0,0:0:0:0:
310,277,31279,1,8,0:0:0:0:
310,277,31479,1,8,0:0:0:0:
310,277,31579,1,0,0:0:0:0:
174,235,31979,1,0,0:0:0:0:
229,140,32179,1,8,0:0:0:0:
229,140,32379,1,0,0:0:0:0:
230,163,32479,1,8,0:0:0:0:
230,163,32579,1,8,0:0:0:0:
230,163,32779,1,8,0:0:0:0:
188,138,32879,1,8,0:0:0:0:
307,147,32979,1,0,0:0:0:0:
255,73,33179,1,0,0:0:0:0:
188,138,33379,1,8,0:0:0:0:
235,125,33479,1,8,0:0:0:0:
235,125,33579,1,0,0:0:0:0:
235,125,33679,1,0,0:0:0:0:
184,116,33779,1,8,0:0:0:0:
463,268,33979,1,0,0:0:0:0:
283,220,34379,1,0,0:0:0:0:
310,277,34479,1,8,0:0:0:0:
310,277,34679,1,8,0:0:0:0:
310,277,34879,1,0,0:0:0:0:
174,235,34979,1,8,0:0:0:0:
174,235,35179,1,0,0:0:0:0:
229,140,35379,1,8,0:0:0:0:
229,140,35579,1,0,0:0:0:0:
230,163,35679,1,8,0:0:0:0:
230,163,35779,1,0,0:0:0:0:
230,163,35979,1,0,0:0:0:0:
188,138,36079,1,8,0:0:0:0:
188,138,36279,1,8,0:0:0:0:
188,138,36479,1,8,0:0:0:0:
188,138,36579,1,0,0:0:0:0:
235,125,36779,1,8,0:0:0:0:
184,116,37179,1,0,0:0:0:0:
221,184,37379,1,8,0:0:0:0:
221,184,37579,1,0,0:0:0:0:
221,184,37679,1,8,0:0:0:0:
254,69,37879,1,8,0:0:0:0:
177,57,37979,1,0,0:0:0:0:
225,57,38379,1,0,0:0:0:0:
220,61,38579,1,8,0:0:0:0:
438,263,38779,1,0,0:0:0:0:
220,61,38979,1,8,0:0:0:0:
438,263,39179,1,0,0:0:0:0:
438,263,39279,1,8,0:0:0:0:
217,171,39379,1,0,0:0:0:0:
217,171,39579,1,8,0:0:0:0:
217,171,39679,1,0,0:0:0:0:
217,171,39879,1,0,0:0:0:0:
217,171,39979,1,8,0:0:0:0:
217,171,40179,1,8,0:0:0:0:
242,113,40379,1,4,0:0:0:0:
354,107,40579,1,8,0:0:0:0:
354,107,40779,1,0,0:0:0:0:
276,115,40879,1,8,0:0:0:0:
276,115,41079,1,8,0:0:0:0:
276,115,41179,1,0,0:0:0:0:
193,56,41279,1,8,0:0:0:0:
193,56,41479,1,0,0:0:0:0:
193,56,41579,1,8,0:0:0:0:
193,56,41979,1,8,0:0:0:0:
193,56,42179,1,8,0:0:0:0:
193,56,42379,1,0,0:0:0:0:
186,58,42479,1,8,0:0:0:0:
197,50,42679,1,0,0:0:0:0:
197,50,42779,1,8,0:0:0:0:
197,50,42879,1,8,0:0:0:0:
197,50,42979,1,0,0:0:0:0:
197,50,43179,1,0,0:0:0:0:
197,50,43579,1,0,0:0:0:0:
260,64,43779,1,0,0:0:0:0:
260,64,43979,1,8,0:0:0:0:
260,64,44079,1,0,0:0:0:0:
260,64,44279,1,8,0:0:0:0:
260,64,44379,1,0,0:0:0:0:
255,39,44479,1,8,0:0:0:0:
232,69,44679,1,0,0:0:0:0:
232,69,44779,1,8,0:0:0:0:
232,69,45179,1,8,0:0:0:0:
248,64,45379,1,0,0:0:0:0:
248,64,45579,1,8,0:0:0:0:
250,120,45679,1,0,0:0:0:0:
250,120,45879,1,8,0:0:0:0:
212,120,46079,1,0,0:0:0:0:
191,118,46279,1,8,0:0:0:0:
192,121,46379,1,0,0:0:0:0:
296,62,46479,1,0,0:0:0:0:
296,62,46579,1,8,0:0:0:0:
242,113,46779,1,0,0:0:0:0:
354,107,46979,1,8,0:0:0:0:
354,107,47179,1,0,0:0:0:0:
276,115,47279,1,8,0:0:0:0:
276,115,47479,1,0,0:0:0:0:
276,115,47579,1,0,0:0:0:0:
193,56,47679,1,8,0:0:0:0:
193,56,47879,1,0,0:0:0:0:
193,56,47979,1,8,0:0:0:0:
193,56,48379,1,8,0:0:0:0:
193,56,48579,1,8,0:0:0:0:
193,56,48779,1,0,0:0:0:0:
186,58,48879,1,8,0:0:0:0:
197,50,49079,1,8,0:0:0:0:
197,50,49179,1,8,0:0:0:0:
197,50,49279,1,8,0:0:0:0:
197,50,49379,1,0,0:0:0:0:
326,60,49579,1,8,0:0:0:0:
197,50,49979,1,0,0:0:0:0:
260,64,50179,1,0,0:0:0:0:
260,64,50379,1,8,0:0:0:0:
260,64,50479,1,0,0:0:0:0:
260,64,50679,1,0,0:0:0:0:
260,64,50779,1,8,0:0:0:0:
260,64,50879,1,0,0:0:0:0:
232,69,51079,1,8,0:0:0:0:
232,69,51179,1,0,0:0:0:0:
232,69,51379,1,8,0:0:0:0:
232,69,51579,1,8,0:0:0:0:
248,64,51779,1,0,0:0:0:0:
248,64,51979,1,8,0:0:0:0:
250,120,52079,1,0,0:0:0:0:
250,120,52279,1,8,0:0:0:0:
212,120,52479,1,0,0:0:0:0:
191,117,52679,1,8,0:0:0:0:
192,121,52779,1,8,0:0:0:0:
305,95,52879,1,0,0:0:0:0:
192,121,52979,1,8,0:0:0:0:
242,113,53179,1,4,0:0:0:0:
354,107,53379,1,8,0:0:0:0:
354,107,53579,1,0,0:0:0:0:
276,115,53679,1,8,0:0:0:0:
276,115,53879,1,8,0:0:0:0:
276,115,53979,1,0,0:0:0:0:
193,56,54079,1,8,0:0:0:0:
193,56,54279,1,0,0:0:0:0:
193,56,54379,1,8,0:0:0:0:
193,56,54479,1,8,0:0:0:0:
193,56,54579,1,0,0:0:0:0:
193,56,54779,1,8,0:0:0:0:
193,56,54979,1,8,0:0:0:0:
193,56,55179,1,0,0:0:0:0:
186,58,55279,1,8,0:0:0:0:
197,50,55479,1,0,0:0:0:0:
197,50,55579,1,0,0:0:0:0:
197,50,55679,1,8,0:0:0:0:
197,50,55779,1,8,0:0:0:0:
214,35,55879,1,0,0:0:0:0:
197,50,55979,1,0,0:0:0:0:
197,50,56379,1,0,0:0:0:0:
260,64,56579,1,0,0:0:0:0:
260,64,56779,1,8,0:0:0:0:
260,64,56879,1,0,0:0:0:0:
260,64,57079,1,8,0:0:0:0:
260,64,57179,1,0,0:0:0:0:
260,64,57279,1,8,0:0:0:0:
232,69,57479,1,0,0:0:0:0:
232,69,57579,1,8,0:0:0:0:
232,69,57679,1,8,0:0:0:0:
232,69,57779,1,0,0:0:0:0:
232,69,57979,1,8,0:0:0:0:
248,64,58179,1,0,0:0:0:0:
248,64,58379,1,8,0:0:0:0:
250,120,58479,1,0,0:0:0:0:
250,120,58679,1,8,0:0:0:0:
212,120,58879,1,0,0:0:0:0:
191,118,59079,1,0,0:0:0:0:
192,121,59179,1,8,0:0:0:0:
305,95,59279,1,0,0:0:0:0:
192,121,59379,1,8,0:0:0:0:
242,113,59579,1,0,0:0:0:0:
354,107,59779,1,8,0:0:0:0:
354,107,59979,1,8,0:0:0:0:
276,115,60079,1,0,0:0:0:0:
276,115,60279,1,8,0:0:0:0:
221,53,60379,1,0,0:0:0:0:
193,56,60479,1,8,0:0:0:0:
193,56,60679,1,0,0:0:0:0:
193,56,60779,1,8,0:0:0:0:
193,56,60879,1,8,0:0:0:0:
193,56,60979,1,0,0:0:0:0:
193,56,61179,1,8,0:0:0:0:
193,56,61379,1,8,0:0:0:0:
193,56,61579,1,0,0:0:0:0:
186,58,61679,1,8,0:0:0:0:
197,50,61879,1,0,0:0:0:0:
239,48,62079,1,8,0:0:0:0:
197,50,62179,1,8,0:0:0:0:
197,50,62279,1,0,0:0:0:0:
197,50,62379,1,0,0:0:0:0:
197,50,62479,1,8,0:0:0:0:
441,169,62579,1,8,0:0:0:0:
197,50,62779,1,4,0:0:0:0:
393,296,63179,1,8,0:0:0:0:
393,296,63279,1,0,0:0:0:0:
393,296,63479,1,0,0:0:0:0:
339,288,63679,1,0,0:0:0:0:
312,251,63779,1,8,0:0:0:0:
339,288,63979,1,0,0:0:0:0:
339,288,64179,1,8,0:0:0:0:
339,288,64979,1,0,0:0:0:0:
339,288,65079,1,0,0:0:0:0:
339,288,65179,1,8,0:0:0:0:
319,95,65979,1,12,0:0:0:0:
381,164,72379,5,8,0:0:0:0:
381,164,72479,1,8,0:0:0:0:
381,164,72579,1,0,0:0:0:0:
381,164,72779,1,8,0:0:0:0:
381,164,72979,1,8,0:0:0:0:
381,164,73179,1,0,0:0:0:0:
305,81,73279,1,8,0:0:0:0:
210,26,73479,1,0,0:0:0:0:
321,203,73979,1,8,0:0:0:0:
321,203,74179,1,0,0:0:0:0:
321,203,75579,1,8,0:0:0:0:
292,74,75679,1,8,0:0:0:0:
292,74,75779,1,0,0:0:0:0:
292,74,75979,1,8,0:0:0:0:
292,74,76179,1,8,0:0:0:0:
292,74,76379,1,0,0:0:0:0:
249,93,76479,1,8,0:0:0:0:
249,93,76679,1,0,0:0:0:0:
256,192,76879,12,0,78579,0:0:0:0:
242,113,78779,5,4,0:0:0:0:
354,107,78979,1,8,0:0:0:0:
354,107,79179,1,0,0:0:0:0:
276,115,79279,1,8,0:0:0:0:
276,115,79479,1,8,0:0:0:0:
193,56,79679,1,8,0:0:0:0:
193,56,79879,1,0,0:0:0:0:
193,56,79979,1,8,0:0:0:0:
193,56,80379,1,8,0:0:0:0:
193,56,80579,1,8,0:0:0:0:
193,56,80779,1,0,0:0:0:0:
186,58,80879,1,8,0:0:0:0:
197,50,81079,1,0,0:0:0:0:
197,50,81279,1,8,0:0:0:0:
197,50,81479,1,8,0:0:0:0:
197,50,81579,1,0,0:0:0:0:
197,50,81979,1,0,0:0:0:0:
260,64,82179,1,0,0:0:0:0:
260,64,82379,1,8,0:0:0:0:
260,64,82479,1,0,0:0:0:0:
260,64,82679,1,8,0:0:0:0:
260,64,82879,1,8,0:0:0:0:
232,69,83079,1,0,0:0:0:0:
232,69,83179,1,8,0:0:0:0:
232,69,83579,1,8,0:0:0:0:
248,64,83779,1,0,0:0:0:0:
248,64,83979,1,8,0:0:0:0:
250,120,84079,1,0,0:0:0:0:
250,120,84279,1,8,0:0:0:0:
212,120,84479,1,0,0:0:0:0:
191,118,84679,1,8,0:0:0:0:
192,121,84779,1,0,0:0:0:0:
305,95,84879,1,0,0:0:0:0:
192,121,84979,1,8,0:0:0:0:
242,113,85179,1,0,0:0:0:0:
354,107,85379,1,8,0:0:0:0:
354,107,85579,1,0,0:0:0:0:
276,115,85679,1,8,0:0:0:0:
276,115,85879,1,8,0:0:0:0:
193,56,86079,1,8,0:0:0:0:
193,56,86279,1,0,0:0:0:0:
193,56,86379,1,8,0:0:0:0:
193,56,86579,1,0,0:0:0:0:
193,56,86779,1,8,0:0:0:0:
193,56,86979,1,8,0:0:0:0:
193,56,87179,1,0,0:0:0:0:
186,58,87279,1,8,0:0:0:0:
197,50,87479,1,0,0:0:0:0:
197,50,87679,1,8,0:0:0:0:
197,50,87879,1,8,0:0:0:0:
197,50,87979,1,0,0:0:0:0:
197,50,88179,1,8,0:0:0:0:
197,50,88379,1,0,0:0:0:0:
336,123,88479,1,0,0:0:0:0:
260,64,88579,1,8,0:0:0:0:
260,64,88779,1,0,0:0:0:0:
286,82,88979,1,8,0:0:0:0:
260,64,89179,1,0,0:0:0:0:
248,24,89279,1,0,0:0:0:0:
232,69,89379,1,0,0:0:0:0:
232,69,89479,1,0,0:0:0:0:
232,69,89579,1,8,0:0:0:0:
232,69,89779,1,0,0:0:0:0:
232,69,89979,1,8,0:0:0:0:
285,324,90379,5,8,0:0:0:0:
285,324,90479,1,8,0:0:0:0:
285,324,90579,1,8,0:0:0:0:
285,324,90779,1,8,0:0:0:0:
285,324,90879,1,8,0:0:0:0:
285,324,90979,1,8,0:0:0:0:
285,324,91079,1,8,0:0:0:0:
285,324,91179,1,8,0:0:0:0:
269,108,91579,1,4,0:0:0:0:
382,194,91779,1,8,0:0:0:0:
382,194,91879,1,8,0:0:0:0:
382,194,91979,1,0,0:0:0:0:
382,194,92079,1,0,0:0:0:0:
382,194,92279,1,0,0:0:0:0:
382,194,92379,1,8,0:0:0:0:
382,194,92479,1,8,0:0:0:0:
382,194,92679,1,0,0:0:0:0:
382,194,92779,1,8,0:0:0:0:
382,194,92879,1,0,0:0:0:0:
382,194,92979,1,0,0:0:0:0:
382,194,93179,1,8,0:0:0:0:
382,194,93379,1,0,0:0:0:0:
279,160,93479,1,8,0:0:0:0:
279,160,93579,1,8,0:0:0:0:
279,160,93679,1,0,0:0:0:0:
279,160,93879,1,0,0:0:0:0:
279,160,93979,1,8,0:0:0:0:
279,160,94079,1,8,0:0:0:0:
279,160,94279,1,0,0:0:0:0:
279,160,94379,1,8,0:0:0:0:
279,160,94779,1,0,0:0:0:0:
279,160,94979,1,8,0:0:0:0:
279,160,95079,1,0,0:0:0:0:
169,135,95179,1,8,0:0:0:0:
169,135,95279,1,8,0:0:0:0:
169,135,95479,1,0,0:0:0:0:
169,135,95579,1,8,0:0:0:0:
232,86,95679,1,0,0:0:0:0:
232,86,95879,1,8,0:0:0:0:
254,146,95979,1,0,0:0:0:0:
254,146,96079,1,0,0:0:0:0:
254,146,96179,1,8,0:0:0:0:
254,146,96379,1,0,0:0:0:0:
254,146,96579,1,8,0:0:0:0:
254,146,96679,1,0,0:0:0:0:
231,92,96779,1,8,0:0:0:0:
232,86,96879,1,8,0:0:0:0:
231,92,97079,1,8,0:0:0:0:
217,34,97179,1,8,0:0:0:0:
217,34,97279,1,0,0:0:0:0:
217,34,97479,1,0,0:0:0:0:
176,45,97579,1,0,0:0:0:0:
176,45,97679,1,8,0:0:0:0:
176,45,97779,1,8,0:0:0:0:
176,45,97979,1,4,0:0:0:0:
382,194,98179,1,8,0:0:0:0:
382,194,98279,1,8,0:0:0:0:
382,194,98379,1,0,0:0:0:0:
382,194,98479,1,8,0:0:0:0:
382,194,98679,1,0,0:0:0:0:
382,194,98779,1,8,0:0:0:0:
382,194,98879,1,8,0:0:0:0:
382,194,99079,1,8,0:0:0:0:
382,194,99179,1,0,0:0:0:0:
382,194,99279,1,0,0:0:0:0:
382,194,99379,1,8,0:0:0:0:
382,194,99579,1,8,0:0:0:0:
382,194,99779,1,0,0:0:0:0:
279,160,99879,1,8,0:0:0:0:
279,160,99979,1,0,0:0:0:0:
279,160,100079,1,8,0:0:0:0:
279,160,100279,1,0,0:0:0:0:
279,160,100379,1,8,0:0:0:0:
279,160,100479,1,8,0:0:0:0:
279,160,100679,1,0,0:0:0:0:
279,160,100779,1,8,0:0:0:0:
279,160,101179,1,0,0:0:0:0:
279,160,101379,1,0,0:0:0:0:
279,160,101479,1,0,0:0:0:0:
169,135,101579,1,8,0:0:0:0:
169,135,101679,1,8,0:0:0:0:
169,135,101879,1,0,0:0:0:0:
169,135,101979,1,8,0:0:0:0:
232,86,102079,1,0,0:0:0:0:
232,86,102279,1,8,0:0:0:0:
254,146,102379,1,0,0:0:0:0:
254,146,102479,5,8,0:0:0:0:
254,146,102579,1,0,0:0:0:0:
254,146,102779,1,8,0:0:0:0:
254,146,102979,1,8,0:0:0:0:
254,146,103079,1,0,0:0:0:0:
231,92,103179,1,8,0:0:0:0:
232,86,103279,1,0,0:0:0:0:
231,92,103479,1,0,0:0:0:0:
217,34,103579,1,8,0:0:0:0:
164,105,103679,1,0,0:0:0:0:
217,34,103879,1,8,0:0:0:0:
270,91,103979,1,0,0:0:0:0:
176,45,104079,1,0,0:0:0:0:
176,45,104179,1,8,0:0:0:0:
382,194,104379,1,4,0:0:0:0:
382,194,104579,1,8,0:0:0:0:
382,194,104679,1,8,0:0:0:0:
382,194,104779,1,0,0:0:0:0:
382,194,104979,1,8,0:0:0:0:
382,194,105179,1,0,0:0:0:0:
382,194,105279,1,0,0:0:0:0:
382,194,105379,1,8,0:0:0:0:
382,194,105479,1,0,0:0:0:0:
382,194,105579,1,8,0:0:0:0:
382,194,105779,1,0,0:0:0:0:
382,194,105979,1,0,0:0:0:0:
279,160,106179,1,8,0:0:0:0:
279,160,106279,1,0,0:0:0:0:
279,160,106379,1,8,0:0:0:0:
279,160,106579,1,8,0:0:0:0:
279,160,106779,1,0,0:0:0:0:
279,160,106879,1,0,0:0:0:0:
279,160,106979,1,8,0:0:0:0:
279,160,107079,1,8,0:0:0:0:
279,160,107179,1,0,0:0:0:0:
279,160,107579,1,0,0:0:0:0:
169,135,107779,1,8,0:0:0:0:
169,135,107879,1,8,0:0:0:0:
169,135,107979,1,0,0:0:0:0:
169,135,108179,1,8,0:0:0:0:
232,86,108379,1,8,0:0:0:0:
232,86,108479,1,8,0:0:0:0:
254,146,108579,1,0,0:0:0:0:
254,146,108679,1,0,0:0:0:0:
254,146,108779,1,8,0:0:0:0:
254,146,108979,1,0,0:0:0:0:
254,146,109179,1,8,0:0:0:0:
254,146,109279,1,0,0:0:0:0:
231,92,109379,1,8,0:0:0:0:
232,86,109479,1,8,0:0:0:0:
231,92,109579,1,0,0:0:0:0:
217,34,109779,1,0,0:0:0:0:
217,34,109879,1,0,0:0:0:0:
217,34,109979,1,8,0:0:0:0:
306,183,110079,1,8,0:0:0:0:
176,45,110179,1,0,0:0:0:0:
176,45,110379,1,8,0:0:0:0:
176,45,110479,1,8,0:0:0:0:
176,45,110579,1,8,0:0:0:0:
339,253,110679,1,8,0:0:0:0:
356,305,110779,5,4,0:0:0:0:
367,304,112779,1,0,0:0:0:0:
367,304,113179,1,8,0:0:0:0:
367,304,113579,1,8,0:0:0:0:
367,304,113979,1,0,0:0:0:0:
367,304,114179,1,0,0:0:0:0:
367,304,114379,1,8,0:0:0:0:
367,304,114579,1,0,0:0:0:0:
367,304,114679,1,8,0:0:0:0:
367,304,114779,1,0,0:0:0:0:
367,304,114979,1,0,0:0:0:0:
268,292,115179,1,8,0:0:0:0:
268,292,115379,1,8,0:0:0:0:
268,292,115479,1,8,0:0:0:0:
268,292,115579,1,0,0:0:0:0:
213,162,115779,1,0,0:0:0:0:
213,162,115979,1,8,0:0:0:0:
212,167,116079,5,0,0:0:0:0:
212,167,116179,1,8,0:0:0:0:
244,71,116379,1,12,0:0:0:0:
453,202,116679,1,12,0:0:0:0:
453,202,116979,1,12,0:0:0:0:
412,98,117179,5,4,0:0:0:0:
412,98,117579,1,0,0:0:0:0:
393,81,117679,1,0,0:0:0:0:
393,81,117779,1,8,0:0:0:0:
272,60,117979,1,8,0:0:0:0:
257,15,118079,1,8,0:0:0:0:
257,20,118179,1,0,0:0:0:0:
257,20,118279,1,0,0:0:0:0:
257,20,118379,1,8,0:0:0:0:
257,20,118579,1,0,0:0:0:0:
257,20,118979,1,8,0:0:0:0:
257,20,119179,1,0,0:0:0:0:
257,20,119279,1,8,0:0:0:0:
215,41,119479,1,0,0:0:0:0:
215,41,119579,1,8,0:0:0:0:
215,41,119779,1,0,0:0:0:0:
215,41,119979,1,8,0:0:0:0:
215,41,120079,1,0,0:0:0:0:
215,41,120179,1,8,0:0:0:0:
215,41,120379,1,0,0:0:0:0:
345,108,120779,1,8,0:0:0:0:
345,108,120879,1,8,0:0:0:0:
345,108,120979,1,0,0:0:0:0:
345,108,121179,1,8,0:0:0:0:
283,95,121379,1,0,0:0:0:0:
209,74,121479,1,0,0:0:0:0:
179,53,121579,1,8,0:0:0:0:
179,53,121679,1,8,0:0:0:0:
179,53,121779,1,0,0:0:0:0:
179,53,121979,1,0,0:0:0:0:
179,53,122179,1,8,0:0:0:0:
179,53,122279,1,0,0:0:0:0:
242,41,122479,1,8,0:0:0:0:
242,41,122679,1,0,0:0:0:0:
242,41,122779,1,8,0:0:0:0:
242,41,123179,1,8,0:0:0:0:
242,41,123379,1,8,0:0:0:0:
242,41,123579,1,4,0:0:0:0:
407,184,123779,1,8,0:0:0:0:
407,184,123879,1,8,0:0:0:0:
407,184,123979,1,0,0:0:0:0:
407,184,124079,1,8,0:0:0:0:
407,184,124179,1,0,0:0:0:0:
311,142,124379,1,8,0:0:0:0:
311,142,124479,1,8,0:0:0:0:
311,142,124579,1,0,0:0:0:0:
311,142,124779,1,8,0:0:0:0:
422,195,125179,1,4,0:0:0:0:
394,114,125379,1,8,0:0:0:0:
394,114,125479,1,0,0:0:0:0:
394,114,125579,1,0,0:0:0:0:
277,108,125679,1,0,0:0:0:0:
277,108,125779,1,8,0:0:0:0:
243,48,125979,1,0,0:0:0:0:
311,115,126079,1,0,0:0:0:0:
297,95,126179,1,8,0:0:0:0:
339,24,126379,1,8,0:0:0:0:
254,58,126479,1,0,0:0:0:0:
251,50,126579,1,8,0:0:0:0:
422,195,126779,1,4,0:0:0:0:
422,138,126979,1,8,0:0:0:0:
422,138,127079,1,8,0:0:0:0:
422,138,127179,1,0,0:0:0:0:
422,138,127279,1,0,0:0:0:0:
422,138,127379,1,8,0:0:0:0:
416,197,127579,1,8,0:0:0:0:
416,197,127779,1,0,0:0:0:0:
325,175,127879,1,0,0:0:0:0:
299,187,127979,1,8,0:0:0:0:
299,187,128079,1,8,0:0:0:0:
299,187,128179,1,8,0:0:0:0:
322,109,128379,1,0,0:0:0:0:
385,169,128579,1,8,0:0:0:0:
425,168,128679,1,0,0:0:0:0:
377,198,128879,1,0,0:0:0:0:
368,113,128979,1,0,0:0:0:0:
385,169,129079,1,8,0:0:0:0:
407,269,129379,1,0,0:0:0:0:
407,269,129579,1,8,0:0:0:0:
343,178,129779,1,0,0:0:0:0:
