osu file format v14

[General]
AudioFilename: audio.mp3
AudioLeadIn: 0
PreviewTime: 14729
Countdown: 0
SampleSet: Normal
StackLeniency: 0.7
Mode: 1
LetterboxInBreaks: 0
WidescreenStoryboard: 0

[Editor]
Bookmarks: 14769,27569,40369,53169,62769,78769,91569,117169
DistanceSpacing: 0.5
BeatDivisor: 8
GridSize: 32
TimelineZoom: 1.3

[Metadata]
Title:Primatrix
TitleUnicode:Primatrix
Artist:Silentroom
ArtistUnicode:Silentroom
Creator:op45667
Version:Muzukashii
Source:BOFU2017 - LEGENDA EST A MYTH -
Tags:fa featured artist instrumental electronic hi-tech extreme memory waves バンバンアカウント作成太郎 bang bang account creation taro bms of fighters ultimate
BeatmapID:3918945
BeatmapSetID:1901019

[Difficulty]
HPDrainRate:6
CircleSize:5
OverallDifficulty:5
ApproachRate:5
SliderMultiplier:1.4
SliderTickRate:1

[Events]
//Background and Video events
0,0,"ddpcpd5-2652a1e9-8d33-46d4-95b7-84fccb3a8694_auto_x2.jpg",0,-80
//Break Periods
2,66179,71179
//Storyboard Layer 0 (Background)
//Storyboard Layer 1 (Fail)
//Storyboard Layer 2 (Pass)
//Storyboard Layer 3 (Foreground)
//Storyboard Layer 4 (Overlay)
//Storyboard Sound Samples

[TimingPoints]
379,400,4,1,0,60,1,8
979,-100,4,1,0,60,0,0
1979,400,4,1,0,80,1,0
1979,-100,4,1,0,80,0,0
14779,-100,4,1,0,70,0,0
27579,-100,4,1,0,80,0,0
40379,-90.9090909090909,4,1,0,90,0,1
62779,-100,4,1,0,80,0,0
63179,-100,4,1,0,80,0,0
66045,-100,4,1,0,30,0,0
72379,-100,4,1,0,70,0,0
76779,-100,4,1,0,50,0,0
78779,-100,4,1,0,80,0,0
90379,-100,4,1,0,50,0,0
90579,-100,4,1,0,60,0,0
90779,-100,4,1,0,70,0,0
90979,-100,4,1,0,80,0,0
91179,-100,4,1,0,100,0,0
91245,-100,4,1,0,20,0,0
91579,-90.9090909090909,4,1,0,91,0,1
104379,-86.9565217391304,4,1,0,100,0,1
110779,-86.9565217391304,4,1,0,70,0,0
112379,-100,4,1,0,70,0,0
112779,-100,4,1,0,70,0,0
113979,-100,4,1,0,80,0,0
116379,-100,4,1,0,90,0,0
117179,-100,4,1,0,90,0,0
123579,-90.9090909090909,4,1,0,90,0,1
124779,-100,4,1,0,90,0,0
125179,-90.9090909090909,4,1,0,90,0,1
126379,-90.9090909090909,4,1,0,90,0,0
126779,-90.9090909090909,4,1,0,90,0,1
128379,-90.9090909090909,4,1,0,70,0,0
128979,-100,4,1,0,70,0,0

[HitObjects]
192,288,979,5,8,0:0:0:0:
192,288,1079,1,8,0:0:0:0:
192,288,1179,1,8,0:0:0:0:
256,192,1379,1,0,0:0:0:0:
256,192,1579,1,8,0:0:0:0:
256,224,1979,1,4,0:0:0:0:
256,224,2179,1,8,0:0:0:0:
256,224,2379,1,8,0:0:0:0:
256,224,2579,1,0,0:0:0:0:
320,256,2979,1,0,0:0:0:0:
320,256,3179,1,8,0:0:0:0:
320,256,3379,1,0,0:0:0:0:
320,256,3779,1,0,0:0:0:0:
320,256,3979,1,8,0:0:0:0:
320,256,4179,1,0,0:0:0:0:
192,256,4379,1,0,0:0:0:0:
192,256,4479,1,0,0:0:0:0:
192,256,4579,1,0,0:0:0:0:
192,256,4779,1,8,0:0:0:0:
352,256,5179,1,0,0:0:0:0:
286,53,5279,1,0,0:0:0:0:
352,256,5379,1,0,0:0:0:0:
352,256,5579,1,8,0:0:0:0:
352,256,5779,1,0,0:0:0:0:
288,288,5979,1,0,0:0:0:0:
288,288,6379,1,8,0:0:0:0:
288,288,6779,1,8,0:0:0:0:
128,288,7179,1,8,0:0:0:0:
128,288,7379,1,0,0:0:0:0:
128,288,7579,1,8,0:0:0:0:
128,288,7779,1,0,0:0:0:0:
128,288,7979,1,8,0:0:0:0:
128,288,8079,1,8,0:0:0:0:
128,288,8179,1,8,0:0:0:0:
128,288,8379,1,0,0:0:0:0:
128,288,8679,1,8,0:0:0:0:
128,288,8979,1,0,0:0:0:0:
128,288,9279,1,8,0:0:0:0:
192,288,9579,1,0,0:0:0:0:
192,288,9879,1,0,0:0:0:0:
192,288,10179,1,0,0:0:0:0:
192,288,10479,1,8,0:0:0:0:
192,288,10779,1,0,0:0:0:0:
192,288,11079,1,8,0:0:0:0:
192,288,11379,1,0,0:0:0:0:
192,288,11579,1,0,0:0:0:0:
192,288,11779,1,8,0:0:0:0:
192,288,11979,1,8,0:0:0:0:
192,288,12379,1,0,0:0:0:0:
296,90,12479,1,0,0:0:0:0:
192,288,12579,1,0,0:0:0:0:
192,288,12779,1,8,0:0:0:0:
192,288,12979,1,8,0:0:0:0:
192,288,13179,1,0,0:0:0:0:
256,256,13979,1,0,0:0:0:0:
256,256,14179,1,8,0:0:0:0:
296,90,14279,1,8,0:0:0:0:
256,256,14379,1,8,0:0:0:0:
256,256,14579,1,0,0:0:0:0:
256,256,14779,1,12,0:0:0:0:
256,256,15179,1,0,0:0:0:0:
256,256,15579,1,0,0:0:0:0:
256,256,15879,1,8,0:0:0:0:
256,256,16179,1,0,0:0:0:0:
288,288,16479,1,8,0:0:0:0:
288,288,16579,1,8,0:0:0:0:
320,224,16779,1,0,0:0:0:0:
384,320,17179,1,8,0:0:0:0:
256,256,17279,1,8,0:0:0:0:
320,224,17479,1,0,0:0:0:0:
256,288,17579,1,0,0:0:0:0:
256,224,17779,1,0,0:0:0:0:
192,288,17979,1,12,0:0:0:0:
192,288,18379,1,0,0:0:0:0:
192,288,18779,1,0,0:0:0:0:
256,128,19079,1,8,0:0:0:0:
192,288,19379,1,0,0:0:0:0:
320,288,19679,1,8,0:0:0:0:
224,128,19779,1,8,0:0:0:0:
288,256,19979,1,0,0:0:0:0:
416,256,20179,1,0,0:0:0:0:
320,256,20379,1,8,0:0:0:0:
192,32,20579,1,8,0:0:0:0:
160,224,20679,1,8,0:0:0:0:
96,160,20779,1,8,0:0:0:0:
96,160,20979,1,0,0:0:0:0:
320,256,21179,1,12,0:0:0:0:
320,256,21579,1,0,0:0:0:0:
320,256,21979,1,0,0:0:0:0:
320,256,22279,1,8,0:0:0:0:
192,192,22579,1,0,0:0:0:0:
320,256,22879,1,8,0:0:0:0:
240,20,22979,1,8,0:0:0:0:
320,256,23179,1,0,0:0:0:0:
320,256,23579,1,8,0:0:0:0:
192,192,23679,1,8,0:0:0:0:
192,192,23879,1,0,0:0:0:0:
192,192,23979,1,0,0:0:0:0:
288,256,24179,1,8,0:0:0:0:
288,256,24379,1,0,0:0:0:0:
288,256,24779,1,8,0:0:0:0:
288,256,24879,1,8,0:0:0:0:
288,256,24979,1,8,0:0:0:0:
288,256,25179,1,8,0:0:0:0:
288,256,25379,1,0,0:0:0:0:
288,192,25579,1,8,0:0:0:0:
256,128,25779,1,8,0:0:0:0:
256,128,25979,1,4,0:0:0:0:
256,128,26579,1,4,0:0:0:0:
256,128,26979,1,8,0:0:0:0:
256,128,27179,1,8,0:0:0:0:
256,128,27279,1,8,0:0:0:0:
256,128,27379,1,8,0:0:0:0:
288,160,27579,1,4,0:0:0:0:
224,288,27979,1,0,0:0:0:0:
224,288,28179,1,8,0:0:0:0:
224,288,28379,1,0,0:0:0:0:
224,288,28479,1,0,0:0:0:0:
224,288,28579,1,0,0:0:0:0:
224,288,28779,1,0,0:0:0:0:
224,288,28979,1,8,0:0:0:0:
224,256,29179,1,0,0:0:0:0:
256,256,29579,1,0,0:0:0:0:
256,256,29679,1,0,0:0:0:0:
256,256,29879,1,8,0:0:0:0:
416,320,30079,1,8,0:0:0:0:
416,320,30179,1,8,0:0:0:0:
352,288,30779,1,0,0:0:0:0:
288,256,31179,1,0,0:0:0:0:
256,256,31379,1,8,0:0:0:0:
256,256,31579,1,0,0:0:0:0:
256,256,31879,1,8,0:0:0:0:
256,256,31979,1,8,0:0:0:0:
256,256,32179,1,8,0:0:0:0:
256,256,32379,1,0,0:0:0:0:
227,85,32779,1,0,0:0:0:0:
272,38,32979,1,0,0:0:0:0:
320,96,33179,1,8,0:0:0:0:
198,35,33279,1,8,0:0:0:0:
210,73,33379,1,8,0:0:0:0:
320,96,33579,1,0,0:0:0:0:
212,40,33779,1,8,0:0:0:0:
288,224,33979,1,0,0:0:0:0:
288,224,34379,1,0,0:0:0:0:
288,224,34579,1,8,0:0:0:0:
352,256,34779,1,8,0:0:0:0:
192,192,34879,1,8,0:0:0:0:
352,256,34979,1,8,0:0:0:0:
352,288,35179,1,0,0:0:0:0:
224,160,35379,1,8,0:0:0:0:
224,160,35579,1,8,0:0:0:0:
224,160,35979,1,0,0:0:0:0:
224,160,36079,1,0,0:0:0:0:
192,64,36279,1,0,0:0:0:0:
384,160,36479,1,8,0:0:0:0:
384,160,36579,1,8,0:0:0:0:
352,160,37179,1,0,0:0:0:0:
256,224,37379,1,8,0:0:0:0:
256,224,37579,1,8,0:0:0:0:
256,224,37679,1,8,0:0:0:0:
256,224,37779,1,8,0:0:0:0:
256,224,37979,1,0,0:0:0:0:
296,78,38379,1,0,0:0:0:0:
384,320,38579,1,8,0:0:0:0:
320,288,38779,1,0,0:0:0:0:
320,288,39179,1,0,0:0:0:0:
320,288,39379,1,0,0:0:0:0:
448,320,39579,1,8,0:0:0:0:
352,288,39679,1,8,0:0:0:0:
224,256,39879,1,0,0:0:0:0:
224,256,39979,1,0,0:0:0:0:
320,224,40179,1,8,0:0:0:0:
288,224,40379,1,4,0:0:0:0:
384,320,40779,1,0,0:0:0:0:
384,320,40879,1,0,0:0:0:0:
384,320,41079,1,8,0:0:0:0:
128,256,41279,1,8,0:0:0:0:
160,256,41479,1,0,0:0:0:0:
192,160,41579,1,0,0:0:0:0:
224,224,41779,1,8,0:0:0:0:
352,256,41979,1,0,0:0:0:0:
384,320,42379,1,8,0:0:0:0:
384,320,42479,1,8,0:0:0:0:
384,320,42679,1,0,0:0:0:0:
128,256,42879,1,0,0:0:0:0:
160,256,43079,1,8,0:0:0:0:
192,160,43179,1,8,0:0:0:0:
204,67,43379,1,8,0:0:0:0:
263,22,43579,1,0,0:0:0:0:
352,256,43979,1,0,0:0:0:0:
352,256,44079,1,0,0:0:0:0:
352,256,44279,1,8,0:0:0:0:
352,256,44479,1,0,0:0:0:0:
245,28,44679,1,8,0:0:0:0:
352,256,44779,1,8,0:0:0:0:
352,256,44979,1,8,0:0:0:0:
352,224,45179,1,0,0:0:0:0:
448,320,45579,1,0,0:0:0:0:
448,320,45679,1,0,0:0:0:0:
352,288,45879,1,8,0:0:0:0:
352,288,46079,1,0,0:0:0:0:
352,288,46279,1,8,0:0:0:0:
352,288,46779,1,0,0:0:0:0:
384,256,47179,1,0,0:0:0:0:
384,256,47279,1,0,0:0:0:0:
288,288,47479,1,8,0:0:0:0:
288,256,47679,1,8,0:0:0:0:
288,256,47879,1,0,0:0:0:0:
356,68,47979,1,0,0:0:0:0:
288,256,48179,1,8,0:0:0:0:
288,224,48379,1,0,0:0:0:0:
288,224,48779,1,0,0:0:0:0:
288,224,48879,1,0,0:0:0:0:
256,192,49079,1,8,0:0:0:0:
288,224,49279,1,0,0:0:0:0:
160,64,49479,1,8,0:0:0:0:
160,64,49579,1,8,0:0:0:0:
160,64,49779,1,8,0:0:0:0:
160,64,49979,1,0,0:0:0:0:
160,64,50379,1,8,0:0:0:0:
160,64,50479,1,8,0:0:0:0:
160,64,50679,1,0,0:0:0:0:
192,96,50879,1,0,0:0:0:0:
192,96,51079,1,8,0:0:0:0:
192,96,51179,1,8,0:0:0:0:
192,96,51379,1,8,0:0:0:0:
192,96,51579,1,0,0:0:0:0:
192,256,51979,1,0,0:0:0:0:
192,256,52079,1,0,0:0:0:0:
384,256,52279,1,8,0:0:0:0:
384,256,52479,1,0,0:0:0:0:
294,58,52679,1,8,0:0:0:0:
192,256,53179,1,4,0:0:0:0:
192,256,53579,1,0,0:0:0:0:
192,256,53679,1,0,0:0:0:0:
192,256,53879,1,8,0:0:0:0:
192,256,54079,1,8,0:0:0:0:
192,256,54279,1,0,0:0:0:0:
192,256,54379,1,0,0:0:0:0:
160,224,54579,1,0,0:0:0:0:
160,224,54779,1,0,0:0:0:0:
189,26,54979,1,8,0:0:0:0:
160,224,55179,1,0,0:0:0:0:
251,66,55279,1,0,0:0:0:0:
219,31,55479,1,8,0:0:0:0:
160,224,55679,1,0,0:0:0:0:
160,224,55879,1,8,0:0:0:0:
160,224,55979,1,8,0:0:0:0:
238,51,56179,1,8,0:0:0:0:
160,224,56379,1,0,0:0:0:0:
160,224,56779,1,0,0:0:0:0:
251,66,56879,1,0,0:0:0:0:
219,31,57079,1,0,0:0:0:0:
160,224,57279,1,0,0:0:0:0:
160,224,57479,1,8,0:0:0:0:
160,224,57579,1,8,0:0:0:0:
238,51,57779,1,8,0:0:0:0:
160,224,57979,1,0,0:0:0:0:
254,61,58179,1,8,0:0:0:0:
160,224,58379,1,0,0:0:0:0:
251,66,58479,1,0,0:0:0:0:
219,31,58679,1,8,0:0:0:0:
160,224,58879,1,0,0:0:0:0:
160,224,59079,1,8,0:0:0:0:
160,224,59579,1,0,0:0:0:0:
160,224,59979,1,0,0:0:0:0:
251,66,60079,1,0,0:0:0:0:
219,31,60279,1,8,0:0:0:0:
160,224,60479,1,0,0:0:0:0:
160,224,60679,1,8,0:0:0:0:
160,224,60779,1,8,0:0:0:0:
238,51,60979,1,8,0:0:0:0:
160,224,61179,1,0,0:0:0:0:
203,40,61379,1,8,0:0:0:0:
160,224,61579,1,0,0:0:0:0:
251,66,61679,1,0,0:0:0:0:
219,31,61879,1,0,0:0:0:0:
160,224,62079,1,8,0:0:0:0:
160,224,62279,1,8,0:0:0:0:
160,224,62379,1,8,0:0:0:0:
238,51,62579,1,8,0:0:0:0:
160,224,62779,1,4,0:0:0:0:
288,288,63179,1,8,0:0:0:0:
288,288,63279,1,8,0:0:0:0:
288,288,63479,1,0,0:0:0:0:
192,192,63679,1,0,0:0:0:0:
192,192,63779,1,0,0:0:0:0:
224,192,63979,1,8,0:0:0:0:
256,160,64179,1,8,0:0:0:0:
392,58,64979,1,8,0:0:0:0:
173,40,65079,1,8,0:0:0:0:
173,40,65179,1,8,0:0:0:0:
256,160,65979,1,12,0:0:0:0:
158,138,72379,5,0,0:0:0:0:
158,138,72479,1,0,0:0:0:0:
158,138,72579,1,0,0:0:0:0:
348,83,72779,1,8,0:0:0:0:
333,85,73379,1,8,0:0:0:0:
224,192,74179,1,8,0:0:0:0:
256,160,75179,1,8,0:0:0:0:
224,160,75379,1,0,0:0:0:0:
224,160,75579,1,8,0:0:0:0:
266,31,75679,1,8,0:0:0:0:
266,31,75779,1,8,0:0:0:0:
256,192,75979,12,0,78179,0:0:0:0:
160,192,78779,5,4,0:0:0:0:
160,224,79179,1,8,0:0:0:0:
160,224,79479,1,0,0:0:0:0:
160,224,79679,1,8,0:0:0:0:
160,224,79879,1,0,0:0:0:0:
160,224,79979,1,0,0:0:0:0:
160,224,80379,1,0,0:0:0:0:
192,224,80779,1,0,0:0:0:0:
192,224,81079,1,8,0:0:0:0:
192,224,81279,1,8,0:0:0:0:
192,224,81479,1,0,0:0:0:0:
192,224,81579,1,0,0:0:0:0:
160,224,81979,1,0,0:0:0:0:
160,224,82379,1,8,0:0:0:0:
160,224,82679,1,0,0:0:0:0:
160,224,82879,1,8,0:0:0:0:
160,224,83079,1,0,0:0:0:0:
160,224,83179,1,0,0:0:0:0:
160,224,83579,1,0,0:0:0:0:
160,224,83979,1,8,0:0:0:0:
192,224,84279,1,0,0:0:0:0:
160,224,84479,1,8,0:0:0:0:
160,224,84679,1,8,0:0:0:0:
160,224,85179,1,0,0:0:0:0:
192,192,85379,1,8,0:0:0:0:
192,192,85579,1,0,0:0:0:0:
421,78,85679,1,0,0:0:0:0:
192,192,85879,1,8,0:0:0:0:
347,57,86079,1,0,0:0:0:0:
192,192,86179,1,0,0:0:0:0:
192,192,86379,1,0,0:0:0:0:
192,192,86779,1,0,0:0:0:0:
192,192,86979,1,0,0:0:0:0:
192,192,87179,1,8,0:0:0:0:
367,177,87279,1,8,0:0:0:0:
192,192,87479,1,0,0:0:0:0:
249,38,87679,1,8,0:0:0:0:
192,192,87779,1,8,0:0:0:0:
192,192,87979,1,0,0:0:0:0:
192,192,88379,1,0,0:0:0:0:
128,160,88479,1,0,0:0:0:0:
128,160,88579,1,0,0:0:0:0:
255,33,88779,1,8,0:0:0:0:
128,160,88979,1,0,0:0:0:0:
253,49,89179,1,8,0:0:0:0:
128,160,89279,1,8,0:0:0:0:
128,160,89379,1,8,0:0:0:0:
128,160,89579,1,0,0:0:0:0:
128,160,89779,1,8,0:0:0:0:
128,160,89979,1,0,0:0:0:0:
128,160,90379,1,8,0:0:0:0:
128,160,90579,1,0,0:0:0:0:
128,160,90779,1,8,0:0:0:0:
322,37,90879,1,8,0:0:0:0:
322,37,90979,1,8,0:0:0:0:
288,224,91579,1,4,0:0:0:0:
343,155,91779,1,8,0:0:0:0:
384,320,91979,1,0,0:0:0:0:
384,320,92079,1,0,0:0:0:0:
384,320,92279,1,8,0:0:0:0:
128,256,92479,1,8,0:0:0:0:
160,256,92679,1,0,0:0:0:0:
192,160,92779,1,0,0:0:0:0:
224,224,92979,1,8,0:0:0:0:
352,256,93179,1,0,0:0:0:0:
259,74,93379,1,0,0:0:0:0:
384,320,93579,1,8,0:0:0:0:
384,320,93679,1,8,0:0:0:0:
384,320,93879,1,0,0:0:0:0:
128,256,94079,1,0,0:0:0:0:
160,256,94279,1,8,0:0:0:0:
192,160,94379,1,8,0:0:0:0:
204,67,94579,1,8,0:0:0:0:
263,22,94779,1,0,0:0:0:0:
389,200,94979,1,8,0:0:0:0:
352,256,95179,1,0,0:0:0:0:
352,256,95279,1,0,0:0:0:0:
352,256,95479,1,8,0:0:0:0:
352,256,95679,1,0,0:0:0:0:
245,28,95879,1,8,0:0:0:0:
352,256,95979,1,8,0:0:0:0:
352,256,96179,1,8,0:0:0:0:
352,224,96379,1,0,0:0:0:0:
283,91,96579,1,8,0:0:0:0:
448,320,96779,1,0,0:0:0:0:
448,320,96879,1,0,0:0:0:0:
352,288,97079,1,8,0:0:0:0:
352,288,97279,1,0,0:0:0:0:
352,288,97479,1,8,0:0:0:0:
352,288,97979,1,4,0:0:0:0:
389,200,98179,1,8,0:0:0:0:
384,256,98379,1,0,0:0:0:0:
384,256,98479,1,0,0:0:0:0:
288,288,98679,1,8,0:0:0:0:
288,256,98879,1,8,0:0:0:0:
288,256,99079,1,0,0:0:0:0:
356,68,99179,1,0,0:0:0:0:
288,256,99379,1,8,0:0:0:0:
288,224,99579,1,0,0:0:0:0:
297,87,99779,1,8,0:0:0:0:
288,224,99979,1,0,0:0:0:0:
288,224,100079,1,0,0:0:0:0:
256,192,100279,1,8,0:0:0:0:
288,224,100479,1,0,0:0:0:0:
160,64,100679,1,8,0:0:0:0:
160,64,100779,1,8,0:0:0:0:
160,64,100979,1,8,0:0:0:0:
160,64,101179,1,0,0:0:0:0:
387,198,101379,1,8,0:0:0:0:
160,64,101579,1,8,0:0:0:0:
160,64,101679,1,8,0:0:0:0:
160,64,101879,1,0,0:0:0:0:
192,96,102079,1,0,0:0:0:0:
192,96,102279,1,8,0:0:0:0:
192,96,102379,1,8,0:0:0:0:
192,96,102579,1,8,0:0:0:0:
192,96,102779,1,0,0:0:0:0:
259,67,102979,1,8,0:0:0:0:
192,256,103179,1,0,0:0:0:0:
192,256,103279,1,0,0:0:0:0:
384,256,103479,1,8,0:0:0:0:
384,256,103679,1,0,0:0:0:0:
294,58,103879,1,8,0:0:0:0:
192,256,104379,1,4,0:0:0:0:
459,237,104579,1,8,0:0:0:0:
192,256,104779,1,0,0:0:0:0:
386,197,104879,1,0,0:0:0:0:
232,102,104979,1,0,0:0:0:0:
241,75,105079,1,0,0:0:0:0:
192,256,105279,1,8,0:0:0:0:
192,256,105479,1,0,0:0:0:0:
192,256,105579,1,0,0:0:0:0:
160,224,105779,1,8,0:0:0:0:
160,224,105979,1,0,0:0:0:0:
189,26,106179,1,8,0:0:0:0:
160,224,106379,1,0,0:0:0:0:
251,66,106479,1,0,0:0:0:0:
241,75,106579,1,0,0:0:0:0:
214,21,106679,1,0,0:0:0:0:
160,224,106879,1,8,0:0:0:0:
160,224,107079,1,8,0:0:0:0:
160,224,107179,1,8,0:0:0:0:
238,51,107379,1,8,0:0:0:0:
160,224,107579,1,0,0:0:0:0:
459,236,107779,1,8,0:0:0:0:
313,80,107979,1,0,0:0:0:0:
251,66,108079,1,0,0:0:0:0:
245,31,108179,1,0,0:0:0:0:
245,31,108279,1,0,0:0:0:0:
160,224,108479,1,0,0:0:0:0:
160,224,108679,1,8,0:0:0:0:
160,224,108779,1,8,0:0:0:0:
238,51,108979,1,8,0:0:0:0:
160,224,109179,1,0,0:0:0:0:
254,61,109379,1,8,0:0:0:0:
160,224,109579,1,0,0:0:0:0:
251,66,109679,1,0,0:0:0:0:
203,15,109779,1,0,0:0:0:0:
203,15,109879,1,0,0:0:0:0:
160,224,110079,1,8,0:0:0:0:
160,224,110279,1,8,0:0:0:0:
224,224,110779,5,4,0:0:0:0:
256,288,112779,5,0,0:0:0:0:
256,288,113179,1,8,0:0:0:0:
256,288,113579,1,8,0:0:0:0:
256,288,113979,1,0,0:0:0:0:
256,288,114179,1,0,0:0:0:0:
256,288,114379,1,8,0:0:0:0:
224,288,114779,1,8,0:0:0:0:
256,288,114979,1,0,0:0:0:0:
256,288,115179,1,8,0:0:0:0:
256,288,115579,1,0,0:0:0:0:
256,288,115779,1,8,0:0:0:0:
256,288,115979,1,0,0:0:0:0:
256,288,116079,1,0,0:0:0:0:
256,288,116179,1,0,0:0:0:0:
256,288,116379,1,12,0:0:0:0:
256,288,116679,1,12,0:0:0:0:
256,288,116979,1,12,0:0:0:0:
256,288,117179,1,4,0:0:0:0:
96,224,117779,1,8,0:0:0:0:
96,224,117979,1,0,0:0:0:0:
96,224,118079,1,0,0:0:0:0:
96,224,118279,1,8,0:0:0:0:
96,224,118379,1,8,0:0:0:0:
96,224,118579,1,0,0:0:0:0:
96,224,118979,1,8,0:0:0:0:
96,224,119179,1,0,0:0:0:0:
96,224,119479,1,0,0:0:0:0:
96,224,119579,1,8,0:0:0:0:
352,320,119979,1,8,0:0:0:0:
352,320,120079,1,8,0:0:0:0:
352,320,120179,1,8,0:0:0:0:
352,320,120379,1,0,0:0:0:0:
352,320,120779,1,8,0:0:0:0:
320,320,121179,1,8,0:0:0:0:
320,320,121579,1,8,0:0:0:0:
320,320,121679,1,8,0:0:0:0:
320,320,121879,1,0,0:0:0:0:
320,320,121979,1,0,0:0:0:0:
320,320,122279,1,0,0:0:0:0:
320,320,122679,1,0,0:0:0:0:
320,320,122779,1,8,0:0:0:0:
224,128,123179,1,8,0:0:0:0:
192,160,123379,1,8,0:0:0:0:
192,160,123579,1,4,0:0:0:0:
266,61,123979,1,0,0:0:0:0:
408,88,124079,1,0,0:0:0:0:
160,192,124179,1,0,0:0:0:0:
224,96,124379,1,8,0:0:0:0:
224,96,124579,1,0,0:0:0:0:
192,128,125179,1,4,0:0:0:0:
192,128,125579,1,0,0:0:0:0:
192,128,125779,1,0,0:0:0:0:
192,128,125979,1,8,0:0:0:0:
361,91,126079,1,8,0:0:0:0:
221,13,126279,1,8,0:0:0:0:
192,160,126379,1,8,0:0:0:0:
192,160,126479,1,8,0:0:0:0:
192,160,126779,1,4,0:0:0:0:
288,256,126979,1,8,0:0:0:0:
384,288,127079,1,8,0:0:0:0:
384,288,127179,1,8,0:0:0:0:
384,288,127379,1,8,0:0:0:0:
384,288,127579,1,0,0:0:0:0:
292,69,127679,1,0,0:0:0:0:
384,288,127779,1,0,0:0:0:0:
384,288,127979,1,8,0:0:0:0:
226,31,128079,1,8,0:0:0:0:
224,224,128179,1,8,0:0:0:0:
384,288,128379,1,0,0:0:0:0:
256,192,128979,1,8,0:0:0:0:
192,224,129079,1,8,0:0:0:0:
192,224,129379,1,0,0:0:0:0:
192,224,129579,1,8,0:0:0:0:
192,224,129779,1,0,0:0:0:0:
