osu file format v14

[General]
AudioFilename: audio.mp3
AudioLeadIn: 0
PreviewTime: 14729
Countdown: 0
SampleSet: Normal
StackLeniency: 0.7
Mode: 1
LetterboxInBreaks: 0
WidescreenStoryboard: 1

[Editor]
Bookmarks: 14769,27569,40369,53169,62769,78769,91569,117169
DistanceSpacing: 0.5
BeatDivisor: 4
GridSize: 32
TimelineZoom: 0.5999998

[Metadata]
Title:Primatrix
TitleUnicode:Primatrix
Artist:Silentroom
ArtistUnicode:Silentroom
Creator:op45667
Version:Kantan
Source:BOFU2017 - LEGENDA EST A MYTH -
Tags:fa featured artist instrumental electronic hi-tech extreme memory waves バンバンアカウント作成太郎 bang bang account creation taro bms of fighters ultimate
BeatmapID:3920171
BeatmapSetID:1901019

[Difficulty]
HPDrainRate:8
CircleSize:5
OverallDifficulty:3
ApproachRate:5
SliderMultiplier:1.4
SliderTickRate:1

[Events]
//Background and Video events
0,0,"ddpcpd5-2652a1e9-8d33-46d4-95b7-84fccb3a8694_auto_x2.jpg",0,-80
//Break Periods
2,66179,71179
2,75779,77579
//Storyboard Layer 0 (Background)
//Storyboard Layer 1 (Fail)
//Storyboard Layer 2 (Pass)
//Storyboard Layer 3 (Foreground)
//Storyboard Layer 4 (Overlay)
//Storyboard Sound Samples

[TimingPoints]
379,400,4,1,0,60,1,8
979,-100,4,1,0,60,0,0
1979,400,4,1,0,80,1,0
1979,-100,4,1,0,80,0,0
14779,-100,4,1,0,70,0,0
27579,-100,4,1,0,80,0,0
40379,-100,4,1,0,90,0,1
62779,-100,4,1,0,80,0,0
66045,-100,4,1,0,30,0,0
72379,-100,4,1,0,70,0,0
76779,-100,4,1,0,50,0,0
78779,-100,4,1,0,80,0,0
90379,-100,4,1,0,50,0,0
90579,-100,4,1,0,60,0,0
90779,-100,4,1,0,70,0,0
90979,-100,4,1,0,80,0,0
91179,-100,4,1,0,100,0,0
91245,-100,4,1,0,20,0,0
91579,-100,4,1,0,91,0,1
104379,-100,4,1,0,100,0,1
110779,-100,4,1,0,70,0,0
113979,-100,4,1,0,80,0,0
116379,-100,4,1,0,90,0,0
117179,-100,4,1,0,90,0,0
123579,-100,4,1,0,90,0,1
124779,-100,4,1,0,90,0,0
125179,-100,4,1,0,90,0,1
126379,-100,4,1,0,90,0,0
126779,-100,4,1,0,90,0,1
128379,-100,4,1,0,70,0,0

[HitObjects]
256,224,1979,5,4,0:0:0:0:
256,224,2579,1,0,0:0:0:0:
320,256,3379,1,0,0:0:0:0:
320,256,3979,1,8,0:0:0:0:
192,256,4579,1,0,0:0:0:0:
352,256,5179,1,8,0:0:0:0:
288,288,5979,1,0,0:0:0:0:
317,85,7179,1,8,0:0:0:0:
128,288,7579,1,8,0:0:0:0:
128,288,7979,1,8,0:0:0:0:
128,288,8379,1,0,0:0:0:0:
128,288,8979,1,8,0:0:0:0:
192,288,9579,1,0,0:0:0:0:
192,288,10179,1,8,0:0:0:0:
192,288,10779,1,8,0:0:0:0:
192,288,11579,1,0,0:0:0:0:
192,288,11979,1,8,0:0:0:0:
192,288,12379,1,0,0:0:0:0:
192,288,12779,1,8,0:0:0:0:
192,288,13179,1,0,0:0:0:0:
256,256,14779,1,12,0:0:0:0:
256,256,15179,1,0,0:0:0:0:
256,256,15579,1,8,0:0:0:0:
256,256,16179,1,0,0:0:0:0:
320,224,16779,1,0,0:0:0:0:
384,320,17179,1,8,0:0:0:0:
192,288,17979,1,12,0:0:0:0:
192,288,18379,1,0,0:0:0:0:
192,288,18779,1,0,0:0:0:0:
192,288,19379,1,8,0:0:0:0:
288,256,19979,1,0,0:0:0:0:
320,256,20379,1,8,0:0:0:0:
320,256,21179,1,12,0:0:0:0:
320,256,21579,1,0,0:0:0:0:
320,256,21979,1,8,0:0:0:0:
192,192,22579,1,8,0:0:0:0:
320,256,23179,1,0,0:0:0:0:
320,256,23579,1,8,0:0:0:0:
288,256,24379,1,0,0:0:0:0:
276,184,24779,1,8,0:0:0:0:
288,256,25179,1,8,0:0:0:0:
288,192,25579,1,8,0:0:0:0:
256,128,25979,1,4,0:0:0:0:
288,160,27579,1,4,0:0:0:0:
224,288,27979,1,8,0:0:0:0:
224,288,28379,1,0,0:0:0:0:
256,256,29579,1,8,0:0:0:0:
416,320,30179,1,8,0:0:0:0:
352,288,30779,1,0,0:0:0:0:
288,256,31179,1,0,0:0:0:0:
256,256,31579,1,8,0:0:0:0:
256,256,32379,1,0,0:0:0:0:
320,96,33179,1,0,0:0:0:0:
320,96,33579,1,8,0:0:0:0:
288,224,33979,1,0,0:0:0:0:
288,224,34379,1,8,0:0:0:0:
352,256,34779,1,8,0:0:0:0:
224,160,35979,1,0,0:0:0:0:
384,160,36579,1,8,0:0:0:0:
295,105,37179,1,0,0:0:0:0:
288,256,37579,1,0,0:0:0:0:
256,256,37979,1,8,0:0:0:0:
256,256,38379,1,8,0:0:0:0:
256,256,38779,1,0,0:0:0:0:
224,256,39979,1,8,0:0:0:0:
288,224,40379,1,4,0:0:0:0:
384,320,40779,1,0,0:0:0:0:
128,256,41179,1,8,0:0:0:0:
276,42,41979,1,0,0:0:0:0:
384,320,42379,1,8,0:0:0:0:
128,256,42779,1,0,0:0:0:0:
263,22,43579,1,0,0:0:0:0:
352,256,43979,1,0,0:0:0:0:
352,256,44379,1,8,0:0:0:0:
352,224,45179,1,8,0:0:0:0:
352,288,46779,1,0,0:0:0:0:
384,256,47179,1,0,0:0:0:0:
288,288,47579,1,8,0:0:0:0:
237,11,48379,1,0,0:0:0:0:
288,224,48779,1,0,0:0:0:0:
288,224,49179,1,0,0:0:0:0:
160,64,49979,1,0,0:0:0:0:
160,64,50379,1,8,0:0:0:0:
192,96,50779,1,0,0:0:0:0:
192,96,51179,1,8,0:0:0:0:
192,96,51579,1,0,0:0:0:0:
288,224,53179,1,4,0:0:0:0:
384,320,53579,1,0,0:0:0:0:
128,256,53979,1,8,0:0:0:0:
276,42,54779,1,8,0:0:0:0:
384,320,55179,1,8,0:0:0:0:
128,256,55579,1,0,0:0:0:0:
263,22,56379,1,8,0:0:0:0:
352,256,56779,1,0,0:0:0:0:
352,256,57179,1,8,0:0:0:0:
306,94,57579,1,8,0:0:0:0:
352,224,57979,1,0,0:0:0:0:
352,288,59579,1,0,0:0:0:0:
384,256,59979,1,0,0:0:0:0:
288,288,60379,1,8,0:0:0:0:
281,82,60779,1,8,0:0:0:0:
237,11,61179,1,0,0:0:0:0:
237,309,61579,1,0,0:0:0:0:
288,224,61979,1,8,0:0:0:0:
160,64,62779,5,4,0:0:0:0:
192,96,64179,1,8,0:0:0:0:
173,40,65179,1,0,0:0:0:0:
256,160,65979,1,12,0:0:0:0:
158,138,72379,5,0,0:0:0:0:
224,160,75579,1,0,0:0:0:0:
160,192,78779,5,4,0:0:0:0:
160,224,79579,1,8,0:0:0:0:
160,224,80379,1,0,0:0:0:0:
192,224,81179,1,8,0:0:0:0:
160,224,81979,1,0,0:0:0:0:
160,224,82779,1,0,0:0:0:0:
160,224,83579,1,8,0:0:0:0:
160,224,85179,1,0,0:0:0:0:
192,192,85579,1,0,0:0:0:0:
192,192,85979,1,8,0:0:0:0:
192,192,86779,1,0,0:0:0:0:
192,192,87179,1,0,0:0:0:0:
192,192,87579,1,8,0:0:0:0:
192,192,88379,1,0,0:0:0:0:
255,33,88779,1,8,0:0:0:0:
253,49,89179,1,8,0:0:0:0:
128,160,89579,1,8,0:0:0:0:
128,160,89979,1,0,0:0:0:0:
250,57,91179,1,8,0:0:0:0:
288,224,91579,1,4,0:0:0:0:
384,320,91979,1,0,0:0:0:0:
384,320,92379,1,8,0:0:0:0:
160,256,92779,1,0,0:0:0:0:
224,224,93179,1,8,0:0:0:0:
384,320,93979,1,8,0:0:0:0:
160,256,94379,1,8,0:0:0:0:
263,22,94779,1,0,0:0:0:0:
352,256,95579,1,8,0:0:0:0:
245,28,95979,1,0,0:0:0:0:
352,224,96379,1,8,0:0:0:0:
352,288,97979,1,4,0:0:0:0:
384,256,98379,1,0,0:0:0:0:
288,288,98779,1,8,0:0:0:0:
288,256,99179,1,8,0:0:0:0:
288,224,99579,1,0,0:0:0:0:
256,192,100379,1,8,0:0:0:0:
160,64,100779,1,8,0:0:0:0:
160,64,101179,1,0,0:0:0:0:
192,96,101979,1,0,0:0:0:0:
192,96,102379,1,8,0:0:0:0:
192,96,102779,1,0,0:0:0:0:
192,256,104379,1,4,0:0:0:0:
192,256,104779,1,0,0:0:0:0:
192,256,105179,1,8,0:0:0:0:
160,224,105579,1,8,0:0:0:0:
160,224,105979,1,0,0:0:0:0:
160,224,106779,1,8,0:0:0:0:
459,236,107579,1,8,0:0:0:0:
313,80,107979,1,8,0:0:0:0:
160,224,108379,1,0,0:0:0:0:
238,51,108779,1,0,0:0:0:0:
160,224,109179,1,8,0:0:0:0:
160,224,109579,1,8,0:0:0:0:
203,15,109979,1,0,0:0:0:0:
224,224,110779,5,4,0:0:0:0:
256,288,112779,5,0,0:0:0:0:
256,288,113979,1,0,0:0:0:0:
224,288,114779,1,8,0:0:0:0:
256,288,115579,1,0,0:0:0:0:
256,288,115979,1,0,0:0:0:0:
256,288,116379,1,12,0:0:0:0:
256,288,117179,1,4,0:0:0:0:
96,224,117979,1,8,0:0:0:0:
96,224,118579,1,0,0:0:0:0:
228,93,119179,1,0,0:0:0:0:
96,224,119579,1,8,0:0:0:0:
352,320,120779,1,0,0:0:0:0:
320,320,121179,1,8,0:0:0:0:
320,320,121979,1,0,0:0:0:0:
320,320,122779,1,8,0:0:0:0:
192,160,123579,1,4,0:0:0:0:
266,61,123979,1,0,0:0:0:0:
224,96,124379,1,8,0:0:0:0:
192,128,125179,1,4,0:0:0:0:
192,128,125579,1,0,0:0:0:0:
192,128,125979,1,8,0:0:0:0:
192,160,126779,1,4,0:0:0:0:
384,288,127179,1,8,0:0:0:0:
384,288,127579,1,0,0:0:0:0:
384,288,127979,1,8,0:0:0:0:
384,288,128379,1,0,0:0:0:0:
286,182,129579,1,8,0:0:0:0:
