osu file format v14

[General]
AudioFilename: audio.mp3
AudioLeadIn: 0
PreviewTime: 14719
Countdown: 0
SampleSet: Soft
StackLeniency: 0.7
Mode: 0
LetterboxInBreaks: 0
WidescreenStoryboard: 1

[Editor]
Bookmarks: 1969,14769,27569,40369,53169,65969,78769,91569,104369,117169,129969
DistanceSpacing: 0.3
BeatDivisor: 4
GridSize: 32
TimelineZoom: 3.899999

[Metadata]
Title:Primatrix
TitleUnicode:Primatrix
Artist:Silentroom
ArtistUnicode:Silentroom
Creator:Pentori
Version:Insane
Source:
Tags:fa featured artist mappers' guild mpg electronic instrumental memory waves bofu2017 bms hi-tech hitech speedcore acyl acylica nakano itsuki starrstyx バンバンアカウント作成太郎 banban aka unto sakusei taroo
BeatmapID:2695121
BeatmapSetID:1247457

[Difficulty]
HPDrainRate:5
CircleSize:4.2
OverallDifficulty:7.5
ApproachRate:9
SliderMultiplier:2
SliderTickRate:1

[Events]
//Background and Video events
0,0,"primatrix.jpg",0,0
//Break Periods
2,66169,78169
//Storyboard Layer 0 (Background)
//Storyboard Layer 1 (Fail)
//Storyboard Layer 2 (Pass)
//Storyboard Layer 3 (Foreground)
//Storyboard Layer 4 (Overlay)
//Storyboard Sound Samples

[TimingPoints]
369,400,4,2,2,50,1,0
1169,-71.4285714285714,4,2,2,50,0,0
1569,-83.3333333333333,4,2,2,50,0,0
1769,-83.3333333333333,4,2,2,70,0,0
1969,-100,4,2,2,70,0,0
7969,-83.3333333333333,4,2,2,70,0,0
8369,-71.4285714285714,4,2,2,70,0,0
11369,-83.3333333333333,4,2,2,70,0,0
11969,-71.4285714285714,4,2,2,70,0,0
13169,-71.4285714285714,4,2,2,60,0,0
13369,-125,4,2,2,60,0,0
14069,-83.3333333333333,4,2,2,70,0,0
14369,-100,4,2,2,70,0,0
14769,-125,4,2,2,50,0,0
16169,-100,4,2,2,50,0,0
17969,-125,4,2,2,50,0,0
19069,-83.3333333333333,4,2,2,50,0,0
19769,-100,4,2,2,50,0,0
21169,-125,4,2,2,50,0,0
22569,-100,4,2,2,50,0,0
24569,-100,4,2,2,60,0,0
25969,-83.3333333333333,4,2,2,70,0,0
26569,-100,4,2,2,70,0,0
32769,-83.3333333333333,4,2,2,70,0,0
33169,-100,4,2,2,70,0,0
40369,-83.3333333333333,4,2,2,80,0,0
40869,-71.4285714285714,4,2,2,80,0,0
41969,-83.3333333333333,4,2,2,80,0,0
42469,-71.4285714285714,4,2,2,80,0,0
43369,-83.3333333333333,4,2,2,80,0,0
44069,-71.4285714285714,4,2,2,80,0,0
45169,-83.3333333333333,4,2,2,80,0,0
45669,-71.4285714285714,4,2,2,80,0,0
46769,-83.3333333333333,4,2,2,80,0,0
47269,-71.4285714285714,4,2,2,80,0,0
48369,-83.3333333333333,4,2,2,80,0,0
48869,-71.4285714285714,4,2,2,80,0,0
49769,-83.3333333333333,4,2,2,80,0,0
50469,-71.4285714285714,4,2,2,80,0,0
51569,-83.3333333333333,4,2,2,80,0,0
52069,-71.4285714285714,4,2,2,80,0,0
52969,-83.3333333333333,4,2,2,80,0,0
53669,-71.4285714285714,4,2,2,80,0,0
53969,-83.3333333333333,4,2,2,80,0,0
55269,-71.4285714285714,4,2,2,80,0,0
56169,-83.3333333333333,4,2,2,80,0,0
56869,-71.4285714285714,4,2,2,80,0,0
57969,-83.3333333333333,4,2,2,80,0,0
58469,-71.4285714285714,4,2,2,80,0,0
59569,-83.3333333333333,4,2,2,80,0,0
60069,-71.4285714285714,4,2,2,80,0,0
61169,-83.3333333333333,4,2,2,80,0,0
61669,-71.4285714285714,4,2,2,80,0,0
62569,-83.3333333333333,4,2,2,80,0,0
62769,-83.3333333333333,4,2,2,70,0,0
78769,-100,4,2,2,70,0,0
89169,-125,4,2,2,70,0,0
90569,-125,4,2,2,80,0,0
91569,-71.4285714285714,4,2,2,90,0,1
92069,-62.5,4,2,2,90,0,1
93169,-71.4285714285714,4,2,2,90,0,1
93669,-62.5,4,2,2,90,0,1
94569,-71.4285714285714,4,2,2,90,0,1
95269,-62.5,4,2,2,90,0,1
96369,-71.4285714285714,4,2,2,90,0,1
96869,-62.5,4,2,2,90,0,1
97969,-71.4285714285714,4,2,2,90,0,1
98469,-62.5,4,2,2,90,0,1
99569,-71.4285714285714,4,2,2,90,0,1
100069,-62.5,4,2,2,90,0,1
100969,-71.4285714285714,4,2,2,90,0,1
101669,-62.5,4,2,2,90,0,1
102769,-71.4285714285714,4,2,2,90,0,1
104369,-71.4285714285714,4,2,2,80,0,1
105169,-100,4,2,2,80,0,1
105569,-83.3333333333333,4,2,2,80,0,1
106769,-100,4,2,2,80,0,1
107169,-83.3333333333333,4,2,2,80,0,1
108369,-100,4,2,2,80,0,1
108769,-83.3333333333333,4,2,2,80,0,1
110769,-83.3333333333333,4,2,2,60,0,0
112769,-125,4,2,2,60,0,0
113969,-125,4,2,2,70,0,0
115769,-125,4,2,2,80,0,0
115969,-100,4,2,2,80,0,0
116369,-71.4285714285714,4,2,2,80,0,0
117169,-100,4,2,2,80,0,0
117769,-100,4,2,2,70,0,0
120769,-83.3333333333333,4,2,2,70,0,0
121169,-100,4,2,2,70,0,0
123369,-100,4,2,2,80,0,0
123569,-71.4285714285714,4,2,2,90,0,0
127969,-62.5,4,2,2,90,0,0
128369,-500,4,2,2,70,0,0

[Colours]
Combo1 : 250,137,137
Combo2 : 255,152,102
Combo3 : 255,255,138

[HitObjects]
264,65,969,5,2,2:0:0:0:
264,65,1169,2,0,B|277:81|277:81|113:101|113:101|122:74,1,209.999993591309,6|8,2:0|2:3,2:0:0:0:
152,7,1569,2,0,L|142:87,1,59.9999981689454,4|4,2:3|2:3,2:0:0:0:
130,202,1769,5,2,2:1:0:0:
130,202,1969,2,0,P|142:223|142:248,1,50,6|2,1:2|2:0,2:0:0:0:
225,300,2169,2,0,P|212:321|190:333,1,50,2|2,2:0|2:0,2:0:0:0:
39,247,2369,5,2,2:3:0:0:
265,215,2569,2,0,L|429:195,1,150,0|0,1:2|2:0,2:0:0:0:
407,210,2969,2,0,L|417:130,1,50,2|0,2:0|2:0,2:0:0:0:
335,107,3169,5,2,2:3:0:0:
256,311,3369,2,0,B|202:314|186:282|199:274|161:245|118:264,1,150,0|0,1:2|2:0,2:0:0:0:
61,311,3769,1,2,2:0:0:0:
184,162,3969,6,0,B|200:40|200:40|171:70,1,150,2|0,2:3|2:0,2:0:0:0:
184,74,4369,2,0,L|233:67,1,50,2|0,2:0|2:0,2:0:0:0:
48,23,4569,2,0,L|97:16,1,50,0|0,1:2|2:0,2:0:0:0:
324,100,4769,5,2,2:3:0:0:
341,90,4869,1,2,2:3:0:0:
351,74,4969,1,2,2:3:0:0:
352,54,5069,1,2,2:3:0:0:
342,37,5169,2,0,L|391:44,3,50,8|8|8|8,2:3|2:3|2:3|2:3,2:0:0:0:
432,142,5569,5,4,2:3:0:0:
435,166,5669,1,4,2:3:0:0:
438,191,5769,1,4,2:3:0:0:
441,216,5869,1,4,2:3:0:0:
444,241,5969,2,0,B|373:232|373:232|368:230|368:230|268:218,1,150,4|0,1:2|2:0,2:0:0:0:
238,166,6369,1,2,2:3:0:0:
154,299,6569,5,2,2:0:0:0:
154,299,6669,1,0,2:0:0:0:
154,299,6769,2,0,P|194:257|234:271,1,100,2|2,2:3|2:0,2:0:0:0:
299,225,7069,1,0,2:0:0:0:
299,225,7169,2,0,P|311:246|311:271,1,50,2|0,2:3|2:0,2:0:0:0:
297,354,7369,5,2,2:0:0:0:
238,166,7569,1,2,2:0:0:0:
241,142,7669,1,2,2:3:0:0:
244,117,7769,1,2,2:0:0:0:
247,92,7869,1,2,2:0:0:0:
250,67,7969,2,0,L|203:73,6,29.9999990844727,2|2|2|2|2|2|2,2:3|2:3|2:3|2:3|2:3|2:3|2:3,2:0:0:0:
123,81,8369,6,0,B|73:83|59:54|70:47|36:20|-4:38,1,139.999995727539,0|0,1:2|2:0,2:0:0:0:
3,23,8669,2,0,B|70:14|70:14|75:12|75:12|170:1,1,139.999995727539,0|0,1:2|2:0,2:0:0:0:
250,67,8969,6,0,P|307:78|329:2,1,139.999995727539,0|0,1:2|2:0,2:0:0:0:
320,15,9269,2,0,L|301:163,1,139.999995727539,0|0,1:2|2:0,2:0:0:0:
364,251,9569,6,0,L|225:268,1,139.999995727539,0|0,1:2|2:0,2:0:0:0:
228,254,9869,2,0,B|266:265|271:303|271:303|295:270|343:271,1,139.999995727539,0|0,1:2|2:0,2:0:0:0:
512,384,10169,6,0,P|491:322|427:329,1,139.999995727539,0|0,1:2|2:0,2:0:0:0:
441,334,10469,2,0,B|450:267|450:267|452:262|452:262|463:167,1,139.999995727539,0|0,1:2|2:0,2:0:0:0:
512,69,10769,6,0,B|462:71|448:42|459:35|425:8|385:26,1,139.999995727539,0|0,1:2|2:0,2:0:0:0:
393,38,11069,2,0,P|341:87|260:53,1,139.999995727539,0|0,1:2|2:0,2:0:0:0:
196,124,11369,2,0,P|181:97|183:67,1,59.9999981689454,0|0,1:2|2:0,2:0:0:0:
368,209,11569,6,0,L|308:216,1,59.9999981689454,2|0,1:2|2:0,2:0:0:0:
150,236,11769,2,0,L|209:228,1,59.9999981689454,2|0,1:2|2:0,2:0:0:0:
279,74,11969,6,0,L|270:143,1,69.9999978637696,2|0,1:2|2:0,2:0:0:0:
244,372,12169,2,0,L|252:302,1,69.9999978637696,2|0,1:2|2:0,2:0:0:0:
163,135,12369,5,0,1:2:0:0:
150,118,12469,1,0,1:2:0:0:
132,108,12569,1,0,1:2:0:0:
111,105,12669,1,0,1:2:0:0:
91,111,12769,1,2,1:2:0:0:
75,125,12869,1,2,1:2:0:0:
66,143,12969,1,2,1:2:0:0:
65,164,13069,1,2,1:2:0:0:
72,184,13169,1,0,1:2:0:0:
150,236,13369,6,0,L|269:221,1,120,2|0,2:3|2:0,2:0:0:0:
262,234,13769,2,0,L|268:185,1,40,2|0,2:3|2:0,2:0:0:0:
325,353,13969,5,2,1:2:0:0:
325,353,14069,2,0,B|382:359|382:359|386:361|386:361|443:368,1,119.999996337891,4|0,2:0|2:0,2:0:0:0:
441,383,14369,2,0,L|431:305,1,50,2|0,1:3|2:0,2:0:0:0:
414,170,14569,5,2,2:3:0:0:
414,170,14769,2,0,L|374:165,1,40,2|2,2:0|2:0,2:0:0:0:
439,84,14969,2,0,L|399:79,1,40,2|2,2:0|2:0,2:0:0:0:
487,225,15169,2,0,P|508:192|502:153,1,80,0|0,1:2|2:0,2:0:0:0:
304,257,15569,6,0,L|171:273,1,120,0|0,1:2|1:2,2:0:0:0:
185,271,16169,6,0,B|194:200|194:200|196:195|196:195|208:95,1,150,2|0,1:2|1:2,2:0:0:0:
203,107,16569,2,0,P|244:134|293:125,1,100,2|0,2:0|1:2,2:0:0:0:
101,362,17069,5,2,2:0:0:0:
101,362,17169,2,0,B|86:248|86:248|103:211,1,150,0|0,1:2|1:2,2:0:0:0:
115,219,17569,2,0,L|59:225,1,50,2|0,2:0|2:0,2:0:0:0:
185,272,17769,1,2,1:2:0:0:
20,143,17969,6,0,P|22:123|32:106,1,40,2|2,2:0|2:0,2:0:0:0:
13,29,18169,2,0,P|31:21|51:21,1,40,2|2,2:0|2:0,2:0:0:0:
125,52,18369,2,0,L|204:42,1,80,0|0,1:2|2:0,2:0:0:0:
286,219,18769,6,0,L|365:209,1,80,0|0,1:2|2:0,2:0:0:0:
364,197,19069,2,0,B|353:295|353:295|375:279,1,119.999996337891,2|0,1:2|2:0,2:0:0:0:
440,243,19369,1,0,1:2:0:0:
507,25,19669,5,0,1:2:0:0:
507,25,19769,2,0,L|457:31,1,50,2|0,2:0|2:0,2:0:0:0:
407,114,19969,2,0,B|353:117|337:85|350:77|312:48|269:67,1,150,0|2,1:2|2:0,2:0:0:0:
201,34,20369,1,2,1:2:0:0:
178,229,20569,1,2,1:2:0:0:
27,138,20769,1,2,2:0:0:0:
27,138,20869,2,0,L|131:125,1,100,2|2,1:2|2:0,2:0:0:0:
205,153,21169,6,0,L|210:113,1,40,2|2,2:0|2:0,2:0:0:0:
283,198,21369,2,0,L|288:158,1,40,2|2,2:0|2:0,2:0:0:0:
168,230,21569,2,0,P|147:263|153:302,1,80,0|0,1:2|2:0,2:0:0:0:
369,111,21969,6,0,L|494:95,1,120,0|0,1:2|1:2,2:0:0:0:
488,96,22569,6,0,B|473:210|473:210|490:247,1,150,2|0,1:2|1:2,2:0:0:0:
502,239,22969,2,0,P|475:279|483:327,1,100,2|0,2:0|1:2,2:0:0:0:
145,338,23469,5,2,2:0:0:0:
145,338,23569,2,0,P|164:273|236:301,1,150,0|0,1:2|1:2,2:0:0:0:
245,286,23969,2,0,P|257:264|256:239,1,50,2|0,2:0|2:0,2:0:0:0:
226,377,24169,1,2,1:2:0:0:
197,171,24369,5,0,1:2:0:0:
352,253,24569,1,2,2:0:0:0:
352,253,24669,1,2,2:0:0:0:
352,253,24769,2,0,P|352:228|340:206,1,50,2|2,2:0|2:0,2:0:0:0:
389,123,24969,2,0,P|367:110|342:109,1,50,2|2,2:0|2:0,2:0:0:0:
252,223,25169,5,2,2:0:0:0:
232,225,25269,1,2,2:0:0:0:
212,228,25369,1,2,2:0:0:0:
192,230,25469,1,2,2:0:0:0:
172,233,25569,2,0,L|178:179,1,50,2|2,2:0|2:0,2:0:0:0:
346,302,25769,2,0,L|352:248,1,50,2|2,2:0|2:0,2:0:0:0:
219,66,25969,6,0,B|209:91|209:91|398:68|398:68|383:49,1,239.999992675781,0|2,1:2|2:0,2:0:0:0:
306,1,26569,2,0,B|295:98|295:98|293:104|293:104|283:200,1,200,0|2,1:2|2:0,2:0:0:0:
180,346,27169,5,2,2:0:0:0:
181,311,27269,1,2,2:0:0:0:
204,285,27369,1,2,2:0:0:0:
237,278,27469,1,2,2:0:0:0:
268,293,27569,2,0,L|342:283,1,50,6|2,1:2|2:0,2:0:0:0:
379,214,27769,2,0,L|428:220,1,50,2|2,2:0|2:0,2:0:0:0:
339,60,27969,5,8,1:2:0:0:
339,60,28069,2,0,P|306:96|313:144,1,100,2|2,2:0|2:0,2:0:0:0:
220,175,28369,2,0,B|166:178|150:146|163:138|125:109|82:128,1,150,0|0,1:2|2:0,2:0:0:0:
31,183,28769,1,8,1:2:0:0:
147,31,28969,1,2,2:0:0:0:
313,144,29169,6,0,L|307:193,2,50,2|2|2,1:2|2:0|2:0,2:0:0:0:
48,43,29569,1,8,1:2:0:0:
48,43,29669,2,0,L|166:29,1,100,2|2,2:0|2:0,2:0:0:0:
222,0,29969,2,0,P|255:36|248:84,1,100,0|2,1:2|2:0,2:0:0:0:
428,144,30369,2,0,P|415:165|393:177,1,50,8|0,1:2|2:0,2:0:0:0:
313,144,30569,5,2,2:0:0:0:
193,249,30769,2,0,L|242:242,1,50,2|2,1:2|2:0,2:0:0:0:
134,172,30969,2,0,L|183:165,1,50,2|2,2:0|2:0,2:0:0:0:
84,360,31169,5,8,1:2:0:0:
84,360,31269,2,0,L|98:242,1,100,2|2,2:0|2:0,2:0:0:0:
193,249,31569,2,0,B|231:263|237:302|237:302|263:268|315:271,1,150,0|2,1:2|2:0,2:0:0:0:
318,275,31969,2,0,P|330:254|330:229,1,50,10|0,1:2|2:0,2:0:0:0:
258,177,32169,5,2,2:0:0:0:
321,367,32369,2,0,P|345:367|367:355,2,50,2|2|2,1:2|2:0|2:0,2:0:0:0:
512,365,32769,6,0,B|489:388|489:388|508:242,1,179.999994506836,8|2,1:2|2:0,2:0:0:0:
510,257,33169,2,0,L|461:264,1,50,2|0,1:2|2:0,2:0:0:0:
379,221,33369,2,0,L|330:228,1,50,2|0,2:0|2:0,2:0:0:0:
474,129,33569,5,10,1:2:0:0:
484,112,33669,1,2,2:0:0:0:
483,92,33769,1,2,2:0:0:0:
473,76,33869,1,2,2:0:0:0:
456,66,33969,2,0,P|431:65|409:77,1,50,2|2,1:2|2:0,2:0:0:0:
324,27,34169,2,0,P|310:48|310:73,1,50,2|2,2:0|2:0,2:0:0:0:
333,232,34369,5,8,1:2:0:0:
333,232,34469,2,0,B|287:237|287:237|282:239|282:239|223:246,1,100,2|2,2:0|2:0,2:0:0:0:
153,298,34769,2,0,P|88:281|67:346,1,150,0|0,1:2|2:0,2:0:0:0:
141,379,35169,1,8,1:2:0:0:
172,187,35369,1,2,2:0:0:0:
80,148,35569,6,0,L|31:154,2,50,2|2|2,1:2|2:0|2:0,2:0:0:0:
196,30,35969,1,8,1:2:0:0:
196,30,36069,2,0,P|243:23|279:56,1,100,2|2,2:0|2:0,2:0:0:0:
359,43,36369,2,0,L|347:142,1,100,0|2,1:2|2:0,2:0:0:0:
172,187,36769,2,0,L|221:180,1,50,8|0,1:2|2:0,2:0:0:0:
306,228,36969,5,2,2:0:0:0:
80,148,37169,2,0,P|46:183|53:231,1,100,2|2,1:2|2:0,2:0:0:0:
18,356,37569,1,8,1:2:0:0:
18,356,37669,2,0,L|117:344,1,100,2|2,2:0|2:0,2:0:0:0:
172,268,37969,2,0,B|210:255|247:280|234:288|250:320|304:317,1,150,0|0,1:2|2:0,2:0:0:0:
319,313,38369,2,0,L|326:264,1,50,10|0,1:2|2:0,2:0:0:0:
388,377,38569,5,2,2:0:0:0:
359,181,38769,2,0,L|352:132,2,50,2|2|2,1:2|2:0|2:0,2:0:0:0:
319,313,39169,5,0,1:2:0:0:
512,280,39369,2,0,B|463:274|463:274|458:272|458:272|412:267,1,100,0|0,1:2|2:0,2:0:0:0:
359,181,39669,2,0,P|311:174|276:208,1,100,0|2,1:2|2:0,2:0:0:0:
261,203,39969,6,0,P|249:224|249:249,1,50,2|0,1:2|2:0,2:0:0:0:
184,98,40169,2,0,P|159:98|138:110,1,50,2|0,1:2|2:0,2:0:0:0:
130,298,40369,6,0,L|138:239,2,59.9999981689454,6|0|2,1:2|2:0|2:0,2:0:0:0:
352,232,40769,1,10,1:2:0:0:
352,232,40869,2,0,B|314:243|309:281|309:281|285:248|237:249,1,139.999995727539,2|2,2:0|2:0,2:0:0:0:
287,163,41169,5,2,1:2:0:0:
267,363,41369,1,2,2:0:0:0:
457,290,41569,1,10,1:2:0:0:
467,273,41669,1,2,2:0:0:0:
466,253,41769,1,2,2:0:0:0:
456,237,41869,1,2,2:0:0:0:
439,227,41969,6,0,L|498:235,1,59.9999981689454,2|0,1:2|2:0,2:0:0:0:
406,138,42169,1,2,2:0:0:0:
252,253,42369,1,10,1:2:0:0:
252,253,42469,2,0,B|186:244|186:244|181:242|181:242|89:231,1,139.999995727539,2|2,2:0|2:0,2:0:0:0:
62,319,42769,5,2,1:2:0:0:
171,152,42969,1,2,2:0:0:0:
331,213,43169,1,10,1:2:0:0:
331,213,43269,1,2,2:0:0:0:
331,213,43369,2,0,P|345:187|345:157,1,59.9999981689454,2|2,2:0|2:0,2:0:0:0:
372,322,43569,6,0,B|430:328|430:328|434:330|434:330|491:338,1,119.999996337891,2|2,1:2|2:0,2:0:0:0:
234,162,43969,1,10,1:2:0:0:
234,162,44069,2,0,B|183:164|168:134|180:127|145:100|105:118,1,139.999995727539,2|2,2:0|2:0,2:0:0:0:
111,207,44369,5,2,1:2:0:0:
247,72,44569,1,2,2:0:0:0:
345,157,44769,1,10,1:2:0:0:
343,174,44869,1,2,2:0:0:0:
341,192,44969,1,2,2:0:0:0:
339,210,45069,1,2,2:0:0:0:
337,229,45169,6,0,L|396:221,1,59.9999981689454,2|0,1:2|2:0,2:0:0:0:
290,305,45369,1,2,2:0:0:0:
114,210,45569,1,10,1:2:0:0:
114,210,45669,2,0,B|127:107|127:107|112:74,1,139.999995727539,2|2,2:0|2:0,2:0:0:0:
34,123,45969,5,2,1:2:0:0:
201,220,46169,1,2,2:0:0:0:
1,380,46369,1,10,1:2:0:0:
12,340,46469,1,2,2:0:0:0:
46,316,46569,1,2,2:0:0:0:
87,317,46669,1,2,2:0:0:0:
119,343,46769,6,0,L|178:351,1,59.9999981689454,2|0,1:2|2:0,2:0:0:0:
272,365,46969,1,2,2:0:0:0:
205,224,47169,1,10,1:2:0:0:
205,224,47269,2,0,P|229:160|298:195,1,139.999995727539,2|2,2:0|2:0,2:0:0:0:
288,267,47569,5,2,1:2:0:0:
331,74,47769,1,2,2:0:0:0:
130,126,47969,1,10,1:2:0:0:
120,109,48069,1,2,2:0:0:0:
121,89,48169,1,2,2:0:0:0:
131,73,48269,1,2,2:0:0:0:
148,63,48369,6,0,P|177:62|203:77,2,59.9999981689454,2|0|2,1:2|2:0|2:0,2:0:0:0:
251,286,48769,1,10,1:2:0:0:
251,286,48869,2,0,B|266:169|266:169|238:197,1,139.999995727539,2|2,2:0|2:0,2:0:0:0:
169,236,49169,5,2,1:2:0:0:
322,356,49369,1,2,2:0:0:0:
353,134,49569,1,10,1:2:0:0:
353,134,49669,1,2,2:0:0:0:
353,134,49769,2,0,L|412:126,1,59.9999981689454,2|2,2:0|2:0,2:0:0:0:
465,325,49969,6,0,P|435:326|410:311,1,59.9999981689454,2|0,1:2|2:0,2:0:0:0:
488,235,50169,2,0,P|463:219|433:220,1,59.9999981689454,2|0,2:0|2:0,2:0:0:0:
241,265,50369,1,10,1:2:0:0:
241,265,50469,2,0,B|277:263|301:296|301:296|308:259|344:247,1,139.999995727539,2|2,2:0|2:0,2:0:0:0:
410,311,50769,5,2,1:2:0:0:
280,179,50969,1,2,2:0:0:0:
412,125,51169,1,10,1:2:0:0:
414,108,51269,1,2,2:0:0:0:
416,90,51369,1,2,2:0:0:0:
418,72,51469,1,2,2:0:0:0:
420,53,51569,6,0,L|361:61,2,59.9999981689454,2|0|2,1:2|2:0|2:0,2:0:0:0:
284,183,51969,1,10,1:2:0:0:
284,183,52069,2,0,P|260:119|191:154,1,139.999995727539,2|2,2:0|2:0,2:0:0:0:
201,222,52369,5,2,1:2:0:0:
232,25,52569,1,2,2:0:0:0:
39,84,52769,1,10,1:2:0:0:
39,84,52869,1,0,2:0:0:0:
39,84,52969,2,0,P|23:109|23:139,1,59.9999981689454,0|2,2:0|2:0,2:0:0:0:
202,132,53169,6,0,L|143:140,1,59.9999981689454,6|0,1:2|2:0,2:0:0:0:
201,222,53369,1,2,0:2:0:0:
330,33,53569,1,10,1:2:0:0:
330,33,53669,2,0,B|396:42|396:42|401:44|401:44|492:57,1,139.999995727539,2|2,2:0|2:0,2:0:0:0:
462,144,53969,6,0,P|491:144|517:129,1,59.9999981689454,2|0,1:2|2:0,2:0:0:0:
447,281,54169,1,2,2:0:0:0:
331,222,54369,1,10,1:2:0:0:
314,220,54469,1,2,2:0:0:0:
296,218,54569,1,2,2:0:0:0:
278,216,54669,1,2,2:0:0:0:
260,214,54769,6,0,L|268:273,1,59.9999981689454,2|0,1:2|2:0,2:0:0:0:
317,128,54969,1,2,2:0:0:0:
122,112,55169,1,10,1:2:0:0:
122,112,55269,2,0,P|186:130|238:86,1,139.999995727539,2|2,2:0|2:0,2:0:0:0:
164,32,55569,5,2,1:2:0:0:
260,214,55769,1,2,2:0:0:0:
101,246,55969,1,10,1:2:0:0:
101,246,56069,1,2,2:0:0:0:
101,246,56169,2,0,L|42:254,1,59.9999981689454,2|2,2:0|2:0,2:0:0:0:
169,376,56369,6,0,L|187:239,1,119.999996337891,2|2,1:2|2:0,2:0:0:0:
463,323,56769,1,10,1:2:0:0:
463,323,56869,2,0,B|412:325|397:295|409:288|374:261|334:279,1,139.999995727539,2|2,2:0|2:0,2:0:0:0:
276,349,57169,5,2,1:2:0:0:
470,229,57369,1,2,2:0:0:0:
409,108,57569,1,10,1:2:0:0:
411,91,57669,1,2,2:0:0:0:
413,73,57769,1,2,2:0:0:0:
415,55,57869,1,2,2:0:0:0:
417,37,57969,6,0,P|392:51|362:51,2,59.9999981689454,2|0|2,1:2|2:0|2:0,2:0:0:0:
320,242,58369,1,10,1:2:0:0:
320,242,58469,2,0,P|268:198|204:216,1,139.999995727539,2|2,2:0|2:0,2:0:0:0:
238,298,58769,5,2,1:2:0:0:
281,109,58969,1,2,2:0:0:0:
464,171,59169,1,10,1:2:0:0:
432,175,59269,1,2,2:0:0:0:
399,179,59369,1,2,2:0:0:0:
366,183,59469,1,2,2:0:0:0:
334,186,59569,6,0,P|320:211|320:241,1,59.9999981689454,2|0,1:2|2:0,2:0:0:0:
238,298,59769,1,2,2:0:0:0:
64,195,59969,1,10,1:2:0:0:
64,195,60069,2,0,B|100:207|107:244|107:244|131:211|167:213,1,139.999995727539,2|2,2:0|2:0,2:0:0:0:
259,188,60369,5,2,1:2:0:0:
137,127,60569,1,2,2:0:0:0:
289,2,60769,1,10,1:2:0:0:
306,12,60869,1,2,2:0:0:0:
316,28,60969,1,2,2:0:0:0:
317,48,61069,1,2,2:0:0:0:
307,65,61169,6,0,L|248:57,1,59.9999981689454,2|0,1:2|2:0,2:0:0:0:
167,0,61369,2,0,L|108:8,1,59.9999981689454,2|0,2:0|2:0,2:0:0:0:
137,228,61569,1,10,1:2:0:0:
137,228,61669,2,0,B|152:111|152:111|124:139,1,139.999995727539,2|2,2:0|2:0,2:0:0:0:
56,89,61969,5,2,1:2:0:0:
232,221,62169,1,2,2:0:0:0:
320,120,62369,1,10,1:2:0:0:
320,120,62469,1,2,2:0:0:0:
320,120,62569,2,0,P|320:90|306:64,1,59.9999981689454,2|2,2:0|2:0,2:0:0:0:
137,228,62769,5,6,1:2:0:0:
256,192,62869,12,4,65969,2:0:0:0:
170,323,78769,6,0,P|178:274|151:234,1,100,6|2,1:2|2:0,2:0:0:0:
308,126,79169,2,0,P|262:142|240:186,1,100,10|0,1:2|2:0,2:0:0:0:
69,105,79569,2,0,P|106:136|155:133,1,100,2|2,1:2|2:0,2:0:0:0:
327,211,79969,2,0,L|320:260,1,50,10|2,1:2|2:0,2:0:0:0:
327,273,80169,2,0,L|334:224,1,50,2|0,2:0|2:0,2:0:0:0:
251,328,80369,6,0,B|202:333|202:333|199:335|199:335|152:341,1,100,2|2,1:2|2:0,2:0:0:0:
334,223,80769,2,0,B|381:217|381:217|384:215|384:215|432:209,1,100,10|0,1:2|2:0,2:0:0:0:
251,118,81169,2,0,B|202:123|202:123|199:125|199:125|152:131,1,100,2|2,1:2|2:0,2:0:0:0:
382,17,81569,2,0,P|382:41|370:63,1,50,10|2,1:2|2:0,2:0:0:0:
354,59,81769,2,0,P|353:34|365:12,1,50,2|0,2:0|2:0,2:0:0:0:
470,18,81969,6,0,P|497:58|488:106,1,100,2|2,1:2|2:0,2:0:0:0:
451,298,82369,2,0,P|459:249|432:209,1,100,10|0,1:2|2:0,2:0:0:0:
234,159,82769,2,0,L|333:146,1,100,2|2,1:2|2:0,2:0:0:0:
169,18,83169,2,0,L|162:67,1,50,10|2,1:2|2:0,2:0:0:0:
169,80,83369,2,0,L|176:31,1,50,2|0,2:0|2:0,2:0:0:0:
95,141,83569,6,0,B|63:179|63:179|81:243,1,100,2|2,1:2|2:0,2:0:0:0:
233,330,83969,2,0,B|215:283|215:283|151:266,1,100,10|0,1:2|2:0,2:0:0:0:
0,355,84369,2,0,B|49:362|49:362|95:316,1,100,2|2,1:2|2:0,2:0:0:0:
214,161,84769,5,10,1:2:0:0:
234,159,84869,1,2,2:0:0:0:
254,156,84969,1,2,2:0:0:0:
274,154,85069,1,2,2:0:0:0:
294,151,85169,5,4,1:2:0:0:
279,247,85369,1,0,1:2:0:0:
350,56,85569,5,2,1:2:0:0:
374,212,85769,1,0,1:2:0:0:
440,123,85969,5,2,1:2:0:0:
404,346,86169,1,0,1:2:0:0:
479,212,86369,5,2,1:2:0:0:
494,308,86569,1,0,1:2:0:0:
183,232,86769,5,4,1:2:0:0:
279,247,86969,1,0,1:2:0:0:
88,176,87169,5,2,1:2:0:0:
244,152,87369,1,0,1:2:0:0:
155,86,87569,5,2,1:2:0:0:
378,122,87769,1,0,1:2:0:0:
244,47,87969,5,2,1:2:0:0:
340,32,88169,1,0,1:2:0:0:
279,247,88369,5,6,1:2:0:0:
266,264,88469,1,0,1:2:0:0:
248,274,88569,1,0,1:2:0:0:
227,277,88669,1,0,1:2:0:0:
207,271,88769,1,2,1:2:0:0:
191,257,88869,1,0,1:2:0:0:
182,239,88969,1,0,1:2:0:0:
181,218,89069,1,0,1:2:0:0:
188,198,89169,6,0,L|227:192,3,40,2|0|0|0,1:2|1:2|1:2|1:2,2:0:0:0:
281,133,89569,2,0,L|320:138,3,40,2|0|0|0,1:2|1:2|1:2|1:2,2:0:0:0:
384,188,89969,5,8,2:3:0:0:
300,49,90169,2,0,B|243:56|243:56|240:57|240:57|161:67,1,120,4|8,2:3|2:0,2:0:0:0:
152,148,90569,5,8,2:0:0:0:
116,160,90669,1,8,2:0:0:0:
83,141,90769,1,8,2:0:0:0:
67,107,90869,1,8,2:0:0:0:
35,85,90969,1,8,2:0:0:0:
0,101,91069,1,8,2:0:0:0:
2,116,91169,5,2,2:1:0:0:
415,351,91569,6,0,P|417:316|398:286,1,69.9999978637696,6|0,1:2|2:0,2:0:0:0:
461,175,91769,2,0,P|431:156|397:159,1,69.9999978637696,2|0,1:2|2:0,2:0:0:0:
198,273,91969,1,2,1:2:0:0:
198,273,92069,2,0,L|277:262,2,80,2|0|2,2:0|1:2|2:0,2:0:0:0:
303,161,92369,5,2,1:2:0:0:
238,380,92569,1,2,1:2:0:0:
97,286,92769,1,2,1:2:0:0:
84,264,92869,1,2,2:0:0:0:
85,239,92969,1,2,1:2:0:0:
98,218,93069,1,0,2:0:0:0:
119,206,93169,6,0,L|49:215,1,69.9999978637696,2|0,1:2|2:0,2:0:0:0:
216,98,93369,2,0,L|225:28,1,69.9999978637696,2|0,1:2|2:0,2:0:0:0:
347,263,93569,1,2,1:2:0:0:
347,263,93669,2,0,B|306:278|298:320|298:320|272:281|229:283,1,160,2|2,2:0|2:0,2:0:0:0:
156,334,93969,5,2,1:2:0:0:
327,180,94169,1,2,1:2:0:0:
223,105,94369,1,2,1:2:0:0:
223,105,94469,1,2,2:0:0:0:
223,105,94569,2,0,L|232:175,1,69.9999978637696,2|0,1:2|2:0,2:0:0:0:
408,236,94769,6,0,P|425:206|423:172,1,69.9999978637696,2|0,1:2|2:0,2:0:0:0:
296,278,94969,2,0,P|313:307|311:341,1,69.9999978637696,2|0,1:2|2:0,2:0:0:0:
381,93,95169,1,2,1:2:0:0:
381,93,95269,2,0,P|347:72|308:77,2,80,2|0|2,2:0|1:2|2:0,2:0:0:0:
327,180,95569,5,2,1:2:0:0:
416,2,95769,1,2,1:2:0:0:
204,78,95969,1,2,1:2:0:0:
187,76,96069,1,2,2:0:0:0:
169,74,96169,1,2,1:2:0:0:
151,72,96269,1,0,2:0:0:0:
132,70,96369,6,0,L|141:141,1,69.9999978637696,2|0,1:2|2:0,2:0:0:0:
45,237,96569,2,0,L|36:167,1,69.9999978637696,2|0,1:2|2:0,2:0:0:0:
115,352,96769,1,2,1:2:0:0:
115,352,96869,2,0,B|172:355|189:321|175:312|215:282|261:302,1,160,2|2,2:0|2:0,2:0:0:0:
332,358,97169,5,2,1:2:0:0:
210,214,97369,1,2,1:2:0:0:
406,96,97569,1,2,1:2:0:0:
446,107,97669,1,2,2:0:0:0:
470,141,97769,1,2,1:2:0:0:
469,182,97869,1,2,2:0:0:0:
443,214,97969,6,0,L|363:224,1,69.9999978637696,6|0,1:2|2:0,2:0:0:0:
506,310,98169,2,0,L|426:320,1,69.9999978637696,2|0,1:2|2:0,2:0:0:0:
273,164,98369,1,2,1:2:0:0:
273,164,98469,2,0,B|252:198|252:198|265:257,2,80,2|0|2,2:0|1:2|2:0,2:0:0:0:
329,322,98769,5,2,1:2:0:0:
358,98,98969,1,2,1:2:0:0:
138,157,99169,1,2,1:2:0:0:
125,135,99269,1,2,2:0:0:0:
126,110,99369,1,2,1:2:0:0:
139,89,99469,1,0,2:0:0:0:
160,77,99569,6,0,P|194:74|224:91,1,69.9999978637696,2|0,1:2|2:0,2:0:0:0:
344,33,99769,2,0,P|361:63|358:97,1,69.9999978637696,2|0,1:2|2:0,2:0:0:0:
467,266,99969,1,2,1:2:0:0:
467,266,100069,2,0,B|477:191|477:191|479:185|479:185|493:92,1,160,2|2,2:0|2:0,2:0:0:0:
446,22,100369,5,2,1:2:0:0:
287,182,100569,1,2,1:2:0:0:
167,84,100769,1,2,1:2:0:0:
167,84,100869,1,2,2:0:0:0:
167,84,100969,2,0,L|237:75,1,69.9999978637696,2|0,1:2|2:0,2:0:0:0:
386,127,101169,6,0,P|403:156|400:191,1,69.9999978637696,2|0,1:2|2:0,2:0:0:0:
272,246,101369,2,0,P|289:216|286:181,1,69.9999978637696,2|0,1:2|2:0,2:0:0:0:
58,175,101569,1,2,1:2:0:0:
58,175,101669,2,0,B|183:192|183:192|153:162,1,160,2|2,2:0|2:0,2:0:0:0:
81,87,101969,5,2,1:2:0:0:
182,291,102169,1,2,1:2:0:0:
286,181,102369,1,2,1:2:0:0:
288,164,102469,1,2,2:0:0:0:
290,146,102569,1,2,1:2:0:0:
292,128,102669,1,0,2:0:0:0:
294,109,102769,6,0,L|223:118,1,69.9999978637696,2|0,1:2|2:0,2:0:0:0:
343,13,102969,2,0,L|272:22,1,69.9999978637696,2|0,1:2|2:0,2:0:0:0:
439,197,103169,6,0,L|368:188,1,69.9999978637696,2|2,1:2|2:0,2:0:0:0:
512,118,103369,2,0,L|441:109,1,69.9999978637696,0|2,1:2|2:0,2:0:0:0:
294,109,103569,5,2,1:2:0:0:
338,333,103769,1,2,2:0:0:0:
163,256,103969,1,2,1:2:0:0:
163,256,104069,1,2,2:0:0:0:
163,256,104169,2,0,L|157:213,2,34.9999989318848,2|0|0,1:2|1:2|1:2,2:0:0:0:
248,196,104369,5,6,1:2:0:0:
267,198,104469,1,0,1:2:0:0:
287,201,104569,1,2,1:2:0:0:
307,203,104669,1,0,1:2:0:0:
327,206,104769,1,2,1:2:0:0:
347,208,104869,1,2,1:2:0:0:
367,211,104969,1,0,1:2:0:0:
386,213,105069,1,2,1:2:0:0:
406,216,105169,2,0,L|455:222,3,50,2|0|2|0,1:2|1:2|1:2|1:2,2:0:0:0:
358,354,105569,6,0,P|358:324|343:298,1,59.9999981689454,2|2,1:2|1:2,2:0:0:0:
436,126,105769,2,0,P|410:111|380:111,1,59.9999981689454,2|2,1:2|1:2,2:0:0:0:
248,196,105969,5,2,1:2:0:0:
224,204,106069,1,0,1:2:0:0:
200,200,106169,1,2,1:2:0:0:
180,184,106269,1,0,1:2:0:0:
169,161,106369,1,2,1:2:0:0:
154,142,106469,1,2,1:2:0:0:
131,133,106569,1,0,1:2:0:0:
107,137,106669,1,2,1:2:0:0:
87,153,106769,2,0,L|93:202,3,50,2|0|2|0,1:2|1:2|1:2|1:2,2:0:0:0:
0,45,107169,6,0,L|59:52,1,59.9999981689454,2|2,1:2|1:2,2:0:0:0:
240,7,107369,2,0,L|181:0,1,59.9999981689454,2|2,1:2|1:2,2:0:0:0:
87,153,107569,5,2,1:2:0:0:
101,171,107669,1,0,1:2:0:0:
121,182,107769,1,2,1:2:0:0:
144,185,107869,1,0,1:2:0:0:
166,179,107969,1,2,1:2:0:0:
183,163,108069,1,2,1:2:0:0:
193,144,108169,1,0,1:2:0:0:
194,121,108269,1,2,1:2:0:0:
186,99,108369,2,0,P|164:86|139:87,3,50,2|0|2|0,1:2|1:2|1:2|1:2,2:0:0:0:
278,75,108769,6,0,P|292:100|292:130,1,59.9999981689454,2|2,1:2|1:2,2:0:0:0:
144,185,108969,2,0,P|172:185|198:200,1,59.9999981689454,2|2,1:2|1:2,2:0:0:0:
235,312,109169,5,2,1:2:0:0:
269,307,109269,1,0,1:2:0:0:
304,303,109369,1,2,1:2:0:0:
339,299,109469,1,0,1:2:0:0:
373,295,109569,1,2,1:2:0:0:
408,290,109669,1,0,1:2:0:0:
443,286,109769,1,2,1:2:0:0:
478,282,109869,1,2,1:2:0:0:
512,278,109969,2,0,L|505:337,1,59.9999981689454,0|2,1:2|1:2,2:0:0:0:
444,120,110169,2,0,L|437:179,1,59.9999981689454,2|2,1:2|1:2,2:0:0:0:
292,130,110369,5,2,1:2:0:0:
266,85,110469,1,2,1:2:0:0:
280,37,110569,1,2,1:2:0:0:
324,13,110669,1,2,1:2:0:0:
371,29,110769,1,6,1:2:0:0:
83,301,112769,6,0,B|60:323|60:323|187:306,2,160,2|2|2,2:0|2:0|2:0,2:0:0:0:
277,348,113969,5,0,1:2:0:0:
289,252,114169,1,0,2:0:0:0:
301,157,114369,2,0,B|243:160|226:125|240:117|199:86|153:106,1,160,2|0,2:0|2:0,2:0:0:0:
298,39,114969,1,0,1:2:0:0:
370,96,115169,2,0,P|391:63|385:24,1,80,2|0,2:0|2:0,2:0:0:0:
410,292,115569,5,0,1:2:0:0:
412,275,115669,1,8,2:0:0:0:
414,257,115769,1,8,2:0:0:0:
416,239,115869,1,8,2:0:0:0:
418,220,115969,2,0,L|359:228,3,50,8|8|8|8,2:0|2:0|2:0|2:0,2:0:0:0:
306,309,116369,6,0,B|269:307|246:340|246:340|239:305|200:289,1,139.999995727539,12|0,2:0|2:0,2:0:0:0:
206,276,116669,2,0,B|169:278|146:245|146:245|139:280|100:296,1,139.999995727539,12|0,2:0|2:0,2:0:0:0:
15,281,116969,5,12,2:0:0:0:
275,218,117169,2,0,B|302:16|302:16|254:65,1,250,4|0,1:2|2:0,2:0:0:0:
271,63,117769,2,2,L|320:56,1,50,2|0,2:1|2:0,2:1:0:0:
451,164,117969,6,0,P|411:122|371:136,1,100,10|2,2:0|2:0,2:0:0:0:
183,15,118369,2,0,P|171:36|171:61,1,50,2|2,2:0|2:0,2:0:0:0:
208,151,118569,6,0,B|135:159|135:159|130:161|130:161|59:170,1,150,0|0,1:2|2:0,2:0:0:0:
0,117,118969,1,2,2:0:0:0:
157,236,119169,2,0,P|184:277|175:326,1,100,2|0,1:2|2:0,2:0:0:0:
273,304,119469,1,0,1:2:0:0:
273,304,119569,2,0,B|311:291|348:316|335:324|351:356|405:353,1,150,10|0,2:0|2:0,2:0:0:0:
404,368,119969,2,0,L|453:361,2,50,2|2|0,2:0|2:0|2:0,2:0:0:0:
410,258,120369,6,0,B|425:144|425:144|408:107,1,150,2|0,1:2|2:0,2:0:0:0:
320,16,120769,2,0,B|286:39|286:39|426:21,1,179.999994506836,2|0,2:0|2:0,2:0:0:0:
494,83,121169,6,0,P|521:124|512:173,1,100,10|2,2:0|2:0,2:0:0:0:
323,215,121569,2,0,L|330:166,2,50,2|2|0,2:0|2:0|2:0,2:0:0:0:
268,95,121869,1,0,1:2:0:0:
268,95,121969,6,0,L|168:107,1,100,2|0,1:2|2:0,2:0:0:0:
113,49,122269,2,0,P|46:32|27:97,1,150,2|0,1:2|2:0,2:0:0:0:
0,190,122669,1,0,1:2:0:0:
0,190,122769,2,0,P|41:217|90:208,1,100,10|0,2:0|2:0,2:0:0:0:
179,341,123169,2,0,L|130:334,1,50,2|0,2:0|2:0,2:0:0:0:
40,317,123369,5,2,2:1:0:0:
260,287,123569,2,0,P|277:316|275:350,1,69.9999978637696,6|0,1:2|2:0,2:0:0:0:
382,267,123769,2,0,P|399:237|397:203,1,69.9999978637696,2|0,1:2|2:0,2:0:0:0:
289,180,123969,5,2,1:2:0:0:
409,379,124169,1,2,1:2:0:0:
512,295,124369,1,2,1:2:0:0:
512,295,124469,1,2,2:0:0:0:
512,295,124569,2,0,L|503:225,1,69.9999978637696,2|0,1:2|2:0,2:0:0:0:
465,141,124769,5,2,2:0:0:0:
487,16,124969,1,2,2:0:0:0:
260,47,125169,6,0,L|190:56,1,69.9999978637696,6|0,1:2|2:0,2:0:0:0:
324,144,125369,2,0,L|315:214,1,69.9999978637696,2|0,1:2|2:0,2:0:0:0:
412,70,125569,5,2,1:2:0:0:
196,168,125769,1,2,1:2:0:0:
322,220,125969,1,2,1:2:0:0:
322,220,126069,1,2,1:2:0:0:
322,220,126169,2,0,P|339:250|337:284,1,69.9999978637696,2|2,2:0|2:0,2:0:0:0:
151,345,126369,6,0,L|102:338,2,34.9999989318848,2|0|0,1:2|2:0|1:2,2:0:0:0:
242,359,126569,2,0,L|276:363,2,34.9999989318848,2|0|0,1:2|1:2|1:2,2:0:0:0:
184,236,126769,5,6,1:2:0:0:
176,212,126869,1,0,1:2:0:0:
180,188,126969,1,2,1:2:0:0:
196,168,127069,1,0,1:2:0:0:
219,157,127169,1,2,1:2:0:0:
238,142,127269,1,0,1:2:0:0:
247,119,127369,1,2,1:2:0:0:
243,95,127469,1,0,1:2:0:0:
227,75,127569,2,0,L|178:81,4,34.9999989318848,2|0|0|0|0,1:2|1:2|1:2|1:2|1:2,2:0:0:0:
383,263,127969,6,0,L|377:302,2,40,2|0|0,1:2|1:2|1:2,2:0:0:0:
412,70,128169,2,0,L|417:30,2,40,2|0|0,1:2|1:2|1:2,2:0:0:0:
398,167,128369,6,0,L|276:182,1,120,4|2,1:2|2:0,2:0:0:0:
