osu file format v14

[General]
AudioFilename: audio.mp3
AudioLeadIn: 0
PreviewTime: 14719
Countdown: 0
SampleSet: Soft
StackLeniency: 0.7
Mode: 0
LetterboxInBreaks: 0
WidescreenStoryboard: 1

[Editor]
Bookmarks: 1969,14769,27569,40369,53169,65969,78769,91569,104369,117169,129969
DistanceSpacing: 1.2
BeatDivisor: 4
GridSize: 32
TimelineZoom: 1.900001

[Metadata]
Title:Primatrix
TitleUnicode:Primatrix
Artist:Silentroom
ArtistUnicode:Silentroom
Creator:Pentori
Version:Hard
Source:
Tags:fa featured artist mappers' guild mpg electronic instrumental memory waves bofu2017 bms hi-tech hitech speedcore acyl acylica nakano itsuki starrstyx バンバンアカウント作成太郎 banban aka unto sakusei taroo
BeatmapID:2667752
BeatmapSetID:1247457

[Difficulty]
HPDrainRate:4
CircleSize:4
OverallDifficulty:6
ApproachRate:8
SliderMultiplier:1.5
SliderTickRate:1

[Events]
//Background and Video events
0,0,"primatrix.jpg",0,0
//Break Periods
2,66169,77944
//Storyboard Layer 0 (Background)
//Storyboard Layer 1 (Fail)
//Storyboard Layer 2 (Pass)
//Storyboard Layer 3 (Foreground)
//Storyboard Layer 4 (Overlay)
//Storyboard Sound Samples

[TimingPoints]
369,400,4,2,2,50,1,0
1769,-100,4,2,2,70,0,0
1969,-100,4,2,2,70,0,0
8369,-90.9090909090909,4,2,2,70,0,0
11569,-100,4,2,2,70,0,0
13169,-125,4,2,2,60,0,0
14069,-125,4,2,2,70,0,0
14369,-100,4,2,2,70,0,0
14769,-111.111111111111,4,2,2,50,0,0
24369,-100,4,2,2,50,0,0
24569,-100,4,2,2,60,0,0
24769,-100,4,2,2,60,0,0
25569,-90.9090909090909,4,2,2,60,0,0
25969,-83.3333333333333,4,2,2,70,0,0
27169,-100,4,2,2,70,0,0
40369,-90.9090909090909,4,2,2,80,0,0
62769,-100,4,2,2,70,0,0
78769,-100,4,2,2,70,0,0
90569,-100,4,2,2,80,0,0
91569,-83.3333333333333,4,2,2,90,0,1
104369,-83.3333333333333,4,2,2,80,0,1
110769,-100,4,2,2,60,0,0
112769,-111.111111111111,4,2,2,60,0,0
113969,-100,4,2,2,70,0,0
115769,-100,4,2,2,80,0,0
115969,-90.9090909090909,4,2,2,80,0,0
117169,-100,4,2,2,80,0,0
117769,-100,4,2,2,70,0,0
121969,-90.9090909090909,4,2,2,70,0,0
122769,-100,4,2,2,70,0,0
123369,-100,4,2,2,80,0,0
123569,-83.3333333333333,4,2,2,90,0,0
128369,-333.333333333333,4,2,2,70,0,0

[Colours]
Combo1 : 250,137,137
Combo2 : 255,152,102
Combo3 : 255,255,138

[HitObjects]
414,155,1969,6,0,B|362:157|344:130|356:123|326:89|265:108,1,150,6|2,1:2|0:3,0:0:0:0:
228,31,2569,2,0,P|158:12|107:61,1,150,0|2,1:2|0:2,0:0:0:0:
82,150,3169,1,2,0:3:0:0:
82,150,3369,2,0,L|0:162,2,75,0|2|2,1:2|0:2|0:2,0:0:0:0:
183,112,3969,6,0,L|159:272,1,150,2|2,0:3|0:2,0:0:0:0:
231,370,4569,1,0,1:2:0:0:
323,341,4769,2,0,P|327:304|309:271,1,75,2|2,0:3|0:3,0:0:0:0:
309,271,5069,1,2,0:3:0:0:
309,271,5169,6,0,L|260:278,3,37.5,8|8|8|8,0:3|0:3|0:3|0:3,0:0:0:0:
231,296,5569,2,0,L|193:290,3,37.5,4|4|4|4,0:3|0:3|0:3|0:3,0:0:0:0:
161,260,5969,2,0,B|172:233|172:233|163:176,1,75,4|2,1:2|0:2,0:0:0:0:
152,98,6369,2,0,L|227:108,1,75,2|2,0:3|0:2,0:0:0:0:
289,14,6769,6,0,P|359:-5|410:44,1,150,2|2,0:3|0:3,0:0:0:0:
369,125,7369,1,2,0:2:0:0:
489,90,7569,2,0,P|493:127|475:160,1,75,2|2,0:2|0:2,0:0:0:0:
489,249,7969,2,0,L|451:254,3,37.5,2|2|2|2,0:3|0:3|0:3|0:3,0:0:0:0:
418,284,8369,6,0,L|292:265,1,123.75000377655,0|0,1:2|1:2,0:0:0:0:
192,335,8969,2,0,B|152:334|136:315|146:309|120:286|75:297,1,123.75000377655,0|0,1:2|1:2,0:0:0:0:
2,199,9569,2,0,P|48:161|107:172,1,123.75000377655,0|0,1:2|1:2,0:0:0:0:
217,229,10169,2,0,B|230:197|230:197|216:105,1,123.75000377655,0|0,1:2|1:2,0:0:0:0:
327,52,10769,2,0,B|387:61|387:61|392:63|392:63|451:72,2,123.75000377655,0|0|0,1:2|1:2|1:2,0:0:0:0:
253,0,11569,6,0,P|216:-4|183:14,1,75,2|2,1:2|1:2,0:0:0:0:
134,89,11969,2,0,P|97:93|64:75,1,75,2|2,1:2|1:2,0:0:0:0:
191,161,12369,6,0,L|185:198,3,37.5,0|0|0|0,1:2|1:2|1:2|1:2,0:0:0:0:
150,227,12769,1,2,1:2:0:0:
152,245,12869,1,2,1:2:0:0:
155,264,12969,1,2,1:2:0:0:
158,282,13069,1,2,1:2:0:0:
161,301,13169,2,0,P|76:262|57:379,1,240,0|2,1:2|1:2,0:0:0:0:
248,344,14369,2,0,L|324:332,1,75,2|2,1:3|0:3,0:0:0:0:
416,361,14769,6,0,L|422:318,2,33.7499989700318,2|2|2,0:2|0:2|0:2,0:0:0:0:
368,251,15169,2,0,P|367:217|383:188,1,67.4999979400635,0|0,1:2|0:2,0:0:0:0:
340,103,15569,2,0,P|375:77|432:85,1,101.249996910095,0|0,1:2|1:2,0:0:0:0:
464,242,16169,6,0,B|367:227|367:227|359:223|359:223|264:209,1,202.499993820191,2|0,1:2|1:2,0:0:0:0:
183,43,17169,2,0,P|148:69|91:61,1,101.249996910095,0|0,1:2|1:2,0:0:0:0:
93,62,17569,2,0,P|77:32|78:-1,1,67.4999979400635,2|2,0:2|1:2,0:0:0:0:
114,157,17969,6,0,L|109:190,2,33.7499989700318,2|2|2,0:2|0:2|0:2,0:0:0:0:
207,141,18369,2,0,L|283:129,1,67.4999979400635,0|0,1:2|0:2,0:0:0:0:
330,54,18769,2,0,B|399:65|399:65|424:98,1,101.249996910095,0|2,1:2|1:2,0:0:0:0:
360,219,19369,6,0,B|351:257|367:286|367:286|337:254|281:266,1,134.999995880127,0|2,1:2|0:2,0:0:0:0:
244,333,19969,2,0,P|195:324|154:352,1,101.249996910095,0|2,1:2|0:2,0:0:0:0:
154,351,20369,2,0,L|87:361,1,67.4999979400635,2|2,1:2|1:2,0:0:0:0:
20,255,20769,2,0,L|86:244,1,67.4999979400635,2|2,0:2|0:2,0:0:0:0:
86,243,21069,1,2,0:2:0:0:
86,243,21169,6,0,L|92:200,2,33.7499989700318,2|2|2,0:2|0:2|0:2,0:0:0:0:
157,129,21569,2,0,L|145:53,1,67.4999979400635,0|0,1:2|0:2,0:0:0:0:
217,0,21969,2,0,P|265:-8|306:19,1,101.249996910095,0|0,1:2|1:2,0:0:0:0:
324,151,22569,6,0,B|389:163|417:113|399:106|443:62|504:87,1,202.499993820191,2|0,1:2|1:2,0:0:0:0:
475,277,23569,2,0,B|463:349|463:349|474:376,1,101.249996910095,0|0,1:2|1:2,0:0:0:0:
473,375,23969,2,0,L|406:385,1,67.4999979400635,2|2,0:2|1:2,0:0:0:0:
322,284,24369,6,0,P|289:266|252:270,1,75,0|2,1:2|0:2,0:0:0:0:
186,331,24769,2,0,L|111:319,1,75,2|2,0:2|0:2,0:0:0:0:
136,230,25169,1,2,0:2:0:0:
136,230,25369,1,2,0:2:0:0:
48,195,25569,2,0,L|55:151,3,41.2500012588501,2|2|2|2,0:2|0:2|0:2|0:2,0:0:0:0:
27,118,25969,6,0,B|169:94|169:94|178:65|212:54,1,179.999994506836,0|2,1:2|0:2,0:0:0:0:
296,221,26569,2,0,B|234:241|234:241|254:113,1,179.999994506836,0|2,1:2|0:2,0:0:0:0:
330,83,27169,6,0,L|367:77,1,37.5,2|2,0:2|0:2,0:0:0:0:
398,44,27369,2,0,L|435:50,1,37.5,2|2,0:2|0:2,0:0:0:0:
476,31,27569,6,0,P|525:82|506:152,1,150,6|8,1:2|1:2,0:0:0:0:
428,199,28169,1,0,0:0:0:0:
488,298,28369,2,0,L|413:287,1,75,0|2,1:2|0:2,0:0:0:0:
353,353,28769,2,0,P|320:370|283:366,1,75,8|2,1:2|0:2,0:0:0:0:
195,384,29169,6,0,L|189:347,2,37.5,2|2|2,1:2|0:2|0:2,0:0:0:0:
257,276,29569,1,8,1:2:0:0:
257,276,29669,2,0,L|268:201,1,75,2|2,0:2|0:2,0:0:0:0:
307,181,29969,2,0,P|310:144|293:111,1,75,0|2,1:2|0:2,0:0:0:0:
349,41,30369,2,0,P|316:24|279:27,1,75,8|2,1:2|0:2,0:0:0:0:
279,27,30669,1,0,0:2:0:0:
279,27,30769,6,0,B|230:10|199:46|211:54|192:82|137:80,1,150,2|8,1:2|1:2,0:0:0:0:
60,62,31369,1,0,0:0:0:0:
121,183,31569,2,0,L|233:166,1,112.5,0|2,1:2|0:2,0:0:0:0:
232,166,31969,2,0,P|264:182|301:179,1,75,10|2,1:2|0:2,0:0:0:0:
397,107,32369,5,2,1:2:0:0:
369,15,32569,1,2,0:2:0:0:
397,107,32769,2,0,L|285:90,1,112.5,8|2,1:2|0:2,0:0:0:0:
285,90,33169,2,0,L|210:101,1,75,2|2,1:2|0:2,0:0:0:0:
47,0,33569,2,0,P|66:3|81:12,1,37.5,10|2,1:2|0:2,0:0:0:0:
126,18,33769,2,0,P|132:35|132:53,1,37.5,2|2,0:2|0:2,0:0:0:0:
104,90,33969,6,0,B|93:160|93:160|90:166|90:166|76:259,1,150,2|8,1:2|1:2,0:0:0:0:
154,341,34569,1,0,0:0:0:0:
232,295,34769,2,0,P|268:291|302:307,1,75,0|2,1:2|0:2,0:0:0:0:
390,289,35169,2,0,P|406:322|402:359,1,75,8|2,1:2|0:2,0:0:0:0:
331,215,35569,6,0,L|337:178,2,37.5,2|2|2,1:2|0:2|0:2,0:0:0:0:
240,178,35969,1,8,1:2:0:0:
240,178,36069,2,0,L|165:189,1,75,2|2,0:2|0:2,0:0:0:0:
134,221,36369,2,0,L|59:210,1,75,0|2,1:2|0:2,0:0:0:0:
0,143,36769,2,0,P|2:124|12:108,2,37.5,8|0|2,1:2|0:0|0:2,0:0:0:0:
0,19,37169,6,0,P|33:2|70:6,1,75,2|2,1:2|0:2,0:0:0:0:
138,64,37569,2,0,L|213:53,1,75,8|0,1:2|0:0,0:0:0:0:
297,83,37969,1,0,1:2:0:0:
349,10,38169,1,0,0:2:0:0:
434,37,38369,2,0,P|451:70|447:107,1,75,10|2,1:2|0:2,0:0:0:0:
496,182,38769,6,0,L|490:219,2,37.5,2|2|2,1:2|0:2|0:2,0:0:0:0:
405,245,39169,1,0,1:2:0:0:
326,201,39369,2,0,P|294:249|305:301,1,112.5,0|0,1:2|1:2,0:0:0:0:
161,367,39969,6,0,L|124:361,1,37.5,2|0,1:2|0:2,0:0:0:0:
81,376,40169,2,0,L|44:370,1,37.5,2|0,1:2|0:2,0:0:0:0:
17,328,40369,5,6,1:2:0:0:
63,240,40569,1,2,0:2:0:0:
166,269,40769,2,0,B|157:209|157:209|154:204|154:204|145:147,1,123.75000377655,10|2,1:2|0:2,0:0:0:0:
145,147,41169,2,0,L|234:160,1,82.5000025177003,2|2,1:2|0:2,0:0:0:0:
301,94,41569,2,0,L|294:51,2,41.2500012588501,10|2|2,1:2|0:2|0:2,0:0:0:0:
397,173,41969,5,2,1:2:0:0:
321,236,42169,1,2,0:2:0:0:
377,370,42369,2,0,P|318:330|254:361,1,123.75000377655,10|2,1:2|0:2,0:0:0:0:
271,343,42769,2,0,L|189:354,1,82.5000025177003,2|2,1:2|0:2,0:0:0:0:
85,277,43169,1,10,1:2:0:0:
85,277,43269,1,2,0:2:0:0:
85,277,43369,2,0,L|92:234,1,41.2500012588501,2|2,0:2|0:2,0:0:0:0:
125,199,43569,6,0,B|116:144|116:144|129:112,1,82.5000025177003,2|2,1:2|0:2,0:0:0:0:
52,52,43969,2,0,P|111:12|175:43,1,123.75000377655,10|2,1:2|0:2,0:0:0:0:
157,25,44369,1,2,1:2:0:0:
217,156,44569,1,2,0:2:0:0:
310,124,44769,2,0,L|316:83,2,41.2500012588501,10|2|2,1:2|0:2|0:2,0:0:0:0:
178,261,45169,6,0,L|260:250,1,82.5000025177003,2|2,1:2|0:2,0:0:0:0:
323,326,45569,2,0,B|366:325|381:304|371:299|400:274|448:286,1,123.75000377655,10|2,1:2|0:2,0:0:0:0:
434,284,45969,1,2,1:2:0:0:
512,222,46169,1,2,0:2:0:0:
460,137,46369,1,10,1:2:0:0:
462,119,46469,1,2,0:2:0:0:
465,100,46569,1,2,0:2:0:0:
468,82,46669,1,2,0:2:0:0:
471,63,46769,6,0,L|389:74,1,82.5000025177003,2|2,1:2|0:2,0:0:0:0:
302,36,47169,2,0,P|262:95|293:159,1,123.75000377655,10|2,1:2|0:2,0:0:0:0:
275,141,47569,2,0,P|239:119|197:123,1,82.5000025177003,2|2,1:2|0:2,0:0:0:0:
216,219,47969,1,10,1:2:0:0:
87,187,48169,1,2,0:2:0:0:
99,285,48369,6,0,L|110:367,1,82.5000025177003,2|2,1:2|0:2,0:0:0:0:
240,336,48769,2,0,B|297:345|297:345|302:348|302:348|362:357,1,123.75000377655,10|2,1:2|0:2,0:0:0:0:
361,356,49169,2,0,B|372:329|372:329|363:272,1,82.5000025177003,2|2,1:2|0:2,0:0:0:0:
457,189,49569,2,0,L|414:182,1,41.2500012588501,10|2,1:2|0:2,0:0:0:0:
366,176,49769,1,2,0:2:0:0:
398,75,49969,6,0,L|316:86,1,82.5000025177003,2|2,1:2|0:2,0:0:0:0:
222,106,50369,2,0,P|184:59|195:0,1,123.75000377655,10|2,1:2|0:2,0:0:0:0:
194,0,50769,2,0,P|158:22|116:18,1,82.5000025177003,2|2,1:2|0:2,0:0:0:0:
22,0,51169,2,0,L|28:41,2,41.2500012588501,10|2|2,1:2|0:2|0:2,0:0:0:0:
91,109,51569,5,2,1:2:0:0:
60,240,51769,1,2,0:2:0:0:
161,230,51969,2,0,B|204:229|219:208|209:203|238:178|286:190,1,123.75000377655,10|2,1:2|0:2,0:0:0:0:
272,187,52369,2,0,P|294:223|290:265,1,82.5000025177003,2|2,1:2|0:2,0:0:0:0:
413,327,52769,1,10,1:2:0:0:
413,327,52869,1,0,0:2:0:0:
413,327,52969,2,0,L|420:284,1,41.2500012588501,0|2,0:2|0:2,0:0:0:0:
409,237,53169,6,0,P|431:201|427:159,1,82.5000025177003,6|2,1:2|0:2,0:0:0:0:
477,75,53569,2,0,P|418:35|354:66,1,123.75000377655,10|2,1:2|0:2,0:0:0:0:
371,48,53969,1,2,1:2:0:0:
253,0,54169,1,2,0:2:0:0:
205,93,54369,2,0,L|246:87,2,41.2500012588501,10|2|2,1:2|0:2|0:2,0:0:0:0:
293,163,54769,6,0,L|282:245,1,82.5000025177003,2|2,1:2|0:2,0:0:0:0:
311,339,55169,2,0,B|254:348|254:348|249:351|249:351|189:360,1,123.75000377655,10|2,1:2|0:2,0:0:0:0:
189,359,55569,1,2,1:2:0:0:
119,290,55769,1,2,0:2:0:0:
12,335,55969,1,10,1:2:0:0:
12,335,56069,1,2,0:2:0:0:
12,335,56169,2,0,L|19:292,1,41.2500012588501,2|2,0:2|0:2,0:0:0:0:
0,247,56369,6,0,P|-2:206|19:172,1,82.5000025177003,2|2,1:2|0:2,0:0:0:0:
0,79,56769,2,0,L|130:61,1,123.75000377655,10|2,1:2|0:2,0:0:0:0:
122,62,57169,2,0,P|158:84|200:80,1,82.5000025177003,2|2,1:2|0:2,0:0:0:0:
286,178,57569,2,0,P|286:157|276:139,2,41.2500012588501,10|2|2,1:2|0:2|0:2,0:0:0:0:
287,42,57969,5,2,1:2:0:0:
415,3,58169,1,2,0:2:0:0:
482,82,58369,2,0,B|469:173|469:173|487:216,1,123.75000377655,10|2,1:2|0:2,0:0:0:0:
481,202,58769,2,0,B|454:191|454:191|401:199,1,82.5000025177003,2|2,1:2|0:2,0:0:0:0:
315,151,59169,1,10,1:2:0:0:
297,161,59269,1,2,0:2:0:0:
286,178,59369,1,2,0:2:0:0:
283,199,59469,1,2,0:2:0:0:
290,218,59569,6,0,L|279:300,1,82.5000025177003,2|2,1:2|0:2,0:0:0:0:
147,276,59969,2,0,B|119:299|116:326|116:326|96:298|61:297,1,123.75000377655,10|2,1:2|0:2,0:0:0:0:
62,297,60369,1,2,1:2:0:0:
85,200,60569,1,2,0:2:0:0:
0,117,60769,2,0,L|40:110,2,41.2500012588501,10|2|2,1:2|0:2|0:2,0:0:0:0:
111,38,61169,5,2,1:2:0:0:
238,75,61369,1,2,0:2:0:0:
309,6,61569,2,0,P|346:52|335:111,1,123.75000377655,10|2,1:2|0:2,0:0:0:0:
334,111,61969,2,0,L|416:100,1,82.5000025177003,2|2,1:2|0:2,0:0:0:0:
496,156,62369,2,0,L|490:197,2,41.2500012588501,10|2|2,1:2|0:2|0:2,0:0:0:0:
453,9,62769,5,6,1:2:0:0:
256,192,62869,12,4,65969,0:2:0:0:
123,329,78769,6,0,L|41:341,1,75,6|2,1:2|0:2,0:0:0:0:
5,261,79169,2,0,L|79:250,1,75,10|0,1:2|0:0,0:0:0:0:
135,181,79569,2,0,B|183:164|214:200|202:208|221:236|276:234,1,150,2|10,1:2|1:2,0:0:0:0:
334,174,80169,1,2,0:2:0:0:
408,224,80369,6,0,L|383:391,2,150,2|10|2,1:2|1:2|1:2,0:0:0:0:
334,174,81369,1,2,0:2:0:0:
386,97,81569,2,0,P|403:64|399:27,1,75,10|2,1:2|0:2,0:0:0:0:
250,138,81969,6,0,L|175:148,1,75,2|2,1:2|0:2,0:0:0:0:
91,116,82369,2,0,P|74:148|77:185,1,75,10|0,1:2|0:0,0:0:0:0:
42,268,82769,2,0,P|93:317|163:298,1,150,2|10,1:2|1:2,0:0:0:0:
221,229,83369,1,2,0:2:0:0:
232,357,83569,6,0,B|302:346|302:346|308:343|308:343|401:329,2,150,2|10|2,1:2|1:2|1:2,0:0:0:0:
163,298,84569,1,2,0:2:0:0:
49,356,84769,2,0,L|59:281,1,75,10|2,1:2|0:2,0:0:0:0:
5,189,85169,6,0,P|37:171|74:175,1,75,4|0,1:2|1:2,0:0:0:0:
141,113,85569,2,0,P|172:132|187:166,1,75,2|0,1:2|1:2,0:0:0:0:
275,192,85969,2,0,P|274:228|252:258,1,75,2|0,1:2|1:2,0:0:0:0:
167,302,86369,1,2,1:2:0:0:
167,302,86569,1,0,1:2:0:0:
281,373,86769,6,0,L|356:363,1,75,4|0,1:2|1:2,0:0:0:0:
418,299,87169,2,0,L|493:309,1,75,2|0,1:2|1:2,0:0:0:0:
362,228,87569,2,0,L|287:238,1,75,2|0,1:2|1:2,0:0:0:0:
201,256,87969,1,2,1:2:0:0:
201,256,88169,1,0,1:2:0:0:
156,172,88369,5,6,1:2:0:0:
158,154,88469,1,0,1:2:0:0:
161,135,88569,1,0,1:2:0:0:
164,117,88669,1,0,1:2:0:0:
167,98,88769,2,0,L|130:104,3,37.5,2|0|0|0,1:2|1:2|1:2|1:2,0:0:0:0:
97,72,89169,2,0,L|103:35,3,37.5,2|0|0|0,1:2|1:2|1:2|1:2,0:0:0:0:
136,5,89569,2,0,L|173:-1,3,37.5,2|0|0|0,1:2|1:2|1:2|1:2,0:0:0:0:
213,19,89969,5,8,0:3:0:0:
206,112,90169,2,0,L|318:95,1,112.5,4|8,0:3|0:2,0:0:0:0:
317,95,90569,2,0,L|311:132,1,37.5,8|8,0:2|0:2,0:0:0:0:
344,161,90769,2,0,L|350:198,3,37.5,8|8|8|8,0:2|0:2|0:2|0:2,0:0:0:0:
332,239,91169,1,2,0:1:0:0:
168,359,91569,5,6,1:2:0:0:
197,264,91769,1,2,1:2:0:0:
89,190,91969,2,0,L|-1:203,1,89.9999972534181,2|0,1:2|1:2,0:0:0:0:
118,95,92369,2,0,L|208:82,1,89.9999972534181,2|2,1:2|1:2,0:0:0:0:
277,12,92769,2,0,P|300:11|320:20,1,44.999998626709,2|2,1:2|0:2,0:0:0:0:
369,11,92969,2,0,P|381:30|383:52,1,44.999998626709,2|0,1:2|0:2,0:0:0:0:
360,96,93169,6,0,L|347:186,1,89.9999972534181,2|2,1:2|1:2,0:0:0:0:
434,326,93569,2,0,B|447:293|447:293|438:239,1,89.9999972534181,2|0,1:2|1:2,0:0:0:0:
348,282,93969,1,2,1:2:0:0:
223,233,94169,1,2,1:2:0:0:
151,299,94369,1,2,1:2:0:0:
151,299,94469,1,2,0:2:0:0:
151,299,94569,2,0,L|158:352,1,44.999998626709,2|0,1:2|0:2,0:0:0:0:
186,384,94769,5,2,1:2:0:0:
223,233,94969,1,2,1:2:0:0:
145,171,95169,2,0,P|100:166|64:191,1,89.9999972534181,2|0,1:2|1:2,0:0:0:0:
205,90,95569,2,0,L|218:0,1,89.9999972534181,2|2,1:2|1:2,0:0:0:0:
307,43,95969,2,0,L|351:37,1,44.999998626709,2|2,1:2|0:2,0:0:0:0:
385,0,96169,2,0,L|429:5,1,44.999998626709,2|0,1:2|0:2,0:0:0:0:
469,35,96369,5,2,1:2:0:0:
498,130,96569,1,2,1:2:0:0:
390,206,96769,2,0,L|300:219,1,89.9999972534181,2|0,1:2|1:2,0:0:0:0:
208,183,97169,2,0,P|183:219|188:263,1,89.9999972534181,2|2,1:2|1:2,0:0:0:0:
119,335,97569,1,2,1:2:0:0:
101,333,97669,1,2,0:2:0:0:
82,330,97769,1,2,1:2:0:0:
64,327,97869,1,2,0:2:0:0:
45,324,97969,6,0,P|20:288|25:244,1,89.9999972534181,6|2,1:2|1:2,0:0:0:0:
0,148,98369,2,0,L|90:135,1,89.9999972534181,2|0,1:2|1:2,0:0:0:0:
151,58,98769,1,2,1:2:0:0:
269,113,98969,1,2,1:2:0:0:
357,68,99169,2,0,P|365:88|364:110,1,44.999998626709,2|2,1:2|0:2,0:0:0:0:
391,152,99369,2,0,P|377:169|357:180,1,44.999998626709,2|0,1:2|0:2,0:0:0:0:
347,229,99569,6,0,L|257:242,1,89.9999972534181,2|2,1:2|1:2,0:0:0:0:
413,301,99969,2,0,L|503:288,1,89.9999972534181,2|0,1:2|1:2,0:0:0:0:
472,193,100369,1,2,1:2:0:0:
512,68,100569,1,2,1:2:0:0:
420,86,100769,1,2,1:2:0:0:
420,86,100869,1,2,0:2:0:0:
420,86,100969,2,0,L|367:93,1,44.999998626709,2|0,1:2|0:2,0:0:0:0:
345,131,101169,5,2,1:2:0:0:
220,91,101369,1,2,1:2:0:0:
147,158,101569,2,0,P|122:194|127:238,1,89.9999972534181,2|0,1:2|1:2,0:0:0:0:
38,141,101969,2,0,L|25:51,1,89.9999972534181,2|2,1:2|1:2,0:0:0:0:
110,0,102369,2,0,L|154:6,1,44.999998626709,2|2,1:2|0:2,0:0:0:0:
188,43,102569,2,0,L|232:38,1,44.999998626709,2|0,1:2|0:2,0:0:0:0:
275,12,102769,6,0,P|318:6|355:31,1,89.9999972534181,2|2,1:2|1:2,0:0:0:0:
483,0,103169,2,0,P|507:36|501:79,1,89.9999972534181,2|0,1:2|1:2,0:0:0:0:
465,205,103569,2,0,L|375:218,1,89.9999972534181,2|2,1:2|0:2,0:0:0:0:
296,158,103969,1,2,1:2:0:0:
278,168,104069,1,2,0:2:0:0:
267,185,104169,1,2,1:2:0:0:
264,206,104269,1,0,1:2:0:0:
271,225,104369,6,0,L|261:290,3,44.999998626709,6|0|2|0,1:2|1:2|1:2|1:2,0:0:0:0:
292,310,104769,2,0,L|230:333,3,44.999998626709,2|2|0|2,1:2|1:2|1:2|1:2,0:0:0:0:
228,370,105169,2,0,L|176:328,3,44.999998626709,2|0|2|0,1:2|1:2|1:2|1:2,0:0:0:0:
144,344,105569,5,2,1:2:0:0:
168,217,105769,1,2,1:2:0:0:
93,152,105969,2,0,L|82:87,3,44.999998626709,2|0|2|0,1:2|1:2|1:2|1:2,0:0:0:0:
46,77,106369,2,0,L|96:35,3,44.999998626709,2|2|0|2,1:2|1:2|1:2|1:2,0:0:0:0:
89,0,106769,2,0,L|150:23,3,44.999998626709,2|0|2|0,1:2|1:2|1:2|1:2,0:0:0:0:
177,33,107169,5,2,1:2:0:0:
306,0,107369,1,2,1:2:0:0:
377,68,107569,2,0,P|385:88|384:110,3,44.999998626709,2|0|2|0,1:2|1:2|1:2|1:2,0:0:0:0:
408,155,107969,2,0,P|394:172|374:183,3,44.999998626709,2|2|0|2,1:2|1:2|1:2|1:2,0:0:0:0:
348,225,108369,2,0,P|325:222|307:210,3,44.999998626709,2|0|2|0,1:2|1:2|1:2|1:2,0:0:0:0:
257,208,108769,5,2,1:2:0:0:
281,335,108969,1,2,1:2:0:0:
370,377,109169,2,0,L|381:312,3,44.999998626709,2|0|2|0,1:2|1:2|1:2|1:2,0:0:0:0:
419,305,109569,2,0,L|408:240,3,44.999998626709,2|0|2|2,1:2|1:2|1:2|1:2,0:0:0:0:
386,217,109969,2,0,L|397:152,3,44.999998626709,0|2|2|2,1:2|1:2|1:2|1:2,0:0:0:0:
358,137,110369,5,2,1:2:0:0:
340,139,110469,1,2,1:2:0:0:
321,142,110569,1,2,1:2:0:0:
303,145,110669,1,2,1:2:0:0:
284,148,110769,1,6,1:2:0:0:
160,348,112769,6,0,B|95:356|95:356|90:359|90:359|26:368,2,134.999995880127,2|2|2,0:2|0:2|0:2,0:0:0:0:
292,249,113969,6,0,L|367:259,1,75,0|0,1:2|0:2,0:0:0:0:
347,170,114369,2,0,P|366:100|317:48,1,150,2|0,0:2|0:2,0:0:0:0:
240,92,114969,1,0,1:2:0:0:
240,92,115169,2,0,L|165:82,1,75,2|0,0:2|0:2,0:0:0:0:
64,121,115569,6,0,L|70:158,3,37.5,0|8|8|8,1:2|0:2|0:2|0:2,0:0:0:0:
105,187,115969,1,8,0:2:0:0:
103,205,116069,1,8,0:2:0:0:
100,224,116169,1,8,0:2:0:0:
97,242,116269,1,8,0:2:0:0:
94,261,116369,2,0,B|134:251|160:274|150:280|166:299|206:300,2,123.75000377655,12|12|12,0:2|0:2|0:2,0:0:0:0:
218,204,117169,6,0,L|450:172,1,225,4|2,1:2|0:1,0:0:0:0:
512,66,117969,2,0,P|475:61|442:79,1,75,10|2,0:2|0:2,0:0:0:0:
341,0,118369,1,2,0:2:0:0:
274,60,118569,6,0,B|222:62|204:35|216:28|186:-6|125:13,1,150,0|2,1:2|0:2,0:0:0:0:
70,64,119169,2,0,L|87:176,1,112.5,2|0,1:2|1:2,0:0:0:0:
86,175,119569,2,0,L|161:185,1,75,10|0,0:2|0:0,0:0:0:0:
229,285,119969,2,0,L|223:248,2,37.5,2|2|0,0:2|0:2|0:2,0:0:0:0:
307,217,120369,6,0,P|324:184|319:147,1,75,2|0,1:2|0:0,0:0:0:0:
386,40,120769,2,0,P|338:8|286:19,1,112.5,2|0,0:2|0:2,0:0:0:0:
287,18,121169,2,0,L|212:28,1,75,10|2,0:2|0:2,0:0:0:0:
144,143,121569,2,0,L|219:133,1,75,2|0,0:2|0:2,0:0:0:0:
218,133,121869,1,0,1:2:0:0:
218,133,121969,6,0,B|209:190|209:190|207:195|207:195|198:255,2,123.75000377655,2|2|0,1:2|1:2|0:2,0:0:0:0:
300,237,122769,2,0,B|352:239|370:212|358:205|388:171|449:190,1,150,10|2,0:2|0:2,0:0:0:0:
497,299,123369,1,2,0:1:0:0:
429,371,123569,6,0,L|339:384,1,89.9999972534181,6|2,1:2|1:2,0:0:0:0:
259,327,123969,2,0,L|169:340,1,89.9999972534181,2|2,1:2|1:2,0:0:0:0:
300,237,124369,2,0,L|308:187,2,44.999998626709,2|2|2,1:2|0:2|1:2,0:0:0:0:
382,130,124769,1,2,0:2:0:0:
382,130,124969,1,2,0:2:0:0:
322,50,125169,6,0,P|277:45|241:70,1,89.9999972534181,6|2,1:2|1:2,0:0:0:0:
162,9,125569,2,0,L|72:22,1,89.9999972534181,2|2,1:2|1:2,0:0:0:0:
148,148,125969,2,0,L|155:103,2,44.999998626709,2|2|2,1:2|1:2|0:2,0:0:0:0:
55,112,126369,2,0,P|46:132|47:154,1,44.999998626709,2|0,1:2|1:2,0:0:0:0:
26,199,126569,2,0,P|39:216|59:227,1,44.999998626709,2|0,1:2|1:2,0:0:0:0:
82,271,126769,5,6,1:2:0:0:
208,226,126969,1,2,1:2:0:0:
272,300,127169,1,2,1:2:0:0:
270,318,127269,1,0,1:2:0:0:
267,337,127369,1,2,1:2:0:0:
264,355,127469,1,0,1:2:0:0:
261,374,127569,2,0,L|306:367,2,44.999998626709,2|0|0,1:2|1:2|1:2,0:0:0:0:
364,286,127969,2,0,P|387:287|407:278,1,44.999998626709,2|0,1:2|1:2,0:0:0:0:
456,287,128169,2,0,P|468:268|470:246,1,44.999998626709,2|0,1:2|1:2,0:0:0:0:
448,200,128369,6,0,L|467:62,1,134.999995880127,4|2,1:2|2:0,0:0:0:0:
