osu file format v14

[General]
AudioFilename: audio.mp3
AudioLeadIn: 0
PreviewTime: 46422
Countdown: 0
SampleSet: Soft
StackLeniency: 0.3
Mode: 0
LetterboxInBreaks: 0
EpilepsyWarning: 1
WidescreenStoryboard: 0

[Editor]
DistanceSpacing: 0.9
BeatDivisor: 8
GridSize: 32
TimelineZoom: 2.999999

[Metadata]
Title:Nhelv
TitleUnicode:Nhelv
Artist:Silentroom
ArtistUnicode:Silentroom
Creator:thzz
Version:Eureka
Source:BMS
Tags:bofu2017
BeatmapID:1569152
BeatmapSetID:744182

[Difficulty]
HPDrainRate:5.2
CircleSize:4.5
OverallDifficulty:8.8
ApproachRate:9.7
SliderMultiplier:2
SliderTickRate:1

[Events]
//Background and Video events
0,0,"nhelv_bg.jpg",0,0
Video,206,"nhelv.avi"
//Break Periods
//Storyboard Layer 0 (Background)
//Storyboard Layer 1 (Fail)
//Storyboard Layer 2 (Pass)
//Storyboard Layer 3 (Foreground)
//Storyboard Sound Samples

[TimingPoints]
2759,341.122292341805,4,2,1,50,1,0
24079,-125,4,2,1,50,0,0
24334,-100,4,2,3,50,0,0
24590,-55.5555555555556,4,2,3,50,0,0
24846,-100,4,2,3,50,0,0
34142,-125,4,2,1,50,0,0
34483,-40,4,2,1,90,0,0
34739,-71.4285714285714,4,2,1,90,0,0
34909,-50,4,2,1,90,0,0
35165,-40,4,2,1,90,0,0
35506,-76.9230769230769,4,2,1,70,0,0
40964,-76.9230769230769,4,2,1,80,0,0
44717,-83.3333333333333,4,2,1,80,0,0
44802,-90.9090909090909,4,2,1,80,0,0
44887,-100,4,2,1,80,0,0
44972,-111.111111111111,4,2,1,80,0,0
45058,-50,4,2,1,90,0,0
45740,-34.4827586206897,4,2,2,90,0,0
46337,-34.4827586206897,4,2,1,90,0,0
46422,-62.5,4,2,1,70,0,0
47104,-50,4,2,1,70,0,0
47190,-62.5,4,2,1,70,0,0
48469,-40,4,2,1,70,0,0
48639,-125,4,2,1,70,0,0
48810,-62.5,4,2,1,70,0,0
49151,-71.4285714285714,4,2,1,70,0,0
49492,-62.5,4,2,1,70,0,0
50857,-43.4782608695652,4,2,1,70,0,0
51283,-62.5,4,2,1,70,0,0
52648,-50,4,2,1,70,0,0
52903,-62.5,4,2,1,70,0,0
53415,-50,4,2,1,70,0,0
53586,-62.5,4,2,1,70,0,0
53842,-40,4,2,1,70,0,0
54097,-62.5,4,2,1,70,0,0
54609,-55.5555555555556,4,2,1,70,0,0
54780,-62.5,4,2,1,70,0,0
55377,-50,4,2,1,70,0,0
55632,-62.5,4,2,1,70,0,0
56315,-25,4,2,1,70,0,0
56485,-28.5714285714286,4,2,1,70,0,0
56656,-33.3333333333333,4,2,1,70,0,0
56826,-40,4,2,1,70,0,0
56997,-62.5,4,2,1,70,0,0
57338,-40,4,2,2,70,0,0
57594,-40,4,2,1,70,0,0
57679,-62.5,4,2,1,70,0,0
59300,-33.3333333333333,4,2,1,70,0,0
59555,-62.5,4,2,1,70,0,0
60152,-40,4,2,1,70,0,0
60408,-62.5,4,2,1,70,0,0
62455,-71.4285714285714,4,2,1,70,0,0
62796,-200,4,2,1,70,0,0
63137,-50,4,2,1,70,0,0
63393,-31.25,4,2,1,70,0,0
63564,-45.4545454545455,4,2,1,70,0,0
63819,-62.5,4,2,1,70,0,0
64672,-40,4,2,1,70,0,0
65013,-62.5,4,2,1,70,0,0
65866,-40,4,2,1,70,0,0
66548,-62.5,4,2,1,70,0,0
66889,-45.4545454545455,4,2,1,70,0,0
67231,-62.5,4,2,1,70,0,0
67572,-100,4,2,2,50,0,0
68254,-71.4285714285714,4,2,1,80,0,0
70471,-50,4,2,1,80,0,0
70642,-71.4285714285714,4,2,1,80,0,0
71324,-62.5,4,2,1,80,0,0
71580,-71.4285714285714,4,2,1,80,0,0
71750,-55.5555555555556,4,2,1,80,0,0
72006,-71.4285714285714,4,2,1,80,0,0
75929,-50,4,2,1,80,0,0
76100,-71.4285714285714,4,2,1,80,0,0
77208,-50,4,2,1,80,0,0
77464,-71.4285714285714,4,2,1,80,0,0
78317,-55.5555555555556,4,2,1,80,0,0
78488,-71.4285714285714,4,2,1,80,0,0
81046,-50,4,2,1,80,0,0
81302,-71.4285714285714,4,2,1,80,0,0
85395,-50,4,2,1,80,0,0
85651,-71.4285714285714,4,2,1,80,0,0
87357,-62.5,4,2,1,80,0,0
87698,-71.4285714285714,4,2,1,80,0,0
88124,-41.6666666666667,4,2,1,80,0,0
88380,-71.4285714285714,4,2,1,80,0,0
90086,-100,4,2,2,80,0,0
93497,-200,4,2,2,50,0,0
99637,-71.4285714285714,4,2,1,60,0,0
101002,-71.4285714285714,4,2,1,70,0,0
105777,-62.5,4,2,1,80,0,0
111235,-100,4,2,3,80,0,0
111918,-200,4,2,2,50,0,0
121469,-100,4,2,1,60,0,0
122834,-71.4285714285714,4,2,1,70,0,0
128292,-71.4285714285714,4,2,1,80,0,0
132044,-76.9230769230769,4,2,1,80,0,0
132129,-83.3333333333333,4,2,1,80,0,0
132214,-90.9090909090909,4,2,1,80,0,0
132300,-100,4,2,1,90,0,0
132385,-50,4,2,1,90,0,0
133067,-62.5,4,2,2,90,0,0
133664,-62.5,4,2,1,90,0,0
133749,-50,4,2,1,90,0,0
133835,-50,4,2,1,90,0,0
135796,-62.5,4,2,1,90,0,1
135967,-166.666666666667,4,2,1,90,0,1
136223,-62.5,4,2,1,90,0,1
136820,-43.4782608695652,4,2,1,90,0,1
137075,-62.5,4,2,1,90,0,1
137246,-50,4,2,1,90,0,1
137502,-90.9090909090909,4,2,1,90,0,1
137758,-62.5,4,2,1,90,0,1
138184,-43.4782608695652,4,2,1,90,0,1
138610,-62.5,4,2,1,90,0,1
139207,-100,4,2,1,70,0,0
140913,-62.5,4,2,1,80,0,0
141936,-62.5,4,2,1,90,0,1
142704,-55.5555555555556,4,2,1,90,0,1
142874,-62.5,4,2,1,90,0,1
144665,-55.5555555555556,4,2,1,90,0,1
145006,-35.7142857142857,4,2,1,90,0,1
145262,-52.6315789473684,4,2,1,90,0,1
145433,-50,4,2,1,90,0,1
145603,-62.5,4,2,1,90,0,1
146627,-55.5555555555556,4,2,1,90,0,1
146797,-62.5,4,2,1,90,0,1
147480,-38.4615384615385,4,2,1,90,0,1
147735,-62.5,4,2,1,90,0,1
147906,-52.6315789473684,4,2,1,90,0,1
148162,-38.4615384615385,4,2,1,90,0,1
148332,-62.5,4,2,1,90,0,1
149356,-55.5555555555556,4,2,1,90,0,1
149526,-52.6315789473684,4,2,1,90,0,1
149782,-62.5,4,2,1,90,0,1
150123,-62.5,4,2,2,80,0,1
150464,-62.5,4,2,1,80,0,1
151488,-71.4285714285714,4,2,1,80,0,1
152852,-62.5,4,2,1,80,0,1
154302,-62.5,4,2,1,90,0,1
155496,-62.5,4,2,1,90,0,0

[Colours]
Combo1 : 193,0,0
Combo2 : 221,221,221
Combo3 : 83,83,255

[HitObjects]
256,192,22202,12,0,23908,3:0:0:0:
129,181,24079,6,0,L|98:183,4,20,2|0|0|0|0,0:0|0:0|0:0|0:0|0:0,0:0:0:0:
191,140,24334,5,8,0:0:0:0:
212,152,24420,2,0,L|263:149,1,50,8|0,0:0|0:0,0:0:0:0:
327,95,24590,6,0,B|350:68|350:68|379:178|379:178|350:167,1,179.999994506836,8|0,0:3|0:0,0:0:0:0:
460,299,24846,5,0,0:0:0:0:
443,318,24931,2,0,L|388:326,1,50,8|0,0:0|0:0,0:0:0:0:
307,303,25102,2,0,L|252:311,1,50
173,271,25273,5,0,0:0:0:0:
148,274,25358,1,0,0:0:0:0:
123,277,25443,2,0,L|113:227,1,50,2|0,0:0|0:0,0:0:0:0:
48,165,25614,2,0,L|53:116,1,50
118,59,25784,2,0,L|108:9,1,50,10|0,0:0|0:0,0:0:0:0:
202,33,25955,5,2,0:0:0:0:
226,36,26040,1,0,0:0:0:0:
250,38,26125,1,0,0:0:0:0:
275,40,26211,1,0,0:0:0:0:
299,42,26296,2,0,L|359:30,1,50,8|0,0:0|0:0,0:0:0:0:
336,116,26466,5,0,0:0:0:0:
311,122,26552,1,2,0:0:0:0:
286,128,26637,2,0,L|290:185,1,50
409,192,26808,2,0,L|405:249,1,50,2|0,0:0|0:0,0:0:0:0:
317,258,26978,1,0,0:0:0:0:
302,278,27063,2,0,L|306:335,2,50,4|6|4,0:0|0:0|0:0,0:0:0:0:
165,177,27319,6,0,L|214:171,2,50,2|0|0,0:0|0:0|0:0,0:0:0:0:
266,114,27575,1,0,0:0:0:0:
286,128,27660,2,0,L|335:122,1,50,8|0,0:0|0:0,0:0:0:0:
401,77,27831,2,0,L|450:71,1,50
274,28,28002,5,0,0:0:0:0:
249,31,28087,1,0,0:0:0:0:
224,34,28172,1,2,0:0:0:0:
199,37,28257,1,0,0:0:0:0:
174,40,28343,2,0,L|179:102,1,50
65,3,28513,2,0,L|69:52,1,50,10|0,0:0|0:0,0:0:0:0:
3,153,28684,5,2,0:0:0:0:
28,156,28769,1,0,0:0:0:0:
53,159,28854,1,0,0:0:0:0:
78,162,28939,1,0,0:0:0:0:
103,165,29025,2,0,L|98:227,1,50,8|0,0:0|0:0,0:0:0:0:
191,288,29195,5,0,0:0:0:0:
209,271,29281,2,0,L|212:221,1,50,2|0,0:0|0:0,0:0:0:0:
321,242,29451,1,8,0:0:0:0:
339,225,29537,2,0,L|342:175,1,50,2|0,0:0|0:0,0:0:0:0:
191,288,29707,2,0,L|194:238,1,50,2|0,0:0|0:0,0:0:0:0:
321,242,29878,2,0,L|324:192,1,50,10|0,0:0|0:0,0:0:0:0:
511,136,30048,6,0,L|456:144,1,50,2|0,0:0|0:0,0:0:0:0:
422,65,30219,1,0,0:0:0:0:
405,46,30304,2,0,L|350:38,1,50,0|8,0:0|0:0,0:0:0:0:
309,118,30475,2,0,L|254:126,2,50
172,73,30730,5,0,0:0:0:0:
147,70,30816,1,0,0:0:0:0:
122,67,30901,2,0,L|112:117,1,50,2|0,0:0|0:0,0:0:0:0:
31,205,31071,2,0,L|36:156,1,50
107,45,31242,2,0,L|97:95,1,50,10|0,0:0|0:0,0:0:0:0:
51,226,31412,5,2,0:0:0:0:
75,223,31498,1,0,0:0:0:0:
99,221,31583,1,0,0:0:0:0:
124,219,31668,1,0,0:0:0:0:
148,217,31754,2,0,L|208:229,1,50,8|0,0:0|0:0,0:0:0:0:
263,118,31924,5,0,0:0:0:0:
266,92,32009,1,2,0:0:0:0:
268,66,32095,2,0,L|324:61,1,50
350,178,32265,2,0,L|405:165,1,50,2|0,0:0|0:0,0:0:0:0:
401,77,32436,1,8,0:0:0:0:
418,59,32521,2,0,L|474:54,2,50,4|12|4,0:0|0:0|0:0,0:0:0:0:
268,66,32777,6,0,L|274:115,2,50,2|0|0,0:0|0:0|0:0,0:0:0:0:
350,178,33033,1,0,0:0:0:0:
336,198,33118,2,0,L|342:247,1,50,8|0,0:0|0:0,0:0:0:0:
216,264,33289,2,0,L|222:313,1,50
112,203,33459,5,0,0:0:0:0:
137,206,33545,1,0,0:0:0:0:
162,209,33630,1,2,0:0:0:0:
187,212,33715,1,0,0:0:0:0:
212,215,33800,2,0,L|217:277,1,50
366,316,33971,2,0,L|361:266,1,50,10|0,0:0|0:0,0:0:0:0:
424,127,34142,6,0,L|422:88,1,40,2|4,0:0|0:1,0:0:0:0:
422,88,34483,22,0,B|417:61|443:36|443:36|386:48|368:80|368:80|324:48|324:48|271:54,1,250,8|0,3:3|3:0,0:0:0:0:
116,107,34739,6,0,L|188:116,1,69.9999978637696
447,197,34909,6,0,B|464:214|464:214|383:226,1,100,0|0,0:3|3:0,0:0:0:0:
205,330,35080,5,0,0:0:0:0:
320,273,35165,2,0,B|294:239|313:190|313:190|265:247|211:272|145:265|145:265|205:286|205:330,1,375,2|0,0:1|3:0,3:0:0:0:
130,342,35506,5,2,0:0:0:0:
104,336,35592,1,0,0:0:0:0:
78,333,35677,1,0,0:0:0:0:
52,327,35762,1,2,0:0:0:0:
26,321,35847,2,0,L|16:253,1,64.9999970245363,8|0,0:0|0:0,0:0:0:0:
72,181,36018,2,0,L|62:113,1,64.9999970245363,2|0,0:0|0:0,0:0:0:0:
113,31,36188,5,2,0:0:0:0:
130,50,36274,1,0,0:0:0:0:
155,56,36359,1,0,0:0:0:0:
180,50,36444,1,2,0:0:0:0:
203,37,36530,2,0,L|274:28,1,64.9999970245363,8|0,0:0|0:0,0:0:0:0:
215,151,36700,2,0,L|286:160,1,64.9999970245363,2|0,0:0|0:0,0:0:0:0:
392,238,36871,5,2,0:0:0:0:
373,256,36956,2,0,L|302:265,1,64.9999970245363
215,151,37127,1,2,0:0:0:0:
195,168,37212,2,0,L|130:159,1,64.9999970245363,8|0,0:0|0:0,0:0:0:0:
143,251,37382,2,0,L|78:242,1,64.9999970245363,2|0,0:0|0:0,0:0:0:0:
0,357,37553,5,2,0:0:0:0:
25,351,37639,1,0,0:0:0:0:
50,346,37724,1,0,0:0:0:0:
75,341,37809,1,2,0:0:0:0:
100,336,37894,2,0,L|87:266,1,64.9999970245363,8|4,0:0|0:1,0:0:0:0:
178,105,38065,1,6,0:1:0:0:
175,130,38150,1,4,0:1:0:0:
192,208,38235,5,2,0:0:0:0:
204,232,38320,2,0,L|192:295,1,64.9999970245363
276,371,38491,1,2,0:0:0:0:
294,352,38576,2,0,L|305:288,1,64.9999970245363,8|0,0:0|0:0,0:0:0:0:
427,258,38747,2,0,L|415:321,1,64.9999970245363,2|0,0:0|0:0,0:0:0:0:
289,261,38917,5,2,0:0:0:0:
267,246,39003,1,0,0:0:0:0:
242,239,39088,1,0,0:0:0:0:
216,241,39173,1,2,0:0:0:0:
193,253,39259,2,0,L|128:247,1,64.9999970245363,8|0,0:0|0:0,0:0:0:0:
267,159,39429,2,0,L|202:153,1,64.9999970245363,2|0,0:0|0:0,0:0:0:0:
331,72,39600,6,0,L|266:66,2,64.9999970245363,2|0|0,0:0|0:0|0:0,0:0:0:0:
396,140,39856,1,2,0:0:0:0:
410,162,39941,2,0,L|399:238,1,64.9999970245363,8|0,0:0|0:0,0:0:0:0:
213,186,40111,2,0,L|222:250,1,64.9999970245363,2|0,0:0|0:0,0:0:0:0:
316,366,40282,6,0,L|318:301,1,64.9999970245363,2|0,0:0|0:0,0:0:0:0:
325,148,40453,1,0,0:0:0:0:
325,122,40538,1,2,0:0:0:0:
325,96,40623,2,0,L|259:80,1,64.9999970245363,8|4,0:0|0:1,0:0:0:0:
98,38,40794,1,6,0:1:0:0:
54,54,40879,1,12,0:1:0:0:
17,69,40964,5,2,0:0:0:0:
270,282,41135,1,2,0:0:0:0:
45,182,41305,5,2,0:0:0:0:
334,220,41476,1,2,0:0:0:0:
68,282,41646,5,2,0:0:0:0:
341,131,41817,1,2,0:0:0:0:
88,379,41988,5,2,0:0:0:0:
319,51,42158,1,2,0:0:0:0:
424,379,42329,5,2,0:0:0:0:
242,102,42499,1,2,0:0:0:0:
444,282,42670,5,2,0:0:0:0:
178,164,42839,1,2,0:0:0:0:
467,182,43011,5,2,0:0:0:0:
171,253,43181,1,2,0:0:0:0:
495,69,43352,5,2,0:0:0:0:
193,333,43523,1,2,0:0:0:0:
504,196,43693,6,0,L|466:178,1,32.4999985122681,6|0,0:0|0:0,0:0:0:0:
454,210,43778,6,0,L|432:172,1,32.4999985122681,2|0,0:1|0:0,0:0:0:0:
408,208,43864,6,0,L|410:172,1,32.4999985122681,2|0,0:1|0:0,0:0:0:0:
367,187,43949,6,0,L|382:155,1,32.4999985122681,2|0,0:1|0:0,0:0:0:0:
337,152,44034,6,0,L|367:132,1,32.4999985122681,2|0,0:1|0:0,0:0:0:0:
321,108,44120,6,0,L|338:79,1,32.4999985122681,2|0,0:1|0:0,0:0:0:0:
305,71,44205,6,0,L|294:36,1,32.4999985122681,2|0,0:1|0:0,0:0:0:0:
256,43,44290,6,0,L|232:15,1,32.4999985122681,2|0,0:1|0:0,0:0:0:0:
160,13,44375,6,0,L|133:32,1,32.4999985122681,2|0,0:0|0:0,0:0:0:0:
88,16,44460,6,0,L|71:44,1,32.4999985122681,2|0,0:1|0:0,0:0:0:0:
32,45,44546,6,0,L|42:84,1,32.4999985122681,2|0,0:1|0:0,0:0:0:0:
0,95,44631,6,0,L|22:118,1,32.4999985122681,2|0,0:1|0:0,0:0:0:0:
0,151,44717,6,0,L|41:148,1,29.9999990844727,2|0,0:1|0:0,0:0:0:0:
14,196,44802,6,0,L|37:170,1,27.5000008392334,2|0,0:1|0:0,0:0:0:0:
55,217,44887,6,0,L|57:186,1,25,2|0,0:1|0:0,0:0:0:0:
97,212,44972,6,0,L|91:185,1,22.4999993133545,2|0,0:1|0:0,0:0:0:0:
116,182,45058,6,0,B|160:191|167:215|167:215|186:198|199:199,1,100,4|0,3:3|3:0,0:0:0:0:
157,329,45228,6,0,B|186:295|211:301|211:301|205:276|214:265,1,100,0|0,0:3|3:0,0:0:0:0:
307,372,45399,6,0,B|292:329|310:311|310:311|285:303|280:290,1,100,0|0,0:3|3:0,0:0:0:0:
415,226,45569,6,0,B|442:234|442:234|468:218,3,50,0|0|0|0,0:0|0:0|0:0|0:0,3:0:0:0:
433,160,45740,6,0,B|459:140|489:128|489:128|397:53|270:192|124:143|124:143|264:128|295:80|285:39|241:-2|241:-2|267:74|238:129|238:129|234:162|234:162|246:243|205:305,1,1015.00003097534,0|0,1:0|3:0,0:0:0:0:
14,322,46422,5,2,0:0:0:0:
46,355,46507,2,0,L|125:359,1,80
207,301,46678,5,0,0:0:0:0:
239,268,46763,2,0,L|318:262,1,80,8|0,0:0|0:0,0:0:0:0:
457,276,46934,5,0,0:0:0:0:
461,251,47019,1,0,0:0:0:0:
473,176,47104,6,0,B|459:175|449:170|449:170|442:178|427:186,1,50
501,139,47190,6,0,B|382:164|382:164|403:144|396:126,1,160,2|0,0:0|0:0,3:0:0:0:
316,16,47446,2,0,B|434:-9|434:-9|418:9|419:27,1,160,8|0,0:0|0:0,0:0:0:0:
264,102,47701,5,2,0:0:0:0:
247,139,47787,2,0,B|245:163|259:180|259:180|238:195|233:220,1,80,2|0,0:0|0:0,0:0:0:0:
144,87,47957,2,0,B|146:63|132:46|132:46|153:31|158:6,1,80
41,149,48128,1,8,0:0:0:0:
68,175,48213,2,0,L|78:229,3,53.3333333333333,0|0|2|0,0:0|0:0|0:0|0:0,0:0:0:0:
144,276,48469,6,0,B|170:274|189:265|189:265|218:285|218:285|238:275|260:277,1,125,8|0,0:0|0:0,0:0:0:0:
139,281,48639,6,0,B|165:279|184:270|184:270|213:291,1,80,2|8,0:0|0:0,0:0:0:0:
286,357,48895,5,0,0:0:0:0:
316,336,48981,2,0,B|351:332|374:341|374:341|359:325,1,80,2|2,0:0|0:0,0:0:0:0:
247,139,49151,6,0,L|316:146,1,69.9999978637696,2|0,0:0|0:0,0:0:0:0:
89,152,49322,2,0,L|158:159,1,69.9999978637696,0|2,0:0|0:0,0:0:0:0:
322,231,49492,6,0,B|356:231|396:185|396:185|338:268|358:325,1,240,8|0,0:0|0:0,0:0:0:0:
251,361,49833,5,0,0:0:0:0:
209,377,49919,2,0,B|164:373|120:348|120:348|156:344|178:320,1,160,2|2,0:0|0:0,3:0:0:0:
136,175,50174,6,0,B|43:193|26:249|26:249|64:284|120:267,1,240,8|2,0:0|0:0,0:0:0:0:
226,224,50516,6,0,B|261:202|261:202|308:211,1,80,2|0,0:0|0:0,0:0:0:0:
429,335,50686,2,0,B|466:342|466:342|501:320,1,80,2|2,0:0|0:0,0:0:0:0:
442,154,50857,6,0,B|362:131|327:81|327:81|288:105|234:92,1,230.000004386902,8|2,0:0|0:0,0:0:0:0:
387,26,51084,6,0,B|428:73|475:73|475:73|458:22,1,153.333336257935,4|2,0:3|0:0,0:0:0:0:
442,154,51283,6,0,B|456:266|456:266|442:240|419:224,1,160,8|0,0:0|0:0,3:0:0:0:
307,314,51539,5,8,0:1:0:0:
268,342,51624,1,8,0:0:0:0:
184,318,51710,5,2,0:0:0:0:
137,327,51795,1,8,0:1:0:0:
57,278,51880,6,0,B|76:246|76:246|66:204,1,80,2|0,0:0|0:0,0:0:0:0:
241,139,52051,2,0,B|209:120|209:120|167:129,1,80
306,313,52221,2,0,B|297:272|297:272|316:240,1,80,8|0,0:0|0:0,0:0:0:0:
400,156,52392,6,0,L|404:196,1,40,2|0,0:1|3:0,0:0:0:0:
412,212,52562,5,0,0:0:0:0:
340,126,52648,2,0,P|395:66|410:146,1,200,4|2,0:0|0:0,0:0:0:0:
320,93,52903,6,0,P|332:56|361:29,1,80,8|0,0:0|0:0,0:0:0:0:
219,164,53074,5,0,0:0:0:0:
196,147,53159,1,2,0:0:0:0:
172,131,53245,2,0,B|129:125|129:125|89:144,1,80,2|0,0:0|0:0,0:0:0:0:
174,111,53415,6,0,B|124:104|124:104|78:125,1,100,0|2,0:0|0:0,0:0:0:0:
5,321,53586,5,8,0:0:0:0:
29,305,53672,2,0,B|72:299|72:299|112:318,1,80,2|2,0:0|0:0,0:0:0:0:
274,207,53842,6,0,B|308:198|334:161|334:161|323:247|380:266|351:327,1,250,2|0,0:3|0:0,0:0:0:0:
286,382,54097,6,0,B|282:361|269:347|269:347|276:326|273:307,1,80,2|0,0:0|0:0,0:0:0:0:
502,293,54268,2,0,B|452:339|406:291|350:329,1,160,8|2,0:0|0:0,0:0:0:0:
128,343,54524,5,8,0:0:0:0:
105,314,54609,2,0,B|89:276|92:240|92:240|102:249,1,89.9999972534181,2|0,0:0|0:0,0:0:0:0:
248,184,54780,2,0,P|261:227|260:267,1,80,0|2,0:0|0:0,0:0:0:0:
365,316,54950,6,0,B|390:313|422:339|422:339|464:317|494:265,1,160,8|2,0:0|0:0,0:0:0:0:
414,238,55206,6,0,P|421:199|406:157,1,80,8|0,0:1|0:0,0:0:0:0:
409,161,55377,6,0,B|384:129|345:105|300:112|300:112|328:135|335:176,1,200,8|2,0:3|0:0,0:0:0:0:
290,309,55632,6,0,B|256:313|231:349|231:349|249:170,1,240,8|2,0:1|0:0,0:0:0:0:
69,77,55974,5,2,0:0:0:0:
84,52,56059,2,0,P|112:27|154:25,1,80
239,56,56229,1,2,0:0:0:0:
254,74,56315,6,0,P|246:155|320:120,1,200,4|0,0:1|0:1,0:0:0:0:
258,78,56485,6,0,P|248:149|314:120,1,175.00000166893,6|2,0:1|0:1,0:0:0:0:
258,83,56656,6,4,P|253:144|308:117,1,150.000005722046,4|6,0:1|0:1,0:0:0:0:
263,88,56826,6,0,P|256:139|304:119,1,125,4|0,0:1|0:1,0:0:0:0:
274,115,56997,6,0,B|277:144|265:166|265:166|276:177|276:190,1,80,8|0,0:0|0:0,0:0:0:0:
417,135,57168,2,0,B|413:105|425:83|425:83|415:72|413:57,1,80,2|8,0:0|0:0,0:0:0:0:
378,235,57338,6,0,B|437:250|482:212|482:212|422:333|265:331,1,375,2|0,1:0|0:0,0:0:0:0:
108,288,57679,6,0,P|92:266|92:240,3,53.3333333333333,8|0|0|0,0:0|0:0|0:0|0:0,0:0:0:0:
288,113,57935,2,0,P|288:157|273:193,1,80,2|0,0:0|0:0,0:0:0:0:
148,20,58106,2,0,B|190:59|218:127|218:127|212:108|214:94,1,160,10|0,0:0|0:0,0:0:0:0:
340,39,58361,5,8,0:0:0:0:
376,48,58447,2,0,P|414:38|437:7,2,80,0|2|8,0:0|0:0|0:0,0:0:0:0:
85,115,58703,6,0,B|77:124|76:139|76:139|53:92,1,80,2|0,0:0|0:0,0:0:0:0:
274,189,58873,2,0,B|282:198|283:213|283:213|306:166,1,80,2|2,0:0|0:0,0:0:0:0:
52,359,59044,1,8,0:0:0:0:
65,331,59129,2,0,B|85:323|95:303|95:303|115:311|132:305,1,80,2|2,0:0|0:0,0:0:0:0:
190,341,59300,6,0,B|220:327|244:337|244:337|209:259|149:183|149:183|148:216|123:238,1,300.000011444092,8|0,0:0|0:0,0:0:0:0:
190,341,59555,6,0,B|172:305|194:267|194:267|158:281|124:238,1,160,8|8,0:3|0:0,0:0:0:0:
69,176,59811,2,0,B|74:134|74:134|59:99,2,80,0|2|8,0:0|0:0|0:0,0:0:0:0:
24,301,60067,5,2,0:0:0:0:
66,316,60152,2,0,B|164:327|251:279|251:279|193:267,1,250,10|2,0:0|0:0,0:0:0:0:
130,188,60408,6,0,L|51:198,1,80,8|0,0:0|0:0,0:0:0:0:
119,53,60579,1,2,0:0:0:0:
161,68,60664,2,0,L|240:58,1,80,8|0,0:0|0:0,0:0:0:0:
384,72,60835,6,0,B|397:35|397:35|401:104|433:151,1,160,2|0,0:0|0:0,0:0:0:0:
477,215,61090,2,0,B|451:232|421:227|421:227|412:253,1,80,8|0,0:0|0:0,0:0:0:0:
250,200,61261,2,0,B|275:182|305:187|305:187|314:161,1,80,0|2,0:0|0:0,0:0:0:0:
240,360,61432,5,2,0:0:0:0:
192,353,61517,1,0,0:0:0:0:
144,347,61602,1,2,0:0:0:0:
96,340,61687,1,2,0:0:0:0:
48,333,61773,6,0,B|77:305|77:305|95:340,1,80,8|0,0:0|0:0,0:0:0:0:
133,120,61943,1,2,0:0:0:0:
133,120,62028,2,0,B|162:147|162:147|180:112,1,80,8|0,0:0|0:0,0:0:0:0:
108,141,62199,6,0,B|152:159|168:194|168:194|169:155|203:125,1,160,10|2,0:0|0:0,0:0:0:0:
278,291,62455,6,0,L|352:301,1,69.9999978637696,8|8,0:1|0:1,0:0:0:0:
315,121,62625,2,0,L|389:111,1,69.9999978637696,2|8,0:0|0:1,0:0:0:0:
458,100,62796,6,0,L|376:112,1,75,2|0,0:1|0:0,0:0:0:0:
325,212,63137,6,0,B|266:206|241:170|241:170|216:125|152:123,1,200,8|0,0:3|0:0,0:0:0:0:
86,330,63393,6,0,B|94:290|121:256|121:256|91:284|51:284,1,160,2|0,0:0|0:0,0:0:0:0:
51,284,63564,6,0,B|98:294|138:286|138:286|194:309|194:309|234:301|267:309,1,220.000006713867,10|0,0:0|0:0,0:0:0:0:
376,349,63820,5,8,0:0:0:0:
419,330,63904,2,0,L|428:245,1,80
469,21,64075,1,2,0:0:0:0:
512,39,64161,6,0,B|532:80|521:129|521:129|500:106|461:98,1,160,10|0,0:0|0:0,0:0:0:0:
171,248,64416,2,0,B|150:289|161:339|161:339|182:316|220:308,1,160,10|0,0:0|0:0,0:0:0:0:
449,175,64672,6,0,B|415:172|398:144|398:144|333:152|301:204|301:204|230:166|189:169|189:169|232:188|249:216,1,375,10|0,1:2|0:0,0:0:0:0:
166,359,65013,6,0,P|199:380|239:381,1,80,2|0,0:0|0:0,0:0:0:0:
458,274,65184,5,8,0:1:0:0:
415,296,65269,1,8,0:1:0:0:
371,232,65354,5,2,0:0:0:0:
324,242,65439,1,8,0:1:0:0:
248,214,65525,6,0,P|210:212|183:240,3,80,2|0|0|0,0:0|0:0|0:0|0:0,0:0:0:0:
338,261,65866,6,0,B|289:305|294:373|294:373|246:329|177:356,1,250,8|2,0:0|0:0,3:0:0:0:
332,204,66122,6,0,B|356:225|390:231|390:231|358:239|337:263,1,125,8|0,0:0|0:0,0:0:0:0:
512,275,66293,6,0,P|396:246|315:335,1,250,2|0,0:3|0:0,0:0:0:0:
126,287,66548,5,8,0:0:0:0:
109,278,66634,1,0,0:0:0:0:
93,269,66719,2,0,L|105:190,1,80,0|2,0:0|0:0,0:0:0:0:
194,89,66889,6,0,B|152:68|147:23|147:23|101:68|61:77|-1:50|-1:50|21:90|-3:133,1,330.000010070801,2|2,0:0|0:0,3:0:0:0:
105,190,67231,6,0,L|93:269,1,80,8|0,0:0|0:0,0:0:0:0:
247,179,67401,1,2,0:0:0:0:
241,157,67486,1,2,0:0:0:0:
279,79,67572,6,0,L|283:29,1,50,2|0,0:0|0:0,0:0:0:0:
283,85,67742,2,0,L|287:35,1,50,2|0,0:0|0:0,0:0:0:0:
287,91,67913,2,0,L|291:41,1,50,2|0,0:0|0:0,0:0:0:0:
291,97,68083,2,0,L|295:47,1,50,2|0,0:0|0:0,0:0:0:0:
275,231,68254,6,0,B|216:217|195:262|139:246,1,139.999995727539,2|0,0:0|0:0,0:0:0:0:
37,127,68510,1,0,0:0:0:0:
73,147,68595,2,0,L|146:134,1,69.9999978637696,8|0,0:0|0:0,0:0:0:0:
138,37,68766,2,0,L|69:24,1,69.9999978637696,0|2,0:1|0:0,0:0:0:0:
216,91,68936,5,0,0:0:0:0:
294,180,69022,2,0,B|258:155|227:156|227:156|233:120|215:89,1,139.999995727539,10|0,0:2|0:0,0:0:0:0:
316,22,69277,1,8,0:0:0:0:
313,47,69363,1,0,0:1:0:0:
310,72,69448,1,0,0:1:0:0:
307,97,69533,1,2,0:0:0:0:
294,180,69618,6,0,B|321:205|321:205|363:206,1,69.9999978637696,2|0,0:0|0:0,0:0:0:0:
430,330,69789,2,0,B|438:294|438:294|418:257,1,69.9999978637696,2|2,0:0|0:0,0:0:0:0:
491,138,69960,2,0,B|455:148|455:148|433:184,1,69.9999978637696,8|0,0:0|0:0,0:0:0:0:
170,301,70130,5,2,0:0:0:0:
198,318,70215,1,8,0:0:0:0:
231,323,70301,1,0,0:0:0:0:
263,315,70386,1,8,0:0:0:0:
289,297,70471,6,0,B|330:288|361:304|361:304|343:322,1,100,2|0,0:0|0:0,3:0:0:0:
241,116,70642,6,0,B|233:153|206:170|206:170|234:200|229:238,1,139.999995727539,8|2,0:0|0:0,0:0:0:0:
243,73,70898,1,8,0:0:0:0:
97,88,70983,6,0,L|167:99,1,69.9999978637696,2|0,0:0|0:0,0:0:0:0:
84,239,71154,2,0,L|154:229,1,69.9999978637696,0|2,0:0|0:0,0:0:0:0:
35,120,71324,6,0,B|24:86|-2:74|-2:74|101:88,1,160,8|2,0:0|0:0,0:0:0:0:
222,219,71580,2,0,L|152:229,1,69.9999978637696,8|0,0:0|0:0,0:0:0:0:
0,315,71750,6,0,B|52:322|52:322|102:290|102:290|127:310|165:305,1,179.999994506836,10|0,0:2|0:0,0:0:0:0:
324,342,72006,1,8,0:0:0:0:
337,310,72092,1,0,0:0:0:0:
350,278,72177,1,8,0:0:0:0:
363,246,72262,1,2,0:0:0:0:
335,178,72347,6,0,L|404:173,1,69.9999978637696,2|0,0:0|0:0,0:0:0:0:
438,307,72518,1,2,0:0:0:0:
465,302,72603,1,2,0:0:0:0:
493,297,72689,2,0,L|508:228,1,69.9999978637696,8|0,0:0|0:0,0:0:0:0:
444,173,72859,2,0,L|459:104,1,69.9999978637696,2|8,0:0|0:0,0:0:0:0:
357,64,73030,5,0,0:0:0:0:
227,80,73115,2,0,B|275:55|275:55|315:79|357:65,1,139.999995727539,10|2,0:2|0:0,0:0:0:0:
262,167,73371,1,8,0:0:0:0:
237,164,73457,1,8,0:0:0:0:
212,161,73542,1,2,0:0:0:0:
187,158,73627,1,8,0:0:0:0:
227,80,73712,6,0,P|224:45|209:14,1,69.9999978637696,2|0,0:0|0:0,0:0:0:0:
40,81,73882,1,0,0:0:0:0:
33,111,73968,1,0,0:0:0:0:
25,141,74053,2,0,P|46:168|75:187,1,69.9999978637696,8|0,0:0|0:0,0:0:0:0:
262,167,74224,1,0,0:0:0:0:
269,197,74310,1,2,0:0:0:0:
277,227,74394,1,0,0:0:0:0:
266,349,74479,6,0,B|281:332|300:318|300:318|276:227,1,139.999995727539,10|0,0:2|0:0,0:0:0:0:
149,265,74735,2,0,B|134:247|115:233|115:233|138:143,1,139.999995727539,8|0,0:0|0:0,0:0:0:0:
214,49,74991,5,8,0:0:0:0:
242,73,75076,2,0,B|270:76|292:63|292:63|307:72,1,69.9999978637696,2|0,0:0|0:0,0:0:0:0:
13,95,75247,1,2,0:0:0:0:
44,119,75332,1,2,0:0:0:0:
72,143,75417,2,0,B|100:146|122:133|122:133|137:142,1,69.9999978637696,8|0,0:0|0:0,0:0:0:0:
227,207,75588,5,2,0:0:0:0:
353,194,75673,2,0,B|311:200|291:227|291:227|261:206|228:207,1,139.999995727539,10|0,0:0|0:0,0:0:0:0:
205,330,75929,6,0,B|230:321|246:301|246:301|265:315|294:310,1,100,2|0,0:0|0:0,0:0:0:0:
428,263,76100,2,0,P|420:305|398:331,1,69.9999978637696,8|0,0:0|0:0,0:0:0:0:
446,124,76270,2,0,P|480:149|494:179,1,69.9999978637696,2|8,0:0|0:0,0:0:0:0:
262,45,76441,6,0,B|356:27|356:27|394:47,1,139.999995727539,2|0,0:0|0:0,0:0:0:0:
314,217,76697,1,2,0:0:0:0:
343,195,76782,2,0,B|359:161|359:161|347:116,2,69.9999978637696,8|0|2,0:0|0:0|0:0,0:0:0:0:
240,267,77038,2,0,B|208:275|208:275|174:259,1,69.9999978637696,8|0,0:0|0:0,0:0:0:0:
108,111,77208,6,0,B|136:150|217:195|217:195|187:177|158:185,1,200,10|0,0:2|0:0,0:0:0:0:
30,283,77464,1,8,0:0:0:0:
78,275,77549,1,2,0:0:0:0:
126,267,77635,1,8,0:1:0:0:
174,259,77720,1,8,0:1:0:0:
224,321,77805,6,0,P|191:335|157:336,1,69.9999978637696,2|0,0:0|0:0,0:0:0:0:
302,210,77976,1,2,0:0:0:0:
322,232,78061,1,2,0:0:0:0:
345,252,78147,2,0,P|377:265|411:266,1,69.9999978637696,8|0,0:0|0:0,0:0:0:0:
412,265,78317,6,0,B|382:305|382:305|402:239|393:176,1,179.999994506836,10|0,1:2|0:0,0:0:0:0:
458,51,78573,1,12,0:1:0:0:
465,88,78658,1,4,0:1:0:0:
470,120,78743,1,6,0:1:0:0:
393,176,78829,5,12,0:1:0:0:
327,200,78914,1,4,0:1:0:0:
256,196,79000,1,6,0:1:0:0:
197,157,79085,1,12,0:1:0:0:
120,196,79170,6,0,B|79:194|56:168|56:168|51:216|19:248|19:248|35:293,1,209.999993591309,2|0,1:2|0:0,0:0:0:0:
145,345,79511,1,8,0:0:0:0:
170,318,79596,2,0,P|237:304|300:333,1,139.999995727539,0|2,0:0|0:0,0:0:0:0:
406,256,79852,5,0,0:0:0:0:
294,215,79937,2,0,B|332:228|363:206|363:206|375:243|406:255,1,139.999995727539,10|0,0:2|0:0,0:0:0:0:
502,291,80193,2,0,B|487:325|487:325|489:357,1,69.9999978637696,8|0,0:0|0:0,0:0:0:0:
444,186,80364,2,0,B|459:152|459:152|456:119,1,69.9999978637696,0|2,0:0|0:0,0:0:0:0:
313,71,80534,6,0,L|316:140,1,69.9999978637696,2|0,0:0|0:0,0:0:0:0:
123,194,80705,1,2,0:0:0:0:
93,184,80790,1,2,0:0:0:0:
67,173,80876,2,0,L|64:104,1,69.9999978637696,8|0,0:0|0:0,0:0:0:0:
186,20,81046,6,0,B|231:0|231:0|184:82|208:146,1,200,2|0,0:0|0:0,3:0:0:0:
231,241,81302,5,2,0:0:0:0:
263,263,81387,1,2,0:0:0:0:
302,266,81472,1,0,0:0:0:0:
332,254,81558,2,0,P|366:243|401:243,2,69.9999978637696,8|0|2,0:0|0:0|0:0,0:0:0:0:
163,338,81814,5,8,0:0:0:0:
191,355,81899,2,0,P|224:365|259:365,1,69.9999978637696,2|0,0:0|0:0,0:0:0:0:
384,326,82069,2,0,P|407:300|422:268,1,69.9999978637696,0|2,0:0|0:0,0:0:0:0:
237,285,82240,6,0,P|264:263|284:235,1,69.9999978637696,10|0,0:0|0:0,0:0:0:0:
323,110,82410,2,0,P|315:75|297:45,1,69.9999978637696,2|0,0:0|0:0,0:0:0:0:
195,160,82581,5,0,0:0:0:0:
68,150,82666,2,0,B|129:130|129:130|152:160|195:160,1,139.999995727539,10|0,0:2|0:0,0:0:0:0:
323,110,82922,2,0,L|398:123,1,69.9999978637696,8|0,0:0|0:0,0:0:0:0:
352,222,83093,2,0,L|284:234,1,69.9999978637696,0|2,0:0|0:0,0:0:0:0:
444,302,83263,6,0,B|423:323|423:323|400:321|384:330,1,69.9999978637696,2|0,0:0|0:0,0:0:0:0:
201,267,83434,1,2,0:0:0:0:
205,292,83519,1,2,0:0:0:0:
211,319,83604,2,0,B|227:328|236:349|236:349|266:358,2,69.9999978637696,8|0|0,0:0|0:0|0:0,0:0:0:0:
323,213,83860,6,0,L|318:285,1,69.9999978637696,2|0,0:0|0:0,3:0:0:0:
365,121,84031,2,0,B|311:104|266:134|266:134|247:119|233:117,1,139.999995727539,10|0,0:2|0:0,0:0:0:0:
66,35,84287,1,8,0:0:0:0:
58,83,84372,1,2,0:0:0:0:
50,131,84458,1,8,0:0:0:0:
42,179,84543,1,8,0:0:0:0:
33,224,84628,6,0,B|86:241|86:241|149:224|149:224|195:242|195:242|166:270,1,209.999993591309,2|0,0:0|0:0,0:0:0:0:
52,346,84969,2,0,B|95:333|95:333|121:338,1,69.9999978637696,8|0,0:0|0:0,0:0:0:0:
265,362,85140,1,0,0:0:0:0:
298,355,85225,1,8,0:0:0:0:
332,348,85310,1,0,0:0:0:0:
365,340,85395,6,0,B|384:288|357:216|357:216|385:242|428:241,1,200,10|0,0:2|0:0,0:0:0:0:
481,139,85651,2,0,P|446:148|414:161,1,69.9999978637696,8|0,0:0|0:0,0:0:0:0:
327,132,85822,5,0,0:0:0:0:
318,111,85906,1,2,0:0:0:0:
307,90,85992,2,0,P|272:98|240:111,1,69.9999978637696,2|0,0:0|0:0,0:0:0:0:
383,247,86163,1,2,0:0:0:0:
374,268,86247,1,2,0:0:0:0:
363,289,86333,2,0,P|328:280|296:267,1,69.9999978637696,8|0,0:0|0:0,0:0:0:0:
260,234,86504,1,2,0:0:0:0:
168,238,86589,6,0,B|149:239|129:258|129:258|157:166,1,139.999995727539,0|0,0:0|0:0,3:0:0:0:
373,78,86845,2,0,B|347:170|347:170|341:143|325:132,1,139.999995727539,2|8,0:0|0:0,0:0:0:0:
227,42,87101,1,0,0:0:0:0:
178,46,87186,1,2,0:0:0:0:
128,50,87272,1,8,0:0:0:0:
79,54,87357,6,0,B|40:159|40:159|79:151|116:174|116:174|105:127,1,240,2|2,0:0|0:0,0:0:0:0:
183,242,87698,2,0,B|147:248|125:277|125:277|94:251|60:251,1,139.999995727539,8|2,0:0|0:0,0:0:0:0:
264,281,87954,5,8,0:0:0:0:
311,271,88039,1,0,0:0:0:0:
358,258,88124,6,0,B|384:237|388:215|388:215|419:288|408:352|408:352|388:333|359:323,1,239.999992675781,10|0,1:2|0:0,0:0:0:0:
309,191,88380,6,0,L|293:123,1,69.9999978637696,8|0,0:0|0:0,0:0:0:0:
455,115,88551,2,0,L|439:47,1,69.9999978637696,0|2,0:0|0:0,0:0:0:0:
489,292,88721,5,2,0:0:0:0:
422,271,88807,5,4,0:1:0:0:
396,282,88892,1,6,0:1:0:0:
368,277,88977,1,6,0:1:0:0:
309,331,89062,5,12,0:1:0:0:
279,316,89148,1,4,0:1:0:0:
244,311,89233,1,6,0:1:0:0:
211,324,89318,1,12,0:1:0:0:
144,281,89404,5,4,0:1:0:0:
113,243,89489,1,12,0:1:0:0:
102,195,89574,1,6,0:1:0:0:
109,146,89659,1,4,0:1:0:0:
150,85,89745,5,12,0:1:0:0:
223,71,89830,1,12,0:1:0:0:
296,57,89915,1,12,0:1:0:0:
369,43,90001,1,12,0:1:0:0:
405,70,90086,5,6,0:0:0:0:
405,70,93497,2,0,B|375:163|375:163|306:86,2,200,2|2|2,0:0|0:0|0:0,0:0:0:0:
306,86,95203,1,0,0:0:0:0:
186,47,95544,6,0,B|161:53|136:41|136:41|125:57|97:69,1,100,2|0,0:0|0:0,0:0:0:0:
83,163,96226,2,0,B|142:140|183:161|223:178|223:178|263:172|300:147|321:103|321:103|271:112|233:136|215:178|215:178|226:220|269:249,1,500,2|0,0:0|0:0,0:0:0:0:
268,248,98273,6,0,P|364:259|436:194,2,200,2|2|2,0:0|0:0|3:1,0:0:0:0:
251,237,99723,5,4,0:1:0:0:
237,221,99808,1,4,0:1:0:0:
226,202,99893,1,4,0:1:0:0:
167,151,99978,5,4,0:1:0:0:
173,115,100064,1,4,0:1:0:0:
200,93,100149,1,4,0:1:0:0:
233,82,100234,1,4,0:1:0:0:
309,42,100319,5,4,0:1:0:0:
346,84,100405,1,4,0:1:0:0:
400,95,100490,1,4,0:1:0:0:
452,74,100575,1,4,0:1:0:0:
507,137,100661,5,4,0:1:0:0:
450,177,100746,1,4,0:1:0:0:
380,185,100831,1,4,0:1:0:0:
315,159,100916,1,4,0:1:0:0:
260,236,101002,6,0,B|281:250|324:257|324:257|243:261|193:305,1,209.999993591309,2|2,1:2|0:0,0:0:0:0:
126,350,101343,6,0,L|117:280,1,69.9999978637696,8|0,0:0|0:0,0:0:0:0:
260,236,101513,2,0,L|251:166,1,69.9999978637696,2|0,0:0|0:0,0:0:0:0:
129,90,101684,5,2,0:0:0:0:
98,94,101769,2,0,B|76:100|57:114|57:114|33:109,2,69.9999978637696,2|0|2,0:0|0:0|0:0,0:0:0:0:
232,6,102025,2,0,B|215:24|215:24|218:47|213:69,1,69.9999978637696,8|0,0:0|0:0,0:0:0:0:
223,225,102196,2,0,B|215:201|215:201|193:192|177:176,1,69.9999978637696,2|0,0:0|0:0,0:0:0:0:
0,313,102366,5,2,0:0:0:0:
28,311,102451,1,0,0:0:0:0:
56,309,102537,1,0,0:0:0:0:
84,307,102622,1,2,0:0:0:0:
125,284,102707,6,0,L|193:298,1,69.9999978637696,8|0,0:0|0:0,0:0:0:0:
280,356,102878,2,0,L|348:341,1,69.9999978637696
442,213,103048,6,0,B|454:188|454:188|447:146,2,69.9999978637696,2|0|2,0:0|0:0|0:0,0:0:0:0:
292,210,103304,1,0,0:0:0:0:
277,169,103390,2,0,B|262:145|262:145|223:129,1,69.9999978637696,8|0,0:0|0:0,0:0:0:0:
193,298,103560,2,0,B|165:298|165:298|130:322,1,69.9999978637696,2|0,0:0|0:0,0:0:0:0:
70,232,103731,6,0,B|40:223|2:231|2:231|32:213|51:180,1,139.999995727539,2|0,0:0|0:0,0:0:0:0:
208,31,103987,1,2,0:0:0:0:
236,62,104072,2,0,P|236:97|223:128,1,69.9999978637696,8|0,0:0|0:0,0:0:0:0:
381,182,104242,2,0,P|351:200|317:206,1,69.9999978637696,2|0,0:0|0:0,0:0:0:0:
341,350,104413,5,2,0:0:0:0:
313,348,104498,1,0,0:0:0:0:
285,346,104584,1,0,0:0:0:0:
257,344,104669,1,2,0:0:0:0:
216,321,104754,6,0,B|191:317|191:317|175:336|151:335,1,69.9999978637696,8|0,0:0|0:0,0:0:0:0:
149,186,104925,2,0,B|174:182|174:182|190:201|213:200,1,69.9999978637696,2|0,0:0|0:0,0:0:0:0:
393,265,105095,5,2,0:0:0:0:
418,251,105180,1,0,0:0:0:0:
443,236,105266,2,0,B|453:189|453:189|449:167,1,69.9999978637696,0|2,0:0|0:0,0:0:0:0:
376,44,105436,1,8,0:0:0:0:
351,59,105522,2,0,B|341:106|341:106|344:127,1,69.9999978637696,0|2,0:0|0:0,0:0:0:0:
212,200,105692,5,0,0:0:0:0:
174,182,105777,2,0,B|150:179|135:165|135:165|124:183|104:192,1,80,2|8,0:0|0:0,0:0:0:0:
248,300,105948,2,0,B|257:322|252:342|252:342|273:342|291:355,1,80,2|2,0:0|0:0,3:0:0:0:
318,188,106119,2,0,B|332:168|352:162|352:162|342:144|344:122,1,80,8|0,0:0|0:0,0:0:0:0:
153,274,106289,5,2,0:0:0:0:
153,274,106374,1,8,0:0:0:0:
153,274,106460,1,10,1:0:0:0:
271,55,106630,1,10,0:0:0:0:
258,347,106801,5,10,0:0:0:0:
155,91,106971,1,10,0:0:0:0:
353,278,107142,5,10,0:0:0:0:
64,170,107312,1,10,0:0:0:0:
470,239,107483,5,10,0:0:0:0:
28,301,107654,1,10,0:0:0:0:
359,110,107824,5,10,0:0:0:0:
241,329,107995,1,10,0:0:0:0:
254,37,108165,5,10,0:0:0:0:
357,293,108336,1,10,0:0:0:0:
159,106,108506,5,10,0:0:0:0:
448,214,108677,1,10,0:0:0:0:
42,145,108848,5,10,0:0:0:0:
484,83,109019,1,10,0:0:0:0:
236,369,109189,5,14,1:1:0:0:
260,348,109274,1,14,0:1:0:0:
290,339,109359,1,14,0:1:0:0:
321,343,109444,1,14,0:1:0:0:
351,353,109530,1,14,0:1:0:0:
382,350,109615,1,14,0:1:0:0:
408,332,109700,1,14,0:1:0:0:
421,302,109786,1,14,0:1:0:0:
408,247,109871,5,14,0:1:0:0:
358,220,109956,1,14,0:1:0:0:
302,216,110041,1,14,0:1:0:0:
250,238,110127,1,14,0:1:0:0:
182,249,110212,5,14,0:1:0:0:
114,223,110297,1,14,0:1:0:0:
81,158,110383,1,14,0:1:0:0:
102,89,110468,1,14,0:1:0:0:
177,46,110553,6,8,L|169:-2,14,40,0|0|0|0|0|0|0|0|0|0|0|0|0|0|0,0:0|0:0|0:0|0:0|0:0|0:0|0:0|0:0|0:0|0:0|0:0|0:0|0:0|0:0|0:0,3:0:0:0:
222,135,111235,6,0,B|339:220|397:100|502:180|502:180|468:185|439:213,1,350,4|0,0:1|3:0,0:0:0:0:
448,204,111918,5,12,0:0:0:0:
448,204,114192,2,0,P|457:235|459:268,1,66.6666666666667,2|2,0:0|0:0,0:0:0:0:
426,352,114647,5,2,0:0:0:0:
352,309,116011,1,2,0:0:0:0:
273,347,117376,5,2,0:0:0:0:
352,309,118058,1,2,0:0:0:0:
311,224,119422,1,2,0:0:0:0:
272,140,120105,5,2,0:0:0:0:
272,140,121469,5,4,0:1:0:0:
281,128,121554,1,4,0:1:0:0:
300,120,121640,1,4,0:1:0:0:
325,117,121725,1,4,0:1:0:0:
355,122,121810,1,4,0:1:0:0:
385,139,121895,1,4,0:1:0:0:
404,174,121981,1,4,0:1:0:0:
400,218,122066,1,4,0:1:0:0:
339,276,122151,5,4,0:1:0:0:
289,258,122237,1,4,0:1:0:0:
234,263,122322,1,4,0:1:0:0:
190,300,122407,1,4,0:1:0:0:
135,322,122492,1,4,0:1:0:0:
73,309,122578,1,4,0:1:0:0:
28,262,122663,1,4,0:1:0:0:
14,196,122748,1,4,0:1:0:0:
33,124,122834,6,0,L|102:133,1,69.9999978637696,2|0,1:0|0:0,0:0:0:0:
161,54,123004,1,0,0:0:0:0:
172,36,123089,1,2,0:0:0:0:
183,18,123175,2,0,L|252:27,1,69.9999978637696,8|0,0:0|0:0,0:0:0:0:
345,110,123345,2,0,L|414:119,1,69.9999978637696,2|0,0:0|0:0,0:0:0:0:
485,215,123516,5,2,0:0:0:0:
464,220,123601,1,2,0:0:0:0:
443,225,123686,1,2,0:0:0:0:
422,230,123772,1,2,0:0:0:0:
402,236,123857,2,0,L|413:310,1,69.9999978637696,8|0,0:0|0:0,0:0:0:0:
273,187,124027,2,0,L|284:261,1,69.9999978637696,2|0,0:0|0:0,0:0:0:0:
140,345,124198,5,2,0:0:0:0:
125,330,124283,2,0,L|135:260,2,69.9999978637696,0|0|2,0:0|0:0|0:0,0:0:0:0:
42,224,124539,2,0,L|31:154,1,69.9999978637696,8|0,0:0|0:0,0:0:0:0:
196,184,124710,2,0,L|185:114,1,69.9999978637696,2|0,0:0|0:0,0:0:0:0:
328,60,124880,5,2,0:0:0:0:
341,76,124966,2,0,L|416:85,1,69.9999978637696,8|0,0:0|0:0,0:0:0:0:
484,170,125136,1,2,0:0:0:0:
471,186,125222,2,0,L|396:195,1,69.9999978637696,8|0,0:0|0:0,0:0:0:0:
255,123,125392,2,0,L|185:114,1,69.9999978637696,2|0,0:0|0:0,0:0:0:0:
42,224,125563,5,2,0:0:0:0:
59,212,125648,1,0,0:0:0:0:
79,208,125733,1,0,0:0:0:0:
99,210,125818,1,2,0:0:0:0:
118,217,125904,2,0,L|125:286,1,69.9999978637696,8|0,0:0|0:0,0:0:0:0:
239,338,126074,5,2,0:0:0:0:
259,336,126159,1,0,0:0:0:0:
280,334,126245,2,0,L|272:264,1,69.9999978637696,2|0,0:0|0:0,0:0:0:0:
409,263,126415,2,0,L|401:193,1,69.9999978637696,0|2,0:0|0:0,0:0:0:0:
298,350,126586,2,0,L|289:280,1,69.9999978637696,8|0,0:0|0:0,0:0:0:0:
278,116,126756,5,6,0:1:0:0:
260,103,126842,2,0,L|191:98,1,69.9999978637696,4|2,0:1|0:0,0:0:0:0:
33,199,127012,1,4,0:1:0:0:
51,208,127098,2,0,L|120:203,1,69.9999978637696,4|2,0:1|0:0,0:0:0:0:
254,315,127268,2,0,L|185:310,2,69.9999978637696,12|0|6,0:1|0:0|0:1,0:0:0:0:
448,337,127524,6,0,L|443:256,1,69.9999978637696,6|2,0:1|0:0,0:0:0:0:
278,116,127695,1,4,0:1:0:0:
265,133,127780,2,0,L|269:202,1,69.9999978637696,4|0,0:1|0:0,0:0:0:0:
470,354,127950,2,0,L|465:273,1,69.9999978637696,12|0,0:1|0:0,0:0:0:0:
493,92,128121,1,2,0:0:0:0:
461,61,128206,1,8,0:0:0:0:
428,30,128292,5,10,1:2:0:0:
229,263,128462,1,10,0:0:0:0:
307,81,128633,5,10,0:0:0:0:
340,291,128803,1,10,0:0:0:0:
186,32,128974,5,10,0:0:0:0:
409,222,129144,1,10,0:0:0:0:
90,114,129315,5,10,0:0:0:0:
511,183,129485,1,10,0:0:0:0:
90,270,129656,5,10,0:0:0:0:
283,121,129826,1,10,0:0:0:0:
186,352,129997,5,10,0:0:0:0:
172,93,130167,1,10,0:0:0:0:
307,303,130338,5,10,0:0:0:0:
103,162,130508,1,10,0:0:0:0:
428,354,130679,5,10,0:0:0:0:
1,201,130849,1,10,0:0:0:0:
512,32,131020,6,0,L|493:-3,1,34.9999989318848,6|0,0:0|0:0,0:0:0:0:
498,79,131106,6,0,L|464:52,1,34.9999989318848,2|0,0:0|0:0,0:0:0:0:
465,115,131191,6,0,L|447:74,1,34.9999989318848,2|0,0:0|0:0,0:0:0:0:
417,125,131276,6,0,L|421:83,1,34.9999989318848,2|0,0:0|0:0,0:0:0:0:
367,119,131362,6,0,L|385:81,1,34.9999989318848,2|0,0:0|0:0,0:0:0:0:
323,97,131447,6,0,L|337:42,1,34.9999989318848,2|0,0:0|0:0,0:0:0:0:
293,58,131532,6,0,L|288:23,1,34.9999989318848,2|0,0:0|0:0,0:0:0:0:
248,38,131617,6,0,L|205:21,1,34.9999989318848,2|0,0:0|0:0,0:0:0:0:
129,35,131703,6,0,L|102:64,1,34.9999989318848,2|0,0:0|0:0,0:0:0:0:
79,40,131788,6,0,L|72:76,1,34.9999989318848,2|0,0:0|0:0,0:0:0:0:
43,71,131873,6,0,L|50:108,1,34.9999989318848,2|0,0:0|0:0,0:0:0:0:
16,112,131959,6,0,L|49:135,1,34.9999989318848,2|0,0:0|0:0,0:0:0:0:
6,154,132044,6,0,L|39:154,1,32.4999985122681,2|0,0:0|0:0,0:0:0:0:
16,192,132129,6,0,L|40:175,1,29.9999990844727,2|0,0:0|0:0,0:0:0:0:
39,220,132214,6,0,L|55:191,1,27.5000008392334,2|0,0:0|0:0,0:0:0:0:
77,239,132300,6,0,L|76:206,1,25,2|0,0:0|0:0,0:0:0:0:
159,237,132385,6,0,B|183:241|198:220|198:220|211:246|242:254,1,100,4|0,0:3|3:0,0:0:0:0:
386,155,132556,6,0,B|364:175|335:172|335:172|345:196|329:214,1,100,0|0,0:0|3:0,0:0:0:0:
366,370,132726,6,0,B|349:345|356:317|356:317|331:323|315:304,1,100,0|0,0:0|3:0,0:0:0:0:
55,315,132897,6,0,P|32:327|2:327,3,50,0|0|0|0,0:0|0:0|0:0|0:0,3:0:0:0:
126,273,133067,6,0,B|92:227|45:232|45:232|107:171|171:195|171:195|257:238|332:193|332:193|300:223|272:258|275:336,1,560,2|0,1:0|3:0,0:0:0:0:
251,108,133749,5,2,1:2:0:0:
256,192,133835,12,0,135711,3:0:0:0:
57,214,135796,6,0,B|97:202|97:202|128:223,1,80
241,291,135967,6,0,L|300:280,1,59.9999981689454,2|2,0:0|0:0,3:0:0:0:
364,232,136223,6,0,B|373:256|388:267|388:267|375:288|376:301,2,80,8|2|8,0:0|0:0|0:0,0:0:0:0:
274,81,136479,6,0,B|241:59|241:59|200:70,1,80,2|0,0:0|0:0,0:0:0:0:
148,142,136649,1,0,0:0:0:0:
173,161,136734,1,2,0:0:0:0:
207,182,136820,6,0,B|146:198|146:198|84:177|84:177|59:224|-3:224,1,230.000004386902,8|2,0:0|0:0,0:0:0:0:
64,324,137075,6,0,B|91:320|111:307|111:307|138:317,1,80,2|0,0:0|0:0,0:0:0:0:
280,267,137246,2,0,B|320:227|395:245|395:245|394:281|362:312,1,200,10|2,1:2|0:0,0:0:0:0:
362,313,137502,6,0,B|333:308|312:315|312:315|304:288|280:267,1,110.000003356934,8|0,0:0|0:0,0:0:0:0:
203,364,137758,5,2,0:0:0:0:
176,346,137843,2,0,L|161:264,1,80,2|0,0:0|0:0,0:0:0:0:
230,60,138013,1,2,0:0:0:0:
237,91,138099,1,2,0:0:0:0:
244,125,138184,6,0,B|318:115|362:163|362:163|408:137|408:137|453:151,1,230.000004386902,8|0,0:0|0:0,3:0:0:0:
470,228,138411,6,0,B|443:234|416:220|416:220|452:273|435:312,1,153.333336257935,4|0,0:3|0:0,0:0:0:0:
349,348,138610,5,10,1:2:0:0:
323,328,138696,1,2,0:0:0:0:
291,328,138781,1,2,0:0:0:0:
238,344,138866,5,8,0:0:0:0:
232,279,138952,1,8,0:0:0:0:
226,215,139037,1,8,0:0:0:0:
220,151,139122,1,8,0:0:0:0:
173,99,139207,6,0,P|207:-13|261:91,1,300,6|0,1:2|0:0,0:0:0:0:
131,171,139804,5,8,0:0:0:0:
131,171,139890,2,0,P|83:161|43:189,2,100,10|2|8,1:0|0:0|0:0,0:0:0:0:
306,302,140401,1,2,1:2:0:0:
306,302,140913,6,0,B|321:262|291:232|291:232|332:224|351:180,1,160,2|2,0:3|0:0,0:0:0:0:
256,41,141169,1,2,0:0:0:0:
249,73,141254,6,0,B|257:119|257:119|280:158,2,80,8|0|2,0:0|0:0|0:0,0:0:0:0:
393,258,141595,5,8,1:0:0:0:
76,384,141766,1,2,0:0:0:0:
76,384,141936,5,2,1:2:0:0:
14,322,142022,2,0,B|10:306|-8:291|-8:291|3:268|0:251,2,80,0|0|2,0:0|0:0|0:0,0:0:0:0:
69,186,142278,5,8,0:0:0:0:
99,176,142363,1,0,0:0:0:0:
130,176,142448,1,2,0:0:0:0:
160,185,142533,1,0,0:0:0:0:
218,230,142619,5,2,0:0:0:0:
362,170,142704,2,0,B|328:182|315:230|315:230|273:206|218:230,1,179.999994506836,10|0,0:2|0:0,0:0:0:0:
265,303,142960,5,8,0:0:0:0:
310,317,143045,1,0,0:0:0:0:
357,310,143130,1,0,0:0:0:0:
395,281,143216,1,2,0:0:0:0:
461,195,143301,5,2,0:0:0:0:
441,169,143386,1,0,0:0:0:0:
431,138,143471,1,2,0:0:0:0:
429,105,143557,1,2,0:0:0:0:
475,45,143642,6,0,B|438:29|438:29|398:36,1,80,8|0,0:0|0:0,0:0:0:0:
276,110,143813,1,2,0:0:0:0:
268,140,143898,1,0,0:0:0:0:
245,162,143983,2,0,B|205:169|205:169|168:153,1,80,0|8,0:0|0:0,0:0:0:0:
53,209,144154,1,6,0:1:0:0:
61,239,144239,1,6,0:1:0:0:
70,270,144324,5,12,0:1:0:0:
143,239,144409,1,6,0:1:0:0:
221,251,144494,1,12,0:1:0:0:
273,312,144580,1,12,0:1:0:0:
246,382,144665,6,0,B|224:375|208:357|208:357|193:368|167:370,1,89.9999972534181,2|0,0:0|0:0,0:0:0:0:
347,281,144836,2,0,B|369:274|385:256|385:256|400:267|426:268,1,89.9999972534181
333,168,145006,6,0,B|285:171|238:126|238:126|161:153|161:153|116:134|71:138,1,279.999991455078,6|0,1:2|0:0,0:0:0:0:
237,96,145262,6,0,L|146:125,1,94.9999974632264,2|0,0:0|0:0,0:0:0:0:
188,229,145433,6,0,B|164:238|137:228|137:228|164:276|159:328|159:328|179:311|202:310,1,200,10|0,1:0|0:0,0:0:0:0:
378,328,145689,5,8,0:0:0:0:
361,300,145774,1,0,0:0:0:0:
346,271,145859,2,0,L|267:266,1,80,0|2,0:0|0:0,0:0:0:0:
13,305,146030,6,0,B|30:285|30:285|49:299|81:294,1,80,2|0,0:0|0:0,0:0:0:0:
276,179,146200,1,2,0:0:0:0:
266,209,146286,1,2,0:0:0:0:
256,239,146371,2,0,B|223:234|204:248|204:248|187:228,1,80,8|0,0:0|0:0,0:0:0:0:
49,135,146542,1,2,0:0:0:0:
77,121,146627,2,0,B|101:113|112:97|112:97|129:113|158:109,1,89.9999972534181,0|0,0:0|0:0,3:0:0:0:
261,358,146797,5,0,0:0:0:0:
293,355,146883,1,2,0:0:0:0:
324,350,146968,1,0,0:0:0:0:
354,346,147053,2,0,B|362:303|362:303|345:270,1,80,8|0,0:0|0:0,0:0:0:0:
228,166,147224,5,2,0:0:0:0:
201,147,147309,2,0,B|184:114|184:114|192:71,1,80,8|2,0:0|0:0,0:0:0:0:
375,170,147480,6,0,B|391:155|418:150|418:150|343:142|271:103|271:103|300:126|305:147,1,259.999988098145,8|2,0:0|0:0,0:0:0:0:
409,274,147735,6,0,B|382:299|376:325|376:325|344:297|327:242,1,160,8|0,0:0|0:0,3:0:0:0:
391,76,147991,6,0,L|374:169,1,94.9999974632264,2|0,0:0|0:0,0:0:0:0:
86,244,148162,6,0,B|143:250|185:284|185:284|242:237|327:241,1,259.999988098145,10|0,1:0|0:0,0:0:0:0:
282,218,148418,6,0,P|243:225|206:239,1,80,8|0,0:0|0:0,0:0:0:0:
3,287,148588,5,0,0:0:0:0:
13,317,148674,1,2,0:0:0:0:
25,346,148759,2,0,B|67:353|67:353|99:334,1,80,2|0,0:0|0:0,0:0:0:0:
159,135,148929,1,2,0:0:0:0:
149,104,149015,1,2,0:0:0:0:
140,74,149100,2,0,B|98:67|98:67|65:85,1,80,8|0,0:0|0:0,0:0:0:0:
67,207,149271,5,2,0:0:0:0:
121,256,149356,2,0,B|155:244|155:244|179:252|179:252|207:238,1,89.9999972534181,0|0,0:0|0:0,3:0:0:0:
320,157,149526,6,0,B|334:122|361:107|361:107|237:135,1,189.999994926453,10|2,1:0|0:0,0:0:0:0:
397,177,149782,6,0,B|385:218|385:218|398:253,1,80,8|2,0:0|0:0,0:0:0:0:
279,311,149953,1,8,0:0:0:0:
302,342,150038,1,8,0:0:0:0:
398,335,150123,6,0,P|266:360|300:229,1,320,10|8,1:0|0:0,0:0:0:0:
437,113,150635,5,0,0:0:0:0:
414,90,150720,1,0,0:0:0:0:
395,63,150806,2,0,L|405:142,1,80,12|4,0:1|0:1,0:0:0:0:
420,312,150976,1,2,0:0:0:0:
328,183,151147,1,8,0:0:0:0:
80,230,151488,6,0,B|151:209|151:209|217:244|217:244|260:189|329:183,1,279.999991455078,2|8,1:0|0:0,0:0:0:0:
311,281,152170,6,0,B|314:307|328:323|328:323|318:350,1,69.9999978637696,12|4,0:1|0:1,0:0:0:0:
445,264,152341,2,0,B|442:238|428:222|428:222|437:194,1,69.9999978637696,6|4,0:1|0:1,0:0:0:0:
458,92,152511,1,12,0:1:0:0:
0,158,152852,6,0,B|52:149|95:197|95:197|121:185|144:183,1,160,2|0,1:0|0:0,0:0:0:0:
327,137,153108,6,0,P|279:72|201:75,1,160,10|0,1:0|0:0,0:0:0:0:
18,322,153364,6,0,P|95:329|157:281,1,160,2|0,1:0|0:0,0:0:0:0:
238,162,153620,6,0,B|230:178|238:219|238:219|209:189|144:183,1,160,10|0,1:0|0:0,0:0:0:0:
26,58,153876,6,0,B|67:53|93:36|93:36|126:69|168:82,1,160,10|0,1:0|0:0,0:0:0:0:
368,64,154132,1,2,1:0:0:0:
368,64,154302,5,14,0:1:0:0:
381,92,154387,1,6,0:1:0:0:
387,123,154473,1,6,0:1:0:0:
384,154,154558,1,14,0:1:0:0:
375,184,154643,1,6,0:1:0:0:
356,209,154728,1,6,0:1:0:0:
327,223,154814,1,14,0:1:0:0:
258,189,154899,5,6,0:1:0:0:
197,167,154984,1,14,0:1:0:0:
132,170,155070,1,6,0:1:0:0:
85,213,155155,1,6,0:1:0:0:
117,306,155240,5,14,0:1:0:0:
196,316,155325,1,6,0:1:0:0:
275,326,155410,1,6,0:1:0:0:
355,335,155496,1,14,0:1:0:0:
