osu file format v14

[General]
AudioFilename: audio.mp3
AudioLeadIn: 0
PreviewTime: 65158
Countdown: 0
SampleSet: Soft
StackLeniency: 0.2
Mode: 0
LetterboxInBreaks: 0
WidescreenStoryboard: 1

[Editor]
Bookmarks: 44196
DistanceSpacing: 0.4
BeatDivisor: 2
GridSize: 4
TimelineZoom: 5.899997

[Metadata]
Title:Nhelv
TitleUnicode:Nhelv
Artist:Silentroom
ArtistUnicode:Silentroom
Creator:milr_
Version:2020
Source:BMS
Tags:of fighters 2017 bofu2017 KATASTROPHE cut ver 1e308
BeatmapID:2344965
BeatmapSetID:721096

[Difficulty]
HPDrainRate:8
CircleSize:5
OverallDifficulty:9
ApproachRate:10
SliderMultiplier:3.59999990463257
SliderTickRate:1

[Events]
//Background and Video events
0,0,"Iphone-wallpaper-abstract-HD-4k-404.png",0,0
//Break Periods
//Storyboard Layer 0 (Background)
//Storyboard Layer 1 (Fail)
//Storyboard Layer 2 (Pass)
//Storyboard Layer 3 (Foreground)
//Storyboard Layer 4 (Overlay)
//Storyboard Sound Samples

[TimingPoints]
1585,343.681979608203,4,2,1,80,1,0
44712,-33.3333333333333,4,2,1,80,0,0
44883,-50,4,2,1,80,0,0
45571,-133.333333333333,4,2,1,80,0,0
45914,-33.3333333333333,4,2,1,80,0,0
46086,-133.333333333333,4,2,1,80,0,0
46258,-33.3333333333333,4,2,1,80,0,0
46945,-100,4,2,1,80,0,0
47375,-33.3333333333333,4,2,1,80,0,0
48320,-133.333333333333,4,2,1,80,0,0
48664,-33.3333333333333,4,2,1,80,0,0
49007,-25,4,2,1,80,0,0
49437,-33.3333333333333,4,2,1,80,0,0
49694,-133.333333333333,4,2,1,80,0,0
50038,-25,4,2,1,80,0,0
50296,-133.333333333333,4,2,1,80,0,0
50725,-33.3333333333333,4,2,1,80,0,0
51069,-133.333333333333,4,2,1,80,0,0
51585,-33.3333333333333,4,2,1,80,0,0
51756,-133.333333333333,4,2,1,80,0,0
51928,-25,4,2,1,80,0,0
52100,-33.3333333333333,4,2,1,80,0,0
52444,-133.333333333333,4,2,1,80,0,0
53045,-25,4,2,1,80,0,0
53303,-133.333333333333,4,2,1,80,0,0
53475,-33.3333333333333,4,2,1,80,0,0
53818,-133.333333333333,4,2,1,80,0,0
54162,-33.3333333333333,4,2,1,80,0,0
54420,-133.333333333333,4,2,1,80,0,0
54677,-33.3333333333333,4,2,1,80,0,0
55193,-133.333333333333,4,2,1,80,0,0
55536,-33.3333333333333,4,2,1,80,0,0
56224,-133.333333333333,4,2,1,80,0,0
56911,-12.5,4,2,1,80,0,0
57083,-33.3333333333333,4,2,1,80,0,0
57341,-133.333333333333,4,2,1,80,0,0
57598,-33.3333333333333,4,2,1,80,0,0
57942,-133.333333333333,4,2,1,80,0,0
58286,-33.3333333333333,4,2,1,80,0,0
59316,-133.333333333333,4,2,1,80,0,0
59660,-33.3333333333333,4,2,1,80,0,0
60004,-133.333333333333,4,2,1,80,0,0
60347,-33.3333333333333,4,2,1,80,0,0
60691,-133.333333333333,4,2,1,80,0,0
61035,-25,4,2,1,80,0,0
61292,-133.333333333333,4,2,1,80,0,0
61464,-33.3333333333333,4,2,1,80,0,0
61722,-25,4,2,1,80,0,0
62066,-133.333333333333,4,2,1,80,0,0
62409,-25,4,2,1,80,0,0
63440,-133.333333333333,4,2,1,80,0,0
63784,-25,4,2,1,80,0,0
64299,-133.333333333333,4,2,1,80,0,0
64471,-33.3333333333333,4,2,1,80,0,0
64815,-133.333333333333,4,2,1,80,0,0
65158,-25,4,2,1,80,0,0
66189,-66.6666666666667,4,2,1,80,0,0
66533,-33.3333333333333,4,2,1,80,0,0

[Colours]
Combo1 : 189,36,255
Combo2 : 255,2,173
Combo3 : 255,233,28
Combo4 : 255,15,15
Combo5 : 23,255,208
Combo6 : 0,26,255
Combo7 : 17,255,29
Combo8 : 232,255,17
SliderTrackOverride : 250,250,250
SliderBorder : 222,222,222

[HitObjects]
168,232,44201,6,0,B|192:220|192:220|224:152,1,89.9999976158143,12|0,0:0|0:0,0:0:0:0:
136,96,44373,6,0,L|180:128,2,44.9999988079071,0|0|6,0:0|0:0|0:0,0:0:0:0:
180,0,44545,2,0,L|204:64,2,44.9999988079071,6|0|0,0:0|0:0|0:0,0:0:0:0:
272,116,44717,6,0,B|260:100|260:100|160:64|160:64|148:52,3,135.000001573563,0|0|0|0,0:0|0:0|0:0|0:0,0:0:0:0:
324,160,44888,6,0,B|364:136|364:136|412:152|412:152|408:144|408:144|460:80|460:80|448:84|448:84|328:48|328:48|324:44|324:44|240:116|240:116|236:124|236:124|85:113|85:113|76:108|76:108|164:216|164:216|160:224|160:224|521:376|521:376|380:280,1,1259.9999666214,6|0,0:0|0:0,0:0:0:0:
400,256,45576,6,0,B|428:224|428:224|432:212|432:212|484:340|484:340|496:348,1,202.500002360344,4|0,0:0|0:0,0:0:0:0:
256,384,45919,6,0,B|356:336|356:336|368:340|368:340|412:276|412:276|508:248,1,270.000003147125,8|0,0:0|0:0,0:0:0:0:
296,272,46091,2,0,B|272:276|272:276|228:336,1,67.5000007867814,0|0,0:0|0:0,0:0:0:0:
308,176,46263,6,0,B|264:200|264:200|256:196|256:196|336:304|336:304|300:400,1,270.000003147125,6|0,0:0|0:0,0:0:0:0:
107,193,46435,2,0,B|163:205|163:205|171:201|171:201|251:281|251:281|248:289|248:289|341:271,1,270.000003147125,0|2,0:0|0:0,0:0:0:0:
400,4,46607,5,8,0:0:0:0:
392,16,46693,2,0,B|356:40|356:40|344:40|344:40|376:176|376:176|368:168|368:168|248:228|248:228|246:239|246:239|88:408,1,540.000006294251,0|0,0:0|0:0,0:0:0:0:
8,280,46951,6,0,B|80:304|80:304|100:344,1,89.9999976158143,4|4,0:0|0:0,0:0:0:0:
232,384,47122,2,0,B|236:360|236:360|204:296,1,89.9999976158143,4|4,0:0|0:0,0:0:0:0:
260,112,47294,5,8,0:0:0:0:
252,124,47380,2,0,B|196:144|196:144|200:148|200:148|136:252|136:252|136:260|136:260|8:140,2,270.000003147125,0|0|6,0:0|0:0|0:0,0:0:0:0:
412,264,47638,6,0,B|368:232|368:232|364:236|364:236|268:272|268:272|272:280|272:280|232:380,1,270.000003147125,0|0,0:0|0:0,0:0:0:0:
240,209,47810,2,0,B|240:188|240:188|188:116|188:116|272:80|272:80|280:84|280:84|320:40,1,270.000003147125,2|2,0:0|0:0,0:0:0:0:
96,8,47982,5,8,0:0:0:0:
88,16,48067,2,0,B|176:44|176:44|180:52|180:52|252:20|252:20|260:24|260:24|384:80,1,270.000003147125,0|0,0:0|0:0,0:0:0:0:
8,228,48239,2,0,B|24:168|24:168|19:163|19:163|26:62,1,135.000001573563,0|0,0:0|0:0,0:0:0:0:
24,212,48325,6,0,B|32:192|32:192|-4:152,2,67.5000007867814,0|0|0,0:0|0:0|0:0,0:0:0:0:
68,264,48583,1,2,0:0:0:0:
80,256,48669,6,0,B|164:236|164:236|164:228|164:228|228:184|228:184|228:192|228:192|312:288|312:288,2,270.000003147125,8|0|0,0:0|0:0|0:0,0:0:0:0:
256,368,48927,1,0,0:0:0:0:
264,360,49013,6,0,B|208:220|208:220|216:224|216:224|316:208|316:208|312:196|312:196|384:16,1,359.999990463257,2|0,0:0|0:0,0:0:0:0:
232,4,49184,2,0,B|264:88|264:88|328:120|328:120|288:216|288:216|292:228|292:228|256:324|256:324,1,359.999990463257,0|2,0:0|0:0,0:0:0:0:
496,48,49356,5,8,0:0:0:0:
488,56,49442,2,0,B|364:40|364:40|372:44|372:44|248:164|248:164|240:168|240:168|312:224|312:224|302:229|302:229|240:368|240:368,1,540.000006294251,0|0,0:0|0:0,0:0:0:0:
88,380,49700,6,0,B|136:352|136:352|172:360,1,67.5000007867814,4|4,0:0|0:0,0:0:0:0:
200,244,49872,1,4,0:0:0:0:
148,284,49958,1,4,0:0:0:0:
136,272,50044,6,0,B|128:260|128:260|8:216|8:216|24:212|24:212|112:8|112:8|124:20|124:20|224:118|224:118|232:121|232:121|356:220|356:220|364:240,1,719.999980926514,8|0,0:0|0:0,0:0:0:0:
288,328,50301,6,0,B|336:272|336:272|336:264|336:264|392:240,1,135.000001573563,2|0,0:0|0:0,0:0:0:0:
484,160,50559,1,2,0:0:0:0:
448,216,50645,1,2,0:0:0:0:
436,208,50731,6,0,B|392:120|392:120|396:112|396:112|248:-8,2,270.000003147125,12|4|4,0:0|0:0|0:0,0:0:0:0:
344,372,50989,1,12,0:0:0:0:
349,360,51075,6,0,B|325:348|325:348|201:392,1,135.000001573563,2|0,0:0|0:0,0:0:0:0:
212,376,51332,1,0,0:0:0:0:
8,124,51418,6,0,B|32:132|32:132|56:188,1,67.5000007867814,8|0,0:0|0:0,0:0:0:0:
16,332,51590,2,0,B|50:217|50:217|60:214|60:214|164:109,1,270.000003147125,0|0,0:0|0:0,0:0:0:0:
208,8,51762,6,0,B|200:24|200:24|148:52,1,67.5000007867814,0|0,0:0|0:0,0:0:0:0:
168,204,51934,2,0,B|196:116|196:116|148:128|148:128|156:160|156:160|222:149,3,179.999995231629,0|0|2|0,0:0|0:0|0:0|0:0,0:0:0:0:
240,316,52106,5,8,0:0:0:0:
232,308,52192,2,0,B|332:268|332:268|330:277|330:277|368:332|368:332|460:364,2,270.000003147125,0|0|0,0:0|0:0|0:0,0:0:0:0:
272,152,52449,6,0,B|288:176|288:176|212:340,1,202.500002360344,0|0,0:0|0:0,0:0:0:0:
396,224,52793,2,0,B|380:240|380:240|312:224,2,67.5000007867814,8|0|0,0:0|0:0|0:0,0:0:0:0:
484,36,53051,6,0,B|408:100|408:100|400:96|400:96|360:160|360:160|272:184|272:184|264:180|264:180|152:220|152:220|48:376|48:376|144:304|144:304|164:304,1,719.999980926514,6|0,0:0|0:0,0:0:0:0:
208,340,53309,2,0,B|224:344|224:344|252:400,1,67.5000007867814,6|2,0:0|0:0,0:0:0:0:
4,172,53480,6,0,B|100:200|100:200|108:212|108:212|164:200|164:200|244:296,2,270.000003147125,8|0|0,0:0|0:0|0:0,0:0:0:0:
32,16,53738,1,8,0:0:0:0:
38,29,53824,6,0,B|78:53|78:53|70:61|70:61|24:112|24:112|4:216,1,202.500002360344,4|2,0:0|0:0,0:0:0:0:
124,372,54168,6,0,B|188:312|188:312|196:312|196:312|84:244|84:244|60:148,2,270.000003147125,8|0|2,0:0|0:0|0:0,0:0:0:0:
236,108,54426,6,0,B|220:132|220:132|132:140|132:140|100:168,1,135.000001573563,6|0,0:0|0:0,0:0:0:0:
128,168,54683,2,0,B|224:208|224:208|232:204|232:204|264:288|264:288|376:372,1,270.000003147125,2|4,0:0|0:0,0:0:0:0:
344,384,54855,6,0,B|368:296|368:296|364:288|364:288|520:168|520:168|504:168|504:168|328:0|328:0|336:12|336:12|388:172|388:172|316:256,1,810.000009441377,8|2,0:0|0:0,0:0:0:0:
176,340,55199,6,0,B|192:332|192:332|256:368,2,67.5000007867814,6|0|0,0:0|0:0|0:0,0:0:0:0:
288,304,55457,1,2,0:0:0:0:
276,308,55543,6,0,B|232:248|232:248|236:240|236:240|198:174|198:174|192:172|192:172|288:96,1,270.000003147125,8|0,0:0|0:0,0:0:0:0:
360,4,55714,2,0,B|332:80|332:80|280:136|280:136|272:140|272:140|248:280,1,270.000003147125,0|2,0:0|0:0,0:0:0:0:
96,152,55886,6,0,B|152:128|152:128|160:112|160:112|304:180|304:180|320:216,1,270.000003147125,0|4,0:0|0:0,0:0:0:0:
380,220,56058,2,0,B|260:272|260:272|244:272|244:272|144:388,1,270.000003147125,0|4,0:0|0:0,0:0:0:0:
384,132,56230,5,12,0:0:0:0:
392,144,56316,2,0,B|412:156|412:156|464:140,2,67.5000007867814,4|4|4,0:0|0:0|0:0,0:0:0:0:
192,28,56574,5,2,0:0:0:0:
204,40,56660,2,0,B|196:60|196:60|228:124,2,67.5000007867814,6|0|0,0:0|0:0|0:0,0:0:0:0:
184,248,56917,6,0,B|236:184|236:184|248:184|248:184|294:138|294:138|202:172|202:172|148:328,1,359.999990463257,8|0,0:0|0:0,0:0:0:0:
248,216,57003,2,0,B|300:280|300:280|312:280|312:280|358:325|358:325|266:291|266:291|212:136,1,359.999990463257,0|0,0:0|0:0,0:0:0:0:
420,72,57089,6,0,B|328:184|328:184|300:180|300:180|164:252,1,270.000003147125,0|2,0:0|0:0,0:0:0:0:
116,372,57261,5,0,0:0:0:0:
172,344,57347,2,0,B|216:300|216:300|216:292|216:292|240:224,1,135.000001573563,0|2,0:0|0:0,0:0:0:0:
100,28,57605,6,0,B|144:52|144:52|156:48|156:48|232:120|232:120|228:128|228:128|276:268,2,270.000003147125,8|0|0,0:0|0:0|0:0,0:0:0:0:
316,0,57862,1,0,0:0:0:0:
304,8,57948,6,0,B|304:24|304:24|260:76,1,67.5000007867814,4|4,0:0|0:0,0:0:0:0:
192,152,58120,1,4,0:0:0:0:
264,136,58206,1,4,0:0:0:0:
256,148,58292,6,0,B|308:224|308:224|308:232|308:232|368:264|368:264|296:416,2,270.000003147125,8|0|0,0:0|0:0|0:0,0:0:0:0:
152,220,58550,6,0,B|231:143|231:143|244:144|244:144|294:-7,2,270.000003147125,2|0|0,0:0|0:0|0:0,0:0:0:0:
120,364,58808,1,2,0:0:0:0:
84,296,58893,1,0,0:0:0:0:
96,304,58979,6,0,B|172:316|172:316|168:308|168:308|212:204|212:204|292:280|292:280|304:280|304:280|524:364,1,540.000006294251,8|0,0:0|0:0,0:0:0:0:
268,384,59237,1,8,0:0:0:0:
432,300,59323,6,0,B|264:352|264:352|212:328,1,202.500002360344,6|2,0:0|0:0,0:0:0:0:
228,24,59667,6,0,B|384:232|384:232|396:228|396:228|512:296|512:296|420:400,1,540.000006294251,8|0,0:0|0:0,0:0:0:0:
492,156,59925,1,2,0:0:0:0:
436,208,60010,5,0,0:0:0:0:
440,196,60096,2,0,B|412:164|412:164|396:120,2,67.5000007867814,2|2|2,0:0|0:0|0:0,0:0:0:0:
284,64,60354,6,0,B|384:92|384:92|396:104|396:104|440:44|440:44|536:16,2,270.000003147125,8|0|0,0:0|0:0|0:0,0:0:0:0:
176,248,60612,1,0,0:0:0:0:
232,216,60698,6,0,B|248:144|248:144|324:96,1,135.000001573563,4|4,0:0|0:0,0:0:0:0:
196,0,60956,1,4,0:0:0:0:
188,12,61041,6,0,B|236:108|236:108|300:164|300:164|292:168|292:168|220:372,2,359.999990463257,8|0|2,0:0|0:0|0:0,0:0:0:0:
280,372,61299,2,0,L|344:328,1,67.5000007867814,6|0,0:0|0:0,0:0:0:0:
488,336,61471,6,0,B|335:357|335:357|328:360|328:360|296:308|296:308|288:308|288:308|200:280,1,270.000003147125,2|2,0:0|0:0,0:0:0:0:
96,376,61643,1,2,0:0:0:0:
156,360,61729,6,0,B|211:283|211:283|220:280|220:280|175:164|175:164|167:158|167:158|116:16,2,359.999990463257,8|2|2,0:0|0:0|0:0,0:0:0:0:
8,196,61987,1,8,0:0:0:0:
16,208,62073,6,0,B|72:224|72:224|180:356,1,202.500002360344,6|0,0:0|0:0,0:0:0:0:
508,152,62416,6,0,B|332:192|332:192|324:188|324:188|212:288|212:288|60:376|60:376|-28:344,2,539.999985694885,8|0|6,0:0|0:0|0:0,0:0:0:0:
368,8,62760,5,0,0:0:0:0:
336,66,62846,2,0,B|400:184|400:184|408:188|408:188|350:287|350:287|304:362|304:362|298:355|298:355|204:258|204:258|194:259|194:259|20:204|20:204|-44:220,1,719.999980926514,2|2,0:0|0:0,0:0:0:0:
12,272,63104,6,0,B|80:244|80:244|153:179|153:179|156:172|156:172|276:320|276:320|280:316|280:316|516:248|516:248|440:232|440:232|416:212,1,719.999980926514,8|0,0:0|0:0,0:0:0:0:
224,22,63361,1,2,0:0:0:0:
236,32,63447,6,0,B|268:88|268:88|276:84|276:84|212:144|212:144|196:208,1,202.500002360344,2|2,0:0|0:0,0:0:0:0:
296,376,63791,6,0,B|244:252|244:252|248:244|248:244|123:256|123:256|120:248|120:248|-32:112,1,359.999990463257,8|0,0:0|0:0,0:0:0:0:
412,96,63963,1,0,0:0:0:0:
240,216,64049,6,0,B|312:136|312:136|320:144|320:144|472:216|472:216|514:15|514:15|520:4|520:4|352:80|352:80|320:68,1,719.999980926514,6|0,0:0|0:0,0:0:0:0:
328,284,64306,2,0,B|360:312|360:312|352:352,1,67.5000007867814,2|2,0:0|0:0,0:0:0:0:
512,264,64478,6,0,B|408:224|408:224|400:232|400:232|232:288,1,270.000003147125,8|0,0:0|0:0,0:0:0:0:
200,8,64650,2,0,B|272:104|272:104|284:100|284:100|212:260,1,270.000003147125,0|2,0:0|0:0,0:0:0:0:
100,376,64822,6,0,B|220:267|220:267|269:256,1,202.500002360344,4|4,0:0|0:0,0:0:0:0:
112,40,65166,6,0,B|0:240|0:240|-12:248|-12:248|240:288|240:288|240:276|240:276|296:120|296:120|286:122|286:122|132:104|132:104|140:112|140:112|128:208|128:208|200:192|200:192|212:196|212:196|168:132,1,1079.99997138977,8|6,0:0|0:0,0:0:0:0:
8,4,65509,5,0,0:0:0:0:
20,16,65595,2,0,B|188:0|188:0|184:6|184:6|248:184|248:184|236:172|236:172|56:116|56:116|68:112|68:112|104:72|104:72|128:84|128:84|140:84|140:84|176:156,1,719.999980926514,0|2,0:0|0:0,0:0:0:0:
16,304,65853,6,0,B|28:296|28:296|108:108|108:108|108:96|108:96|308:184|308:184|296:188|296:188|192:320|192:320|68:224|68:224|84:224|84:224|208:152|208:152|208:164|208:164|240:228|240:228|228:228|228:228|176:244,1,1079.99997138977,8|0,0:0|0:0,0:0:0:0:
364,380,66197,6,0,B|368:352|368:352|356:374|356:374|360:351|360:351|349:369|349:369|353:345|353:345|342:364|342:364|345:344|345:344|334:359|334:359|338:339|338:339|327:353|327:353|330:338|330:338|320:348|320:348|322:332|322:332|313:343|313:343|314:331|314:331|305:338|305:338|307:326|307:326|298:333|298:333|299:325|299:325|291:327|291:327|292:320|292:320|283:322|283:322|284:318|284:318|276:317|276:317|277:317|277:317|276:317|276:317|277:317|277:317|275:317|275:317|277:317|277:317|275:317|275:317|277:317|277:317|275:317|275:317|277:317|277:317|275:317|275:317|277:317|277:317|274:317|274:317|277:317|277:317|274:317|274:317|277:317|277:317|274:317|274:317|277:317|277:317,1,405.000004720688,2|0,0:0|0:0,0:0:0:0:
204,44,66540,6,0,B|296:244|296:244|304:240|304:240|445:319|445:319|432:320|432:320|312:408|312:408,1,540.000006294251,8|0,0:0|0:0,0:0:0:0:
492,180,66798,1,2,0:0:0:0:
444,228,66884,6,0,B|320:251|320:251|312:248|312:248|128:280,7,270.000003147125,0|0|0|0|0|0|0|0,0:0|0:0|0:0|0:0|0:0|0:0|0:0|0:0,0:0:0:0:
296,168,67571,1,6,0:0:0:0:
