osu file format v14

[General]
AudioFilename: audio.mp3
AudioLeadIn: 0
PreviewTime: -1
Countdown: 0
SampleSet: Soft
StackLeniency: 0.7
Mode: 3
LetterboxInBreaks: 0
SpecialStyle: 1
WidescreenStoryboard: 1

[Editor]
DistanceSpacing: 0.8
BeatDivisor: 6
GridSize: 8
TimelineZoom: 1

[Metadata]
Title:Nhelv
TitleUnicode:Nhelv
Artist:Silentroom
ArtistUnicode:Silentroom 亊 弜
Creator:Viridi
Version:Normal
Source:BOFU2017
Tags:BOFU2017 KATASTROPHE
BeatmapID:1448705
BeatmapSetID:684544

[Difficulty]
HPDrainRate:9
CircleSize:8
OverallDifficulty:9
ApproachRate:5
SliderMultiplier:1.4
SliderTickRate:1

[Events]
//Background and Video events
0,0,"stagefile.png",0,0
//Break Periods
2,2928,12444
//Storyboard Layer 0 (Background)
//Storyboard Layer 1 (Fail)
//Storyboard Layer 2 (Pass)
//Storyboard Layer 3 (Foreground)
//Storyboard Sound Samples
Sample,1364,0,"p4_bgm_000.wav",70
Sample,2728,0,"p4_fx_impact1_001.wav",70
Sample,2728,0,"p4_bgm_001.wav",70
Sample,13644,0,"p4_fx_impact1_002.wav",70
Sample,14327,0,"p4_drum_other_003.wav",70
Sample,14497,0,"p4_drum_other_004.wav",70
Sample,14668,0,"p4_drum_other_005.wav",70
Sample,14838,0,"p4_drum_other_006.wav",70
Sample,16032,0,"p4_drum_other_010.wav",70
Sample,16288,0,"p4_drum_other_011.wav",70
Sample,17056,0,"p4_drum_other_014.wav",70
Sample,17397,0,"p4_drum_other_015.wav",70
Sample,18420,0,"p4_drum_other_018.wav",70
Sample,18761,0,"p4_drum_other_020.wav",70
Sample,19785,0,"p4_drum_other_003.wav",70
Sample,19955,0,"p4_drum_other_004.wav",70
Sample,20126,0,"p4_drum_other_005.wav",70
Sample,20296,0,"p4_drum_other_006.wav",70
Sample,21490,0,"p4_drum_other_010.wav",70
Sample,21746,0,"p4_drum_other_011.wav",70
Sample,22514,0,"p4_drum_other_014.wav",70
Sample,22855,0,"p4_drum_other_015.wav",70
Sample,23878,0,"p4_drum_other_018.wav",70
Sample,24049,0,"p4_synth_weapon_002.wav",70
Sample,24134,0,"p4_synth_weapon_003.wav",70
Sample,24219,0,"p4_drum_other_020.wav",70
Sample,24560,0,"p4_synth_misc_001.wav",70
Sample,24560,0,"p4_drum_dirtyperc_001.wav",70
Sample,24646,0,"p4_drum_dirtyperc_002.wav",70
Sample,24731,0,"p4_drum_other_021.wav",70
Sample,24731,0,"p4_synth_misc_002.wav",70
Sample,24731,0,"p4_drum_dirtyperc_003.wav",70
Sample,24816,0,"p4_synth_misc_003.wav",70
Sample,24816,0,"p4_drum_dirtyperc_004.wav",70
Sample,24816,0,"p4_drum_other_022.wav",70
Sample,24901,0,"p4_synth_weapon_009.wav",70
Sample,24901,0,"p4_drum_dirtyperc_005.wav",70
Sample,24901,0,"p4_drum_subsnare_2_001.wav",70
Sample,24987,0,"p4_drum_dirtyperc_006.wav",70
Sample,25072,0,"p4_drum_other_024.wav",70
Sample,25072,0,"p4_drum_dirtyperc_007.wav",70
Sample,25157,0,"p4_drum_dirtyperc_008.wav",70
Sample,25157,0,"p4_synth_weapon_010.wav",70
Sample,25157,0,"p4_drum_other_025.wav",70
Sample,25243,0,"p4_drum_dirtyperc_009.wav",70
Sample,25243,0,"p4_synth_misc_004.wav",70
Sample,25328,0,"p4_synth_weapon_011.wav",70
Sample,25328,0,"p4_drum_subsnare_2_001.wav",70
Sample,25328,0,"p4_drum_dirtyperc_010.wav",70
Sample,25413,0,"p4_drum_mainpercsloop_010.wav",70
Sample,25413,0,"p4_drum_dirtyperc_011.wav",70
Sample,25498,0,"p4_drum_mainpercsloop_011.wav",70
Sample,25498,0,"p4_drum_dirtyperc_012.wav",70
Sample,25584,0,"p4_drum_subsnare_2_001.wav",70
Sample,25584,0,"p4_drum_dirtyperc_013.wav",70
Sample,25584,0,"p4_synth_misc_005.wav",70
Sample,25669,0,"p4_drum_dirtyperc_014.wav",70
Sample,25754,0,"p4_drum_dirtyperc_015.wav",70
Sample,25754,0,"p4_synth_misc_006.wav",70
Sample,25840,0,"p4_drum_dirtyperc_016.wav",70
Sample,25840,0,"p4_synth_weapon_012.wav",70
Sample,25925,0,"p4_drum_dirtyperc_001.wav",70
Sample,26010,0,"p4_synth_weapon_013.wav",70
Sample,26010,0,"p4_drum_dirtyperc_002.wav",70
Sample,26095,0,"p4_synth_misc_007.wav",70
Sample,26095,0,"p4_drum_other_027.wav",70
Sample,26095,0,"p4_drum_dirtyperc_003.wav",70
Sample,26181,0,"p4_drum_other_028.wav",70
Sample,26181,0,"p4_drum_dirtyperc_004.wav",70
Sample,26266,0,"p4_drum_subsnare_2_001.wav",70
Sample,26266,0,"p4_drum_dirtyperc_005.wav",70
Sample,26266,0,"p4_synth_weapon_014.wav",70
Sample,26351,0,"p4_drum_dirtyperc_006.wav",70
Sample,26436,0,"p4_drum_dirtyperc_007.wav",70
Sample,26436,0,"p4_synth_weapon_015.wav",70
Sample,26522,0,"p4_synth_weapon_016.wav",70
Sample,26522,0,"p4_drum_dirtyperc_008.wav",70
Sample,26607,0,"p4_drum_dirtyperc_018.wav",70
Sample,26607,0,"p4_synth_misc_008.wav",70
Sample,26692,0,"p4_drum_subsnare_2_001.wav",70
Sample,26692,0,"p4_drum_dirtyperc_019.wav",70
Sample,26692,0,"p4_synth_weapon_017.wav",70
Sample,26778,0,"p4_drum_dirtyperc_020.wav",70
Sample,26863,0,"p4_drum_dirtyperc_021.wav",70
Sample,26948,0,"p4_drum_subsnare_2_001.wav",70
Sample,26948,0,"p4_synth_weapon_018.wav",70
Sample,26948,0,"p4_drum_dirtyperc_022.wav",70
Sample,27033,0,"p4_drum_dirtyperc_023.wav",70
Sample,27076,0,"p4_drum_dirtyperc_024.wav",70
Sample,27119,0,"p4_drum_dirtyperc_025.wav",70
Sample,27204,0,"p4_drum_mainpercsloop_010.wav",70
Sample,27204,0,"p4_drum_dirtyperc_026.wav",70
Sample,27247,0,"p4_drum_dirtyperc_027.wav",70
Sample,27289,0,"p4_drum_dirtyperc_001.wav",70
Sample,27289,0,"p4_synth_weapon_019.wav",70
Sample,27375,0,"p4_drum_dirtyperc_002.wav",70
Sample,27460,0,"p4_drum_dirtyperc_003.wav",70
Sample,27460,0,"p4_synth_weapon_020.wav",70
Sample,27460,0,"p4_drum_other_021.wav",70
Sample,27460,0,"p4_synth_misc_009.wav",70
Sample,27545,0,"p4_drum_dirtyperc_004.wav",70
Sample,27545,0,"p4_drum_other_022.wav",70
Sample,27630,0,"p4_drum_subsnare_2_001.wav",70
Sample,27630,0,"p4_drum_dirtyperc_005.wav",70
Sample,27716,0,"p4_drum_dirtyperc_006.wav",70
Sample,27801,0,"p4_drum_dirtyperc_007.wav",70
Sample,27801,0,"p4_drum_other_024.wav",70
Sample,27886,0,"p4_synth_weapon_021.wav",70
Sample,27886,0,"p4_drum_dirtyperc_008.wav",70
Sample,27886,0,"p4_drum_other_025.wav",70
Sample,27972,0,"p4_drum_dirtyperc_009.wav",70
Sample,27972,0,"p4_synth_misc_010.wav",70
Sample,28057,0,"p4_synth_weapon_022.wav",70
Sample,28057,0,"p4_drum_dirtyperc_010.wav",70
Sample,28057,0,"p4_drum_subsnare_2_001.wav",70
Sample,28142,0,"p4_drum_mainpercsloop_010.wav",70
Sample,28142,0,"p4_drum_dirtyperc_011.wav",70
Sample,28227,0,"p4_drum_mainpercsloop_011.wav",70
Sample,28227,0,"p4_drum_dirtyperc_012.wav",70
Sample,28313,0,"p4_drum_subsnare_2_001.wav",70
Sample,28313,0,"p4_drum_dirtyperc_013.wav",70
Sample,28398,0,"p4_drum_dirtyperc_014.wav",70
Sample,28483,0,"p4_synth_misc_011.wav",70
Sample,28483,0,"p4_drum_dirtyperc_015.wav",70
Sample,28568,0,"p4_synth_weapon_023.wav",70
Sample,28568,0,"p4_drum_dirtyperc_016.wav",70
Sample,28654,0,"p4_drum_dirtyperc_001.wav",70
Sample,28739,0,"p4_drum_dirtyperc_002.wav",70
Sample,28739,0,"p4_synth_weapon_024.wav",70
Sample,28824,0,"p4_drum_other_027.wav",70
Sample,28824,0,"p4_synth_misc_012.wav",70
Sample,28824,0,"p4_drum_dirtyperc_003.wav",70
Sample,28910,0,"p4_drum_dirtyperc_004.wav",70
Sample,28910,0,"p4_drum_other_028.wav",70
Sample,28995,0,"p4_drum_dirtyperc_005.wav",70
Sample,28995,0,"p4_synth_weapon_025.wav",70
Sample,28995,0,"p4_drum_subsnare_2_001.wav",70
Sample,29080,0,"p4_drum_dirtyperc_006.wav",70
Sample,29165,0,"p4_synth_weapon_026.wav",70
Sample,29165,0,"p4_drum_dirtyperc_007.wav",70
Sample,29251,0,"p4_synth_weapon_027.wav",70
Sample,29251,0,"p4_drum_dirtyperc_008.wav",70
Sample,29336,0,"p4_drum_mainpercsloop_008.wav",70
Sample,29336,0,"p4_drum_dirtyperc_018.wav",70
Sample,29421,0,"p4_synth_weapon_028.wav",70
Sample,29421,0,"p4_drum_dirtyperc_019.wav",70
Sample,29421,0,"p4_drum_subsnare_2_001.wav",70
Sample,29421,0,"p4_drum_other_031.wav",70
Sample,29507,0,"p4_drum_mainpercsloop_010.wav",70
Sample,29507,0,"p4_drum_dirtyperc_020.wav",70
Sample,29592,0,"p4_drum_dirtyperc_021.wav",70
Sample,29592,0,"p4_drum_mainpercsloop_011.wav",70
Sample,29677,0,"p4_drum_subsnare_2_001.wav",70
Sample,29677,0,"p4_synth_weapon_029.wav",70
Sample,29677,0,"p4_drum_dirtyperc_022.wav",70
Sample,29762,0,"p4_drum_dirtyperc_023.wav",70
Sample,29805,0,"p4_drum_dirtyperc_024.wav",70
Sample,29848,0,"p4_synth_misc_013.wav",70
Sample,29848,0,"p4_drum_dirtyperc_025.wav",70
Sample,29933,0,"p4_drum_mainpercsloop_010.wav",70
Sample,29933,0,"p4_drum_dirtyperc_026.wav",70
Sample,29976,0,"p4_drum_dirtyperc_027.wav",70
Sample,30018,0,"p4_synth_weapon_030.wav",70
Sample,30018,0,"p4_drum_dirtyperc_001.wav",70
Sample,30104,0,"p4_drum_dirtyperc_002.wav",70
Sample,30189,0,"p4_drum_other_021.wav",70
Sample,30189,0,"p4_synth_weapon_031.wav",70
Sample,30189,0,"p4_drum_dirtyperc_003.wav",70
Sample,30274,0,"p4_drum_dirtyperc_004.wav",70
Sample,30274,0,"p4_drum_other_022.wav",70
Sample,30359,0,"p4_drum_dirtyperc_005.wav",70
Sample,30359,0,"p4_drum_subsnare_2_001.wav",70
Sample,30445,0,"p4_drum_dirtyperc_006.wav",70
Sample,30530,0,"p4_drum_other_024.wav",70
Sample,30530,0,"p4_drum_dirtyperc_007.wav",70
Sample,30615,0,"p4_drum_dirtyperc_008.wav",70
Sample,30615,0,"p4_drum_other_025.wav",70
Sample,30615,0,"p4_synth_weapon_032.wav",70
Sample,30701,0,"p4_drum_dirtyperc_009.wav",70
Sample,30786,0,"p4_drum_subsnare_2_001.wav",70
Sample,30786,0,"p4_synth_weapon_033.wav",70
Sample,30786,0,"p4_drum_dirtyperc_010.wav",70
Sample,30871,0,"p4_drum_mainpercsloop_010.wav",70
Sample,30871,0,"p4_drum_dirtyperc_011.wav",70
Sample,30956,0,"p4_drum_dirtyperc_012.wav",70
Sample,30956,0,"p4_drum_mainpercsloop_011.wav",70
Sample,31042,0,"p4_drum_dirtyperc_013.wav",70
Sample,31042,0,"p4_drum_subsnare_2_001.wav",70
Sample,31127,0,"p4_drum_dirtyperc_014.wav",70
Sample,31212,0,"p4_drum_dirtyperc_015.wav",70
Sample,31297,0,"p4_synth_weapon_034.wav",70
Sample,31297,0,"p4_drum_dirtyperc_016.wav",70
Sample,31383,0,"p4_drum_dirtyperc_001.wav",70
Sample,31468,0,"p4_drum_dirtyperc_002.wav",70
Sample,31468,0,"p4_synth_weapon_035.wav",70
Sample,31553,0,"p4_drum_other_027.wav",70
Sample,31553,0,"p4_drum_dirtyperc_003.wav",70
Sample,31639,0,"p4_drum_dirtyperc_004.wav",70
Sample,31639,0,"p4_drum_other_028.wav",70
Sample,31724,0,"p4_drum_subsnare_2_001.wav",70
Sample,31724,0,"p4_drum_dirtyperc_005.wav",70
Sample,31724,0,"p4_synth_weapon_036.wav",70
Sample,31809,0,"p4_drum_dirtyperc_006.wav",70
Sample,31894,0,"p4_drum_dirtyperc_007.wav",70
Sample,31894,0,"p4_synth_weapon_037.wav",70
Sample,31980,0,"p4_synth_weapon_038.wav",70
Sample,31980,0,"p4_drum_dirtyperc_008.wav",70
Sample,32065,0,"p4_drum_dirtyperc_018.wav",70
Sample,32150,0,"p4_drum_subsnare_2_001.wav",70
Sample,32150,0,"p4_drum_dirtyperc_019.wav",70
Sample,32150,0,"p4_synth_weapon_039.wav",70
Sample,32236,0,"p4_drum_dirtyperc_020.wav",70
Sample,32321,0,"p4_drum_dirtyperc_021.wav",70
Sample,32406,0,"p4_drum_subsnare_2_001.wav",70
Sample,32406,0,"p4_drum_dirtyperc_022.wav",70
Sample,32406,0,"p4_synth_weapon_040.wav",70
Sample,32491,0,"p4_drum_dirtyperc_023.wav",70
Sample,32534,0,"p4_drum_dirtyperc_024.wav",70
Sample,32577,0,"p4_drum_dirtyperc_025.wav",70
Sample,32662,0,"p4_drum_mainpercsloop_010.wav",70
Sample,32662,0,"p4_drum_dirtyperc_026.wav",70
Sample,32705,0,"p4_drum_dirtyperc_027.wav",70
Sample,32747,0,"p4_synth_weapon_041.wav",70
Sample,32747,0,"p4_drum_dirtyperc_001.wav",70
Sample,32833,0,"p4_drum_dirtyperc_002.wav",70
Sample,32918,0,"p4_drum_other_021.wav",70
Sample,32918,0,"p4_synth_weapon_042.wav",70
Sample,32918,0,"p4_drum_dirtyperc_003.wav",70
Sample,33003,0,"p4_drum_other_022.wav",70
Sample,33003,0,"p4_drum_dirtyperc_004.wav",70
Sample,33088,0,"p4_drum_subsnare_2_001.wav",70
Sample,33088,0,"p4_drum_dirtyperc_005.wav",70
Sample,33174,0,"p4_drum_dirtyperc_006.wav",70
Sample,33259,0,"p4_drum_other_024.wav",70
Sample,33259,0,"p4_drum_dirtyperc_007.wav",70
Sample,33344,0,"p4_drum_other_025.wav",70
Sample,33344,0,"p4_drum_dirtyperc_008.wav",70
Sample,33344,0,"p4_synth_weapon_043.wav",70
Sample,33429,0,"p4_drum_dirtyperc_009.wav",70
Sample,33515,0,"p4_drum_subsnare_2_001.wav",70
Sample,33515,0,"p4_synth_weapon_044.wav",70
Sample,33515,0,"p4_drum_dirtyperc_010.wav",70
Sample,33600,0,"p4_drum_dirtyperc_011.wav",70
Sample,33600,0,"p4_drum_mainpercsloop_010.wav",70
Sample,33685,0,"p4_drum_mainpercsloop_011.wav",70
Sample,33685,0,"p4_drum_dirtyperc_012.wav",70
Sample,33771,0,"p4_drum_dirtyperc_013.wav",70
Sample,33771,0,"p4_drum_subsnare_2_001.wav",70
Sample,33856,0,"p4_drum_dirtyperc_014.wav",70
Sample,33941,0,"p4_drum_dirtyperc_015.wav",70
Sample,34026,0,"p4_drum_dirtyperc_016.wav",70
Sample,35476,0,"p4_drum_dirtyperc_001.wav",70
Sample,35476,0,"p4_synth_bassbuild_001.wav",70
Sample,35476,0,"p4_fx_impact1_004.wav",70
Sample,35561,0,"p4_drum_mainpercsloop_002.wav",70
Sample,35561,0,"p4_drum_dirtyperc_002.wav",70
Sample,35647,0,"p4_synth_bassbuild_002.wav",70
Sample,35647,0,"p4_drum_dirtyperc_003.wav",70
Sample,35647,0,"p4_drum_mainpercsloop_003.wav",70
Sample,35732,0,"p4_drum_mainpercsloop_004.wav",70
Sample,35732,0,"p4_synth_bassbuild_003.wav",70
Sample,35732,0,"p4_drum_dirtyperc_004.wav",70
Sample,35817,0,"p4_drum_dirtyperc_005.wav",70
Sample,35903,0,"p4_synth_bassbuild_004.wav",70
Sample,35903,0,"p4_drum_dirtyperc_006.wav",70
Sample,35988,0,"p4_drum_mainsnare_002.wav",70
Sample,35988,0,"p4_drum_mainpercsloop_006.wav",70
Sample,35988,0,"p4_drum_dirtyperc_007.wav",70
Sample,35988,0,"p4_synth_bassbuild_005.wav",70
Sample,36073,0,"p4_drum_dirtyperc_008.wav",70
Sample,36158,0,"p4_synth_bassbuild_006.wav",70
Sample,36158,0,"p4_drum_mainpercsloop_008.wav",70
Sample,36158,0,"p4_drum_dirtyperc_009.wav",70
Sample,36244,0,"p4_drum_subsnare_2_001.wav",70
Sample,36244,0,"p4_drum_dirtyperc_010.wav",70
Sample,36329,0,"p4_drum_mainpercsloop_010.wav",70
Sample,36329,0,"p4_synth_bassbuild_007.wav",70
Sample,36329,0,"p4_drum_dirtyperc_011.wav",70
Sample,36414,0,"p4_synth_bassbuild_008.wav",70
Sample,36414,0,"p4_drum_mainpercsloop_011.wav",70
Sample,36414,0,"p4_drum_dirtyperc_012.wav",70
Sample,36500,0,"p4_drum_dirtyperc_013.wav",70
Sample,36500,0,"p4_drum_subsnare_2_001.wav",70
Sample,36585,0,"p4_drum_dirtyperc_014.wav",70
Sample,36585,0,"p4_synth_bassbuild_009.wav",70
Sample,36670,0,"p4_synth_bassbuild_010.wav",70
Sample,36670,0,"p4_drum_mainsnare_002.wav",70
Sample,36670,0,"p4_drum_dirtyperc_015.wav",70
Sample,36670,0,"p4_drum_mainpercsloop_006.wav",70
Sample,36755,0,"p4_drum_dirtyperc_016.wav",70
Sample,36841,0,"p4_synth_bassbuild_011.wav",70
Sample,36841,0,"p4_drum_dirtyperc_001.wav",70
Sample,36926,0,"p4_drum_dirtyperc_002.wav",70
Sample,36926,0,"p4_drum_mainpercsloop_002.wav",70
Sample,37011,0,"p4_drum_mainpercsloop_003.wav",70
Sample,37011,0,"p4_drum_dirtyperc_003.wav",70
Sample,37011,0,"p4_synth_bassbuild_012.wav",70
Sample,37097,0,"p4_drum_dirtyperc_004.wav",70
Sample,37097,0,"p4_drum_mainpercsloop_004.wav",70
Sample,37097,0,"p4_synth_bassbuild_013.wav",70
Sample,37182,0,"p4_drum_dirtyperc_005.wav",70
Sample,37267,0,"p4_drum_dirtyperc_006.wav",70
Sample,37267,0,"p4_synth_bassbuild_014.wav",70
Sample,37352,0,"p4_synth_bassbuild_015.wav",70
Sample,37352,0,"p4_drum_dirtyperc_007.wav",70
Sample,37438,0,"p4_drum_dirtyperc_008.wav",70
Sample,37523,0,"p4_drum_dirtyperc_018.wav",70
Sample,37523,0,"p4_synth_bassbuild_016.wav",70
Sample,37608,0,"p4_drum_dirtyperc_019.wav",70
Sample,37608,0,"p4_drum_subsnare_2_001.wav",70
Sample,37694,0,"p4_synth_bassbuild_017.wav",70
Sample,37694,0,"p4_drum_dirtyperc_020.wav",70
Sample,37779,0,"p4_drum_dirtyperc_021.wav",70
Sample,37779,0,"p4_drum_mainpercsloop_010.wav",70
Sample,37779,0,"p4_synth_bassbuild_018.wav",70
Sample,37864,0,"p4_drum_dirtyperc_022.wav",70
Sample,37864,0,"p4_drum_subsnare_2_001.wav",70
Sample,37949,0,"p4_synth_bassbuild_019.wav",70
Sample,37949,0,"p4_drum_dirtyperc_023.wav",70
Sample,37992,0,"p4_drum_dirtyperc_024.wav",70
Sample,38035,0,"p4_drum_mainsnare_002.wav",70
Sample,38035,0,"p4_drum_dirtyperc_025.wav",70
Sample,38035,0,"p4_synth_bassbuild_020.wav",70
Sample,38120,0,"p4_drum_dirtyperc_026.wav",70
Sample,38163,0,"p4_drum_dirtyperc_027.wav",70
Sample,38205,0,"p4_synth_bassbuild_021.wav",70
Sample,38205,0,"p4_drum_dirtyperc_001.wav",70
Sample,38290,0,"p4_drum_mainpercsloop_002.wav",70
Sample,38290,0,"p4_drum_dirtyperc_002.wav",70
Sample,38376,0,"p4_drum_dirtyperc_003.wav",70
Sample,38376,0,"p4_synth_bassbuild_022.wav",70
Sample,38376,0,"p4_drum_mainpercsloop_003.wav",70
Sample,38461,0,"p4_synth_bassbuild_023.wav",70
Sample,38461,0,"p4_drum_mainpercsloop_004.wav",70
Sample,38461,0,"p4_drum_dirtyperc_004.wav",70
Sample,38546,0,"p4_drum_dirtyperc_005.wav",70
Sample,38632,0,"p4_drum_dirtyperc_006.wav",70
Sample,38632,0,"p4_synth_bassbuild_024.wav",70
Sample,38717,0,"p4_synth_bassbuild_025.wav",70
Sample,38717,0,"p4_drum_dirtyperc_007.wav",70
Sample,38802,0,"p4_drum_dirtyperc_008.wav",70
Sample,38887,0,"p4_drum_dirtyperc_009.wav",70
Sample,38887,0,"p4_synth_bassbuild_026.wav",70
Sample,38973,0,"p4_drum_dirtyperc_010.wav",70
Sample,38973,0,"p4_drum_subsnare_2_001.wav",70
Sample,39058,0,"p4_drum_mainpercsloop_010.wav",70
Sample,39058,0,"p4_drum_dirtyperc_011.wav",70
Sample,39058,0,"p4_synth_bassbuild_027.wav",70
Sample,39143,0,"p4_drum_mainpercsloop_011.wav",70
Sample,39143,0,"p4_drum_dirtyperc_012.wav",70
Sample,39143,0,"p4_synth_bassbuild_028.wav",70
Sample,39229,0,"p4_drum_dirtyperc_013.wav",70
Sample,39229,0,"p4_drum_subsnare_2_001.wav",70
Sample,39314,0,"p4_synth_bassbuild_029.wav",70
Sample,39314,0,"p4_drum_dirtyperc_014.wav",70
Sample,39399,0,"p4_drum_dirtyperc_015.wav",70
Sample,39399,0,"p4_synth_bassbuild_030.wav",70
Sample,39399,0,"p4_drum_mainsnare_002.wav",70
Sample,39484,0,"p4_drum_dirtyperc_016.wav",70
Sample,39570,0,"p4_drum_dirtyperc_001.wav",70
Sample,39570,0,"p4_synth_bassbuild_031.wav",70
Sample,39655,0,"p4_drum_dirtyperc_002.wav",70
Sample,39655,0,"p4_drum_mainpercsloop_002.wav",70
Sample,39740,0,"p4_drum_dirtyperc_003.wav",70
Sample,39740,0,"p4_drum_mainpercsloop_003.wav",70
Sample,39740,0,"p4_synth_bassbuild_032.wav",70
Sample,39826,0,"p4_drum_dirtyperc_004.wav",70
Sample,39826,0,"p4_drum_mainpercsloop_004.wav",70
Sample,39826,0,"p4_synth_bassbuild_033.wav",70
Sample,39911,0,"p4_drum_dirtyperc_005.wav",70
Sample,39996,0,"p4_synth_bassbuild_034.wav",70
Sample,39996,0,"p4_drum_dirtyperc_006.wav",70
Sample,40081,0,"p4_drum_dirtyperc_007.wav",70
Sample,40081,0,"p4_synth_bassbuild_035.wav",70
Sample,40167,0,"p4_drum_dirtyperc_008.wav",70
Sample,40252,0,"p4_synth_bassbuild_036.wav",70
Sample,40252,0,"p4_drum_dirtyperc_018.wav",70
Sample,40337,0,"p4_drum_dirtyperc_019.wav",70
Sample,40337,0,"p4_drum_subsnare_2_001.wav",70
Sample,40422,0,"p4_drum_dirtyperc_020.wav",70
Sample,40422,0,"p4_synth_bassbuild_037.wav",70
Sample,40422,0,"p4_drum_mainpercsloop_010.wav",70
Sample,40508,0,"p4_synth_bassbuild_038.wav",70
Sample,40508,0,"p4_drum_dirtyperc_021.wav",70
Sample,40593,0,"p4_drum_dirtyperc_022.wav",70
Sample,40593,0,"p4_drum_subsnare_2_001.wav",70
Sample,40678,0,"p4_drum_dirtyperc_023.wav",70
Sample,40678,0,"p4_synth_bassbuild_039.wav",70
Sample,40721,0,"p4_drum_dirtyperc_024.wav",70
Sample,40764,0,"p4_drum_mainsnare_002.wav",70
Sample,40764,0,"p4_drum_dirtyperc_025.wav",70
Sample,40764,0,"p4_synth_bassbuild_040.wav",70
Sample,40849,0,"p4_drum_dirtyperc_026.wav",70
Sample,40849,0,"p4_drum_mainpercsloop_008.wav",70
Sample,40849,0,"p4_drum_snareshot_2_001.wav",70
Sample,40892,0,"p4_drum_dirtyperc_027.wav",70
Sample,40934,0,"p4_synth_bassbuild_041.wav",70
Sample,41019,0,"p4_drum_dirtyperc_002.wav",70
Sample,41105,0,"p4_drum_mainpercsloop_003.wav",70
Sample,41105,0,"p4_synth_bassbuild_042.wav",70
Sample,41190,0,"p4_synth_bassbuild_043.wav",70
Sample,41190,0,"p4_drum_mainpercsloop_004.wav",70
Sample,41190,0,"p4_drum_dirtyperc_004.wav",70
Sample,41361,0,"p4_drum_dirtyperc_006.wav",70
Sample,41361,0,"p4_synth_bassbuild_044.wav",70
Sample,41446,0,"p4_synth_bassbuild_045.wav",70
Sample,41446,0,"p4_drum_mainpercsloop_006.wav",70
Sample,41531,0,"p4_drum_dirtyperc_008.wav",70
Sample,41531,0,"p4_synth_bassbuild_046.wav",70
Sample,41616,0,"p4_drum_mainpercsloop_008.wav",70
Sample,41616,0,"p4_synth_bassbuild_047.wav",70
Sample,41702,0,"p4_drum_subsnare_2_001.wav",70
Sample,41702,0,"p4_drum_dirtyperc_010.wav",70
Sample,41787,0,"p4_synth_bassbuild_048.wav",70
Sample,41787,0,"p4_drum_mainpercsloop_010.wav",70
Sample,41872,0,"p4_drum_dirtyperc_012.wav",70
Sample,41872,0,"p4_drum_mainpercsloop_011.wav",70
Sample,41872,0,"p4_synth_bassbuild_049.wav",70
Sample,41958,0,"p4_drum_subsnare_2_001.wav",70
Sample,42043,0,"p4_drum_dirtyperc_014.wav",70
Sample,42043,0,"p4_synth_bassbuild_050.wav",70
Sample,42128,0,"p4_synth_bassbuild_051.wav",70
Sample,42128,0,"p4_drum_mainpercsloop_006.wav",70
Sample,42213,0,"p4_drum_dirtyperc_016.wav",70
Sample,42213,0,"p4_synth_bassbuild_052.wav",70
Sample,42299,0,"p4_synth_bassbuild_053.wav",70
Sample,42384,0,"p4_drum_dirtyperc_002.wav",70
Sample,42469,0,"p4_drum_mainpercsloop_003.wav",70
Sample,42469,0,"p4_synth_bassbuild_054.wav",70
Sample,42555,0,"p4_drum_mainpercsloop_004.wav",70
Sample,42555,0,"p4_drum_dirtyperc_004.wav",70
Sample,42555,0,"p4_synth_bassbuild_055.wav",70
Sample,42725,0,"p4_drum_dirtyperc_006.wav",70
Sample,42725,0,"p4_synth_bassbuild_056.wav",70
Sample,42810,0,"p4_synth_bassbuild_057.wav",70
Sample,42810,0,"p4_drum_mainpercsloop_006.wav",70
Sample,42896,0,"p4_drum_dirtyperc_008.wav",70
Sample,42896,0,"p4_synth_bassbuild_058.wav",70
Sample,42981,0,"p4_drum_mainpercsloop_008.wav",70
Sample,42981,0,"p4_synth_bassbuild_059.wav",70
Sample,43066,0,"p4_drum_subsnare_2_001.wav",70
Sample,43066,0,"p4_drum_dirtyperc_019.wav",70
Sample,43151,0,"p4_synth_bassbuild_060.wav",70
Sample,43151,0,"p4_drum_mainpercsloop_010.wav",70
Sample,43237,0,"p4_drum_mainpercsloop_011.wav",70
Sample,43237,0,"p4_drum_dirtyperc_021.wav",70
Sample,43237,0,"p4_synth_bassbuild_061.wav",70
Sample,43322,0,"p4_drum_subsnare_2_001.wav",70
Sample,43407,0,"p4_synth_bassbuild_062.wav",70
Sample,43407,0,"p4_drum_dirtyperc_023.wav",70
Sample,43450,0,"p4_drum_dirtyperc_024.wav",70
Sample,43493,0,"p4_drum_mainpercsloop_006.wav",70
Sample,43493,0,"p4_synth_bassbuild_063.wav",70
Sample,43578,0,"p4_synth_bassbuild_064.wav",70
Sample,43578,0,"p4_drum_dirtyperc_026.wav",70
Sample,43621,0,"p4_drum_dirtyperc_027.wav",70
Sample,43663,0,"p4_synth_bassbuild_065.wav",70
Sample,43663,0,"p4_drum_dirtyperc_001.wav",70
Sample,43748,0,"p4_drum_dirtyperc_002.wav",70
Sample,43834,0,"p4_drum_dirtyperc_003.wav",70
Sample,43834,0,"p4_synth_bassbuild_066.wav",70
Sample,43834,0,"p4_drum_mainpercsloop_003.wav",70
Sample,43919,0,"p4_synth_bassbuild_067.wav",70
Sample,43919,0,"p4_drum_dirtyperc_004.wav",70
Sample,43919,0,"p4_drum_mainpercsloop_004.wav",70
Sample,44004,0,"p4_drum_dirtyperc_005.wav",70
Sample,44090,0,"p4_drum_dirtyperc_006.wav",70
Sample,44090,0,"p4_synth_bassbuild_068.wav",70
Sample,44175,0,"p4_synth_bassbuild_069.wav",70
Sample,44175,0,"p4_drum_dirtyperc_007.wav",70
Sample,44175,0,"p4_drum_mainpercsloop_006.wav",70
Sample,44260,0,"p4_drum_dirtyperc_008.wav",70
Sample,44260,0,"p4_synth_bassbuild_070.wav",70
Sample,44345,0,"p4_drum_mainpercsloop_008.wav",70
Sample,44345,0,"p4_drum_dirtyperc_009.wav",70
Sample,44345,0,"p4_synth_bassbuild_071.wav",70
Sample,44431,0,"p4_drum_dirtyperc_010.wav",70
Sample,44516,0,"p4_drum_mainpercsloop_010.wav",70
Sample,44516,0,"p4_synth_bassbuild_072.wav",70
Sample,44516,0,"p4_drum_dirtyperc_011.wav",70
Sample,44601,0,"p4_synth_bassbuild_073.wav",70
Sample,44601,0,"p4_drum_mainpercsloop_011.wav",70
Sample,44601,0,"p4_drum_dirtyperc_012.wav",70
Sample,44687,0,"p4_drum_dirtyperc_013.wav",70
Sample,44772,0,"p4_drum_dirtyperc_014.wav",70
Sample,44772,0,"p4_synth_bassbuild_074.wav",70
Sample,44857,0,"p4_synth_bassbuild_075.wav",70
Sample,44857,0,"p4_drum_dirtyperc_015.wav",70
Sample,44857,0,"p4_drum_mainpercsloop_006.wav",70
Sample,44942,0,"p4_drum_dirtyperc_016.wav",70
Sample,44942,0,"p4_synth_bassbuild_076.wav",70
Sample,45234,0,"p4_synth_granular_008.wav",70
Sample,45376,0,"p4_synth_granular_009.wav",70
Sample,45511,0,"p4_synth_granular_010.wav",70
Sample,45568,0,"p4_synth_granular_011.wav",70
Sample,45603,0,"p4_synth_granular_012.wav",70
Sample,45639,0,"p4_synth_granular_013.wav",70
Sample,45681,0,"p4_synth_granular_014.wav",70
Sample,46392,0,"p4_morse_r1_dot.wav",70
Sample,46392,0,"p4_drum_breaks_001.wav",70
Sample,46392,0,"p4_morse_l_dash.wav",70
Sample,46392,0,"p4_drum_dirtyperc_001.wav",70
Sample,46392,0,"p4_bgm_002.wav",70
Sample,46449,0,"p4_morse_r1_dash.wav",70
Sample,46477,0,"p4_drum_mainpercsloop_002.wav",70
Sample,46477,0,"p4_drum_dirtyperc_002.wav",70
Sample,46477,0,"p4_morse_l_dot.wav",70
Sample,46520,0,"p4_morse_l_dot.wav",70
Sample,46563,0,"p4_drum_dirtyperc_003.wav",70
Sample,46563,0,"p4_morse_l_dot.wav",70
Sample,46563,0,"p4_drum_breaks_002.wav",70
Sample,46563,0,"p4_drum_mainpercsloop_003.wav",70
Sample,46563,0,"p4_morse_r1_dash.wav",70
Sample,46648,0,"p4_drum_mainpercsloop_004.wav",70
Sample,46648,0,"p4_drum_breaks_003.wav",70
Sample,46648,0,"p4_morse_l_dot.wav",70
Sample,46648,0,"p4_drum_dirtyperc_004.wav",70
Sample,46733,0,"p4_morse_l_dot.wav",70
Sample,46733,0,"p4_drum_subsnare_2_001.wav",70
Sample,46733,0,"p4_drum_dirtyperc_005.wav",70
Sample,46733,0,"p4_drum_breaks_004.wav",70
Sample,46733,0,"p4_morse_r1_dot.wav",70
Sample,46776,0,"p4_morse_l_dash.wav",70
Sample,46790,0,"p4_morse_r1_dot.wav",70
Sample,46819,0,"p4_drum_dirtyperc_006.wav",70
Sample,46847,0,"p4_morse_r1_dot.wav",70
Sample,46904,0,"p4_drum_breaks_005.wav",70
Sample,46904,0,"p4_morse_l_dash.wav",70
Sample,46904,0,"p4_drum_dirtyperc_007.wav",70
Sample,46904,0,"p4_drum_mainpercsloop_006.wav",70
Sample,46904,0,"p4_morse_r1_dot.wav",70
Sample,46989,0,"p4_drum_subkick_4.wav",70
Sample,46989,0,"p4_drum_breaks_006.wav",70
Sample,46989,0,"p4_synth_weapon_047.wav",70
Sample,46989,0,"p4_drum_dirtyperc_008.wav",70
Sample,47018,0,"p4_morse_r1_dot.wav",70
Sample,47032,0,"p4_morse_l_dot.wav",70
Sample,47060,0,"p4_synth_weapon_048.wav",70
Sample,47074,0,"p4_morse_r1_dash.wav",70
Sample,47074,0,"p4_drum_dirtyperc_009.wav",70
Sample,47074,0,"p4_drum_mainpercsloop_008.wav",70
Sample,47074,0,"p4_drum_breaks_007.wav",70
Sample,47074,0,"p4_morse_l_dot.wav",70
Sample,47160,0,"p4_synth_weapon_049.wav",70
Sample,47160,0,"p4_drum_breaks_008.wav",70
Sample,47160,0,"p4_drum_dirtyperc_010.wav",70
Sample,47202,0,"p4_morse_l_dash.wav",70
Sample,47245,0,"p4_morse_r1_dash.wav",70
Sample,47245,0,"p4_drum_dirtyperc_011.wav",70
Sample,47245,0,"p4_synth_weapon_050.wav",70
Sample,47245,0,"p4_drum_breaks_009.wav",70
Sample,47245,0,"p4_drum_mainpercsloop_010.wav",70
Sample,47288,0,"p4_morse_l_dash.wav",70
Sample,47330,0,"p4_drum_dirtyperc_012.wav",70
Sample,47330,0,"p4_drum_mainpercsloop_011.wav",70
Sample,47330,0,"p4_synth_weapon_051.wav",70
Sample,47330,0,"p4_drum_breaks_010.wav",70
Sample,47415,0,"p4_morse_l_dash.wav",70
Sample,47415,0,"p4_drum_breaks_011.wav",70
Sample,47415,0,"p4_drum_dirtyperc_013.wav",70
Sample,47415,0,"p4_drum_subsnare_2_001.wav",70
Sample,47501,0,"p4_morse_l_dash.wav",70
Sample,47501,0,"p4_drum_dirtyperc_014.wav",70
Sample,47586,0,"p4_drum_breaks_012.wav",70
Sample,47586,0,"p4_drum_mainpercsloop_006.wav",70
Sample,47586,0,"p4_morse_l_dash.wav",70
Sample,47586,0,"p4_drum_dirtyperc_015.wav",70
Sample,47600,0,"p4_synth_weapon_053.wav",70
Sample,47671,0,"p4_drum_breaks_013.wav",70
Sample,47671,0,"p4_drum_dirtyperc_016.wav",70
Sample,47714,0,"p4_morse_l_dot.wav",70
Sample,47757,0,"p4_morse_r1_dash.wav",70
Sample,47757,0,"p4_morse_l_dash.wav",70
Sample,47757,0,"p4_drum_dirtyperc_001.wav",70
Sample,47757,0,"p4_drum_breaks_001.wav",70
Sample,47842,0,"p4_morse_l_dot.wav",70
Sample,47842,0,"p4_drum_dirtyperc_002.wav",70
Sample,47842,0,"p4_drum_mainpercsloop_002.wav",70
Sample,47870,0,"p4_morse_r1_dot.wav",70
Sample,47927,0,"p4_drum_dirtyperc_003.wav",70
Sample,47927,0,"p4_drum_mainpercsloop_003.wav",70
Sample,47927,0,"p4_morse_r1_dot.wav",70
Sample,47927,0,"p4_synth_weapon_054.wav",70
Sample,47927,0,"p4_drum_breaks_002.wav",70
Sample,47927,0,"p4_morse_l_dash.wav",70
Sample,48012,0,"p4_drum_mainpercsloop_004.wav",70
Sample,48012,0,"p4_drum_dirtyperc_004.wav",70
Sample,48012,0,"p4_drum_breaks_003.wav",70
Sample,48041,0,"p4_morse_r1_dash.wav",70
Sample,48055,0,"p4_morse_l_dot.wav",70
Sample,48098,0,"p4_drum_dirtyperc_005.wav",70
Sample,48098,0,"p4_drum_subsnare_2_001.wav",70
Sample,48098,0,"p4_morse_l_dot.wav",70
Sample,48098,0,"p4_drum_breaks_004.wav",70
Sample,48140,0,"p4_morse_l_dash.wav",70
Sample,48155,0,"p4_morse_r1_dash.wav",70
Sample,48155,0,"p4_synth_weapon_056.wav",70
Sample,48183,0,"p4_drum_dirtyperc_006.wav",70
Sample,48204,0,"p4_synth_weapon_057.wav",70
Sample,48254,0,"p4_synth_weapon_058.wav",70
Sample,48268,0,"p4_morse_r1_dash.wav",70
Sample,48268,0,"p4_drum_dirtyperc_007.wav",70
Sample,48268,0,"p4_morse_l_dot.wav",70
Sample,48268,0,"p4_drum_breaks_005.wav",70
Sample,48311,0,"p4_synth_weapon_059.wav",70
Sample,48311,0,"p4_morse_l_dot.wav",70
Sample,48354,0,"p4_drum_dirtyperc_008.wav",70
Sample,48354,0,"p4_drum_breaks_006.wav",70
Sample,48368,0,"p4_synth_weapon_060.wav",70
Sample,48439,0,"p4_morse_l_dot.wav",70
Sample,48439,0,"p4_drum_dirtyperc_018.wav",70
Sample,48439,0,"p4_drum_breaks_007.wav",70
Sample,48439,0,"p4_synth_weapon_061.wav",70
Sample,48439,0,"p4_morse_r1_dash.wav",70
Sample,48482,0,"p4_morse_l_dot.wav",70
Sample,48524,0,"p4_drum_subsnare_2_001.wav",70
Sample,48524,0,"p4_drum_dirtyperc_019.wav",70
Sample,48524,0,"p4_synth_weapon_062.wav",70
Sample,48524,0,"p4_drum_breaks_008.wav",70
Sample,48553,0,"p4_morse_r1_dot.wav",70
Sample,48567,0,"p4_morse_l_dash.wav",70
Sample,48609,0,"p4_morse_r1_dash.wav",70
Sample,48609,0,"p4_drum_breaks_009.wav",70
Sample,48609,0,"p4_synth_weapon_063.wav",70
Sample,48609,0,"p4_drum_dirtyperc_020.wav",70
Sample,48652,0,"p4_morse_l_dot.wav",70
Sample,48680,0,"p4_synth_weapon_064.wav",70
Sample,48695,0,"p4_drum_dirtyperc_021.wav",70
Sample,48695,0,"p4_drum_breaks_010.wav",70
Sample,48695,0,"p4_drum_mainpercsloop_010.wav",70
Sample,48723,0,"p4_morse_r1_dash.wav",70
Sample,48780,0,"p4_drum_breaks_011.wav",70
Sample,48780,0,"p4_drum_dirtyperc_022.wav",70
Sample,48780,0,"p4_synth_weapon_065.wav",70
Sample,48780,0,"p4_morse_l_dash.wav",70
Sample,48865,0,"p4_morse_l_dot.wav",70
Sample,48865,0,"p4_drum_dirtyperc_023.wav",70
Sample,48887,0,"p4_synth_weapon_066.wav",70
Sample,48894,0,"p4_morse_r1_dash.wav",70
Sample,48908,0,"p4_morse_l_dot.wav",70
Sample,48908,0,"p4_drum_dirtyperc_024.wav",70
Sample,48951,0,"p4_synth_weapon_067.wav",70
Sample,48951,0,"p4_drum_breaks_012.wav",70
Sample,48951,0,"p4_drum_dirtyperc_025.wav",70
Sample,48993,0,"p4_morse_l_dash.wav",70
Sample,49007,0,"p4_morse_r1_dash.wav",70
Sample,49029,0,"p4_synth_weapon_068.wav",70
Sample,49036,0,"p4_drum_breaks_013.wav",70
Sample,49036,0,"p4_drum_dirtyperc_026.wav",70
Sample,49078,0,"p4_drum_dirtyperc_027.wav",70
Sample,49078,0,"p4_morse_l_dash.wav",70
Sample,49121,0,"p4_drum_dirtyperc_001.wav",70
Sample,49121,0,"p4_morse_r1_dash.wav",70
Sample,49121,0,"p4_drum_breaks_001.wav",70
Sample,49164,0,"p4_morse_l_dash.wav",70
Sample,49206,0,"p4_drum_mainpercsloop_002.wav",70
Sample,49206,0,"p4_drum_dirtyperc_002.wav",70
Sample,49292,0,"p4_morse_l_dash.wav",70
Sample,49292,0,"p4_drum_breaks_002.wav",70
Sample,49292,0,"p4_drum_mainpercsloop_003.wav",70
Sample,49292,0,"p4_drum_dirtyperc_003.wav",70
Sample,49292,0,"p4_morse_r1_dot.wav",70
Sample,49349,0,"p4_morse_r1_dot.wav",70
Sample,49377,0,"p4_drum_mainpercsloop_004.wav",70
Sample,49377,0,"p4_drum_breaks_003.wav",70
Sample,49377,0,"p4_morse_l_dash.wav",70
Sample,49377,0,"p4_drum_dirtyperc_004.wav",70
Sample,49377,0,"p4_drum_subkick_4.wav",70
Sample,49405,0,"p4_morse_r1_dash.wav",70
Sample,49462,0,"p4_drum_breaks_004.wav",70
Sample,49462,0,"p4_drum_subsnare_2_001.wav",70
Sample,49462,0,"p4_drum_dirtyperc_005.wav",70
Sample,49505,0,"p4_morse_l_dot.wav",70
Sample,49548,0,"p4_drum_dirtyperc_006.wav",70
Sample,49548,0,"p4_morse_l_dot.wav",70
Sample,49633,0,"p4_drum_subkick_4.wav",70
Sample,49633,0,"p4_drum_dirtyperc_007.wav",70
Sample,49633,0,"p4_morse_l_dash.wav",70
Sample,49633,0,"p4_drum_breaks_005.wav",70
Sample,49718,0,"p4_drum_breaks_006.wav",70
Sample,49718,0,"p4_morse_l_dot.wav",70
Sample,49718,0,"p4_drum_dirtyperc_008.wav",70
Sample,49761,0,"p4_synth_weapon_072.wav",70
Sample,49803,0,"p4_morse_l_dash.wav",70
Sample,49803,0,"p4_drum_breaks_007.wav",70
Sample,49803,0,"p4_synth_weapon_073.wav",70
Sample,49803,0,"p4_morse_r1_dash.wav",70
Sample,49803,0,"p4_drum_dirtyperc_009.wav",70
Sample,49889,0,"p4_synth_weapon_074.wav",70
Sample,49889,0,"p4_morse_l_dash.wav",70
Sample,49889,0,"p4_drum_dirtyperc_010.wav",70
Sample,49889,0,"p4_drum_breaks_008.wav",70
Sample,49889,0,"p4_drum_subsnare_2_001.wav",70
Sample,49917,0,"p4_morse_r1_dot.wav",70
Sample,49974,0,"p4_synth_weapon_075.wav",70
Sample,49974,0,"p4_drum_breaks_009.wav",70
Sample,49974,0,"p4_drum_dirtyperc_011.wav",70
Sample,49974,0,"p4_drum_mainpercsloop_010.wav",70
Sample,49974,0,"p4_morse_l_dash.wav",70
Sample,49974,0,"p4_morse_r1_dash.wav",70
Sample,50059,0,"p4_drum_breaks_010.wav",70
Sample,50059,0,"p4_drum_mainpercsloop_011.wav",70
Sample,50059,0,"p4_synth_weapon_076.wav",70
Sample,50059,0,"p4_drum_dirtyperc_012.wav",70
Sample,50144,0,"p4_drum_subsnare_2_001.wav",70
Sample,50144,0,"p4_drum_breaks_011.wav",70
Sample,50144,0,"p4_morse_l_dash.wav",70
Sample,50144,0,"p4_morse_r1_dash.wav",70
Sample,50144,0,"p4_drum_dirtyperc_013.wav",70
Sample,50230,0,"p4_morse_l_dash.wav",70
Sample,50230,0,"p4_drum_dirtyperc_014.wav",70
Sample,50258,0,"p4_morse_r1_dot.wav",70
Sample,50315,0,"p4_drum_dirtyperc_015.wav",70
Sample,50315,0,"p4_drum_breaks_012.wav",70
Sample,50329,0,"p4_synth_weapon_078.wav",70
Sample,50358,0,"p4_morse_l_dash.wav",70
Sample,50372,0,"p4_morse_r1_dash.wav",70
Sample,50400,0,"p4_drum_dirtyperc_016.wav",70
Sample,50400,0,"p4_drum_breaks_013.wav",70
Sample,50443,0,"p4_morse_l_dash.wav",70
Sample,50486,0,"p4_morse_r1_dash.wav",70
Sample,50486,0,"p4_drum_dirtyperc_001.wav",70
Sample,50486,0,"p4_drum_breaks_001.wav",70
Sample,50528,0,"p4_morse_l_dash.wav",70
Sample,50571,0,"p4_drum_mainpercsloop_002.wav",70
Sample,50571,0,"p4_drum_dirtyperc_002.wav",70
Sample,50599,0,"p4_morse_r1_dash.wav",70
Sample,50656,0,"p4_drum_breaks_002.wav",70
Sample,50656,0,"p4_drum_mainpercsloop_003.wav",70
Sample,50656,0,"p4_drum_dirtyperc_003.wav",70
Sample,50656,0,"p4_morse_l_dot.wav",70
Sample,50699,0,"p4_morse_l_dash.wav",70
Sample,50741,0,"p4_drum_subkick_4.wav",70
Sample,50741,0,"p4_drum_breaks_003.wav",70
Sample,50741,0,"p4_drum_dirtyperc_004.wav",70
Sample,50741,0,"p4_drum_mainpercsloop_004.wav",70
Sample,50770,0,"p4_morse_r1_dot.wav",70
Sample,50784,0,"p4_morse_l_dot.wav",70
Sample,50827,0,"p4_morse_r1_dash.wav",70
Sample,50827,0,"p4_drum_dirtyperc_005.wav",70
Sample,50827,0,"p4_drum_breaks_004.wav",70
Sample,50827,0,"p4_drum_subsnare_2_001.wav",70
Sample,50869,0,"p4_morse_l_dot.wav",70
Sample,50912,0,"p4_morse_l_dot.wav",70
Sample,50912,0,"p4_drum_dirtyperc_006.wav",70
Sample,50940,0,"p4_morse_r1_dash.wav",70
Sample,50997,0,"p4_drum_dirtyperc_007.wav",70
Sample,50997,0,"p4_drum_breaks_005.wav",70
Sample,50997,0,"p4_morse_l_dot.wav",70
Sample,50997,0,"p4_drum_subkick_4.wav",70
Sample,51083,0,"p4_drum_breaks_006.wav",70
Sample,51083,0,"p4_drum_subsnare_1_002.wav",70
Sample,51083,0,"p4_morse_l_dash.wav",70
Sample,51083,0,"p4_drum_dirtyperc_008.wav",70
Sample,51168,0,"p4_morse_l_dot.wav",70
Sample,51168,0,"p4_drum_breaks_007.wav",70
Sample,51168,0,"p4_drum_dirtyperc_018.wav",70
Sample,51253,0,"p4_drum_breaks_008.wav",70
Sample,51253,0,"p4_drum_subsnare_2_001.wav",70
Sample,51253,0,"p4_drum_mainkick_3.wav",70
Sample,51253,0,"p4_morse_l_dash.wav",70
Sample,51253,0,"p4_drum_dirtyperc_019.wav",70
Sample,51338,0,"p4_drum_breaks_009.wav",70
Sample,51338,0,"p4_drum_mainpercsloop_010.wav",70
Sample,51338,0,"p4_drum_dirtyperc_020.wav",70
Sample,51381,0,"p4_morse_l_dot.wav",70
Sample,51424,0,"p4_synth_weapon_083.wav",70
Sample,51424,0,"p4_drum_dirtyperc_021.wav",70
Sample,51424,0,"p4_drum_subkick_4.wav",70
Sample,51424,0,"p4_drum_breaks_010.wav",70
Sample,51466,0,"p4_morse_l_dot.wav",70
Sample,51509,0,"p4_drum_dirtyperc_022.wav",70
Sample,51509,0,"p4_morse_l_dot.wav",70
Sample,51509,0,"p4_drum_oddsnare_001.wav",70
Sample,51509,0,"p4_drum_subsnare_2_001.wav",70
Sample,51509,0,"p4_drum_breaks_011.wav",70
Sample,51552,0,"p4_morse_l_dot.wav",70
Sample,51594,0,"p4_drum_dirtyperc_023.wav",70
Sample,51637,0,"p4_drum_dirtyperc_024.wav",70
Sample,51680,0,"p4_drum_subkick_4.wav",70
Sample,51680,0,"p4_morse_l_dash.wav",70
Sample,51680,0,"p4_drum_dirtyperc_025.wav",70
Sample,51680,0,"p4_drum_breaks_012.wav",70
Sample,51765,0,"p4_morse_l_dot.wav",70
Sample,51765,0,"p4_drum_breaks_013.wav",70
Sample,51765,0,"p4_drum_mainpercsloop_008.wav",70
Sample,51765,0,"p4_drum_snareshot_2_001.wav",70
Sample,51765,0,"p4_drum_dirtyperc_026.wav",70
Sample,51807,0,"p4_morse_l_dot.wav",70
Sample,51807,0,"p4_drum_dirtyperc_027.wav",70
Sample,51850,0,"p4_morse_r1_dot.wav",70
Sample,51850,0,"p4_drum_dirtyperc_001.wav",70
Sample,51850,0,"p4_drum_breaks_001.wav",70
Sample,51893,0,"p4_morse_l_dot.wav",70
Sample,51907,0,"p4_morse_r1_dash.wav",70
Sample,51935,0,"p4_drum_dirtyperc_002.wav",70
Sample,51935,0,"p4_drum_mainpercsloop_002.wav",70
Sample,51978,0,"p4_morse_l_dot.wav",70
Sample,52021,0,"p4_synth_weapon_088.wav",70
Sample,52021,0,"p4_drum_dirtyperc_003.wav",70
Sample,52021,0,"p4_morse_r1_dash.wav",70
Sample,52021,0,"p4_drum_mainpercsloop_003.wav",70
Sample,52021,0,"p4_morse_l_dot.wav",70
Sample,52021,0,"p4_drum_breaks_002.wav",70
Sample,52106,0,"p4_drum_mainpercsloop_004.wav",70
Sample,52106,0,"p4_drum_breaks_003.wav",70
Sample,52106,0,"p4_morse_l_dash.wav",70
Sample,52106,0,"p4_drum_dirtyperc_004.wav",70
Sample,52191,0,"p4_drum_dirtyperc_005.wav",70
Sample,52191,0,"p4_morse_l_dot.wav",70
Sample,52191,0,"p4_drum_subsnare_2_001.wav",70
Sample,52191,0,"p4_drum_breaks_004.wav",70
Sample,52191,0,"p4_morse_r1_dot.wav",70
Sample,52248,0,"p4_morse_r1_dot.wav",70
Sample,52276,0,"p4_morse_l_dash.wav",70
Sample,52276,0,"p4_drum_dirtyperc_006.wav",70
Sample,52305,0,"p4_morse_r1_dot.wav",70
Sample,52362,0,"p4_synth_weapon_090.wav",70
Sample,52362,0,"p4_drum_breaks_005.wav",70
Sample,52362,0,"p4_drum_dirtyperc_007.wav",70
Sample,52362,0,"p4_morse_l_dot.wav",70
Sample,52362,0,"p4_morse_r1_dot.wav",70
Sample,52404,0,"p4_morse_l_dash.wav",70
Sample,52447,0,"p4_drum_breaks_006.wav",70
Sample,52447,0,"p4_drum_dirtyperc_008.wav",70
Sample,52447,0,"p4_synth_weapon_091.wav",70
Sample,52475,0,"p4_morse_r1_dot.wav",70
Sample,52490,0,"p4_morse_l_dot.wav",70
Sample,52532,0,"p4_drum_dirtyperc_009.wav",70
Sample,52532,0,"p4_drum_breaks_007.wav",70
Sample,52532,0,"p4_drum_mainpercsloop_010.wav",70
Sample,52532,0,"p4_morse_r1_dash.wav",70
Sample,52575,0,"p4_morse_l_dot.wav",70
Sample,52618,0,"p4_drum_subsnare_2_001.wav",70
Sample,52618,0,"p4_drum_breaks_008.wav",70
Sample,52618,0,"p4_drum_dirtyperc_010.wav",70
Sample,52660,0,"p4_morse_l_dot.wav",70
Sample,52696,0,"p4_synth_weapon_092.wav",70
Sample,52703,0,"p4_drum_mainpercsloop_010.wav",70
Sample,52703,0,"p4_drum_dirtyperc_011.wav",70
Sample,52703,0,"p4_morse_l_dash.wav",70
Sample,52703,0,"p4_drum_breaks_009.wav",70
Sample,52703,0,"p4_morse_r1_dash.wav",70
Sample,52788,0,"p4_drum_dirtyperc_012.wav",70
Sample,52788,0,"p4_morse_l_dash.wav",70
Sample,52788,0,"p4_drum_mainpercsloop_011.wav",70
Sample,52788,0,"p4_drum_breaks_010.wav",70
Sample,52873,0,"p4_drum_dirtyperc_013.wav",70
Sample,52873,0,"p4_drum_subsnare_2_001.wav",70
Sample,52873,0,"p4_morse_l_dot.wav",70
Sample,52873,0,"p4_drum_breaks_011.wav",70
Sample,52959,0,"p4_morse_l_dot.wav",70
Sample,52959,0,"p4_drum_dirtyperc_014.wav",70
Sample,53001,0,"p4_morse_l_dot.wav",70
Sample,53044,0,"p4_morse_l_dot.wav",70
Sample,53044,0,"p4_drum_dirtyperc_015.wav",70
Sample,53044,0,"p4_drum_breaks_012.wav",70
Sample,53129,0,"p4_drum_subkick_4.wav",70
Sample,53129,0,"p4_drum_dirtyperc_016.wav",70
Sample,53129,0,"p4_drum_breaks_013.wav",70
Sample,53165,0,"p4_synth_weapon_094.wav",70
Sample,53215,0,"p4_morse_r1_dash.wav",70
Sample,53215,0,"p4_drum_breaks_001.wav",70
Sample,53215,0,"p4_morse_l_dash.wav",70
Sample,53215,0,"p4_drum_dirtyperc_001.wav",70
Sample,53300,0,"p4_morse_l_dot.wav",70
Sample,53300,0,"p4_drum_dirtyperc_002.wav",70
Sample,53300,0,"p4_drum_mainpercsloop_002.wav",70
Sample,53328,0,"p4_morse_r1_dot.wav",70
Sample,53342,0,"p4_morse_l_dot.wav",70
Sample,53385,0,"p4_drum_mainpercsloop_003.wav",70
Sample,53385,0,"p4_drum_breaks_002.wav",70
Sample,53385,0,"p4_synth_weapon_096.wav",70
Sample,53385,0,"p4_morse_r1_dot.wav",70
Sample,53385,0,"p4_drum_dirtyperc_003.wav",70
Sample,53428,0,"p4_morse_l_dot.wav",70
Sample,53470,0,"p4_morse_l_dot.wav",70
Sample,53470,0,"p4_drum_breaks_003.wav",70
Sample,53470,0,"p4_drum_dirtyperc_004.wav",70
Sample,53470,0,"p4_drum_mainpercsloop_004.wav",70
Sample,53478,0,"p4_synth_weapon_097.wav",70
Sample,53499,0,"p4_morse_r1_dash.wav",70
Sample,53556,0,"p4_drum_breaks_004.wav",70
Sample,53556,0,"p4_morse_l_dash.wav",70
Sample,53556,0,"p4_drum_subsnare_2_001.wav",70
Sample,53556,0,"p4_drum_dirtyperc_005.wav",70
Sample,53613,0,"p4_morse_r1_dash.wav",70
Sample,53641,0,"p4_drum_dirtyperc_006.wav",70
Sample,53641,0,"p4_morse_l_dot.wav",70
Sample,53684,0,"p4_morse_l_dash.wav",70
Sample,53726,0,"p4_drum_dirtyperc_007.wav",70
Sample,53726,0,"p4_drum_breaks_005.wav",70
Sample,53726,0,"p4_morse_r1_dash.wav",70
Sample,53769,0,"p4_morse_l_dot.wav",70
Sample,53812,0,"p4_drum_subsnare_1_002.wav",70
Sample,53812,0,"p4_drum_dirtyperc_008.wav",70
Sample,53812,0,"p4_drum_breaks_006.wav",70
Sample,53854,0,"p4_morse_l_dot.wav",70
Sample,53897,0,"p4_drum_dirtyperc_018.wav",70
Sample,53897,0,"p4_drum_breaks_007.wav",70
Sample,53897,0,"p4_morse_l_dot.wav",70
Sample,53897,0,"p4_morse_r1_dash.wav",70
Sample,53982,0,"p4_drum_dirtyperc_019.wav",70
Sample,53982,0,"p4_drum_subsnare_2_001.wav",70
Sample,53982,0,"p4_drum_breaks_008.wav",70
Sample,53982,0,"p4_morse_l_dash.wav",70
Sample,54011,0,"p4_morse_r1_dot.wav",70
Sample,54067,0,"p4_morse_r1_dash.wav",70
Sample,54067,0,"p4_drum_dirtyperc_020.wav",70
Sample,54067,0,"p4_drum_breaks_009.wav",70
Sample,54067,0,"p4_synth_weapon_100.wav",70
Sample,54153,0,"p4_synth_weapon_101.wav",70
Sample,54153,0,"p4_drum_breaks_010.wav",70
Sample,54153,0,"p4_morse_l_dot.wav",70
Sample,54153,0,"p4_drum_dirtyperc_021.wav",70
Sample,54153,0,"p4_drum_mainpercsloop_010.wav",70
Sample,54181,0,"p4_morse_r1_dash.wav",70
Sample,54238,0,"p4_drum_dirtyperc_022.wav",70
Sample,54238,0,"p4_morse_l_dash.wav",70
Sample,54238,0,"p4_drum_subsnare_2_001.wav",70
Sample,54238,0,"p4_synth_weapon_102.wav",70
Sample,54238,0,"p4_drum_breaks_011.wav",70
Sample,54323,0,"p4_morse_l_dot.wav",70
Sample,54323,0,"p4_drum_dirtyperc_023.wav",70
Sample,54352,0,"p4_morse_r1_dash.wav",70
Sample,54366,0,"p4_drum_dirtyperc_024.wav",70
Sample,54409,0,"p4_morse_l_dot.wav",70
Sample,54409,0,"p4_drum_breaks_012.wav",70
Sample,54409,0,"p4_drum_dirtyperc_025.wav",70
Sample,54409,0,"p4_synth_weapon_103.wav",70
Sample,54451,0,"p4_morse_l_dot.wav",70
Sample,54465,0,"p4_morse_r1_dash.wav",70
Sample,54494,0,"p4_drum_snareshot_1_001.wav",70
Sample,54494,0,"p4_drum_dirtyperc_026.wav",70
Sample,54494,0,"p4_drum_breaks_013.wav",70
Sample,54536,0,"p4_drum_dirtyperc_027.wav",70
Sample,54536,0,"p4_morse_l_dash.wav",70
Sample,54579,0,"p4_drum_dirtyperc_001.wav",70
Sample,54579,0,"p4_morse_r1_dash.wav",70
Sample,54579,0,"p4_drum_breaks_001.wav",70
Sample,54622,0,"p4_morse_l_dash.wav",70
Sample,54664,0,"p4_drum_mainpercsloop_002.wav",70
Sample,54664,0,"p4_drum_dirtyperc_002.wav",70
Sample,54750,0,"p4_morse_r1_dot.wav",70
Sample,54750,0,"p4_drum_mainpercsloop_003.wav",70
Sample,54750,0,"p4_drum_breaks_002.wav",70
Sample,54750,0,"p4_drum_dirtyperc_003.wav",70
Sample,54792,0,"p4_morse_l_dot.wav",70
Sample,54806,0,"p4_morse_r1_dot.wav",70
Sample,54835,0,"p4_drum_mainpercsloop_004.wav",70
Sample,54835,0,"p4_drum_dirtyperc_004.wav",70
Sample,54835,0,"p4_morse_l_dot.wav",70
Sample,54835,0,"p4_drum_breaks_003.wav",70
Sample,54835,0,"p4_drum_subkick_4.wav",70
Sample,54863,0,"p4_morse_r1_dash.wav",70
Sample,54878,0,"p4_morse_l_dot.wav",70
Sample,54920,0,"p4_drum_breaks_004.wav",70
Sample,54920,0,"p4_drum_oddsnare_001.wav",70
Sample,54920,0,"p4_drum_dirtyperc_005.wav",70
Sample,54920,0,"p4_drum_subsnare_2_001.wav",70
Sample,54963,0,"p4_morse_l_dot.wav",70
Sample,55005,0,"p4_drum_dirtyperc_006.wav",70
Sample,55005,0,"p4_morse_l_dash.wav",70
Sample,55091,0,"p4_drum_dirtyperc_007.wav",70
Sample,55091,0,"p4_drum_subkick_4.wav",70
Sample,55091,0,"p4_morse_l_dash.wav",70
Sample,55091,0,"p4_drum_breaks_005.wav",70
Sample,55176,0,"p4_morse_l_dot.wav",70
Sample,55176,0,"p4_drum_subsnare_1_002.wav",70
Sample,55176,0,"p4_drum_breaks_006.wav",70
Sample,55176,0,"p4_drum_dirtyperc_008.wav",70
Sample,55261,0,"p4_drum_dirtyperc_009.wav",70
Sample,55261,0,"p4_drum_breaks_007.wav",70
Sample,55261,0,"p4_morse_l_dot.wav",70
Sample,55261,0,"p4_morse_r1_dot.wav",70
Sample,55304,0,"p4_morse_l_dot.wav",70
Sample,55318,0,"p4_morse_r1_dash.wav",70
Sample,55347,0,"p4_drum_mainkick_3.wav",70
Sample,55347,0,"p4_drum_subsnare_2_001.wav",70
Sample,55347,0,"p4_drum_dirtyperc_010.wav",70
Sample,55347,0,"p4_drum_breaks_008.wav",70
Sample,55389,0,"p4_morse_l_dot.wav",70
Sample,55432,0,"p4_drum_mainpercsloop_010.wav",70
Sample,55432,0,"p4_drum_dirtyperc_011.wav",70
Sample,55432,0,"p4_drum_breaks_009.wav",70
Sample,55432,0,"p4_morse_l_dash.wav",70
Sample,55432,0,"p4_morse_r1_dash.wav",70
Sample,55517,0,"p4_drum_breaks_010.wav",70
Sample,55517,0,"p4_morse_l_dot.wav",70
Sample,55517,0,"p4_drum_mainpercsloop_011.wav",70
Sample,55517,0,"p4_drum_dirtyperc_012.wav",70
Sample,55546,0,"p4_morse_r1_dot.wav",70
Sample,55602,0,"p4_drum_breaks_011.wav",70
Sample,55602,0,"p4_drum_dirtyperc_013.wav",70
Sample,55602,0,"p4_drum_subsnare_2_001.wav",70
Sample,55602,0,"p4_morse_l_dot.wav",70
Sample,55645,0,"p4_morse_l_dot.wav",70
Sample,55659,0,"p4_morse_r1_dot.wav",70
Sample,55688,0,"p4_drum_dirtyperc_014.wav",70
Sample,55716,0,"p4_morse_r1_dash.wav",70
Sample,55730,0,"p4_morse_l_dash.wav",70
Sample,55773,0,"p4_drum_dirtyperc_015.wav",70
Sample,55773,0,"p4_drum_breaks_012.wav",70
Sample,55830,0,"p4_morse_r1_dot.wav",70
Sample,55858,0,"p4_morse_l_dot.wav",70
Sample,55858,0,"p4_drum_breaks_013.wav",70
Sample,55858,0,"p4_drum_dirtyperc_016.wav",70
Sample,55858,0,"p4_drum_subkick_4.wav",70
Sample,55887,0,"p4_morse_r1_dot.wav",70
Sample,55901,0,"p4_morse_l_dot.wav",70
Sample,55944,0,"p4_morse_l_dash.wav",70
Sample,55944,0,"p4_drum_dirtyperc_001.wav",70
Sample,55944,0,"p4_drum_breaks_001.wav",70
Sample,56000,0,"p4_morse_r1_dot.wav",70
Sample,56029,0,"p4_drum_mainpercsloop_002.wav",70
Sample,56029,0,"p4_drum_dirtyperc_002.wav",70
Sample,56057,0,"p4_morse_r1_dash.wav",70
Sample,56071,0,"p4_morse_l_dot.wav",70
Sample,56114,0,"p4_morse_l_dot.wav",70
Sample,56114,0,"p4_drum_dirtyperc_003.wav",70
Sample,56114,0,"p4_drum_mainpercsloop_003.wav",70
Sample,56114,0,"p4_drum_breaks_002.wav",70
Sample,56157,0,"p4_morse_l_dot.wav",70
Sample,56199,0,"p4_drum_subkick_4.wav",70
Sample,56199,0,"p4_drum_dirtyperc_004.wav",70
Sample,56199,0,"p4_drum_breaks_003.wav",70
Sample,56199,0,"p4_drum_mainpercsloop_004.wav",70
Sample,56228,0,"p4_morse_r1_dash.wav",70
Sample,56285,0,"p4_drum_breaks_004.wav",70
Sample,56285,0,"p4_drum_subsnare_2_001.wav",70
Sample,56285,0,"p4_drum_oddsnare_001.wav",70
Sample,56285,0,"p4_drum_dirtyperc_005.wav",70
Sample,56327,0,"p4_morse_l_dot.wav",70
Sample,56342,0,"p4_morse_r1_dot.wav",70
Sample,56370,0,"p4_morse_l_dot.wav",70
Sample,56370,0,"p4_drum_dirtyperc_006.wav",70
Sample,56398,0,"p4_morse_r1_dash.wav",70
Sample,56413,0,"p4_morse_l_dash.wav",70
Sample,56455,0,"p4_drum_dirtyperc_007.wav",70
Sample,56455,0,"p4_drum_subkick_4.wav",70
Sample,56455,0,"p4_drum_breaks_005.wav",70
Sample,56512,0,"p4_morse_r1_dash.wav",70
Sample,56541,0,"p4_morse_l_dash.wav",70
Sample,56541,0,"p4_drum_dirtyperc_008.wav",70
Sample,56541,0,"p4_drum_breaks_006.wav",70
Sample,56541,0,"p4_drum_subsnare_1_002.wav",70
Sample,56626,0,"p4_drum_breaks_007.wav",70
Sample,56626,0,"p4_drum_dirtyperc_018.wav",70
Sample,56711,0,"p4_drum_breaks_008.wav",70
Sample,56711,0,"p4_drum_dirtyperc_019.wav",70
Sample,56711,0,"p4_morse_l_dot.wav",70
Sample,56711,0,"p4_drum_mainkick_3.wav",70
Sample,56711,0,"p4_drum_subsnare_2_001.wav",70
Sample,56754,0,"p4_morse_l_dash.wav",70
Sample,56796,0,"p4_drum_dirtyperc_020.wav",70
Sample,56796,0,"p4_drum_breaks_009.wav",70
Sample,56796,0,"p4_drum_mainpercsloop_010.wav",70
Sample,56839,0,"p4_morse_l_dot.wav",70
Sample,56882,0,"p4_drum_subkick_4.wav",70
Sample,56882,0,"p4_drum_dirtyperc_021.wav",70
Sample,56882,0,"p4_drum_breaks_010.wav",70
Sample,56924,0,"p4_morse_l_dot.wav",70
Sample,56967,0,"p4_drum_dirtyperc_022.wav",70
Sample,56967,0,"p4_drum_subsnare_2_001.wav",70
Sample,56967,0,"p4_drum_breaks_011.wav",70
Sample,56967,0,"p4_drum_oddsnare_001.wav",70
Sample,57010,0,"p4_morse_l_dash.wav",70
Sample,57052,0,"p4_drum_dirtyperc_023.wav",70
Sample,57095,0,"p4_drum_dirtyperc_024.wav",70
Sample,57095,0,"p4_morse_l_dash.wav",70
Sample,57137,0,"p4_drum_breaks_012.wav",70
Sample,57137,0,"p4_drum_dirtyperc_025.wav",70
Sample,57137,0,"p4_drum_subkick_4.wav",70
Sample,57180,0,"p4_morse_l_dot.wav",70
Sample,57223,0,"p4_morse_l_dash.wav",70
Sample,57223,0,"p4_drum_mainpercsloop_008.wav",70
Sample,57223,0,"p4_drum_dirtyperc_026.wav",70
Sample,57223,0,"p4_drum_breaks_013.wav",70
Sample,57265,0,"p4_drum_dirtyperc_027.wav",70
Sample,57308,0,"p4_drum_breaks_001.wav",70
Sample,57308,0,"p4_synth_acid_001.wav",70
Sample,57308,0,"p4_drum_dirtyperc_001.wav",70
Sample,57308,0,"p4_morse_r1_dot.wav",70
Sample,57351,0,"p4_morse_l_dot.wav",70
Sample,57365,0,"p4_morse_r1_dash.wav",70
Sample,57393,0,"p4_drum_mainpercsloop_002.wav",70
Sample,57393,0,"p4_drum_dirtyperc_002.wav",70
Sample,57393,0,"p4_synth_acid_002.wav",70
Sample,57393,0,"p4_morse_l_dot.wav",70
Sample,57436,0,"p4_morse_l_dash.wav",70
Sample,57479,0,"p4_synth_acid_003.wav",70
Sample,57479,0,"p4_drum_breaks_002.wav",70
Sample,57479,0,"p4_drum_mainpercsloop_003.wav",70
Sample,57479,0,"p4_drum_dirtyperc_003.wav",70
Sample,57479,0,"p4_morse_r1_dash.wav",70
Sample,57564,0,"p4_synth_acid_004.wav",70
Sample,57564,0,"p4_drum_dirtyperc_004.wav",70
Sample,57564,0,"p4_drum_mainpercsloop_004.wav",70
Sample,57564,0,"p4_morse_l_dot.wav",70
Sample,57564,0,"p4_drum_breaks_003.wav",70
Sample,57607,0,"p4_morse_l_dot.wav",70
Sample,57649,0,"p4_synth_acid_005.wav",70
Sample,57649,0,"p4_drum_subsnare_2_001.wav",70
Sample,57649,0,"p4_drum_breaks_004.wav",70
Sample,57649,0,"p4_drum_dirtyperc_005.wav",70
Sample,57649,0,"p4_morse_r1_dot.wav",70
Sample,57692,0,"p4_morse_l_dot.wav",70
Sample,57706,0,"p4_morse_r1_dot.wav",70
Sample,57734,0,"p4_drum_dirtyperc_006.wav",70
Sample,57734,0,"p4_synth_acid_006.wav",70
Sample,57763,0,"p4_morse_r1_dot.wav",70
Sample,57777,0,"p4_morse_l_dot.wav",70
Sample,57820,0,"p4_morse_r1_dot.wav",70
Sample,57820,0,"p4_drum_breaks_005.wav",70
Sample,57820,0,"p4_morse_l_dot.wav",70
Sample,57820,0,"p4_drum_dirtyperc_007.wav",70
Sample,57862,0,"p4_morse_l_dot.wav",70
Sample,57905,0,"p4_drum_subsnare_1_002.wav",70
Sample,57905,0,"p4_drum_dirtyperc_008.wav",70
Sample,57905,0,"p4_synth_weapon_129.wav",70
Sample,57905,0,"p4_drum_breaks_006.wav",70
Sample,57933,0,"p4_morse_r1_dot.wav",70
Sample,57948,0,"p4_morse_l_dash.wav",70
Sample,57990,0,"p4_drum_breaks_007.wav",70
Sample,57990,0,"p4_drum_dirtyperc_009.wav",70
Sample,57990,0,"p4_synth_acid_007.wav",70
Sample,57990,0,"p4_morse_r1_dash.wav",70
Sample,58033,0,"p4_morse_l_dot.wav",70
Sample,58076,0,"p4_drum_subsnare_2_001.wav",70
Sample,58076,0,"p4_synth_acid_008.wav",70
Sample,58076,0,"p4_drum_dirtyperc_010.wav",70
Sample,58076,0,"p4_drum_mainkick_3.wav",70
Sample,58076,0,"p4_morse_l_dash.wav",70
Sample,58076,0,"p4_drum_breaks_008.wav",70
Sample,58161,0,"p4_morse_l_dot.wav",70
Sample,58161,0,"p4_drum_breaks_009.wav",70
Sample,58161,0,"p4_morse_r1_dash.wav",70
Sample,58161,0,"p4_drum_dirtyperc_011.wav",70
Sample,58161,0,"p4_synth_acid_009.wav",70
Sample,58161,0,"p4_drum_mainpercsloop_010.wav",70
Sample,58246,0,"p4_drum_breaks_010.wav",70
Sample,58246,0,"p4_drum_mainpercsloop_011.wav",70
Sample,58246,0,"p4_drum_dirtyperc_012.wav",70
Sample,58246,0,"p4_morse_l_dot.wav",70
Sample,58289,0,"p4_morse_l_dash.wav",70
Sample,58331,0,"p4_drum_subsnare_2_001.wav",70
Sample,58331,0,"p4_synth_acid_010.wav",70
Sample,58331,0,"p4_drum_breaks_011.wav",70
Sample,58331,0,"p4_drum_dirtyperc_013.wav",70
Sample,58417,0,"p4_morse_l_dash.wav",70
Sample,58417,0,"p4_drum_dirtyperc_014.wav",70
Sample,58417,0,"p4_synth_acid_011.wav",70
Sample,58502,0,"p4_drum_breaks_012.wav",70
Sample,58502,0,"p4_synth_acid_012.wav",70
Sample,58502,0,"p4_morse_l_dot.wav",70
Sample,58502,0,"p4_drum_dirtyperc_015.wav",70
Sample,58587,0,"p4_drum_subkick_4.wav",70
Sample,58587,0,"p4_drum_breaks_013.wav",70
Sample,58587,0,"p4_morse_l_dash.wav",70
Sample,58587,0,"p4_drum_dirtyperc_016.wav",70
Sample,58673,0,"p4_morse_r1_dash.wav",70
Sample,58673,0,"p4_drum_dirtyperc_001.wav",70
Sample,58673,0,"p4_drum_breaks_001.wav",70
Sample,58758,0,"p4_drum_mainpercsloop_002.wav",70
Sample,58758,0,"p4_drum_dirtyperc_002.wav",70
Sample,58758,0,"p4_morse_l_dot.wav",70
Sample,58786,0,"p4_morse_r1_dot.wav",70
Sample,58800,0,"p4_morse_l_dash.wav",70
Sample,58843,0,"p4_synth_acid_013.wav",70
Sample,58843,0,"p4_drum_breaks_002.wav",70
Sample,58843,0,"p4_drum_dirtyperc_003.wav",70
Sample,58843,0,"p4_morse_r1_dot.wav",70
Sample,58843,0,"p4_drum_mainpercsloop_003.wav",70
Sample,58928,0,"p4_synth_acid_014.wav",70
Sample,58928,0,"p4_drum_mainpercsloop_004.wav",70
Sample,58928,0,"p4_drum_breaks_003.wav",70
Sample,58928,0,"p4_drum_dirtyperc_004.wav",70
Sample,58928,0,"p4_drum_subkick_4.wav",70
Sample,58957,0,"p4_morse_r1_dash.wav",70
Sample,58971,0,"p4_morse_l_dot.wav",70
Sample,59014,0,"p4_synth_acid_015.wav",70
Sample,59014,0,"p4_drum_dirtyperc_005.wav",70
Sample,59014,0,"p4_morse_l_dash.wav",70
Sample,59014,0,"p4_drum_subsnare_2_001.wav",70
Sample,59014,0,"p4_drum_breaks_004.wav",70
Sample,59071,0,"p4_morse_r1_dash.wav",70
Sample,59099,0,"p4_synth_acid_016.wav",70
Sample,59099,0,"p4_morse_l_dot.wav",70
Sample,59099,0,"p4_drum_dirtyperc_006.wav",70
Sample,59142,0,"p4_morse_l_dot.wav",70
Sample,59184,0,"p4_morse_r1_dash.wav",70
Sample,59184,0,"p4_synth_acid_017.wav",70
Sample,59184,0,"p4_drum_breaks_005.wav",70
Sample,59184,0,"p4_drum_dirtyperc_007.wav",70
Sample,59227,0,"p4_morse_l_dot.wav",70
Sample,59269,0,"p4_drum_subsnare_1_002.wav",70
Sample,59269,0,"p4_drum_dirtyperc_008.wav",70
Sample,59269,0,"p4_morse_l_dash.wav",70
Sample,59269,0,"p4_drum_breaks_006.wav",70
Sample,59355,0,"p4_drum_dirtyperc_018.wav",70
Sample,59355,0,"p4_drum_breaks_007.wav",70
Sample,59355,0,"p4_morse_r1_dash.wav",70
Sample,59397,0,"p4_morse_l_dash.wav",70
Sample,59440,0,"p4_drum_breaks_008.wav",70
Sample,59440,0,"p4_synth_acid_018.wav",70
Sample,59440,0,"p4_drum_dirtyperc_019.wav",70
Sample,59440,0,"p4_drum_subsnare_2_001.wav",70
Sample,59468,0,"p4_morse_r1_dot.wav",70
Sample,59483,0,"p4_morse_l_dot.wav",70
Sample,59525,0,"p4_drum_dirtyperc_020.wav",70
Sample,59525,0,"p4_drum_mainkick_3.wav",70
Sample,59525,0,"p4_morse_r1_dash.wav",70
Sample,59525,0,"p4_synth_acid_019.wav",70
Sample,59525,0,"p4_drum_breaks_009.wav",70
Sample,59525,0,"p4_morse_l_dot.wav",70
Sample,59568,0,"p4_morse_l_dot.wav",70
Sample,59611,0,"p4_drum_breaks_010.wav",70
Sample,59611,0,"p4_synth_acid_020.wav",70
Sample,59611,0,"p4_drum_mainpercsloop_010.wav",70
Sample,59611,0,"p4_drum_dirtyperc_021.wav",70
Sample,59639,0,"p4_morse_r1_dash.wav",70
Sample,59653,0,"p4_morse_l_dash.wav",70
Sample,59696,0,"p4_drum_dirtyperc_022.wav",70
Sample,59696,0,"p4_drum_subsnare_2_001.wav",70
Sample,59696,0,"p4_drum_breaks_011.wav",70
Sample,59739,0,"p4_morse_l_dash.wav",70
Sample,59781,0,"p4_synth_acid_021.wav",70
Sample,59781,0,"p4_drum_dirtyperc_023.wav",70
Sample,59810,0,"p4_morse_r1_dash.wav",70
Sample,59824,0,"p4_morse_l_dash.wav",70
Sample,59824,0,"p4_drum_dirtyperc_024.wav",70
Sample,59866,0,"p4_drum_dirtyperc_025.wav",70
Sample,59866,0,"p4_drum_subkick_4.wav",70
Sample,59866,0,"p4_drum_breaks_012.wav",70
Sample,59866,0,"p4_synth_acid_022.wav",70
Sample,59923,0,"p4_morse_r1_dash.wav",70
Sample,59952,0,"p4_morse_l_dot.wav",70
Sample,59952,0,"p4_drum_snareshot_1_001.wav",70
Sample,59952,0,"p4_synth_acid_023.wav",70
Sample,59952,0,"p4_drum_dirtyperc_026.wav",70
Sample,59952,0,"p4_drum_breaks_013.wav",70
Sample,59994,0,"p4_drum_dirtyperc_027.wav",70
Sample,59994,0,"p4_morse_l_dash.wav",70
Sample,60037,0,"p4_morse_r1_dash.wav",70
Sample,60037,0,"p4_drum_breaks_001.wav",70
Sample,60037,0,"p4_synth_acid_024.wav",70
Sample,60037,0,"p4_drum_dirtyperc_001.wav",70
Sample,60080,0,"p4_morse_l_dot.wav",70
Sample,60122,0,"p4_synth_acid_025.wav",70
Sample,60122,0,"p4_drum_mainpercsloop_002.wav",70
Sample,60122,0,"p4_drum_dirtyperc_002.wav",70
Sample,60165,0,"p4_morse_l_dot.wav",70
Sample,60208,0,"p4_synth_acid_026.wav",70
Sample,60208,0,"p4_drum_mainpercsloop_003.wav",70
Sample,60208,0,"p4_drum_dirtyperc_003.wav",70
Sample,60208,0,"p4_morse_l_dot.wav",70
Sample,60208,0,"p4_drum_breaks_002.wav",70
Sample,60208,0,"p4_morse_r1_dot.wav",70
Sample,60264,0,"p4_morse_r1_dot.wav",70
Sample,60293,0,"p4_drum_dirtyperc_004.wav",70
Sample,60293,0,"p4_morse_l_dash.wav",70
Sample,60293,0,"p4_drum_subkick_4.wav",70
Sample,60293,0,"p4_drum_mainpercsloop_004.wav",70
Sample,60293,0,"p4_drum_breaks_003.wav",70
Sample,60293,0,"p4_synth_acid_027.wav",70
Sample,60321,0,"p4_morse_r1_dash.wav",70
Sample,60378,0,"p4_synth_acid_028.wav",70
Sample,60378,0,"p4_drum_subsnare_2_001.wav",70
Sample,60378,0,"p4_drum_dirtyperc_005.wav",70
Sample,60378,0,"p4_morse_l_dot.wav",70
Sample,60378,0,"p4_drum_breaks_004.wav",70
Sample,60421,0,"p4_morse_l_dot.wav",70
Sample,60463,0,"p4_drum_dirtyperc_006.wav",70
Sample,60463,0,"p4_morse_l_dot.wav",70
Sample,60549,0,"p4_drum_breaks_005.wav",70
Sample,60549,0,"p4_morse_l_dot.wav",70
Sample,60549,0,"p4_drum_subkick_4.wav",70
Sample,60549,0,"p4_drum_dirtyperc_007.wav",70
Sample,60591,0,"p4_morse_l_dot.wav",70
Sample,60634,0,"p4_drum_breaks_006.wav",70
Sample,60634,0,"p4_drum_dirtyperc_008.wav",70
Sample,60634,0,"p4_drum_subsnare_1_002.wav",70
Sample,60634,0,"p4_morse_l_dash.wav",70
Sample,60634,0,"p4_synth_acid_029.wav",70
Sample,60719,0,"p4_drum_breaks_007.wav",70
Sample,60719,0,"p4_drum_dirtyperc_009.wav",70
Sample,60719,0,"p4_synth_acid_030.wav",70
Sample,60719,0,"p4_morse_r1_dot.wav",70
Sample,60762,0,"p4_morse_l_dot.wav",70
Sample,60776,0,"p4_morse_r1_dash.wav",70
Sample,60805,0,"p4_drum_breaks_008.wav",70
Sample,60805,0,"p4_morse_l_dot.wav",70
Sample,60805,0,"p4_drum_dirtyperc_010.wav",70
Sample,60805,0,"p4_synth_acid_031.wav",70
Sample,60805,0,"p4_drum_subsnare_2_001.wav",70
Sample,60805,0,"p4_drum_mainkick_3.wav",70
Sample,60847,0,"p4_morse_l_dot.wav",70
Sample,60890,0,"p4_morse_r1_dot.wav",70
Sample,60890,0,"p4_drum_breaks_009.wav",70
Sample,60890,0,"p4_drum_dirtyperc_011.wav",70
Sample,60890,0,"p4_drum_mainpercsloop_010.wav",70
Sample,60975,0,"p4_drum_mainpercsloop_011.wav",70
Sample,60975,0,"p4_drum_breaks_010.wav",70
Sample,60975,0,"p4_morse_l_dot.wav",70
Sample,60975,0,"p4_drum_dirtyperc_012.wav",70
Sample,60975,0,"p4_synth_acid_032.wav",70
Sample,61004,0,"p4_morse_r1_dot.wav",70
Sample,61018,0,"p4_morse_l_dot.wav",70
Sample,61060,0,"p4_drum_subsnare_2_001.wav",70
Sample,61060,0,"p4_synth_acid_033.wav",70
Sample,61060,0,"p4_drum_breaks_011.wav",70
Sample,61060,0,"p4_morse_l_dot.wav",70
Sample,61060,0,"p4_drum_dirtyperc_013.wav",70
Sample,61117,0,"p4_morse_r1_dash.wav",70
Sample,61146,0,"p4_drum_dirtyperc_014.wav",70
Sample,61146,0,"p4_morse_l_dot.wav",70
Sample,61146,0,"p4_synth_acid_034.wav",70
Sample,61188,0,"p4_morse_l_dot.wav",70
Sample,61231,0,"p4_morse_r1_dash.wav",70
Sample,61231,0,"p4_drum_dirtyperc_015.wav",70
Sample,61231,0,"p4_morse_l_dash.wav",70
Sample,61231,0,"p4_drum_breaks_012.wav",70
Sample,61316,0,"p4_drum_dirtyperc_016.wav",70
Sample,61316,0,"p4_drum_breaks_013.wav",70
Sample,61316,0,"p4_drum_subkick_4.wav",70
Sample,61316,0,"p4_synth_acid_035.wav",70
Sample,61359,0,"p4_morse_l_dot.wav",70
Sample,61402,0,"p4_drum_dirtyperc_001.wav",70
Sample,61402,0,"p4_morse_l_dot.wav",70
Sample,61402,0,"p4_drum_breaks_001.wav",70
Sample,61402,0,"p4_morse_r1_dot.wav",70
Sample,61487,0,"p4_drum_dirtyperc_002.wav",70
Sample,61487,0,"p4_morse_l_dot.wav",70
Sample,61487,0,"p4_drum_mainpercsloop_002.wav",70
Sample,61515,0,"p4_morse_r1_dash.wav",70
Sample,61529,0,"p4_morse_l_dot.wav",70
Sample,61572,0,"p4_synth_acid_036.wav",70
Sample,61572,0,"p4_drum_breaks_002.wav",70
Sample,61572,0,"p4_drum_mainpercsloop_003.wav",70
Sample,61572,0,"p4_morse_l_dot.wav",70
Sample,61572,0,"p4_drum_dirtyperc_003.wav",70
Sample,61629,0,"p4_morse_r1_dash.wav",70
Sample,61657,0,"p4_synth_acid_037.wav",70
Sample,61657,0,"p4_drum_subkick_4.wav",70
Sample,61657,0,"p4_drum_breaks_003.wav",70
Sample,61657,0,"p4_drum_mainpercsloop_004.wav",70
Sample,61657,0,"p4_drum_dirtyperc_004.wav",70
Sample,61700,0,"p4_morse_l_dot.wav",70
Sample,61743,0,"p4_synth_acid_038.wav",70
Sample,61743,0,"p4_drum_subsnare_2_001.wav",70
Sample,61743,0,"p4_drum_dirtyperc_005.wav",70
Sample,61743,0,"p4_drum_breaks_004.wav",70
Sample,61785,0,"p4_morse_l_dash.wav",70
Sample,61799,0,"p4_morse_r1_dash.wav",70
Sample,61828,0,"p4_drum_dirtyperc_006.wav",70
Sample,61828,0,"p4_synth_acid_039.wav",70
Sample,61913,0,"p4_morse_r1_dot.wav",70
Sample,61913,0,"p4_drum_breaks_005.wav",70
Sample,61913,0,"p4_drum_dirtyperc_007.wav",70
Sample,61913,0,"p4_synth_acid_040.wav",70
Sample,61956,0,"p4_morse_l_dash.wav",70
Sample,61970,0,"p4_morse_r1_dot.wav",70
Sample,61998,0,"p4_drum_dirtyperc_008.wav",70
Sample,61998,0,"p4_drum_breaks_006.wav",70
Sample,62027,0,"p4_morse_r1_dot.wav",70
Sample,62041,0,"p4_morse_l_dash.wav",70
Sample,62084,0,"p4_drum_breaks_007.wav",70
Sample,62084,0,"p4_drum_dirtyperc_018.wav",70
Sample,62126,0,"p4_morse_l_dash.wav",70
Sample,62141,0,"p4_morse_r1_dot.wav",70
Sample,62169,0,"p4_drum_mainkick_3.wav",70
Sample,62169,0,"p4_synth_acid_041.wav",70
Sample,62169,0,"p4_drum_breaks_008.wav",70
Sample,62169,0,"p4_drum_subsnare_2_001.wav",70
Sample,62169,0,"p4_drum_dirtyperc_019.wav",70
Sample,62254,0,"p4_drum_dirtyperc_020.wav",70
Sample,62254,0,"p4_morse_l_dot.wav",70
Sample,62254,0,"p4_synth_acid_042.wav",70
Sample,62254,0,"p4_drum_breaks_009.wav",70
Sample,62254,0,"p4_drum_mainpercsloop_010.wav",70
Sample,62254,0,"p4_morse_r1_dot.wav",70
Sample,62297,0,"p4_morse_l_dash.wav",70
Sample,62311,0,"p4_morse_r1_dash.wav",70
Sample,62340,0,"p4_drum_breaks_010.wav",70
Sample,62340,0,"p4_drum_dirtyperc_021.wav",70
Sample,62340,0,"p4_drum_subkick_4.wav",70
Sample,62340,0,"p4_synth_acid_043.wav",70
Sample,62340,0,"p4_synth_weapon_155.wav",70
Sample,62382,0,"p4_morse_l_dash.wav",70
Sample,62425,0,"p4_drum_breaks_011.wav",70
Sample,62425,0,"p4_synth_weapon_156.wav",70
Sample,62425,0,"p4_drum_subsnare_2_001.wav",70
Sample,62425,0,"p4_morse_r1_dot.wav",70
Sample,62425,0,"p4_drum_dirtyperc_022.wav",70
Sample,62468,0,"p4_morse_l_dot.wav",70
Sample,62510,0,"p4_drum_dirtyperc_023.wav",70
Sample,62510,0,"p4_synth_acid_044.wav",70
Sample,62510,0,"p4_synth_weapon_157.wav",70
Sample,62553,0,"p4_morse_l_dot.wav",70
Sample,62553,0,"p4_drum_dirtyperc_024.wav",70
Sample,62595,0,"p4_drum_breaks_012.wav",70
Sample,62595,0,"p4_drum_dirtyperc_025.wav",70
Sample,62595,0,"p4_synth_acid_045.wav",70
Sample,62595,0,"p4_synth_weapon_158.wav",70
Sample,62638,0,"p4_morse_l_dot.wav",70
Sample,62681,0,"p4_drum_dirtyperc_026.wav",70
Sample,62681,0,"p4_synth_acid_046.wav",70
Sample,62681,0,"p4_morse_l_dash.wav",70
Sample,62681,0,"p4_drum_mainpercsloop_008.wav",70
Sample,62681,0,"p4_drum_snareshot_2_001.wav",70
Sample,62681,0,"p4_drum_breaks_013.wav",70
Sample,62681,0,"p4_synth_weapon_159.wav",70
Sample,62723,0,"p4_drum_dirtyperc_027.wav",70
Sample,62766,0,"p4_synth_acid_047.wav",70
Sample,62766,0,"p4_drum_breaks_001.wav",70
Sample,62766,0,"p4_morse_r1_dot.wav",70
Sample,62766,0,"p4_drum_dirtyperc_001.wav",70
Sample,62766,0,"p4_morse_l_dot.wav",70
Sample,62766,0,"p4_drum_mainkick_2.wav",70
Sample,62823,0,"p4_morse_r1_dash.wav",70
Sample,62851,0,"p4_synth_acid_048.wav",70
Sample,62851,0,"p4_morse_l_dot.wav",70
Sample,62851,0,"p4_drum_dirtyperc_002.wav",70
Sample,62851,0,"p4_drum_mainpercsloop_002.wav",70
Sample,62894,0,"p4_morse_l_dash.wav",70
Sample,62937,0,"p4_drum_mainpercsloop_003.wav",70
Sample,62937,0,"p4_drum_breaks_002.wav",70
Sample,62937,0,"p4_drum_dirtyperc_003.wav",70
Sample,62937,0,"p4_synth_acid_049.wav",70
Sample,62937,0,"p4_morse_r1_dash.wav",70
Sample,63022,0,"p4_drum_mainpercsloop_004.wav",70
Sample,63022,0,"p4_drum_dirtyperc_004.wav",70
Sample,63022,0,"p4_drum_breaks_003.wav",70
Sample,63022,0,"p4_synth_acid_050.wav",70
Sample,63064,0,"p4_morse_l_dot.wav",70
Sample,63107,0,"p4_morse_l_dot.wav",70
Sample,63107,0,"p4_drum_dirtyperc_005.wav",70
Sample,63107,0,"p4_drum_subsnare_2_001.wav",70
Sample,63107,0,"p4_synth_acid_051.wav",70
Sample,63107,0,"p4_drum_breaks_004.wav",70
Sample,63107,0,"p4_morse_r1_dot.wav",70
Sample,63164,0,"p4_morse_r1_dot.wav",70
Sample,63192,0,"p4_morse_l_dot.wav",70
Sample,63192,0,"p4_drum_dirtyperc_006.wav",70
Sample,63221,0,"p4_morse_r1_dot.wav",70
Sample,63235,0,"p4_morse_l_dash.wav",70
Sample,63278,0,"p4_morse_r1_dot.wav",70
Sample,63278,0,"p4_drum_breaks_005.wav",70
Sample,63278,0,"p4_drum_dirtyperc_007.wav",70
Sample,63320,0,"p4_morse_l_dot.wav",70
Sample,63363,0,"p4_drum_dirtyperc_008.wav",70
Sample,63363,0,"p4_morse_l_dot.wav",70
Sample,63363,0,"p4_drum_breaks_006.wav",70
Sample,63363,0,"p4_drum_subsnare_1_002.wav",70
Sample,63363,0,"p4_synth_acid_052.wav",70
Sample,63391,0,"p4_morse_r1_dot.wav",70
Sample,63448,0,"p4_synth_acid_053.wav",70
Sample,63448,0,"p4_drum_breaks_007.wav",70
Sample,63448,0,"p4_drum_dirtyperc_009.wav",70
Sample,63448,0,"p4_morse_r1_dash.wav",70
Sample,63448,0,"p4_morse_l_dot.wav",70
Sample,63491,0,"p4_morse_l_dash.wav",70
Sample,63534,0,"p4_synth_acid_054.wav",70
Sample,63534,0,"p4_drum_dirtyperc_010.wav",70
Sample,63534,0,"p4_drum_breaks_008.wav",70
Sample,63534,0,"p4_drum_subsnare_2_001.wav",70
Sample,63576,0,"p4_morse_l_dot.wav",70
Sample,63619,0,"p4_drum_mainpercsloop_010.wav",70
Sample,63619,0,"p4_morse_l_dot.wav",70
Sample,63619,0,"p4_drum_breaks_009.wav",70
Sample,63619,0,"p4_morse_r1_dash.wav",70
Sample,63619,0,"p4_drum_dirtyperc_011.wav",70
Sample,63704,0,"p4_drum_dirtyperc_012.wav",70
Sample,63704,0,"p4_drum_mainpercsloop_011.wav",70
Sample,63704,0,"p4_drum_breaks_010.wav",70
Sample,63704,0,"p4_morse_l_dash.wav",70
Sample,63704,0,"p4_synth_acid_055.wav",70
Sample,63789,0,"p4_drum_dirtyperc_013.wav",70
Sample,63789,0,"p4_synth_acid_056.wav",70
Sample,63789,0,"p4_morse_l_dash.wav",70
Sample,63789,0,"p4_drum_breaks_011.wav",70
Sample,63789,0,"p4_drum_subsnare_2_001.wav",70
Sample,63875,0,"p4_synth_acid_057.wav",70
Sample,63875,0,"p4_drum_dirtyperc_014.wav",70
Sample,63875,0,"p4_morse_l_dash.wav",70
Sample,63960,0,"p4_drum_breaks_012.wav",70
Sample,63960,0,"p4_drum_dirtyperc_015.wav",70
Sample,64003,0,"p4_morse_l_dot.wav",70
Sample,64045,0,"p4_synth_acid_058.wav",70
Sample,64045,0,"p4_drum_dirtyperc_016.wav",70
Sample,64045,0,"p4_drum_breaks_013.wav",70
Sample,64045,0,"p4_drum_subkick_4.wav",70
Sample,64045,0,"p4_morse_l_dash.wav",70
Sample,64130,0,"p4_synth_acid_059.wav",70
Sample,64130,0,"p4_drum_breaks_001.wav",70
Sample,64130,0,"p4_drum_mainkick_2.wav",70
Sample,64130,0,"p4_drum_dirtyperc_001.wav",70
Sample,64130,0,"p4_morse_l_dot.wav",70
Sample,64130,0,"p4_morse_r1_dash.wav",70
Sample,64216,0,"p4_synth_acid_060.wav",70
Sample,64216,0,"p4_morse_l_dot.wav",70
Sample,64216,0,"p4_drum_dirtyperc_002.wav",70
Sample,64216,0,"p4_drum_mainpercsloop_002.wav",70
Sample,64244,0,"p4_morse_r1_dot.wav",70
Sample,64258,0,"p4_morse_l_dot.wav",70
Sample,64301,0,"p4_drum_mainpercsloop_003.wav",70
Sample,64301,0,"p4_morse_l_dash.wav",70
Sample,64301,0,"p4_synth_acid_061.wav",70
Sample,64301,0,"p4_drum_breaks_002.wav",70
Sample,64301,0,"p4_drum_dirtyperc_003.wav",70
Sample,64301,0,"p4_morse_r1_dot.wav",70
Sample,64386,0,"p4_drum_mainpercsloop_004.wav",70
Sample,64386,0,"p4_drum_subkick_4.wav",70
Sample,64386,0,"p4_synth_acid_062.wav",70
Sample,64386,0,"p4_drum_dirtyperc_004.wav",70
Sample,64386,0,"p4_drum_breaks_003.wav",70
Sample,64415,0,"p4_morse_r1_dash.wav",70
Sample,64429,0,"p4_morse_l_dash.wav",70
Sample,64472,0,"p4_drum_oddsnare_001.wav",70
Sample,64472,0,"p4_drum_dirtyperc_005.wav",70
Sample,64472,0,"p4_drum_subsnare_2_001.wav",70
Sample,64472,0,"p4_synth_acid_063.wav",70
Sample,64472,0,"p4_drum_breaks_004.wav",70
Sample,64514,0,"p4_morse_l_dash.wav",70
Sample,64528,0,"p4_morse_r1_dash.wav",70
Sample,64557,0,"p4_drum_dirtyperc_006.wav",70
Sample,64642,0,"p4_drum_breaks_005.wav",70
Sample,64642,0,"p4_drum_subkick_4.wav",70
Sample,64642,0,"p4_drum_dirtyperc_007.wav",70
Sample,64642,0,"p4_morse_r1_dash.wav",70
Sample,64685,0,"p4_morse_l_dot.wav",70
Sample,64727,0,"p4_drum_subsnare_1_002.wav",70
Sample,64727,0,"p4_synth_acid_064.wav",70
Sample,64727,0,"p4_drum_breaks_006.wav",70
Sample,64727,0,"p4_morse_l_dot.wav",70
Sample,64727,0,"p4_drum_dirtyperc_008.wav",70
Sample,64770,0,"p4_morse_l_dot.wav",70
Sample,64813,0,"p4_drum_dirtyperc_018.wav",70
Sample,64813,0,"p4_synth_acid_065.wav",70
Sample,64813,0,"p4_drum_breaks_007.wav",70
Sample,64813,0,"p4_morse_r1_dash.wav",70
Sample,64855,0,"p4_morse_l_dot.wav",70
Sample,64898,0,"p4_drum_subsnare_2_001.wav",70
Sample,64898,0,"p4_synth_acid_066.wav",70
Sample,64898,0,"p4_drum_dirtyperc_019.wav",70
Sample,64898,0,"p4_drum_breaks_008.wav",70
Sample,64926,0,"p4_morse_r1_dot.wav",70
Sample,64941,0,"p4_morse_l_dash.wav",70
Sample,64983,0,"p4_morse_r1_dash.wav",70
Sample,64983,0,"p4_drum_mainkick_3.wav",70
Sample,64983,0,"p4_drum_dirtyperc_020.wav",70
Sample,64983,0,"p4_drum_breaks_009.wav",70
Sample,65026,0,"p4_morse_l_dash.wav",70
Sample,65069,0,"p4_drum_breaks_010.wav",70
Sample,65069,0,"p4_drum_mainpercsloop_010.wav",70
Sample,65069,0,"p4_synth_acid_067.wav",70
Sample,65069,0,"p4_drum_dirtyperc_021.wav",70
Sample,65097,0,"p4_morse_r1_dash.wav",70
Sample,65111,0,"p4_morse_l_dot.wav",70
Sample,65154,0,"p4_drum_subsnare_2_001.wav",70
Sample,65154,0,"p4_synth_acid_068.wav",70
Sample,65154,0,"p4_drum_dirtyperc_022.wav",70
Sample,65154,0,"p4_morse_l_dash.wav",70
Sample,65154,0,"p4_drum_breaks_011.wav",70
Sample,65154,0,"p4_synth_weapon_169.wav",70
Sample,65196,0,"p4_synth_weapon_170.wav",70
Sample,65239,0,"p4_synth_weapon_171.wav",70
Sample,65239,0,"p4_synth_acid_069.wav",70
Sample,65239,0,"p4_drum_dirtyperc_023.wav",70
Sample,65268,0,"p4_morse_r1_dash.wav",70
Sample,65282,0,"p4_drum_dirtyperc_024.wav",70
Sample,65282,0,"p4_synth_weapon_172.wav",70
Sample,65282,0,"p4_morse_l_dot.wav",70
Sample,65317,0,"p4_synth_weapon_173.wav",70
Sample,65324,0,"p4_drum_breaks_012.wav",70
Sample,65324,0,"p4_morse_l_dot.wav",70
Sample,65324,0,"p4_drum_dirtyperc_025.wav",70
Sample,65324,0,"p4_drum_subkick_4.wav",70
Sample,65367,0,"p4_morse_l_dash.wav",70
Sample,65381,0,"p4_morse_r1_dash.wav",70
Sample,65403,0,"p4_synth_weapon_174.wav",70
Sample,65410,0,"p4_drum_dirtyperc_026.wav",70
Sample,65410,0,"p4_drum_snareshot_1_001.wav",70
Sample,65410,0,"p4_drum_breaks_013.wav",70
Sample,65410,0,"p4_synth_acid_070.wav",70
Sample,65452,0,"p4_drum_dirtyperc_027.wav",70
Sample,65495,0,"p4_drum_breaks_001.wav",70
Sample,65495,0,"p4_synth_acid_071.wav",70
Sample,65495,0,"p4_morse_r1_dash.wav",70
Sample,65495,0,"p4_morse_l_dot.wav",70
Sample,65495,0,"p4_drum_dirtyperc_001.wav",70
Sample,65495,0,"p4_drum_mainkick_2.wav",70
Sample,65580,0,"p4_drum_mainpercsloop_002.wav",70
Sample,65580,0,"p4_drum_dirtyperc_002.wav",70
Sample,65580,0,"p4_morse_l_dash.wav",70
Sample,65580,0,"p4_synth_acid_072.wav",70
Sample,65666,0,"p4_synth_acid_073.wav",70
Sample,65666,0,"p4_drum_mainpercsloop_003.wav",70
Sample,65666,0,"p4_drum_breaks_002.wav",70
Sample,65666,0,"p4_morse_l_dot.wav",70
Sample,65666,0,"p4_drum_dirtyperc_003.wav",70
Sample,65666,0,"p4_morse_r1_dot.wav",70
Sample,65722,0,"p4_morse_r1_dot.wav",70
Sample,65751,0,"p4_drum_breaks_003.wav",70
Sample,65751,0,"p4_drum_subkick_4.wav",70
Sample,65751,0,"p4_synth_acid_074.wav",70
Sample,65751,0,"p4_morse_l_dash.wav",70
Sample,65751,0,"p4_drum_dirtyperc_004.wav",70
Sample,65751,0,"p4_drum_mainpercsloop_004.wav",70
Sample,65779,0,"p4_morse_r1_dash.wav",70
Sample,65836,0,"p4_drum_oddsnare_001.wav",70
Sample,65836,0,"p4_drum_subsnare_2_001.wav",70
Sample,65836,0,"p4_drum_breaks_004.wav",70
Sample,65836,0,"p4_drum_dirtyperc_005.wav",70
Sample,65836,0,"p4_synth_acid_075.wav",70
Sample,65879,0,"p4_morse_l_dot.wav",70
Sample,65921,0,"p4_morse_l_dot.wav",70
Sample,65921,0,"p4_drum_dirtyperc_006.wav",70
Sample,65964,0,"p4_morse_l_dash.wav",70
Sample,66007,0,"p4_drum_breaks_005.wav",70
Sample,66007,0,"p4_drum_subkick_4.wav",70
Sample,66007,0,"p4_drum_dirtyperc_007.wav",70
Sample,66092,0,"p4_synth_acid_076.wav",70
Sample,66092,0,"p4_drum_subsnare_1_002.wav",70
Sample,66092,0,"p4_morse_l_dot.wav",70
Sample,66092,0,"p4_drum_breaks_006.wav",70
Sample,66092,0,"p4_drum_dirtyperc_008.wav",70
Sample,66135,0,"p4_morse_l_dot.wav",70
Sample,66177,0,"p4_drum_dirtyperc_009.wav",70
Sample,66177,0,"p4_synth_acid_077.wav",70
Sample,66177,0,"p4_morse_l_dash.wav",70
Sample,66177,0,"p4_morse_r1_dot.wav",70
Sample,66177,0,"p4_drum_breaks_007.wav",70
Sample,66234,0,"p4_morse_r1_dash.wav",70
Sample,66263,0,"p4_drum_mainkick_3.wav",70
Sample,66263,0,"p4_drum_breaks_008.wav",70
Sample,66263,0,"p4_drum_subsnare_2_001.wav",70
Sample,66263,0,"p4_drum_dirtyperc_010.wav",70
Sample,66263,0,"p4_synth_acid_078.wav",70
Sample,66305,0,"p4_morse_l_dot.wav",70
Sample,66348,0,"p4_morse_l_dash.wav",70
Sample,66348,0,"p4_drum_mainpercsloop_010.wav",70
Sample,66348,0,"p4_drum_dirtyperc_011.wav",70
Sample,66348,0,"p4_morse_r1_dot.wav",70
Sample,66348,0,"p4_drum_breaks_009.wav",70
Sample,66405,0,"p4_morse_r1_dot.wav",70
Sample,66433,0,"p4_morse_l_dot.wav",70
Sample,66433,0,"p4_drum_breaks_010.wav",70
Sample,66433,0,"p4_synth_acid_079.wav",70
Sample,66433,0,"p4_drum_dirtyperc_012.wav",70
Sample,66433,0,"p4_drum_mainpercsloop_011.wav",70
Sample,66518,0,"p4_drum_dirtyperc_013.wav",70
Sample,66518,0,"p4_drum_oddsnare_001.wav",70
Sample,66518,0,"p4_morse_r1_dash.wav",70
Sample,66518,0,"p4_drum_subsnare_2_001.wav",70
Sample,66518,0,"p4_drum_breaks_011.wav",70
Sample,66518,0,"p4_synth_acid_080.wav",70
Sample,66561,0,"p4_morse_l_dot.wav",70
Sample,66604,0,"p4_morse_l_dot.wav",70
Sample,66604,0,"p4_drum_dirtyperc_014.wav",70
Sample,66604,0,"p4_synth_acid_081.wav",70
Sample,66632,0,"p4_morse_r1_dash.wav",70
Sample,66689,0,"p4_drum_dirtyperc_015.wav",70
Sample,66689,0,"p4_morse_l_dot.wav",70
Sample,66689,0,"p4_drum_breaks_012.wav",70
Sample,66732,0,"p4_morse_l_dash.wav",70
Sample,66746,0,"p4_morse_r1_dash.wav",70
Sample,66774,0,"p4_drum_subkick_4.wav",70
Sample,66774,0,"p4_drum_dirtyperc_016.wav",70
Sample,66774,0,"p4_drum_breaks_013.wav",70
Sample,66774,0,"p4_synth_acid_082.wav",70
Sample,66817,0,"p4_morse_l_dash.wav",70
Sample,66859,0,"p4_synth_acid_083.wav",70
Sample,66859,0,"p4_drum_breaks_001.wav",70
Sample,66859,0,"p4_drum_dirtyperc_001.wav",70
Sample,66902,0,"p4_morse_l_dot.wav",70
Sample,66916,0,"p4_morse_r1_dot.wav",70
Sample,66945,0,"p4_drum_dirtyperc_002.wav",70
Sample,66945,0,"p4_synth_acid_084.wav",70
Sample,66945,0,"p4_drum_mainpercsloop_002.wav",70
Sample,66973,0,"p4_morse_r1_dot.wav",70
Sample,66987,0,"p4_morse_l_dot.wav",70
Sample,67030,0,"p4_drum_breaks_002.wav",70
Sample,67030,0,"p4_drum_mainpercsloop_003.wav",70
Sample,67030,0,"p4_morse_l_dot.wav",70
Sample,67030,0,"p4_synth_acid_085.wav",70
Sample,67030,0,"p4_drum_dirtyperc_003.wav",70
Sample,67030,0,"p4_morse_r1_dot.wav",70
Sample,67073,0,"p4_morse_l_dot.wav",70
Sample,67087,0,"p4_morse_r1_dash.wav",70
Sample,67115,0,"p4_synth_acid_086.wav",70
Sample,67115,0,"p4_drum_dirtyperc_004.wav",70
Sample,67115,0,"p4_drum_mainpercsloop_004.wav",70
Sample,67115,0,"p4_drum_breaks_003.wav",70
Sample,67158,0,"p4_morse_l_dash.wav",70
Sample,67201,0,"p4_drum_oddsnare_001.wav",70
Sample,67201,0,"p4_drum_breaks_004.wav",70
Sample,67201,0,"p4_drum_subsnare_2_001.wav",70
Sample,67201,0,"p4_synth_acid_087.wav",70
Sample,67201,0,"p4_drum_dirtyperc_005.wav",70
Sample,67243,0,"p4_morse_l_dash.wav",70
Sample,67257,0,"p4_morse_r1_dot.wav",70
Sample,67286,0,"p4_drum_dirtyperc_006.wav",70
Sample,67329,0,"p4_morse_l_dash.wav",70
Sample,67371,0,"p4_drum_breaks_005.wav",70
Sample,67371,0,"p4_drum_dirtyperc_007.wav",70
Sample,67456,0,"p4_drum_breaks_006.wav",70
Sample,67456,0,"p4_drum_dirtyperc_008.wav",70
Sample,67456,0,"p4_morse_l_dot.wav",70
Sample,67456,0,"p4_synth_acid_088.wav",70
Sample,67499,0,"p4_morse_l_dot.wav",70
Sample,67542,0,"p4_synth_granular_018.wav",70
Sample,67542,0,"p4_morse_l_dot.wav",70
Sample,67627,0,"p4_synth_granular_019.wav",70
Sample,67712,0,"p4_synth_granular_020.wav",70
Sample,67798,0,"p4_synth_granular_021.wav",70
Sample,67883,0,"p4_synth_granular_022.wav",70
Sample,67968,0,"p4_synth_granular_023.wav",70
Sample,68053,0,"p4_synth_granular_024.wav",70
Sample,68139,0,"p4_synth_granular_025.wav",70
Sample,68224,0,"p4_synth_seq_001.wav",70
Sample,68224,0,"p4_morse_l_dash.wav",70
Sample,68224,0,"p4_synth_weapon_186.wav",70
Sample,68224,0,"p4_morse_r2_dash.wav",70
Sample,68309,0,"p4_morse_l_dot.wav",70
Sample,68309,0,"p4_synth_seq_002.wav",70
Sample,68309,0,"p4_drum_mainpercsloop_002.wav",70
Sample,68352,0,"p4_morse_l_dot.wav",70
Sample,68395,0,"p4_morse_l_dot.wav",70
Sample,68395,0,"p4_synth_seq_003.wav",70
Sample,68395,0,"p4_drum_dirtyperc_003.wav",70
Sample,68395,0,"p4_drum_breaks_002.wav",70
Sample,68395,0,"p4_drum_mainpercsloop_003.wav",70
Sample,68395,0,"p4_morse_r2_dash.wav",70
Sample,68480,0,"p4_synth_seq_004.wav",70
Sample,68480,0,"p4_drum_dirtyperc_004.wav",70
Sample,68480,0,"p4_morse_l_dot.wav",70
Sample,68480,0,"p4_drum_mainpercsloop_004.wav",70
Sample,68480,0,"p4_drum_breaks_003.wav",70
Sample,68522,0,"p4_synth_weapon_187.wav",70
Sample,68565,0,"p4_drum_breaks_004.wav",70
Sample,68565,0,"p4_drum_subsnare_2_001.wav",70
Sample,68565,0,"p4_morse_r2_dot.wav",70
Sample,68565,0,"p4_synth_seq_005.wav",70
Sample,68565,0,"p4_drum_dirtyperc_005.wav",70
Sample,68565,0,"p4_morse_l_dot.wav",70
Sample,68608,0,"p4_morse_l_dash.wav",70
Sample,68650,0,"p4_drum_dirtyperc_006.wav",70
Sample,68650,0,"p4_morse_r2_dash.wav",70
Sample,68650,0,"p4_synth_seq_006.wav",70
Sample,68736,0,"p4_morse_l_dash.wav",70
Sample,68736,0,"p4_synth_weapon_188.wav",70
Sample,68736,0,"p4_drum_dirtyperc_007.wav",70
Sample,68736,0,"p4_synth_seq_007.wav",70
Sample,68736,0,"p4_drum_mainsnare_002.wav",70
Sample,68736,0,"p4_drum_breaks_005.wav",70
Sample,68821,0,"p4_drum_subsnare_1_002.wav",70
Sample,68821,0,"p4_synth_seq_008.wav",70
Sample,68821,0,"p4_drum_dirtyperc_008.wav",70
Sample,68821,0,"p4_morse_r2_dash.wav",70
Sample,68821,0,"p4_drum_breaks_006.wav",70
Sample,68864,0,"p4_morse_l_dot.wav",70
Sample,68906,0,"p4_synth_seq_009.wav",70
Sample,68906,0,"p4_synth_weapon_189.wav",70
Sample,68906,0,"p4_morse_l_dot.wav",70
Sample,68906,0,"p4_drum_dirtyperc_009.wav",70
Sample,68906,0,"p4_drum_breaks_007.wav",70
Sample,68991,0,"p4_synth_weapon_190.wav",70
Sample,68991,0,"p4_synth_seq_010.wav",70
Sample,68991,0,"p4_drum_subsnare_2_001.wav",70
Sample,68991,0,"p4_drum_dirtyperc_010.wav",70
Sample,68991,0,"p4_drum_breaks_008.wav",70
Sample,69034,0,"p4_morse_l_dash.wav",70
Sample,69077,0,"p4_synth_seq_011.wav",70
Sample,69077,0,"p4_drum_mainpercsloop_010.wav",70
Sample,69077,0,"p4_drum_dirtyperc_011.wav",70
Sample,69077,0,"p4_morse_r2_dash.wav",70
Sample,69077,0,"p4_drum_breaks_009.wav",70
Sample,69119,0,"p4_morse_l_dash.wav",70
Sample,69162,0,"p4_drum_mainpercsloop_011.wav",70
Sample,69162,0,"p4_drum_dirtyperc_012.wav",70
Sample,69162,0,"p4_synth_seq_012.wav",70
Sample,69162,0,"p4_drum_breaks_010.wav",70
Sample,69162,0,"p4_synth_weapon_191.wav",70
Sample,69247,0,"p4_synth_seq_013.wav",70
Sample,69247,0,"p4_drum_subsnare_2_001.wav",70
Sample,69247,0,"p4_morse_r2_dash.wav",70
Sample,69247,0,"p4_morse_l_dash.wav",70
Sample,69247,0,"p4_drum_dirtyperc_013.wav",70
Sample,69247,0,"p4_drum_breaks_011.wav",70
Sample,69247,0,"p4_synth_weapon_192.wav",70
Sample,69333,0,"p4_synth_seq_014.wav",70
Sample,69333,0,"p4_drum_dirtyperc_014.wav",70
Sample,69333,0,"p4_morse_l_dash.wav",70
Sample,69418,0,"p4_drum_dirtyperc_015.wav",70
Sample,69418,0,"p4_synth_seq_015.wav",70
Sample,69418,0,"p4_drum_mainsnare_002.wav",70
Sample,69418,0,"p4_synth_weapon_193.wav",70
Sample,69418,0,"p4_drum_breaks_012.wav",70
Sample,69418,0,"p4_morse_l_dash.wav",70
Sample,69418,0,"p4_morse_r2_dash.wav",70
Sample,69503,0,"p4_synth_seq_016.wav",70
Sample,69503,0,"p4_drum_breaks_013.wav",70
Sample,69503,0,"p4_drum_dirtyperc_016.wav",70
Sample,69546,0,"p4_morse_l_dot.wav",70
Sample,69588,0,"p4_morse_l_dash.wav",70
Sample,69588,0,"p4_drum_dirtyperc_001.wav",70
Sample,69588,0,"p4_synth_seq_001.wav",70
Sample,69588,0,"p4_drum_breaks_001.wav",70
Sample,69674,0,"p4_drum_mainpercsloop_002.wav",70
Sample,69674,0,"p4_morse_l_dot.wav",70
Sample,69674,0,"p4_drum_dirtyperc_002.wav",70
Sample,69674,0,"p4_morse_r2_dash.wav",70
Sample,69674,0,"p4_synth_seq_002.wav",70
Sample,69759,0,"p4_synth_seq_003.wav",70
Sample,69759,0,"p4_synth_weapon_194.wav",70
Sample,69759,0,"p4_drum_breaks_002.wav",70
Sample,69759,0,"p4_morse_l_dash.wav",70
Sample,69759,0,"p4_drum_dirtyperc_003.wav",70
Sample,69759,0,"p4_drum_mainpercsloop_003.wav",70
Sample,69844,0,"p4_synth_seq_004.wav",70
Sample,69844,0,"p4_drum_breaks_003.wav",70
Sample,69844,0,"p4_drum_dirtyperc_004.wav",70
Sample,69844,0,"p4_morse_r2_dot.wav",70
Sample,69844,0,"p4_drum_mainpercsloop_004.wav",70
Sample,69887,0,"p4_morse_l_dot.wav",70
Sample,69930,0,"p4_synth_seq_005.wav",70
Sample,69930,0,"p4_synth_weapon_195.wav",70
Sample,69930,0,"p4_morse_l_dot.wav",70
Sample,69930,0,"p4_drum_breaks_004.wav",70
Sample,69930,0,"p4_drum_subsnare_2_001.wav",70
Sample,69930,0,"p4_drum_dirtyperc_005.wav",70
Sample,69930,0,"p4_morse_r2_dot.wav",70
Sample,69972,0,"p4_morse_l_dash.wav",70
Sample,70015,0,"p4_morse_r2_dot.wav",70
Sample,70015,0,"p4_drum_dirtyperc_006.wav",70
Sample,70015,0,"p4_synth_seq_006.wav",70
Sample,70100,0,"p4_drum_breaks_005.wav",70
Sample,70100,0,"p4_drum_dirtyperc_007.wav",70
Sample,70100,0,"p4_synth_seq_007.wav",70
Sample,70100,0,"p4_morse_l_dot.wav",70
Sample,70143,0,"p4_morse_l_dot.wav",70
Sample,70185,0,"p4_drum_subsnare_1_002.wav",70
Sample,70185,0,"p4_drum_breaks_006.wav",70
Sample,70185,0,"p4_synth_seq_008.wav",70
Sample,70185,0,"p4_drum_dirtyperc_008.wav",70
Sample,70185,0,"p4_morse_r2_dot.wav",70
Sample,70271,0,"p4_synth_seq_009.wav",70
Sample,70271,0,"p4_drum_breaks_007.wav",70
Sample,70271,0,"p4_morse_r2_dot.wav",70
Sample,70271,0,"p4_drum_dirtyperc_018.wav",70
Sample,70271,0,"p4_morse_l_dot.wav",70
Sample,70271,0,"p4_synth_weapon_196.wav",70
Sample,70313,0,"p4_morse_l_dot.wav",70
Sample,70356,0,"p4_drum_dirtyperc_019.wav",70
Sample,70356,0,"p4_synth_weapon_197.wav",70
Sample,70356,0,"p4_drum_subsnare_2_001.wav",70
Sample,70356,0,"p4_drum_breaks_008.wav",70
Sample,70356,0,"p4_synth_seq_010.wav",70
Sample,70399,0,"p4_morse_l_dash.wav",70
Sample,70441,0,"p4_morse_r2_dot.wav",70
Sample,70441,0,"p4_drum_dirtyperc_020.wav",70
Sample,70441,0,"p4_synth_seq_011.wav",70
Sample,70441,0,"p4_drum_breaks_009.wav",70
Sample,70484,0,"p4_morse_l_dot.wav",70
Sample,70527,0,"p4_drum_dirtyperc_021.wav",70
Sample,70527,0,"p4_synth_seq_012.wav",70
Sample,70527,0,"p4_morse_r2_dash.wav",70
Sample,70527,0,"p4_synth_weapon_198.wav",70
Sample,70527,0,"p4_drum_breaks_010.wav",70
Sample,70527,0,"p4_drum_mainpercsloop_010.wav",70
Sample,70612,0,"p4_drum_dirtyperc_022.wav",70
Sample,70612,0,"p4_synth_weapon_199.wav",70
Sample,70612,0,"p4_morse_l_dash.wav",70
Sample,70612,0,"p4_drum_breaks_011.wav",70
Sample,70612,0,"p4_synth_seq_018.wav",70
Sample,70612,0,"p4_drum_subsnare_2_001.wav",70
Sample,70697,0,"p4_synth_seq_019.wav",70
Sample,70697,0,"p4_morse_l_dot.wav",70
Sample,70697,0,"p4_drum_dirtyperc_023.wav",70
Sample,70740,0,"p4_morse_l_dot.wav",70
Sample,70740,0,"p4_drum_dirtyperc_024.wav",70
Sample,70782,0,"p4_synth_weapon_200.wav",70
Sample,70782,0,"p4_synth_seq_020.wav",70
Sample,70782,0,"p4_drum_mainsnare_002.wav",70
Sample,70782,0,"p4_drum_dirtyperc_025.wav",70
Sample,70782,0,"p4_drum_breaks_012.wav",70
Sample,70782,0,"p4_morse_r2_dot.wav",70
Sample,70825,0,"p4_morse_l_dash.wav",70
Sample,70868,0,"p4_synth_seq_021.wav",70
Sample,70868,0,"p4_drum_snareshot_1_001.wav",70
Sample,70868,0,"p4_drum_breaks_013.wav",70
Sample,70868,0,"p4_drum_dirtyperc_026.wav",70
Sample,70868,0,"p4_morse_r2_dot.wav",70
Sample,70910,0,"p4_morse_l_dash.wav",70
Sample,70910,0,"p4_drum_dirtyperc_027.wav",70
Sample,70953,0,"p4_synth_seq_022.wav",70
Sample,70953,0,"p4_synth_weapon_201.wav",70
Sample,70953,0,"p4_drum_breaks_001.wav",70
Sample,70953,0,"p4_drum_dirtyperc_001.wav",70
Sample,70953,0,"p4_morse_r2_dash.wav",70
Sample,70996,0,"p4_morse_l_dash.wav",70
Sample,71038,0,"p4_drum_dirtyperc_002.wav",70
Sample,71038,0,"p4_synth_seq_023.wav",70
Sample,71038,0,"p4_drum_mainpercsloop_002.wav",70
Sample,71123,0,"p4_drum_mainpercsloop_003.wav",70
Sample,71123,0,"p4_drum_breaks_002.wav",70
Sample,71123,0,"p4_morse_r2_dot.wav",70
Sample,71123,0,"p4_morse_l_dash.wav",70
Sample,71123,0,"p4_drum_dirtyperc_003.wav",70
Sample,71123,0,"p4_synth_seq_024.wav",70
Sample,71209,0,"p4_drum_mainpercsloop_004.wav",70
Sample,71209,0,"p4_drum_dirtyperc_004.wav",70
Sample,71209,0,"p4_drum_breaks_003.wav",70
Sample,71209,0,"p4_synth_seq_025.wav",70
Sample,71209,0,"p4_morse_l_dash.wav",70
Sample,71209,0,"p4_morse_r2_dot.wav",70
Sample,71294,0,"p4_synth_weapon_202.wav",70
Sample,71294,0,"p4_drum_subsnare_2_001.wav",70
Sample,71294,0,"p4_drum_breaks_004.wav",70
Sample,71294,0,"p4_synth_seq_026.wav",70
Sample,71294,0,"p4_drum_dirtyperc_005.wav",70
Sample,71337,0,"p4_morse_l_dot.wav",70
Sample,71379,0,"p4_morse_r2_dot.wav",70
Sample,71379,0,"p4_drum_dirtyperc_006.wav",70
Sample,71379,0,"p4_morse_l_dot.wav",70
Sample,71379,0,"p4_synth_seq_027.wav",70
Sample,71465,0,"p4_morse_l_dash.wav",70
Sample,71465,0,"p4_drum_dirtyperc_007.wav",70
Sample,71465,0,"p4_drum_breaks_005.wav",70
Sample,71465,0,"p4_morse_r2_dot.wav",70
Sample,71465,0,"p4_synth_seq_028.wav",70
Sample,71550,0,"p4_drum_dirtyperc_008.wav",70
Sample,71550,0,"p4_morse_l_dot.wav",70
Sample,71550,0,"p4_morse_r2_dash.wav",70
Sample,71550,0,"p4_drum_subsnare_1_002.wav",70
Sample,71550,0,"p4_synth_seq_029.wav",70
Sample,71550,0,"p4_drum_breaks_006.wav",70
Sample,71635,0,"p4_synth_weapon_203.wav",70
Sample,71635,0,"p4_drum_dirtyperc_009.wav",70
Sample,71635,0,"p4_morse_l_dash.wav",70
Sample,71635,0,"p4_drum_breaks_007.wav",70
Sample,71635,0,"p4_synth_seq_030.wav",70
Sample,71720,0,"p4_drum_mainkick_3.wav",70
Sample,71720,0,"p4_synth_weapon_204.wav",70
Sample,71720,0,"p4_synth_seq_031.wav",70
Sample,71720,0,"p4_drum_dirtyperc_010.wav",70
Sample,71720,0,"p4_drum_subsnare_2_001.wav",70
Sample,71720,0,"p4_drum_breaks_008.wav",70
Sample,71720,0,"p4_morse_l_dash.wav",70
Sample,71806,0,"p4_synth_seq_032.wav",70
Sample,71806,0,"p4_drum_breaks_009.wav",70
Sample,71806,0,"p4_morse_l_dash.wav",70
Sample,71806,0,"p4_drum_dirtyperc_011.wav",70
Sample,71806,0,"p4_drum_mainpercsloop_010.wav",70
Sample,71891,0,"p4_synth_weapon_205.wav",70
Sample,71891,0,"p4_synth_seq_033.wav",70
Sample,71891,0,"p4_drum_breaks_010.wav",70
Sample,71891,0,"p4_drum_dirtyperc_012.wav",70
Sample,71976,0,"p4_synth_seq_034.wav",70
Sample,71976,0,"p4_morse_r2_dash.wav",70
Sample,71976,0,"p4_synth_weapon_206.wav",70
Sample,71976,0,"p4_morse_l_dash.wav",70
Sample,71976,0,"p4_drum_breaks_011.wav",70
Sample,71976,0,"p4_drum_subsnare_2_001.wav",70
Sample,71976,0,"p4_drum_dirtyperc_013.wav",70
Sample,72062,0,"p4_drum_dirtyperc_014.wav",70
Sample,72062,0,"p4_morse_l_dash.wav",70
Sample,72062,0,"p4_synth_seq_035.wav",70
Sample,72147,0,"p4_drum_breaks_012.wav",70
Sample,72147,0,"p4_synth_seq_036.wav",70
Sample,72147,0,"p4_morse_r2_dash.wav",70
Sample,72147,0,"p4_synth_weapon_207.wav",70
Sample,72147,0,"p4_drum_mainsnare_002.wav",70
Sample,72147,0,"p4_drum_dirtyperc_015.wav",70
Sample,72190,0,"p4_morse_l_dash.wav",70
Sample,72232,0,"p4_drum_breaks_013.wav",70
Sample,72232,0,"p4_drum_dirtyperc_016.wav",70
Sample,72232,0,"p4_synth_seq_037.wav",70
Sample,72275,0,"p4_morse_l_dash.wav",70
Sample,72317,0,"p4_morse_r2_dash.wav",70
Sample,72317,0,"p4_synth_seq_022.wav",70
Sample,72317,0,"p4_drum_dirtyperc_001.wav",70
Sample,72317,0,"p4_drum_breaks_001.wav",70
Sample,72360,0,"p4_morse_l_dash.wav",70
Sample,72403,0,"p4_synth_seq_023.wav",70
Sample,72403,0,"p4_drum_dirtyperc_002.wav",70
Sample,72403,0,"p4_drum_mainpercsloop_002.wav",70
Sample,72488,0,"p4_synth_seq_024.wav",70
Sample,72488,0,"p4_synth_weapon_208.wav",70
Sample,72488,0,"p4_morse_r2_dot.wav",70
Sample,72488,0,"p4_drum_breaks_002.wav",70
Sample,72488,0,"p4_drum_dirtyperc_003.wav",70
Sample,72488,0,"p4_morse_l_dot.wav",70
Sample,72488,0,"p4_drum_mainpercsloop_003.wav",70
Sample,72531,0,"p4_morse_l_dash.wav",70
Sample,72573,0,"p4_drum_breaks_003.wav",70
Sample,72573,0,"p4_synth_seq_025.wav",70
Sample,72573,0,"p4_drum_dirtyperc_004.wav",70
Sample,72573,0,"p4_drum_mainpercsloop_004.wav",70
Sample,72616,0,"p4_morse_l_dot.wav",70
Sample,72659,0,"p4_drum_breaks_004.wav",70
Sample,72659,0,"p4_synth_seq_026.wav",70
Sample,72659,0,"p4_drum_dirtyperc_005.wav",70
Sample,72659,0,"p4_synth_weapon_209.wav",70
Sample,72659,0,"p4_drum_subsnare_2_001.wav",70
Sample,72659,0,"p4_morse_r2_dash.wav",70
Sample,72701,0,"p4_morse_l_dot.wav",70
Sample,72744,0,"p4_morse_l_dot.wav",70
Sample,72744,0,"p4_drum_dirtyperc_006.wav",70
Sample,72744,0,"p4_synth_seq_027.wav",70
Sample,72829,0,"p4_drum_dirtyperc_007.wav",70
Sample,72829,0,"p4_synth_seq_028.wav",70
Sample,72829,0,"p4_morse_l_dot.wav",70
Sample,72829,0,"p4_drum_breaks_005.wav",70
Sample,72914,0,"p4_drum_dirtyperc_008.wav",70
Sample,72914,0,"p4_morse_l_dash.wav",70
Sample,72914,0,"p4_morse_r2_dash.wav",70
Sample,72914,0,"p4_drum_subsnare_1_002.wav",70
Sample,72914,0,"p4_synth_seq_029.wav",70
Sample,72914,0,"p4_drum_breaks_006.wav",70
Sample,73000,0,"p4_drum_dirtyperc_018.wav",70
Sample,73000,0,"p4_drum_breaks_007.wav",70
Sample,73000,0,"p4_synth_weapon_210.wav",70
Sample,73000,0,"p4_morse_l_dot.wav",70
Sample,73000,0,"p4_synth_seq_030.wav",70
Sample,73085,0,"p4_drum_breaks_008.wav",70
Sample,73085,0,"p4_drum_subsnare_2_001.wav",70
Sample,73085,0,"p4_synth_weapon_211.wav",70
Sample,73085,0,"p4_drum_dirtyperc_019.wav",70
Sample,73085,0,"p4_morse_l_dash.wav",70
Sample,73085,0,"p4_synth_seq_031.wav",70
Sample,73085,0,"p4_morse_r2_dot.wav",70
Sample,73170,0,"p4_synth_weapon_212.wav",70
Sample,73170,0,"p4_drum_mainpercsloop_010.wav",70
Sample,73170,0,"p4_morse_r2_dash.wav",70
Sample,73170,0,"p4_drum_breaks_009.wav",70
Sample,73170,0,"p4_synth_seq_032.wav",70
Sample,73170,0,"p4_drum_dirtyperc_020.wav",70
Sample,73213,0,"p4_morse_l_dot.wav",70
Sample,73256,0,"p4_drum_breaks_010.wav",70
Sample,73256,0,"p4_synth_weapon_213.wav",70
Sample,73256,0,"p4_drum_dirtyperc_021.wav",70
Sample,73256,0,"p4_synth_seq_033.wav",70
Sample,73298,0,"p4_morse_l_dot.wav",70
Sample,73341,0,"p4_drum_subsnare_2_001.wav",70
Sample,73341,0,"p4_morse_l_dot.wav",70
Sample,73341,0,"p4_synth_weapon_214.wav",70
Sample,73341,0,"p4_drum_dirtyperc_022.wav",70
Sample,73341,0,"p4_synth_sax_013.wav",70
Sample,73341,0,"p4_drum_breaks_011.wav",70
Sample,73341,0,"p4_synth_seq_039.wav",70
Sample,73341,0,"p4_morse_r2_dash.wav",70
Sample,73383,0,"p4_morse_l_dot.wav",70
Sample,73426,0,"p4_drum_dirtyperc_023.wav",70
Sample,73426,0,"p4_synth_seq_040.wav",70
Sample,73426,0,"p4_synth_weapon_215.wav",70
Sample,73469,0,"p4_drum_dirtyperc_024.wav",70
Sample,73511,0,"p4_synth_seq_041.wav",70
Sample,73511,0,"p4_drum_breaks_012.wav",70
Sample,73511,0,"p4_morse_l_dash.wav",70
Sample,73511,0,"p4_drum_dirtyperc_025.wav",70
Sample,73511,0,"p4_drum_mainsnare_002.wav",70
Sample,73511,0,"p4_synth_weapon_216.wav",70
Sample,73597,0,"p4_drum_snareshot_2_001.wav",70
Sample,73597,0,"p4_drum_dirtyperc_026.wav",70
Sample,73597,0,"p4_synth_weapon_217.wav",70
Sample,73597,0,"p4_drum_breaks_013.wav",70
Sample,73597,0,"p4_drum_mainpercsloop_008.wav",70
Sample,73597,0,"p4_morse_r2_dash.wav",70
Sample,73597,0,"p4_synth_seq_042.wav",70
Sample,73597,0,"p4_morse_l_dot.wav",70
Sample,73639,0,"p4_morse_l_dot.wav",70
Sample,73639,0,"p4_drum_dirtyperc_027.wav",70
Sample,73682,0,"p4_drum_dirtyperc_001.wav",70
Sample,73682,0,"p4_drum_breaks_001.wav",70
Sample,73682,0,"p4_synth_weapon_218.wav",70
Sample,73682,0,"p4_synth_seq_043.wav",70
Sample,73710,0,"p4_synth_sax_014.wav",70
Sample,73725,0,"p4_morse_l_dot.wav",70
Sample,73767,0,"p4_morse_r2_dot.wav",70
Sample,73767,0,"p4_synth_seq_044.wav",70
Sample,73767,0,"p4_drum_mainpercsloop_002.wav",70
Sample,73767,0,"p4_drum_dirtyperc_002.wav",70
Sample,73810,0,"p4_morse_l_dot.wav",70
Sample,73852,0,"p4_morse_l_dot.wav",70
Sample,73852,0,"p4_drum_breaks_002.wav",70
Sample,73852,0,"p4_morse_r2_dot.wav",70
Sample,73852,0,"p4_synth_seq_045.wav",70
Sample,73852,0,"p4_drum_mainpercsloop_003.wav",70
Sample,73852,0,"p4_drum_dirtyperc_003.wav",70
Sample,73938,0,"p4_drum_breaks_003.wav",70
Sample,73938,0,"p4_morse_l_dash.wav",70
Sample,73938,0,"p4_drum_dirtyperc_004.wav",70
Sample,73938,0,"p4_drum_mainpercsloop_004.wav",70
Sample,73938,0,"p4_synth_seq_046.wav",70
Sample,73938,0,"p4_morse_r2_dot.wav",70
Sample,74023,0,"p4_drum_subsnare_2_001.wav",70
Sample,74023,0,"p4_synth_seq_047.wav",70
Sample,74023,0,"p4_drum_breaks_004.wav",70
Sample,74023,0,"p4_synth_weapon_219.wav",70
Sample,74023,0,"p4_morse_l_dot.wav",70
Sample,74023,0,"p4_drum_dirtyperc_005.wav",70
Sample,74108,0,"p4_synth_sax_015.wav",70
Sample,74108,0,"p4_drum_dirtyperc_006.wav",70
Sample,74108,0,"p4_morse_l_dash.wav",70
Sample,74108,0,"p4_synth_seq_048.wav",70
Sample,74108,0,"p4_morse_r2_dot.wav",70
Sample,74165,0,"p4_synth_sax_016.wav",70
Sample,74194,0,"p4_morse_l_dot.wav",70
Sample,74194,0,"p4_drum_dirtyperc_007.wav",70
Sample,74194,0,"p4_drum_breaks_005.wav",70
Sample,74194,0,"p4_drum_mainsnare_002.wav",70
Sample,74194,0,"p4_synth_seq_049.wav",70
Sample,74194,0,"p4_morse_r2_dot.wav",70
Sample,74222,0,"p4_synth_sax_017.wav",70
Sample,74236,0,"p4_morse_l_dash.wav",70
Sample,74279,0,"p4_drum_dirtyperc_008.wav",70
Sample,74279,0,"p4_drum_breaks_006.wav",70
Sample,74279,0,"p4_drum_subsnare_1_002.wav",70
Sample,74279,0,"p4_synth_seq_050.wav",70
Sample,74322,0,"p4_morse_l_dot.wav",70
Sample,74364,0,"p4_synth_seq_051.wav",70
Sample,74364,0,"p4_drum_breaks_007.wav",70
Sample,74364,0,"p4_drum_dirtyperc_009.wav",70
Sample,74364,0,"p4_morse_r2_dash.wav",70
Sample,74364,0,"p4_synth_weapon_220.wav",70
Sample,74378,0,"p4_synth_sax_018.wav",70
Sample,74407,0,"p4_morse_l_dot.wav",70
Sample,74449,0,"p4_drum_breaks_008.wav",70
Sample,74449,0,"p4_synth_seq_052.wav",70
Sample,74449,0,"p4_drum_subsnare_2_001.wav",70
Sample,74449,0,"p4_synth_weapon_221.wav",70
Sample,74449,0,"p4_drum_dirtyperc_010.wav",70
Sample,74492,0,"p4_morse_l_dot.wav",70
Sample,74535,0,"p4_drum_dirtyperc_011.wav",70
Sample,74535,0,"p4_drum_breaks_009.wav",70
Sample,74535,0,"p4_drum_mainpercsloop_010.wav",70
Sample,74535,0,"p4_synth_seq_053.wav",70
Sample,74535,0,"p4_morse_l_dash.wav",70
Sample,74535,0,"p4_morse_r2_dash.wav",70
Sample,74620,0,"p4_drum_mainpercsloop_011.wav",70
Sample,74620,0,"p4_synth_weapon_222.wav",70
Sample,74620,0,"p4_morse_l_dash.wav",70
Sample,74620,0,"p4_synth_seq_054.wav",70
Sample,74620,0,"p4_drum_breaks_010.wav",70
Sample,74620,0,"p4_drum_dirtyperc_012.wav",70
Sample,74705,0,"p4_drum_breaks_011.wav",70
Sample,74705,0,"p4_morse_l_dot.wav",70
Sample,74705,0,"p4_synth_weapon_223.wav",70
Sample,74705,0,"p4_drum_subsnare_2_001.wav",70
Sample,74705,0,"p4_morse_r2_dot.wav",70
Sample,74705,0,"p4_synth_seq_055.wav",70
Sample,74705,0,"p4_drum_dirtyperc_013.wav",70
Sample,74748,0,"p4_synth_sax_019.wav",70
Sample,74791,0,"p4_synth_seq_056.wav",70
Sample,74791,0,"p4_morse_l_dot.wav",70
Sample,74791,0,"p4_drum_dirtyperc_014.wav",70
Sample,74791,0,"p4_morse_r2_dash.wav",70
Sample,74805,0,"p4_synth_sax_020.wav",70
Sample,74833,0,"p4_morse_l_dot.wav",70
Sample,74862,0,"p4_synth_sax_021.wav",70
Sample,74876,0,"p4_drum_breaks_012.wav",70
Sample,74876,0,"p4_morse_l_dot.wav",70
Sample,74876,0,"p4_drum_mainsnare_002.wav",70
Sample,74876,0,"p4_synth_seq_057.wav",70
Sample,74876,0,"p4_drum_dirtyperc_015.wav",70
Sample,74876,0,"p4_synth_weapon_224.wav",70
Sample,74961,0,"p4_drum_breaks_013.wav",70
Sample,74961,0,"p4_synth_seq_058.wav",70
Sample,74961,0,"p4_drum_dirtyperc_016.wav",70
Sample,74961,0,"p4_morse_r2_dot.wav",70
Sample,75046,0,"p4_drum_dirtyperc_001.wav",70
Sample,75046,0,"p4_synth_seq_043.wav",70
Sample,75046,0,"p4_drum_breaks_001.wav",70
Sample,75046,0,"p4_morse_l_dash.wav",70
Sample,75075,0,"p4_synth_sax_022.wav",70
Sample,75132,0,"p4_synth_seq_044.wav",70
Sample,75132,0,"p4_drum_dirtyperc_002.wav",70
Sample,75132,0,"p4_drum_mainpercsloop_002.wav",70
Sample,75132,0,"p4_morse_l_dot.wav",70
Sample,75132,0,"p4_morse_r2_dash.wav",70
Sample,75174,0,"p4_morse_l_dot.wav",70
Sample,75217,0,"p4_drum_dirtyperc_003.wav",70
Sample,75217,0,"p4_drum_mainpercsloop_003.wav",70
Sample,75217,0,"p4_synth_weapon_225.wav",70
Sample,75217,0,"p4_synth_seq_045.wav",70
Sample,75217,0,"p4_drum_breaks_002.wav",70
Sample,75260,0,"p4_morse_l_dot.wav",70
Sample,75302,0,"p4_synth_seq_046.wav",70
Sample,75302,0,"p4_drum_mainpercsloop_004.wav",70
Sample,75302,0,"p4_drum_breaks_003.wav",70
Sample,75302,0,"p4_drum_dirtyperc_004.wav",70
Sample,75302,0,"p4_morse_l_dot.wav",70
Sample,75302,0,"p4_morse_r2_dot.wav",70
Sample,75388,0,"p4_synth_seq_047.wav",70
Sample,75388,0,"p4_drum_subsnare_2_001.wav",70
Sample,75388,0,"p4_synth_weapon_226.wav",70
Sample,75388,0,"p4_morse_l_dash.wav",70
Sample,75388,0,"p4_drum_breaks_004.wav",70
Sample,75388,0,"p4_drum_dirtyperc_005.wav",70
Sample,75473,0,"p4_morse_r2_dot.wav",70
Sample,75473,0,"p4_drum_dirtyperc_006.wav",70
Sample,75473,0,"p4_morse_l_dot.wav",70
Sample,75473,0,"p4_synth_seq_048.wav",70
Sample,75515,0,"p4_morse_l_dash.wav",70
Sample,75558,0,"p4_morse_r2_dot.wav",70
Sample,75558,0,"p4_drum_dirtyperc_007.wav",70
Sample,75558,0,"p4_synth_seq_049.wav",70
Sample,75558,0,"p4_drum_breaks_005.wav",70
Sample,75601,0,"p4_morse_l_dot.wav",70
Sample,75643,0,"p4_drum_subsnare_1_002.wav",70
Sample,75643,0,"p4_drum_dirtyperc_008.wav",70
Sample,75643,0,"p4_synth_seq_050.wav",70
Sample,75643,0,"p4_drum_breaks_006.wav",70
Sample,75643,0,"p4_morse_r2_dash.wav",70
Sample,75686,0,"p4_morse_l_dot.wav",70
Sample,75729,0,"p4_drum_breaks_007.wav",70
Sample,75729,0,"p4_synth_weapon_227.wav",70
Sample,75729,0,"p4_synth_seq_051.wav",70
Sample,75729,0,"p4_drum_dirtyperc_018.wav",70
Sample,75729,0,"p4_morse_l_dot.wav",70
Sample,75814,0,"p4_drum_dirtyperc_019.wav",70
Sample,75814,0,"p4_drum_breaks_008.wav",70
Sample,75814,0,"p4_synth_weapon_228.wav",70
Sample,75814,0,"p4_drum_subsnare_2_001.wav",70
Sample,75814,0,"p4_morse_l_dash.wav",70
Sample,75814,0,"p4_synth_seq_052.wav",70
Sample,75899,0,"p4_drum_dirtyperc_020.wav",70
Sample,75899,0,"p4_synth_seq_053.wav",70
Sample,75899,0,"p4_drum_breaks_009.wav",70
Sample,75984,0,"p4_synth_seq_054.wav",70
Sample,75984,0,"p4_drum_mainpercsloop_010.wav",70
Sample,75984,0,"p4_morse_l_dot.wav",70
Sample,75984,0,"p4_drum_breaks_010.wav",70
Sample,75984,0,"p4_drum_dirtyperc_021.wav",70
Sample,75984,0,"p4_synth_weapon_229.wav",70
Sample,76070,0,"p4_drum_dirtyperc_022.wav",70
Sample,76070,0,"p4_morse_r2_dot.wav",70
Sample,76070,0,"p4_synth_seq_060.wav",70
Sample,76070,0,"p4_drum_breaks_011.wav",70
Sample,76070,0,"p4_morse_l_dash.wav",70
Sample,76070,0,"p4_synth_weapon_230.wav",70
Sample,76070,0,"p4_drum_subsnare_2_001.wav",70
Sample,76155,0,"p4_drum_dirtyperc_023.wav",70
Sample,76155,0,"p4_morse_l_dot.wav",70
Sample,76155,0,"p4_synth_seq_061.wav",70
Sample,76155,0,"p4_morse_r2_dash.wav",70
Sample,76198,0,"p4_drum_dirtyperc_024.wav",70
Sample,76240,0,"p4_drum_breaks_012.wav",70
Sample,76240,0,"p4_synth_seq_062.wav",70
Sample,76240,0,"p4_drum_mainsnare_002.wav",70
Sample,76240,0,"p4_drum_dirtyperc_025.wav",70
Sample,76240,0,"p4_morse_l_dot.wav",70
Sample,76240,0,"p4_synth_weapon_231.wav",70
Sample,76283,0,"p4_morse_l_dot.wav",70
Sample,76326,0,"p4_synth_seq_063.wav",70
Sample,76326,0,"p4_drum_snareshot_1_001.wav",70
Sample,76326,0,"p4_drum_breaks_013.wav",70
Sample,76326,0,"p4_drum_dirtyperc_026.wav",70
Sample,76326,0,"p4_morse_r2_dot.wav",70
Sample,76368,0,"p4_drum_dirtyperc_027.wav",70
Sample,76368,0,"p4_morse_l_dash.wav",70
Sample,76411,0,"p4_synth_seq_064.wav",70
Sample,76411,0,"p4_synth_weapon_232.wav",70
Sample,76411,0,"p4_drum_breaks_001.wav",70
Sample,76411,0,"p4_drum_dirtyperc_001.wav",70
Sample,76411,0,"p4_morse_r2_dot.wav",70
Sample,76454,0,"p4_morse_l_dash.wav",70
Sample,76496,0,"p4_drum_mainpercsloop_002.wav",70
Sample,76496,0,"p4_drum_dirtyperc_002.wav",70
Sample,76496,0,"p4_synth_seq_065.wav",70
Sample,76581,0,"p4_drum_mainpercsloop_003.wav",70
Sample,76581,0,"p4_drum_dirtyperc_003.wav",70
Sample,76581,0,"p4_drum_breaks_002.wav",70
Sample,76581,0,"p4_synth_seq_066.wav",70
Sample,76581,0,"p4_morse_r2_dash.wav",70
Sample,76624,0,"p4_morse_l_dot.wav",70
Sample,76667,0,"p4_drum_mainpercsloop_004.wav",70
Sample,76667,0,"p4_morse_l_dot.wav",70
Sample,76667,0,"p4_drum_dirtyperc_004.wav",70
Sample,76667,0,"p4_synth_seq_067.wav",70
Sample,76667,0,"p4_drum_breaks_003.wav",70
Sample,76709,0,"p4_morse_l_dot.wav",70
Sample,76752,0,"p4_synth_seq_068.wav",70
Sample,76752,0,"p4_drum_breaks_004.wav",70
Sample,76752,0,"p4_morse_r2_dash.wav",70
Sample,76752,0,"p4_synth_weapon_233.wav",70
Sample,76752,0,"p4_drum_dirtyperc_005.wav",70
Sample,76752,0,"p4_drum_subsnare_2_001.wav",70
Sample,76795,0,"p4_morse_l_dot.wav",70
Sample,76837,0,"p4_synth_seq_069.wav",70
Sample,76837,0,"p4_drum_dirtyperc_006.wav",70
Sample,76837,0,"p4_morse_l_dash.wav",70
Sample,76923,0,"p4_drum_dirtyperc_007.wav",70
Sample,76923,0,"p4_synth_seq_070.wav",70
Sample,76923,0,"p4_drum_breaks_005.wav",70
Sample,76923,0,"p4_morse_l_dash.wav",70
Sample,76923,0,"p4_morse_r2_dash.wav",70
Sample,77008,0,"p4_synth_seq_071.wav",70
Sample,77008,0,"p4_drum_subsnare_1_002.wav",70
Sample,77008,0,"p4_drum_breaks_006.wav",70
Sample,77008,0,"p4_drum_dirtyperc_008.wav",70
Sample,77008,0,"p4_morse_l_dot.wav",70
Sample,77093,0,"p4_synth_seq_072.wav",70
Sample,77093,0,"p4_drum_breaks_007.wav",70
Sample,77093,0,"p4_morse_r2_dot.wav",70
Sample,77093,0,"p4_drum_dirtyperc_009.wav",70
Sample,77093,0,"p4_synth_weapon_234.wav",70
Sample,77093,0,"p4_morse_l_dot.wav",70
Sample,77136,0,"p4_morse_l_dot.wav",70
Sample,77178,0,"p4_drum_breaks_008.wav",70
Sample,77178,0,"p4_synth_weapon_235.wav",70
Sample,77178,0,"p4_synth_seq_073.wav",70
Sample,77178,0,"p4_drum_dirtyperc_010.wav",70
Sample,77178,0,"p4_drum_subsnare_2_001.wav",70
Sample,77178,0,"p4_morse_r2_dash.wav",70
Sample,77221,0,"p4_morse_l_dot.wav",70
Sample,77264,0,"p4_morse_l_dash.wav",70
Sample,77264,0,"p4_drum_mainpercsloop_010.wav",70
Sample,77264,0,"p4_synth_seq_074.wav",70
Sample,77264,0,"p4_drum_breaks_009.wav",70
Sample,77264,0,"p4_drum_dirtyperc_011.wav",70
Sample,77349,0,"p4_synth_weapon_236.wav",70
Sample,77349,0,"p4_drum_dirtyperc_012.wav",70
Sample,77349,0,"p4_morse_l_dot.wav",70
Sample,77349,0,"p4_drum_breaks_010.wav",70
Sample,77349,0,"p4_drum_mainpercsloop_011.wav",70
Sample,77349,0,"p4_synth_seq_075.wav",70
Sample,77434,0,"p4_synth_weapon_237.wav",70
Sample,77434,0,"p4_drum_breaks_011.wav",70
Sample,77434,0,"p4_synth_seq_076.wav",70
Sample,77434,0,"p4_morse_l_dot.wav",70
Sample,77434,0,"p4_morse_r2_dot.wav",70
Sample,77434,0,"p4_drum_dirtyperc_013.wav",70
Sample,77434,0,"p4_drum_subsnare_2_001.wav",70
Sample,77477,0,"p4_morse_l_dot.wav",70
Sample,77520,0,"p4_drum_dirtyperc_014.wav",70
Sample,77520,0,"p4_morse_r2_dot.wav",70
Sample,77520,0,"p4_synth_seq_077.wav",70
Sample,77562,0,"p4_morse_l_dash.wav",70
Sample,77605,0,"p4_drum_dirtyperc_015.wav",70
Sample,77605,0,"p4_synth_seq_078.wav",70
Sample,77605,0,"p4_drum_mainsnare_002.wav",70
Sample,77605,0,"p4_drum_breaks_012.wav",70
Sample,77605,0,"p4_synth_weapon_238.wav",70
Sample,77690,0,"p4_drum_dirtyperc_016.wav",70
Sample,77690,0,"p4_synth_seq_079.wav",70
Sample,77690,0,"p4_drum_breaks_013.wav",70
Sample,77690,0,"p4_morse_r2_dot.wav",70
Sample,77690,0,"p4_morse_l_dot.wav",70
Sample,77733,0,"p4_morse_l_dot.wav",70
Sample,77775,0,"p4_drum_dirtyperc_001.wav",70
Sample,77775,0,"p4_morse_l_dash.wav",70
Sample,77775,0,"p4_synth_seq_064.wav",70
Sample,77775,0,"p4_morse_r2_dash.wav",70
Sample,77775,0,"p4_drum_breaks_001.wav",70
Sample,77861,0,"p4_drum_dirtyperc_002.wav",70
Sample,77861,0,"p4_drum_mainpercsloop_002.wav",70
Sample,77861,0,"p4_synth_seq_065.wav",70
Sample,77903,0,"p4_morse_l_dot.wav",70
Sample,77946,0,"p4_morse_l_dot.wav",70
Sample,77946,0,"p4_morse_r2_dot.wav",70
Sample,77946,0,"p4_drum_dirtyperc_003.wav",70
Sample,77946,0,"p4_synth_weapon_239.wav",70
Sample,77946,0,"p4_synth_seq_066.wav",70
Sample,77946,0,"p4_drum_mainpercsloop_003.wav",70
Sample,77946,0,"p4_drum_breaks_002.wav",70
Sample,77989,0,"p4_morse_l_dot.wav",70
Sample,78031,0,"p4_drum_dirtyperc_004.wav",70
Sample,78031,0,"p4_drum_breaks_003.wav",70
Sample,78031,0,"p4_synth_seq_067.wav",70
Sample,78031,0,"p4_drum_mainpercsloop_004.wav",70
Sample,78067,0,"p4_synth_weapon_240.wav",70
Sample,78117,0,"p4_drum_breaks_004.wav",70
Sample,78117,0,"p4_drum_dirtyperc_005.wav",70
Sample,78117,0,"p4_synth_seq_068.wav",70
Sample,78117,0,"p4_morse_r2_dot.wav",70
Sample,78117,0,"p4_drum_subsnare_2_001.wav",70
Sample,78159,0,"p4_synth_weapon_241.wav",70
Sample,78159,0,"p4_morse_l_dot.wav",70
Sample,78202,0,"p4_drum_dirtyperc_006.wav",70
Sample,78202,0,"p4_morse_l_dot.wav",70
Sample,78202,0,"p4_synth_seq_069.wav",70
Sample,78202,0,"p4_morse_r2_dot.wav",70
Sample,78244,0,"p4_morse_l_dash.wav",70
Sample,78287,0,"p4_drum_breaks_005.wav",70
Sample,78287,0,"p4_drum_dirtyperc_007.wav",70
Sample,78287,0,"p4_synth_seq_070.wav",70
Sample,78287,0,"p4_morse_r2_dot.wav",70
Sample,78337,0,"p4_synth_weapon_242.wav",70
Sample,78372,0,"p4_morse_l_dash.wav",70
Sample,78372,0,"p4_drum_dirtyperc_008.wav",70
Sample,78372,0,"p4_drum_breaks_006.wav",70
Sample,78372,0,"p4_drum_subsnare_1_002.wav",70
Sample,78372,0,"p4_synth_seq_071.wav",70
Sample,78429,0,"p4_synth_weapon_243.wav",70
Sample,78458,0,"p4_drum_breaks_007.wav",70
Sample,78458,0,"p4_synth_seq_072.wav",70
Sample,78458,0,"p4_drum_dirtyperc_018.wav",70
Sample,78458,0,"p4_morse_r2_dot.wav",70
Sample,78543,0,"p4_drum_mainkick_3.wav",70
Sample,78543,0,"p4_drum_snareshot_2_001.wav",70
Sample,78543,0,"p4_synth_weapon_244.wav",70
Sample,78543,0,"p4_drum_breaks_008.wav",70
Sample,78543,0,"p4_morse_r2_dot.wav",70
Sample,78543,0,"p4_morse_l_dot.wav",70
Sample,78543,0,"p4_synth_seq_073.wav",70
Sample,78543,0,"p4_drum_dirtyperc_019.wav",70
Sample,78586,0,"p4_morse_l_dash.wav",70
Sample,78628,0,"p4_drum_mainpercsloop_010.wav",70
Sample,78628,0,"p4_drum_breaks_009.wav",70
Sample,78628,0,"p4_drum_dirtyperc_020.wav",70
Sample,78628,0,"p4_synth_seq_074.wav",70
Sample,78628,0,"p4_morse_r2_dot.wav",70
Sample,78664,0,"p4_synth_weapon_245.wav",70
Sample,78671,0,"p4_morse_l_dot.wav",70
Sample,78713,0,"p4_drum_breaks_010.wav",70
Sample,78713,0,"p4_drum_dirtyperc_021.wav",70
Sample,78713,0,"p4_synth_seq_075.wav",70
Sample,78713,0,"p4_drum_subkick_4.wav",70
Sample,78713,0,"p4_morse_r2_dot.wav",70
Sample,78756,0,"p4_morse_l_dot.wav",70
Sample,78770,0,"p4_synth_weapon_246.wav",70
Sample,78799,0,"p4_synth_seq_081.wav",70
Sample,78799,0,"p4_drum_breaks_011.wav",70
Sample,78799,0,"p4_drum_dirtyperc_022.wav",70
Sample,78799,0,"p4_synth_sax_023.wav",70
Sample,78799,0,"p4_drum_mainsnare_001.wav",70
Sample,78799,0,"p4_drum_subsnare_2_001.wav",70
Sample,78841,0,"p4_morse_l_dash.wav",70
Sample,78870,0,"p4_synth_sax_024.wav",70
Sample,78884,0,"p4_synth_weapon_247.wav",70
Sample,78884,0,"p4_synth_seq_082.wav",70
Sample,78884,0,"p4_drum_dirtyperc_023.wav",70
Sample,78927,0,"p4_drum_dirtyperc_024.wav",70
Sample,78927,0,"p4_morse_l_dash.wav",70
Sample,78969,0,"p4_drum_subkick_4.wav",70
Sample,78969,0,"p4_drum_breaks_012.wav",70
Sample,78969,0,"p4_drum_mainsnare_002.wav",70
Sample,78969,0,"p4_synth_weapon_248.wav",70
Sample,78969,0,"p4_drum_dirtyperc_025.wav",70
Sample,78969,0,"p4_synth_seq_083.wav",70
Sample,79012,0,"p4_morse_l_dot.wav",70
Sample,79055,0,"p4_synth_seq_084.wav",70
Sample,79055,0,"p4_morse_l_dash.wav",70
Sample,79055,0,"p4_synth_weapon_249.wav",70
Sample,79055,0,"p4_drum_mainpercsloop_008.wav",70
Sample,79055,0,"p4_drum_snareshot_2_001.wav",70
Sample,79055,0,"p4_drum_dirtyperc_026.wav",70
Sample,79055,0,"p4_drum_breaks_013.wav",70
Sample,79097,0,"p4_drum_dirtyperc_027.wav",70
Sample,79140,0,"p4_synth_seq_085.wav",70
Sample,79140,0,"p4_synth_weapon_250.wav",70
Sample,79140,0,"p4_drum_dirtyperc_001.wav",70
Sample,79140,0,"p4_drum_breaks_001.wav",70
Sample,79140,0,"p4_morse_r2_dot.wav",70
Sample,79161,0,"p4_synth_sax_025.wav",70
Sample,79183,0,"p4_morse_l_dot.wav",70
Sample,79225,0,"p4_morse_l_dot.wav",70
Sample,79225,0,"p4_drum_mainpercsloop_002.wav",70
Sample,79225,0,"p4_drum_dirtyperc_002.wav",70
Sample,79225,0,"p4_synth_seq_086.wav",70
Sample,79225,0,"p4_morse_r2_dot.wav",70
Sample,79268,0,"p4_morse_l_dash.wav",70
Sample,79310,0,"p4_drum_mainpercsloop_003.wav",70
Sample,79310,0,"p4_drum_breaks_002.wav",70
Sample,79310,0,"p4_synth_seq_087.wav",70
Sample,79310,0,"p4_morse_r2_dash.wav",70
Sample,79310,0,"p4_drum_dirtyperc_003.wav",70
Sample,79339,0,"p4_synth_sax_026.wav",70
Sample,79396,0,"p4_drum_breaks_003.wav",70
Sample,79396,0,"p4_synth_seq_088.wav",70
Sample,79396,0,"p4_drum_mainpercsloop_004.wav",70
Sample,79396,0,"p4_drum_dirtyperc_004.wav",70
Sample,79396,0,"p4_morse_l_dot.wav",70
Sample,79438,0,"p4_morse_l_dot.wav",70
Sample,79481,0,"p4_drum_breaks_004.wav",70
Sample,79481,0,"p4_drum_dirtyperc_005.wav",70
Sample,79481,0,"p4_morse_r2_dot.wav",70
Sample,79481,0,"p4_drum_subsnare_2_001.wav",70
Sample,79481,0,"p4_synth_weapon_251.wav",70
Sample,79481,0,"p4_synth_seq_089.wav",70
Sample,79495,0,"p4_synth_sax_027.wav",70
Sample,79524,0,"p4_morse_l_dot.wav",70
Sample,79566,0,"p4_synth_seq_090.wav",70
Sample,79566,0,"p4_morse_r2_dash.wav",70
Sample,79566,0,"p4_drum_dirtyperc_006.wav",70
Sample,79609,0,"p4_morse_l_dot.wav",70
Sample,79630,0,"p4_synth_sax_028.wav",70
Sample,79652,0,"p4_drum_mainsnare_002.wav",70
Sample,79652,0,"p4_drum_breaks_005.wav",70
Sample,79652,0,"p4_drum_dirtyperc_007.wav",70
Sample,79652,0,"p4_synth_seq_091.wav",70
Sample,79652,0,"p4_morse_l_dot.wav",70
Sample,79694,0,"p4_morse_l_dot.wav",70
Sample,79737,0,"p4_drum_breaks_006.wav",70
Sample,79737,0,"p4_drum_subsnare_1_002.wav",70
Sample,79737,0,"p4_drum_dirtyperc_008.wav",70
Sample,79737,0,"p4_synth_seq_092.wav",70
Sample,79772,0,"p4_synth_sax_029.wav",70
Sample,79779,0,"p4_morse_l_dash.wav",70
Sample,79822,0,"p4_drum_dirtyperc_009.wav",70
Sample,79822,0,"p4_synth_weapon_252.wav",70
Sample,79822,0,"p4_drum_breaks_007.wav",70
Sample,79822,0,"p4_morse_r2_dot.wav",70
Sample,79822,0,"p4_synth_seq_093.wav",70
Sample,79865,0,"p4_morse_l_dot.wav",70
Sample,79907,0,"p4_synth_weapon_253.wav",70
Sample,79907,0,"p4_drum_dirtyperc_010.wav",70
Sample,79907,0,"p4_drum_breaks_008.wav",70
Sample,79907,0,"p4_drum_subsnare_2_001.wav",70
Sample,79907,0,"p4_synth_seq_094.wav",70
Sample,79907,0,"p4_morse_l_dash.wav",70
Sample,79907,0,"p4_morse_r2_dot.wav",70
Sample,79943,0,"p4_synth_sax_030.wav",70
Sample,79993,0,"p4_drum_breaks_009.wav",70
Sample,79993,0,"p4_synth_seq_095.wav",70
Sample,79993,0,"p4_morse_r2_dash.wav",70
Sample,79993,0,"p4_drum_mainpercsloop_010.wav",70
Sample,79993,0,"p4_morse_l_dot.wav",70
Sample,79993,0,"p4_drum_dirtyperc_011.wav",70
Sample,80078,0,"p4_synth_seq_096.wav",70
Sample,80078,0,"p4_drum_dirtyperc_012.wav",70
Sample,80078,0,"p4_synth_weapon_254.wav",70
Sample,80078,0,"p4_drum_mainpercsloop_011.wav",70
Sample,80078,0,"p4_morse_l_dot.wav",70
Sample,80078,0,"p4_drum_breaks_010.wav",70
Sample,80121,0,"p4_morse_l_dash.wav",70
Sample,80128,0,"p4_synth_sax_031.wav",70
Sample,80163,0,"p4_drum_subsnare_2_001.wav",70
Sample,80163,0,"p4_synth_seq_097.wav",70
Sample,80163,0,"p4_drum_breaks_011.wav",70
Sample,80163,0,"p4_drum_dirtyperc_013.wav",70
Sample,80163,0,"p4_synth_weapon_255.wav",70
Sample,80163,0,"p4_morse_r2_dot.wav",70
Sample,80249,0,"p4_synth_seq_098.wav",70
Sample,80249,0,"p4_morse_l_dash.wav",70
Sample,80249,0,"p4_drum_dirtyperc_014.wav",70
Sample,80249,0,"p4_morse_r2_dot.wav",70
Sample,80291,0,"p4_synth_sax_032.wav",70
Sample,80334,0,"p4_drum_mainsnare_002.wav",70
Sample,80334,0,"p4_synth_seq_099.wav",70
Sample,80334,0,"p4_drum_breaks_012.wav",70
Sample,80334,0,"p4_drum_dirtyperc_015.wav",70
Sample,80334,0,"p4_synth_weapon_256.wav",70
Sample,80334,0,"p4_morse_l_dot.wav",70
Sample,80419,0,"p4_drum_breaks_013.wav",70
Sample,80419,0,"p4_drum_dirtyperc_016.wav",70
Sample,80419,0,"p4_synth_seq_100.wav",70
Sample,80419,0,"p4_morse_r2_dash.wav",70
Sample,80419,0,"p4_morse_l_dash.wav",70
Sample,80455,0,"p4_synth_sax_033.wav",70
Sample,80504,0,"p4_drum_dirtyperc_001.wav",70
Sample,80504,0,"p4_synth_seq_085.wav",70
Sample,80504,0,"p4_drum_breaks_001.wav",70
Sample,80590,0,"p4_drum_dirtyperc_002.wav",70
Sample,80590,0,"p4_drum_mainpercsloop_002.wav",70
Sample,80590,0,"p4_synth_seq_086.wav",70
Sample,80590,0,"p4_morse_r2_dash.wav",70
Sample,80590,0,"p4_morse_l_dot.wav",70
Sample,80625,0,"p4_synth_sax_034.wav",70
Sample,80632,0,"p4_morse_l_dash.wav",70
Sample,80675,0,"p4_synth_weapon_257.wav",70
Sample,80675,0,"p4_drum_mainpercsloop_003.wav",70
Sample,80675,0,"p4_synth_seq_087.wav",70
Sample,80675,0,"p4_drum_dirtyperc_003.wav",70
Sample,80675,0,"p4_drum_breaks_002.wav",70
Sample,80760,0,"p4_drum_breaks_003.wav",70
Sample,80760,0,"p4_synth_seq_088.wav",70
Sample,80760,0,"p4_drum_dirtyperc_004.wav",70
Sample,80760,0,"p4_drum_mainpercsloop_004.wav",70
Sample,80760,0,"p4_morse_r2_dash.wav",70
Sample,80803,0,"p4_morse_l_dot.wav",70
Sample,80845,0,"p4_drum_breaks_004.wav",70
Sample,80845,0,"p4_drum_subsnare_2_001.wav",70
Sample,80845,0,"p4_drum_dirtyperc_005.wav",70
Sample,80845,0,"p4_morse_l_dash.wav",70
Sample,80845,0,"p4_synth_weapon_258.wav",70
Sample,80845,0,"p4_synth_seq_089.wav",70
Sample,80931,0,"p4_drum_dirtyperc_006.wav",70
Sample,80931,0,"p4_morse_l_dot.wav",70
Sample,80931,0,"p4_synth_seq_090.wav",70
Sample,80931,0,"p4_morse_r2_dash.wav",70
Sample,80973,0,"p4_morse_l_dot.wav",70
Sample,81016,0,"p4_drum_dirtyperc_007.wav",70
Sample,81016,0,"p4_synth_seq_091.wav",70
Sample,81016,0,"p4_drum_breaks_005.wav",70
Sample,81059,0,"p4_morse_l_dot.wav",70
Sample,81101,0,"p4_morse_l_dash.wav",70
Sample,81101,0,"p4_synth_seq_092.wav",70
Sample,81101,0,"p4_drum_breaks_006.wav",70
Sample,81101,0,"p4_drum_dirtyperc_008.wav",70
Sample,81101,0,"p4_drum_subsnare_1_002.wav",70
Sample,81187,0,"p4_drum_breaks_007.wav",70
Sample,81187,0,"p4_synth_weapon_259.wav",70
Sample,81187,0,"p4_drum_dirtyperc_018.wav",70
Sample,81187,0,"p4_synth_seq_093.wav",70
Sample,81187,0,"p4_morse_r2_dash.wav",70
Sample,81229,0,"p4_morse_l_dash.wav",70
Sample,81272,0,"p4_drum_dirtyperc_019.wav",70
Sample,81272,0,"p4_synth_weapon_260.wav",70
Sample,81272,0,"p4_drum_breaks_008.wav",70
Sample,81272,0,"p4_drum_subsnare_2_001.wav",70
Sample,81272,0,"p4_synth_seq_094.wav",70
Sample,81315,0,"p4_morse_l_dot.wav",70
Sample,81357,0,"p4_drum_dirtyperc_020.wav",70
Sample,81357,0,"p4_synth_seq_095.wav",70
Sample,81357,0,"p4_drum_breaks_009.wav",70
Sample,81357,0,"p4_morse_r2_dash.wav",70
Sample,81357,0,"p4_morse_l_dot.wav",70
Sample,81400,0,"p4_morse_l_dot.wav",70
Sample,81442,0,"p4_synth_seq_096.wav",70
Sample,81442,0,"p4_drum_breaks_010.wav",70
Sample,81442,0,"p4_synth_weapon_261.wav",70
Sample,81442,0,"p4_drum_mainpercsloop_010.wav",70
Sample,81442,0,"p4_drum_dirtyperc_021.wav",70
Sample,81485,0,"p4_morse_l_dash.wav",70
Sample,81528,0,"p4_synth_seq_102.wav",70
Sample,81528,0,"p4_synth_weapon_262.wav",70
Sample,81528,0,"p4_drum_breaks_011.wav",70
Sample,81528,0,"p4_synth_sax_035.wav",70
Sample,81528,0,"p4_drum_dirtyperc_022.wav",70
Sample,81528,0,"p4_drum_subsnare_2_001.wav",70
Sample,81528,0,"p4_morse_r2_dash.wav",70
Sample,81570,0,"p4_morse_l_dash.wav",70
Sample,81599,0,"p4_synth_sax_036.wav",70
Sample,81613,0,"p4_drum_dirtyperc_023.wav",70
Sample,81613,0,"p4_synth_seq_103.wav",70
Sample,81656,0,"p4_drum_dirtyperc_024.wav",70
Sample,81656,0,"p4_morse_l_dash.wav",70
Sample,81698,0,"p4_drum_dirtyperc_025.wav",70
Sample,81698,0,"p4_synth_weapon_263.wav",70
Sample,81698,0,"p4_morse_r2_dash.wav",70
Sample,81698,0,"p4_synth_seq_104.wav",70
Sample,81698,0,"p4_drum_breaks_012.wav",70
Sample,81698,0,"p4_drum_mainsnare_002.wav",70
Sample,81784,0,"p4_drum_breaks_013.wav",70
Sample,81784,0,"p4_drum_dirtyperc_026.wav",70
Sample,81784,0,"p4_drum_snareshot_1_001.wav",70
Sample,81784,0,"p4_synth_seq_105.wav",70
Sample,81784,0,"p4_morse_l_dot.wav",70
Sample,81826,0,"p4_morse_l_dash.wav",70
Sample,81826,0,"p4_drum_dirtyperc_027.wav",70
Sample,81869,0,"p4_synth_seq_064.wav",70
Sample,81869,0,"p4_synth_weapon_264.wav",70
Sample,81869,0,"p4_drum_dirtyperc_001.wav",70
Sample,81869,0,"p4_drum_breaks_001.wav",70
Sample,81890,0,"p4_synth_sax_037.wav",70
Sample,81911,0,"p4_morse_l_dot.wav",70
Sample,81954,0,"p4_morse_r2_dot.wav",70
Sample,81954,0,"p4_drum_mainpercsloop_002.wav",70
Sample,81954,0,"p4_synth_seq_065.wav",70
Sample,81954,0,"p4_drum_dirtyperc_002.wav",70
Sample,81997,0,"p4_morse_l_dot.wav",70
Sample,82039,0,"p4_synth_seq_066.wav",70
Sample,82039,0,"p4_morse_l_dot.wav",70
Sample,82039,0,"p4_morse_r2_dash.wav",70
Sample,82039,0,"p4_drum_dirtyperc_003.wav",70
Sample,82039,0,"p4_drum_breaks_002.wav",70
Sample,82039,0,"p4_drum_mainpercsloop_003.wav",70
Sample,82068,0,"p4_synth_sax_038.wav",70
Sample,82125,0,"p4_synth_seq_067.wav",70
Sample,82125,0,"p4_morse_l_dash.wav",70
Sample,82125,0,"p4_drum_mainpercsloop_004.wav",70
Sample,82125,0,"p4_drum_dirtyperc_004.wav",70
Sample,82125,0,"p4_drum_breaks_003.wav",70
Sample,82210,0,"p4_synth_weapon_265.wav",70
Sample,82210,0,"p4_morse_l_dot.wav",70
Sample,82210,0,"p4_drum_subsnare_2_001.wav",70
Sample,82210,0,"p4_synth_seq_068.wav",70
Sample,82210,0,"p4_drum_breaks_004.wav",70
Sample,82210,0,"p4_synth_sax_039.wav",70
Sample,82210,0,"p4_drum_dirtyperc_005.wav",70
Sample,82210,0,"p4_morse_r2_dot.wav",70
Sample,82253,0,"p4_morse_l_dot.wav",70
Sample,82295,0,"p4_synth_seq_069.wav",70
Sample,82295,0,"p4_morse_l_dot.wav",70
Sample,82295,0,"p4_drum_dirtyperc_006.wav",70
Sample,82295,0,"p4_morse_r2_dash.wav",70
Sample,82359,0,"p4_synth_sax_040.wav",70
Sample,82381,0,"p4_drum_dirtyperc_007.wav",70
Sample,82381,0,"p4_drum_breaks_005.wav",70
Sample,82381,0,"p4_synth_seq_070.wav",70
Sample,82381,0,"p4_morse_l_dot.wav",70
Sample,82423,0,"p4_morse_l_dot.wav",70
Sample,82466,0,"p4_morse_l_dash.wav",70
Sample,82466,0,"p4_synth_seq_071.wav",70
Sample,82466,0,"p4_drum_dirtyperc_008.wav",70
Sample,82466,0,"p4_drum_breaks_006.wav",70
Sample,82466,0,"p4_drum_subsnare_1_002.wav",70
Sample,82501,0,"p4_synth_sax_041.wav",70
Sample,82551,0,"p4_synth_seq_072.wav",70
Sample,82551,0,"p4_drum_breaks_007.wav",70
Sample,82551,0,"p4_drum_dirtyperc_009.wav",70
Sample,82551,0,"p4_synth_weapon_266.wav",70
Sample,82551,0,"p4_morse_r2_dot.wav",70
Sample,82594,0,"p4_morse_l_dot.wav",70
Sample,82636,0,"p4_drum_dirtyperc_010.wav",70
Sample,82636,0,"p4_drum_subsnare_2_001.wav",70
Sample,82636,0,"p4_morse_r2_dot.wav",70
Sample,82636,0,"p4_drum_breaks_008.wav",70
Sample,82636,0,"p4_synth_seq_073.wav",70
Sample,82636,0,"p4_morse_l_dot.wav",70
Sample,82636,0,"p4_synth_weapon_267.wav",70
Sample,82672,0,"p4_synth_sax_042.wav",70
Sample,82679,0,"p4_morse_l_dot.wav",70
Sample,82722,0,"p4_synth_seq_074.wav",70
Sample,82722,0,"p4_drum_breaks_009.wav",70
Sample,82722,0,"p4_drum_dirtyperc_011.wav",70
Sample,82722,0,"p4_morse_r2_dash.wav",70
Sample,82722,0,"p4_drum_mainpercsloop_010.wav",70
Sample,82807,0,"p4_synth_weapon_268.wav",70
Sample,82807,0,"p4_drum_breaks_010.wav",70
Sample,82807,0,"p4_morse_l_dot.wav",70
Sample,82807,0,"p4_synth_seq_075.wav",70
Sample,82807,0,"p4_drum_dirtyperc_012.wav",70
Sample,82850,0,"p4_morse_l_dot.wav",70
Sample,82857,0,"p4_synth_sax_043.wav",70
Sample,82892,0,"p4_morse_l_dot.wav",70
Sample,82892,0,"p4_synth_seq_076.wav",70
Sample,82892,0,"p4_synth_weapon_269.wav",70
Sample,82892,0,"p4_drum_dirtyperc_013.wav",70
Sample,82892,0,"p4_morse_r2_dot.wav",70
Sample,82892,0,"p4_drum_breaks_011.wav",70
Sample,82892,0,"p4_drum_subsnare_2_001.wav",70
Sample,82977,0,"p4_morse_r2_dot.wav",70
Sample,82977,0,"p4_synth_seq_077.wav",70
Sample,82977,0,"p4_drum_dirtyperc_014.wav",70
Sample,82977,0,"p4_morse_l_dot.wav",70
Sample,83006,0,"p4_synth_sax_044.wav",70
Sample,83020,0,"p4_morse_l_dot.wav",70
Sample,83063,0,"p4_drum_dirtyperc_015.wav",70
Sample,83063,0,"p4_synth_seq_078.wav",70
Sample,83063,0,"p4_drum_breaks_012.wav",70
Sample,83063,0,"p4_drum_mainsnare_002.wav",70
Sample,83063,0,"p4_synth_weapon_270.wav",70
Sample,83063,0,"p4_morse_l_dash.wav",70
Sample,83148,0,"p4_drum_dirtyperc_016.wav",70
Sample,83148,0,"p4_drum_breaks_013.wav",70
Sample,83148,0,"p4_synth_seq_079.wav",70
Sample,83148,0,"p4_morse_r2_dot.wav",70
Sample,83184,0,"p4_synth_sax_045.wav",70
Sample,83191,0,"p4_morse_l_dot.wav",70
Sample,83233,0,"p4_drum_dirtyperc_001.wav",70
Sample,83233,0,"p4_morse_l_dot.wav",70
Sample,83233,0,"p4_synth_seq_064.wav",70
Sample,83233,0,"p4_morse_r2_dot.wav",70
Sample,83233,0,"p4_drum_breaks_001.wav",70
Sample,83319,0,"p4_synth_seq_065.wav",70
Sample,83319,0,"p4_morse_l_dot.wav",70
Sample,83319,0,"p4_drum_dirtyperc_002.wav",70
Sample,83319,0,"p4_morse_r2_dash.wav",70
Sample,83319,0,"p4_drum_mainpercsloop_002.wav",70
Sample,83354,0,"p4_synth_sax_046.wav",70
Sample,83361,0,"p4_morse_l_dot.wav",70
Sample,83404,0,"p4_drum_mainpercsloop_003.wav",70
Sample,83404,0,"p4_drum_dirtyperc_003.wav",70
Sample,83404,0,"p4_drum_breaks_002.wav",70
Sample,83404,0,"p4_synth_seq_066.wav",70
Sample,83404,0,"p4_morse_l_dot.wav",70
Sample,83404,0,"p4_synth_weapon_271.wav",70
Sample,83489,0,"p4_synth_seq_067.wav",70
Sample,83489,0,"p4_drum_mainpercsloop_004.wav",70
Sample,83489,0,"p4_drum_dirtyperc_004.wav",70
Sample,83489,0,"p4_morse_r2_dash.wav",70
Sample,83489,0,"p4_drum_breaks_003.wav",70
Sample,83532,0,"p4_morse_l_dot.wav",70
Sample,83574,0,"p4_synth_seq_068.wav",70
Sample,83574,0,"p4_synth_weapon_272.wav",70
Sample,83574,0,"p4_drum_breaks_004.wav",70
Sample,83574,0,"p4_drum_dirtyperc_005.wav",70
Sample,83574,0,"p4_drum_subsnare_2_001.wav",70
Sample,83617,0,"p4_morse_l_dash.wav",70
Sample,83660,0,"p4_synth_seq_069.wav",70
Sample,83660,0,"p4_drum_dirtyperc_006.wav",70
Sample,83745,0,"p4_drum_breaks_005.wav",70
Sample,83745,0,"p4_synth_seq_070.wav",70
Sample,83745,0,"p4_drum_dirtyperc_007.wav",70
Sample,83788,0,"p4_morse_l_dash.wav",70
Sample,83830,0,"p4_drum_breaks_006.wav",70
Sample,83830,0,"p4_synth_seq_071.wav",70
Sample,83830,0,"p4_drum_dirtyperc_008.wav",70
Sample,83830,0,"p4_drum_subsnare_1_002.wav",70
Sample,83873,0,"p4_morse_l_dash.wav",70
Sample,83916,0,"p4_drum_dirtyperc_018.wav",70
Sample,83916,0,"p4_synth_seq_072.wav",70
Sample,83916,0,"p4_synth_weapon_273.wav",70
Sample,83916,0,"p4_drum_breaks_007.wav",70
Sample,83958,0,"p4_morse_l_dash.wav",70
Sample,84001,0,"p4_drum_subsnare_2_001.wav",70
Sample,84001,0,"p4_drum_breaks_008.wav",70
Sample,84001,0,"p4_synth_weapon_274.wav",70
Sample,84001,0,"p4_drum_dirtyperc_019.wav",70
Sample,84001,0,"p4_synth_seq_073.wav",70
Sample,84086,0,"p4_synth_weapon_275.wav",70
Sample,84086,0,"p4_drum_mainpercsloop_010.wav",70
Sample,84086,0,"p4_morse_l_dot.wav",70
Sample,84086,0,"p4_drum_dirtyperc_020.wav",70
Sample,84086,0,"p4_drum_breaks_009.wav",70
Sample,84086,0,"p4_synth_seq_074.wav",70
Sample,84129,0,"p4_morse_l_dash.wav",70
Sample,84171,0,"p4_synth_seq_075.wav",70
Sample,84171,0,"p4_synth_weapon_276.wav",70
Sample,84171,0,"p4_drum_dirtyperc_021.wav",70
Sample,84171,0,"p4_drum_breaks_010.wav",70
Sample,84214,0,"p4_morse_l_dash.wav",70
Sample,84257,0,"p4_drum_subsnare_2_001.wav",70
Sample,84257,0,"p4_synth_seq_081.wav",70
Sample,84257,0,"p4_synth_weapon_277.wav",70
Sample,84257,0,"p4_drum_breaks_011.wav",70
Sample,84257,0,"p4_drum_dirtyperc_022.wav",70
Sample,84299,0,"p4_morse_l_dot.wav",70
Sample,84342,0,"p4_synth_weapon_278.wav",70
Sample,84342,0,"p4_drum_dirtyperc_023.wav",70
Sample,84342,0,"p4_synth_seq_082.wav",70
Sample,84385,0,"p4_morse_l_dot.wav",70
Sample,84385,0,"p4_drum_dirtyperc_024.wav",70
Sample,84427,0,"p4_drum_dirtyperc_025.wav",70
Sample,84427,0,"p4_drum_breaks_012.wav",70
Sample,84427,0,"p4_synth_seq_083.wav",70
Sample,84427,0,"p4_drum_mainsnare_002.wav",70
Sample,84427,0,"p4_synth_weapon_279.wav",70
Sample,84470,0,"p4_morse_l_dot.wav",70
Sample,84513,0,"p4_drum_breaks_013.wav",70
Sample,84513,0,"p4_drum_snareshot_2_001.wav",70
Sample,84513,0,"p4_morse_l_dash.wav",70
Sample,84513,0,"p4_synth_weapon_280.wav",70
Sample,84513,0,"p4_synth_seq_084.wav",70
Sample,84513,0,"p4_drum_mainpercsloop_008.wav",70
Sample,84513,0,"p4_drum_dirtyperc_026.wav",70
Sample,84555,0,"p4_drum_dirtyperc_027.wav",70
Sample,84598,0,"p4_drum_dirtyperc_001.wav",70
Sample,84598,0,"p4_synth_seq_043.wav",70
Sample,84598,0,"p4_morse_r2_dot.wav",70
Sample,84598,0,"p4_morse_l_dot.wav",70
Sample,84598,0,"p4_synth_sax_001.wav",70
Sample,84598,0,"p4_synth_weapon_281.wav",70
Sample,84598,0,"p4_drum_breaks_001.wav",70
Sample,84683,0,"p4_drum_mainpercsloop_002.wav",70
Sample,84683,0,"p4_morse_l_dot.wav",70
Sample,84683,0,"p4_drum_dirtyperc_002.wav",70
Sample,84683,0,"p4_morse_r2_dash.wav",70
Sample,84683,0,"p4_synth_seq_044.wav",70
Sample,84726,0,"p4_morse_l_dash.wav",70
Sample,84733,0,"p4_synth_sax_002.wav",70
Sample,84768,0,"p4_synth_seq_045.wav",70
Sample,84768,0,"p4_drum_dirtyperc_003.wav",70
Sample,84768,0,"p4_drum_mainpercsloop_003.wav",70
Sample,84768,0,"p4_drum_breaks_002.wav",70
Sample,84854,0,"p4_drum_dirtyperc_004.wav",70
Sample,84854,0,"p4_drum_mainpercsloop_004.wav",70
Sample,84854,0,"p4_drum_breaks_003.wav",70
Sample,84854,0,"p4_morse_r2_dot.wav",70
Sample,84854,0,"p4_synth_seq_046.wav",70
Sample,84896,0,"p4_morse_l_dot.wav",70
Sample,84918,0,"p4_synth_sax_003.wav",70
Sample,84939,0,"p4_drum_dirtyperc_005.wav",70
Sample,84939,0,"p4_drum_subsnare_2_001.wav",70
Sample,84939,0,"p4_synth_weapon_282.wav",70
Sample,84939,0,"p4_synth_seq_047.wav",70
Sample,84939,0,"p4_morse_l_dot.wav",70
Sample,84939,0,"p4_drum_breaks_004.wav",70
Sample,85024,0,"p4_morse_l_dot.wav",70
Sample,85024,0,"p4_drum_dirtyperc_006.wav",70
Sample,85024,0,"p4_synth_seq_048.wav",70
Sample,85024,0,"p4_morse_r2_dot.wav",70
Sample,85067,0,"p4_morse_l_dash.wav",70
Sample,85102,0,"p4_synth_sax_004.wav",70
Sample,85110,0,"p4_drum_dirtyperc_007.wav",70
Sample,85110,0,"p4_drum_breaks_005.wav",70
Sample,85110,0,"p4_drum_mainsnare_002.wav",70
Sample,85110,0,"p4_synth_seq_049.wav",70
Sample,85110,0,"p4_morse_r2_dash.wav",70
Sample,85152,0,"p4_morse_l_dot.wav",70
Sample,85195,0,"p4_synth_seq_050.wav",70
Sample,85195,0,"p4_drum_breaks_006.wav",70
Sample,85195,0,"p4_drum_dirtyperc_008.wav",70
Sample,85195,0,"p4_morse_l_dot.wav",70
Sample,85195,0,"p4_drum_subsnare_1_002.wav",70
Sample,85273,0,"p4_synth_sax_005.wav",70
Sample,85280,0,"p4_drum_dirtyperc_009.wav",70
Sample,85280,0,"p4_morse_l_dot.wav",70
Sample,85280,0,"p4_synth_weapon_283.wav",70
Sample,85280,0,"p4_drum_breaks_007.wav",70
Sample,85280,0,"p4_synth_seq_051.wav",70
Sample,85280,0,"p4_morse_r2_dot.wav",70
Sample,85323,0,"p4_morse_l_dash.wav",70
Sample,85365,0,"p4_synth_weapon_284.wav",70
Sample,85365,0,"p4_synth_seq_052.wav",70
Sample,85365,0,"p4_morse_r2_dot.wav",70
Sample,85365,0,"p4_drum_subsnare_2_001.wav",70
Sample,85365,0,"p4_drum_breaks_008.wav",70
Sample,85365,0,"p4_drum_dirtyperc_010.wav",70
Sample,85408,0,"p4_morse_l_dot.wav",70
Sample,85451,0,"p4_synth_seq_053.wav",70
Sample,85451,0,"p4_drum_dirtyperc_011.wav",70
Sample,85451,0,"p4_drum_mainpercsloop_010.wav",70
Sample,85451,0,"p4_drum_breaks_009.wav",70
Sample,85451,0,"p4_morse_l_dot.wav",70
Sample,85458,0,"p4_synth_sax_006.wav",70
Sample,85536,0,"p4_morse_l_dash.wav",70
Sample,85536,0,"p4_morse_r2_dash.wav",70
Sample,85536,0,"p4_synth_seq_054.wav",70
Sample,85536,0,"p4_drum_dirtyperc_012.wav",70
Sample,85536,0,"p4_drum_mainpercsloop_011.wav",70
Sample,85536,0,"p4_synth_weapon_285.wav",70
Sample,85536,0,"p4_drum_breaks_010.wav",70
Sample,85621,0,"p4_drum_breaks_011.wav",70
Sample,85621,0,"p4_drum_dirtyperc_013.wav",70
Sample,85621,0,"p4_morse_l_dash.wav",70
Sample,85621,0,"p4_drum_subsnare_2_001.wav",70
Sample,85621,0,"p4_synth_seq_055.wav",70
Sample,85621,0,"p4_synth_weapon_286.wav",70
Sample,85628,0,"p4_synth_sax_007.wav",70
Sample,85706,0,"p4_morse_r2_dash.wav",70
Sample,85706,0,"p4_drum_dirtyperc_014.wav",70
Sample,85706,0,"p4_synth_seq_056.wav",70
Sample,85706,0,"p4_morse_l_dash.wav",70
Sample,85792,0,"p4_drum_breaks_012.wav",70
Sample,85792,0,"p4_synth_seq_057.wav",70
Sample,85792,0,"p4_synth_weapon_287.wav",70
Sample,85792,0,"p4_drum_mainsnare_002.wav",70
Sample,85792,0,"p4_drum_dirtyperc_015.wav",70
Sample,85834,0,"p4_morse_l_dot.wav",70
Sample,85877,0,"p4_synth_seq_058.wav",70
Sample,85877,0,"p4_drum_dirtyperc_016.wav",70
Sample,85877,0,"p4_synth_sax_008.wav",70
Sample,85877,0,"p4_drum_breaks_013.wav",70
Sample,85877,0,"p4_morse_l_dash.wav",70
Sample,85877,0,"p4_morse_r2_dash.wav",70
Sample,85962,0,"p4_drum_dirtyperc_001.wav",70
Sample,85962,0,"p4_synth_seq_043.wav",70
Sample,85962,0,"p4_drum_breaks_001.wav",70
Sample,85962,0,"p4_morse_l_dot.wav",70
Sample,85984,0,"p4_synth_sax_009.wav",70
Sample,86048,0,"p4_drum_dirtyperc_002.wav",70
Sample,86048,0,"p4_morse_l_dot.wav",70
Sample,86048,0,"p4_drum_mainpercsloop_002.wav",70
Sample,86048,0,"p4_morse_r2_dot.wav",70
Sample,86048,0,"p4_synth_seq_044.wav",70
Sample,86090,0,"p4_morse_l_dot.wav",70
Sample,86133,0,"p4_drum_mainpercsloop_003.wav",70
Sample,86133,0,"p4_drum_dirtyperc_003.wav",70
Sample,86133,0,"p4_synth_seq_045.wav",70
Sample,86133,0,"p4_morse_l_dash.wav",70
Sample,86133,0,"p4_drum_breaks_002.wav",70
Sample,86133,0,"p4_synth_weapon_288.wav",70
Sample,86161,0,"p4_synth_sax_010.wav",70
Sample,86218,0,"p4_drum_breaks_003.wav",70
Sample,86218,0,"p4_drum_mainpercsloop_004.wav",70
Sample,86218,0,"p4_drum_dirtyperc_004.wav",70
Sample,86218,0,"p4_morse_r2_dot.wav",70
Sample,86218,0,"p4_synth_seq_046.wav",70
Sample,86261,0,"p4_morse_l_dash.wav",70
Sample,86303,0,"p4_drum_breaks_004.wav",70
Sample,86303,0,"p4_drum_subsnare_2_001.wav",70
Sample,86303,0,"p4_morse_r2_dot.wav",70
Sample,86303,0,"p4_drum_dirtyperc_005.wav",70
Sample,86303,0,"p4_synth_weapon_289.wav",70
Sample,86303,0,"p4_synth_seq_047.wav",70
Sample,86346,0,"p4_morse_l_dash.wav",70
Sample,86360,0,"p4_synth_sax_011.wav",70
Sample,86389,0,"p4_synth_seq_048.wav",70
Sample,86389,0,"p4_drum_dirtyperc_006.wav",70
Sample,86474,0,"p4_drum_breaks_005.wav",70
Sample,86474,0,"p4_drum_dirtyperc_007.wav",70
Sample,86474,0,"p4_synth_seq_049.wav",70
Sample,86474,0,"p4_morse_r2_dash.wav",70
Sample,86517,0,"p4_morse_l_dot.wav",70
Sample,86559,0,"p4_drum_subsnare_1_002.wav",70
Sample,86559,0,"p4_morse_l_dot.wav",70
Sample,86559,0,"p4_drum_breaks_006.wav",70
Sample,86559,0,"p4_synth_seq_050.wav",70
Sample,86559,0,"p4_drum_dirtyperc_008.wav",70
Sample,86602,0,"p4_morse_l_dot.wav",70
Sample,86645,0,"p4_synth_seq_051.wav",70
Sample,86645,0,"p4_drum_breaks_007.wav",70
Sample,86645,0,"p4_synth_weapon_290.wav",70
Sample,86645,0,"p4_morse_r2_dot.wav",70
Sample,86645,0,"p4_drum_dirtyperc_018.wav",70
Sample,86687,0,"p4_morse_l_dot.wav",70
Sample,86730,0,"p4_drum_breaks_008.wav",70
Sample,86730,0,"p4_drum_subsnare_2_001.wav",70
Sample,86730,0,"p4_synth_weapon_291.wav",70
Sample,86730,0,"p4_drum_dirtyperc_019.wav",70
Sample,86730,0,"p4_synth_seq_052.wav",70
Sample,86730,0,"p4_morse_r2_dot.wav",70
Sample,86772,0,"p4_morse_l_dash.wav",70
Sample,86815,0,"p4_morse_r2_dash.wav",70
Sample,86815,0,"p4_drum_breaks_009.wav",70
Sample,86815,0,"p4_drum_dirtyperc_020.wav",70
Sample,86815,0,"p4_synth_seq_053.wav",70
Sample,86858,0,"p4_morse_l_dash.wav",70
Sample,86900,0,"p4_synth_weapon_292.wav",70
Sample,86900,0,"p4_synth_seq_054.wav",70
Sample,86900,0,"p4_drum_dirtyperc_021.wav",70
Sample,86900,0,"p4_drum_breaks_010.wav",70
Sample,86900,0,"p4_drum_mainpercsloop_010.wav",70
Sample,86943,0,"p4_morse_l_dot.wav",70
Sample,86986,0,"p4_synth_weapon_293.wav",70
Sample,86986,0,"p4_drum_breaks_011.wav",70
Sample,86986,0,"p4_morse_l_dash.wav",70
Sample,86986,0,"p4_drum_subsnare_2_001.wav",70
Sample,86986,0,"p4_synth_seq_060.wav",70
Sample,86986,0,"p4_drum_dirtyperc_022.wav",70
Sample,86986,0,"p4_morse_r2_dash.wav",70
Sample,87071,0,"p4_drum_dirtyperc_023.wav",70
Sample,87071,0,"p4_synth_seq_061.wav",70
Sample,87114,0,"p4_morse_l_dot.wav",70
Sample,87114,0,"p4_drum_dirtyperc_024.wav",70
Sample,87156,0,"p4_drum_mainsnare_002.wav",70
Sample,87156,0,"p4_drum_breaks_012.wav",70
Sample,87156,0,"p4_morse_l_dot.wav",70
Sample,87156,0,"p4_drum_dirtyperc_025.wav",70
Sample,87156,0,"p4_synth_seq_062.wav",70
Sample,87156,0,"p4_synth_weapon_294.wav",70
Sample,87199,0,"p4_morse_l_dash.wav",70
Sample,87242,0,"p4_synth_seq_063.wav",70
Sample,87242,0,"p4_drum_breaks_013.wav",70
Sample,87242,0,"p4_drum_dirtyperc_026.wav",70
Sample,87242,0,"p4_morse_r2_dot.wav",70
Sample,87242,0,"p4_drum_snareshot_1_001.wav",70
Sample,87284,0,"p4_drum_dirtyperc_027.wav",70
Sample,87327,0,"p4_synth_seq_107.wav",70
Sample,87327,0,"p4_synth_weapon_295.wav",70
Sample,87327,0,"p4_drum_breaks_001.wav",70
Sample,87327,0,"p4_drum_dirtyperc_001.wav",70
Sample,87327,0,"p4_morse_l_dot.wav",70
Sample,87327,0,"p4_morse_r2_dash.wav",70
Sample,87412,0,"p4_drum_mainpercsloop_002.wav",70
Sample,87412,0,"p4_drum_dirtyperc_002.wav",70
Sample,87412,0,"p4_synth_seq_108.wav",70
Sample,87412,0,"p4_morse_l_dash.wav",70
Sample,87497,0,"p4_synth_seq_109.wav",70
Sample,87497,0,"p4_drum_mainpercsloop_003.wav",70
Sample,87497,0,"p4_morse_r2_dot.wav",70
Sample,87497,0,"p4_drum_dirtyperc_003.wav",70
Sample,87497,0,"p4_morse_l_dot.wav",70
Sample,87497,0,"p4_drum_breaks_002.wav",70
Sample,87583,0,"p4_drum_dirtyperc_004.wav",70
Sample,87583,0,"p4_morse_l_dash.wav",70
Sample,87583,0,"p4_drum_mainpercsloop_004.wav",70
Sample,87583,0,"p4_synth_seq_110.wav",70
Sample,87583,0,"p4_drum_breaks_003.wav",70
Sample,87583,0,"p4_morse_r2_dot.wav",70
Sample,87668,0,"p4_drum_subsnare_2_001.wav",70
Sample,87668,0,"p4_synth_weapon_296.wav",70
Sample,87668,0,"p4_drum_breaks_004.wav",70
Sample,87668,0,"p4_drum_dirtyperc_005.wav",70
Sample,87668,0,"p4_synth_seq_111.wav",70
Sample,87711,0,"p4_morse_l_dot.wav",70
Sample,87753,0,"p4_drum_dirtyperc_006.wav",70
Sample,87753,0,"p4_synth_seq_112.wav",70
Sample,87753,0,"p4_morse_l_dot.wav",70
Sample,87753,0,"p4_morse_r2_dash.wav",70
Sample,87796,0,"p4_morse_l_dash.wav",70
Sample,87838,0,"p4_synth_seq_113.wav",70
Sample,87838,0,"p4_drum_dirtyperc_007.wav",70
Sample,87838,0,"p4_drum_breaks_005.wav",70
Sample,87924,0,"p4_drum_subsnare_1_002.wav",70
Sample,87924,0,"p4_morse_l_dot.wav",70
Sample,87924,0,"p4_drum_dirtyperc_008.wav",70
Sample,87924,0,"p4_drum_breaks_006.wav",70
Sample,87924,0,"p4_synth_seq_114.wav",70
Sample,87924,0,"p4_morse_r2_dash.wav",70
Sample,87966,0,"p4_morse_l_dot.wav",70
Sample,88009,0,"p4_morse_l_dash.wav",70
Sample,88009,0,"p4_drum_dirtyperc_009.wav",70
Sample,88009,0,"p4_drum_breaks_007.wav",70
Sample,88009,0,"p4_synth_seq_115.wav",70
Sample,88009,0,"p4_synth_weapon_297.wav",70
Sample,88094,0,"p4_synth_seq_116.wav",70
Sample,88094,0,"p4_synth_weapon_298.wav",70
Sample,88094,0,"p4_morse_r2_dot.wav",70
Sample,88094,0,"p4_drum_breaks_008.wav",70
Sample,88094,0,"p4_drum_dirtyperc_010.wav",70
Sample,88094,0,"p4_drum_subsnare_2_001.wav",70
Sample,88137,0,"p4_morse_l_dot.wav",70
Sample,88180,0,"p4_drum_dirtyperc_011.wav",70
Sample,88180,0,"p4_drum_mainpercsloop_010.wav",70
Sample,88180,0,"p4_morse_l_dash.wav",70
Sample,88180,0,"p4_drum_breaks_009.wav",70
Sample,88180,0,"p4_synth_seq_117.wav",70
Sample,88180,0,"p4_morse_r2_dash.wav",70
Sample,88265,0,"p4_synth_weapon_299.wav",70
Sample,88265,0,"p4_drum_breaks_010.wav",70
Sample,88265,0,"p4_drum_dirtyperc_012.wav",70
Sample,88265,0,"p4_drum_mainpercsloop_011.wav",70
Sample,88265,0,"p4_synth_seq_118.wav",70
Sample,88265,0,"p4_morse_l_dot.wav",70
Sample,88350,0,"p4_synth_weapon_300.wav",70
Sample,88350,0,"p4_drum_subsnare_2_001.wav",70
Sample,88350,0,"p4_morse_r2_dot.wav",70
Sample,88350,0,"p4_drum_dirtyperc_013.wav",70
Sample,88350,0,"p4_drum_breaks_011.wav",70
Sample,88350,0,"p4_synth_seq_119.wav",70
Sample,88393,0,"p4_morse_l_dot.wav",70
Sample,88435,0,"p4_drum_dirtyperc_014.wav",70
Sample,88435,0,"p4_morse_l_dot.wav",70
Sample,88435,0,"p4_synth_seq_120.wav",70
Sample,88521,0,"p4_synth_seq_121.wav",70
Sample,88521,0,"p4_morse_r2_dash.wav",70
Sample,88521,0,"p4_drum_dirtyperc_015.wav",70
Sample,88521,0,"p4_drum_mainsnare_002.wav",70
Sample,88521,0,"p4_drum_breaks_012.wav",70
Sample,88521,0,"p4_morse_l_dot.wav",70
Sample,88521,0,"p4_synth_weapon_301.wav",70
Sample,88563,0,"p4_morse_l_dash.wav",70
Sample,88606,0,"p4_synth_seq_122.wav",70
Sample,88606,0,"p4_drum_breaks_013.wav",70
Sample,88606,0,"p4_drum_dirtyperc_016.wav",70
Sample,88649,0,"p4_morse_l_dash.wav",70
Sample,88691,0,"p4_morse_r2_dot.wav",70
Sample,88691,0,"p4_drum_dirtyperc_001.wav",70
Sample,88691,0,"p4_synth_seq_022.wav",70
Sample,88691,0,"p4_drum_breaks_001.wav",70
Sample,88734,0,"p4_morse_l_dot.wav",70
Sample,88777,0,"p4_synth_uplift_017.wav",70
Sample,88777,0,"p4_drum_mainpercsloop_002.wav",70
Sample,88777,0,"p4_synth_seq_023.wav",70
Sample,88777,0,"p4_drum_dirtyperc_002.wav",70
Sample,88777,0,"p4_morse_r2_dash.wav",70
Sample,88819,0,"p4_morse_l_dot.wav",70
Sample,88862,0,"p4_drum_mainpercsloop_003.wav",70
Sample,88862,0,"p4_synth_weapon_302.wav",70
Sample,88862,0,"p4_morse_l_dot.wav",70
Sample,88862,0,"p4_drum_dirtyperc_003.wav",70
Sample,88862,0,"p4_synth_uplift_018.wav",70
Sample,88862,0,"p4_synth_seq_024.wav",70
Sample,88862,0,"p4_drum_breaks_002.wav",70
Sample,88904,0,"p4_morse_l_dot.wav",70
Sample,88947,0,"p4_drum_mainpercsloop_004.wav",70
Sample,88947,0,"p4_synth_seq_025.wav",70
Sample,88947,0,"p4_morse_r2_dot.wav",70
Sample,88947,0,"p4_synth_uplift_019.wav",70
Sample,88947,0,"p4_drum_dirtyperc_004.wav",70
Sample,88947,0,"p4_drum_breaks_003.wav",70
Sample,88990,0,"p4_morse_l_dash.wav",70
Sample,89032,0,"p4_drum_dirtyperc_005.wav",70
Sample,89032,0,"p4_morse_r2_dot.wav",70
Sample,89032,0,"p4_drum_breaks_004.wav",70
Sample,89032,0,"p4_synth_seq_026.wav",70
Sample,89032,0,"p4_synth_weapon_303.wav",70
Sample,89032,0,"p4_synth_uplift_020.wav",70
Sample,89032,0,"p4_drum_subsnare_2_001.wav",70
Sample,89075,0,"p4_morse_l_dash.wav",70
Sample,89118,0,"p4_synth_seq_027.wav",70
Sample,89118,0,"p4_synth_uplift_021.wav",70
Sample,89118,0,"p4_drum_dirtyperc_006.wav",70
Sample,89160,0,"p4_morse_l_dash.wav",70
Sample,89203,0,"p4_synth_uplift_022.wav",70
Sample,89203,0,"p4_synth_seq_028.wav",70
Sample,89203,0,"p4_drum_dirtyperc_007.wav",70
Sample,89203,0,"p4_drum_breaks_005.wav",70
Sample,89288,0,"p4_drum_dirtyperc_008.wav",70
Sample,89288,0,"p4_synth_uplift_023.wav",70
Sample,89288,0,"p4_synth_seq_029.wav",70
Sample,89288,0,"p4_drum_breaks_006.wav",70
Sample,89288,0,"p4_morse_l_dot.wav",70
Sample,89331,0,"p4_morse_l_dot.wav",70
Sample,89374,0,"p4_synth_weapon_304.wav",70
Sample,89374,0,"p4_morse_l_dot.wav",70
Sample,89374,0,"p4_synth_uplift_024.wav",70
Sample,89374,0,"p4_drum_breaks_007.wav",70
Sample,89374,0,"p4_drum_dirtyperc_018.wav",70
Sample,89374,0,"p4_synth_seq_030.wav",70
Sample,89459,0,"p4_drum_dirtyperc_019.wav",70
Sample,89459,0,"p4_synth_uplift_025.wav",70
Sample,89459,0,"p4_synth_weapon_305.wav",70
Sample,89459,0,"p4_synth_seq_031.wav",70
Sample,89459,0,"p4_drum_breaks_008.wav",70
Sample,89459,0,"p4_drum_subsnare_2_001.wav",70
Sample,89544,0,"p4_drum_mainpercsloop_010.wav",70
Sample,89544,0,"p4_drum_dirtyperc_020.wav",70
Sample,89544,0,"p4_synth_uplift_026.wav",70
Sample,89544,0,"p4_synth_seq_032.wav",70
Sample,89544,0,"p4_synth_weapon_306.wav",70
Sample,89544,0,"p4_drum_breaks_009.wav",70
Sample,89629,0,"p4_synth_weapon_307.wav",70
Sample,89629,0,"p4_drum_dirtyperc_021.wav",70
Sample,89629,0,"p4_synth_seq_033.wav",70
Sample,89629,0,"p4_drum_breaks_010.wav",70
Sample,89629,0,"p4_synth_uplift_027.wav",70
Sample,89629,0,"p4_drum_mainpercsloop_011.wav",70
Sample,89715,0,"p4_drum_dirtyperc_022.wav",70
Sample,89715,0,"p4_synth_uplift_028.wav",70
Sample,89715,0,"p4_synth_weapon_308.wav",70
Sample,89715,0,"p4_drum_breaks_011.wav",70
Sample,89715,0,"p4_synth_seq_039.wav",70
Sample,89715,0,"p4_drum_subsnare_2_001.wav",70
Sample,89800,0,"p4_drum_dirtyperc_023.wav",70
Sample,89800,0,"p4_synth_uplift_029.wav",70
Sample,89800,0,"p4_synth_weapon_309.wav",70
Sample,89800,0,"p4_synth_seq_040.wav",70
Sample,89843,0,"p4_drum_dirtyperc_024.wav",70
Sample,89885,0,"p4_synth_weapon_310.wav",70
Sample,89885,0,"p4_synth_seq_041.wav",70
Sample,89885,0,"p4_synth_uplift_030.wav",70
Sample,89885,0,"p4_drum_mainsnare_002.wav",70
Sample,89885,0,"p4_drum_dirtyperc_025.wav",70
Sample,89885,0,"p4_drum_breaks_012.wav",70
Sample,89971,0,"p4_drum_dirtyperc_026.wav",70
Sample,89971,0,"p4_drum_mainpercsloop_008.wav",70
Sample,89971,0,"p4_synth_weapon_311.wav",70
Sample,89971,0,"p4_synth_seq_042.wav",70
Sample,89971,0,"p4_drum_breaks_013.wav",70
Sample,89971,0,"p4_synth_uplift_031.wav",70
Sample,90013,0,"p4_drum_dirtyperc_027.wav",70
Sample,90056,0,"p4_fx_misc1_001.wav",70
Sample,90056,0,"p4_drum_mainkick_2.wav",70
Sample,90056,0,"p4_drum_breaks_001.wav",70
Sample,90056,0,"p4_fx_impact1_003.wav",70
Sample,90056,0,"p4_bgm_003.wav",70
Sample,90056,0,"p4_morse_l_dash.wav",70
Sample,90056,0,"p4_morse_r2_dash.wav",70
Sample,90056,0,"p4_drum_other_034.wav",70
Sample,90141,0,"p4_morse_l_dot.wav",70
Sample,90184,0,"p4_morse_l_dot.wav",70
Sample,90226,0,"p4_morse_r2_dash.wav",70
Sample,90226,0,"p4_morse_l_dot.wav",70
Sample,90226,0,"p4_drum_breaks_002.wav",70
Sample,90312,0,"p4_drum_breaks_003.wav",70
Sample,90312,0,"p4_morse_l_dot.wav",70
Sample,90312,0,"p4_drum_other_035.wav",70
Sample,90397,0,"p4_morse_l_dot.wav",70
Sample,90397,0,"p4_drum_other_036.wav",70
Sample,90397,0,"p4_morse_r2_dot.wav",70
Sample,90397,0,"p4_drum_breaks_004.wav",70
Sample,90440,0,"p4_morse_l_dash.wav",70
Sample,90482,0,"p4_drum_other_037.wav",70
Sample,90482,0,"p4_morse_r2_dash.wav",70
Sample,90567,0,"p4_drum_breaks_005.wav",70
Sample,90567,0,"p4_morse_l_dash.wav",70
Sample,90567,0,"p4_drum_other_038.wav",70
Sample,90653,0,"p4_drum_breaks_006.wav",70
Sample,90653,0,"p4_morse_r2_dash.wav",70
Sample,90695,0,"p4_morse_l_dot.wav",70
Sample,90738,0,"p4_morse_l_dot.wav",70
Sample,90738,0,"p4_drum_breaks_007.wav",70
Sample,90738,0,"p4_synth_sax_012.wav",70
Sample,90823,0,"p4_drum_other_039.wav",70
Sample,90823,0,"p4_drum_breaks_008.wav",70
Sample,90866,0,"p4_morse_l_dash.wav",70
Sample,90909,0,"p4_drum_other_040.wav",70
Sample,90909,0,"p4_morse_r2_dash.wav",70
Sample,90909,0,"p4_drum_breaks_009.wav",70
Sample,90951,0,"p4_morse_l_dash.wav",70
Sample,90994,0,"p4_drum_other_041.wav",70
Sample,90994,0,"p4_drum_breaks_010.wav",70
Sample,91079,0,"p4_drum_other_042.wav",70
Sample,91079,0,"p4_morse_r2_dash.wav",70
Sample,91079,0,"p4_morse_l_dash.wav",70
Sample,91079,0,"p4_drum_breaks_011.wav",70
Sample,91164,0,"p4_morse_l_dash.wav",70
Sample,91250,0,"p4_drum_breaks_012.wav",70
Sample,91250,0,"p4_morse_l_dash.wav",70
Sample,91250,0,"p4_morse_r2_dash.wav",70
Sample,91335,0,"p4_drum_breaks_013.wav",70
Sample,91378,0,"p4_morse_l_dot.wav",70
Sample,91420,0,"p4_drum_other_043.wav",70
Sample,91420,0,"p4_drum_breaks_001.wav",70
Sample,91420,0,"p4_morse_l_dash.wav",70
Sample,91506,0,"p4_morse_r2_dash.wav",70
Sample,91506,0,"p4_morse_l_dot.wav",70
Sample,91591,0,"p4_drum_breaks_002.wav",70
Sample,91591,0,"p4_drum_other_044.wav",70
Sample,91591,0,"p4_morse_l_dash.wav",70
Sample,91676,0,"p4_drum_breaks_003.wav",70
Sample,91676,0,"p4_morse_r2_dot.wav",70
Sample,91719,0,"p4_morse_l_dot.wav",70
Sample,91761,0,"p4_drum_breaks_004.wav",70
Sample,91761,0,"p4_morse_l_dot.wav",70
Sample,91761,0,"p4_morse_r2_dot.wav",70
Sample,91804,0,"p4_morse_l_dash.wav",70
Sample,91847,0,"p4_morse_r2_dot.wav",70
Sample,91932,0,"p4_drum_other_045.wav",70
Sample,91932,0,"p4_drum_breaks_005.wav",70
Sample,91932,0,"p4_morse_l_dot.wav",70
Sample,91975,0,"p4_morse_l_dot.wav",70
Sample,92017,0,"p4_morse_r2_dot.wav",70
Sample,92017,0,"p4_drum_breaks_006.wav",70
Sample,92103,0,"p4_morse_r2_dot.wav",70
Sample,92103,0,"p4_drum_breaks_007.wav",70
Sample,92103,0,"p4_drum_other_046.wav",70
Sample,92103,0,"p4_morse_l_dot.wav",70
Sample,92145,0,"p4_morse_l_dot.wav",70
Sample,92188,0,"p4_drum_breaks_008.wav",70
Sample,92230,0,"p4_morse_l_dash.wav",70
Sample,92273,0,"p4_morse_r2_dot.wav",70
Sample,92273,0,"p4_drum_breaks_009.wav",70
Sample,92316,0,"p4_morse_l_dot.wav",70
Sample,92358,0,"p4_drum_breaks_010.wav",70
Sample,92358,0,"p4_morse_r2_dash.wav",70
Sample,92444,0,"p4_drum_breaks_011.wav",70
Sample,92444,0,"p4_morse_l_dash.wav",70
Sample,92444,0,"p4_drum_other_047.wav",70
Sample,92529,0,"p4_morse_l_dot.wav",70
Sample,92572,0,"p4_morse_l_dot.wav",70
Sample,92614,0,"p4_morse_r2_dot.wav",70
Sample,92614,0,"p4_drum_breaks_012.wav",70
Sample,92657,0,"p4_morse_l_dash.wav",70
Sample,92699,0,"p4_drum_breaks_013.wav",70
Sample,92699,0,"p4_morse_r2_dot.wav",70
Sample,92742,0,"p4_morse_l_dash.wav",70
Sample,92785,0,"p4_drum_other_048.wav",70
Sample,92785,0,"p4_morse_r2_dash.wav",70
Sample,92785,0,"p4_drum_breaks_001.wav",70
Sample,92827,0,"p4_morse_l_dash.wav",70
Sample,92955,0,"p4_drum_breaks_002.wav",70
Sample,92955,0,"p4_morse_l_dash.wav",70
Sample,92955,0,"p4_morse_r2_dot.wav",70
Sample,93041,0,"p4_morse_r2_dot.wav",70
Sample,93041,0,"p4_morse_l_dash.wav",70
Sample,93041,0,"p4_drum_other_049.wav",70
Sample,93041,0,"p4_drum_breaks_003.wav",70
Sample,93126,0,"p4_drum_breaks_004.wav",70
Sample,93126,0,"p4_drum_other_050.wav",70
Sample,93169,0,"p4_morse_l_dot.wav",70
Sample,93211,0,"p4_drum_other_051.wav",70
Sample,93211,0,"p4_morse_l_dot.wav",70
Sample,93211,0,"p4_morse_r2_dot.wav",70
Sample,93296,0,"p4_morse_r2_dot.wav",70
Sample,93296,0,"p4_morse_l_dash.wav",70
Sample,93296,0,"p4_drum_other_052.wav",70
Sample,93296,0,"p4_drum_breaks_005.wav",70
Sample,93382,0,"p4_morse_r2_dash.wav",70
Sample,93382,0,"p4_morse_l_dot.wav",70
Sample,93382,0,"p4_drum_breaks_006.wav",70
Sample,93467,0,"p4_drum_breaks_007.wav",70
Sample,93467,0,"p4_morse_l_dash.wav",70
Sample,93552,0,"p4_drum_other_053.wav",70
Sample,93552,0,"p4_drum_breaks_008.wav",70
Sample,93552,0,"p4_morse_l_dash.wav",70
Sample,93638,0,"p4_drum_breaks_009.wav",70
Sample,93638,0,"p4_drum_other_054.wav",70
Sample,93638,0,"p4_morse_l_dash.wav",70
Sample,93723,0,"p4_drum_breaks_010.wav",70
Sample,93723,0,"p4_drum_other_055.wav",70
Sample,93808,0,"p4_drum_other_056.wav",70
Sample,93808,0,"p4_morse_l_dash.wav",70
Sample,93808,0,"p4_drum_breaks_011.wav",70
Sample,93808,0,"p4_morse_r2_dash.wav",70
Sample,93893,0,"p4_morse_l_dash.wav",70
Sample,93979,0,"p4_morse_r2_dash.wav",70
Sample,93979,0,"p4_drum_other_057.wav",70
Sample,93979,0,"p4_drum_breaks_012.wav",70
Sample,94021,0,"p4_morse_l_dash.wav",70
Sample,94064,0,"p4_drum_breaks_013.wav",70
Sample,94107,0,"p4_morse_l_dash.wav",70
Sample,94149,0,"p4_drum_other_058.wav",70
Sample,94149,0,"p4_drum_breaks_001.wav",70
Sample,94149,0,"p4_morse_r2_dash.wav",70
Sample,94192,0,"p4_morse_l_dash.wav",70
Sample,94320,0,"p4_morse_l_dot.wav",70
Sample,94320,0,"p4_drum_other_059.wav",70
Sample,94320,0,"p4_drum_breaks_002.wav",70
Sample,94320,0,"p4_morse_r2_dot.wav",70
Sample,94362,0,"p4_morse_l_dash.wav",70
Sample,94405,0,"p4_drum_breaks_003.wav",70
Sample,94448,0,"p4_morse_l_dot.wav",70
Sample,94490,0,"p4_drum_breaks_004.wav",70
Sample,94490,0,"p4_morse_r2_dash.wav",70
Sample,94533,0,"p4_morse_l_dot.wav",70
Sample,94576,0,"p4_morse_l_dot.wav",70
Sample,94661,0,"p4_morse_l_dot.wav",70
Sample,94661,0,"p4_drum_breaks_005.wav",70
Sample,94661,0,"p4_drum_other_060.wav",70
Sample,94746,0,"p4_morse_r2_dash.wav",70
Sample,94746,0,"p4_morse_l_dash.wav",70
Sample,94746,0,"p4_drum_breaks_006.wav",70
Sample,94831,0,"p4_drum_other_061.wav",70
Sample,94831,0,"p4_morse_l_dot.wav",70
Sample,94831,0,"p4_drum_breaks_007.wav",70
Sample,94917,0,"p4_drum_breaks_008.wav",70
Sample,94917,0,"p4_morse_l_dash.wav",70
Sample,94917,0,"p4_morse_r2_dot.wav",70
Sample,95002,0,"p4_morse_r2_dash.wav",70
Sample,95002,0,"p4_drum_breaks_009.wav",70
Sample,95045,0,"p4_morse_l_dot.wav",70
Sample,95087,0,"p4_drum_breaks_010.wav",70
Sample,95130,0,"p4_morse_l_dot.wav",70
Sample,95173,0,"p4_synth_sax_013.wav",70
Sample,95173,0,"p4_morse_l_dot.wav",70
Sample,95173,0,"p4_drum_other_062.wav",70
Sample,95173,0,"p4_drum_breaks_011.wav",70
Sample,95173,0,"p4_morse_r2_dash.wav",70
Sample,95215,0,"p4_morse_l_dot.wav",70
Sample,95343,0,"p4_drum_breaks_012.wav",70
Sample,95343,0,"p4_morse_l_dash.wav",70
Sample,95428,0,"p4_morse_r2_dash.wav",70
Sample,95428,0,"p4_drum_breaks_013.wav",70
Sample,95428,0,"p4_morse_l_dot.wav",70
Sample,95471,0,"p4_morse_l_dot.wav",70
Sample,95514,0,"p4_drum_other_063.wav",70
Sample,95514,0,"p4_drum_breaks_001.wav",70
Sample,95542,0,"p4_synth_sax_014.wav",70
Sample,95556,0,"p4_morse_l_dot.wav",70
Sample,95599,0,"p4_morse_r2_dot.wav",70
Sample,95642,0,"p4_morse_l_dot.wav",70
Sample,95684,0,"p4_drum_breaks_002.wav",70
Sample,95684,0,"p4_morse_l_dot.wav",70
Sample,95684,0,"p4_morse_r2_dot.wav",70
Sample,95770,0,"p4_morse_r2_dot.wav",70
Sample,95770,0,"p4_drum_breaks_003.wav",70
Sample,95770,0,"p4_drum_other_064.wav",70
Sample,95770,0,"p4_morse_l_dash.wav",70
Sample,95855,0,"p4_drum_other_065.wav",70
Sample,95855,0,"p4_drum_breaks_004.wav",70
Sample,95855,0,"p4_morse_l_dot.wav",70
Sample,95940,0,"p4_morse_r2_dot.wav",70
Sample,95940,0,"p4_synth_sax_015.wav",70
Sample,95940,0,"p4_morse_l_dash.wav",70
Sample,95940,0,"p4_drum_other_066.wav",70
Sample,95997,0,"p4_synth_sax_016.wav",70
Sample,96025,0,"p4_morse_r2_dot.wav",70
Sample,96025,0,"p4_drum_other_067.wav",70
Sample,96025,0,"p4_drum_breaks_005.wav",70
Sample,96025,0,"p4_morse_l_dot.wav",70
Sample,96054,0,"p4_synth_sax_017.wav",70
Sample,96068,0,"p4_morse_l_dash.wav",70
Sample,96111,0,"p4_drum_breaks_006.wav",70
Sample,96153,0,"p4_morse_l_dot.wav",70
Sample,96196,0,"p4_drum_breaks_007.wav",70
Sample,96196,0,"p4_morse_r2_dash.wav",70
Sample,96210,0,"p4_synth_sax_018.wav",70
Sample,96239,0,"p4_morse_l_dot.wav",70
Sample,96281,0,"p4_drum_other_068.wav",70
Sample,96281,0,"p4_drum_breaks_008.wav",70
Sample,96324,0,"p4_morse_l_dot.wav",70
Sample,96367,0,"p4_morse_l_dash.wav",70
Sample,96367,0,"p4_drum_other_069.wav",70
Sample,96367,0,"p4_drum_breaks_009.wav",70
Sample,96367,0,"p4_morse_r2_dash.wav",70
Sample,96452,0,"p4_drum_other_070.wav",70
Sample,96452,0,"p4_morse_l_dash.wav",70
Sample,96452,0,"p4_drum_breaks_010.wav",70
Sample,96537,0,"p4_drum_breaks_011.wav",70
Sample,96537,0,"p4_drum_other_071.wav",70
Sample,96537,0,"p4_morse_l_dot.wav",70
Sample,96537,0,"p4_morse_r2_dot.wav",70
Sample,96580,0,"p4_synth_sax_019.wav",70
Sample,96622,0,"p4_morse_r2_dash.wav",70
Sample,96622,0,"p4_morse_l_dot.wav",70
Sample,96637,0,"p4_synth_sax_020.wav",70
Sample,96665,0,"p4_morse_l_dot.wav",70
Sample,96693,0,"p4_synth_sax_021.wav",70
Sample,96708,0,"p4_morse_l_dot.wav",70
Sample,96708,0,"p4_drum_breaks_012.wav",70
Sample,96793,0,"p4_drum_breaks_013.wav",70
Sample,96793,0,"p4_morse_r2_dot.wav",70
Sample,96878,0,"p4_drum_other_072.wav",70
Sample,96878,0,"p4_morse_l_dash.wav",70
Sample,96878,0,"p4_drum_breaks_001.wav",70
Sample,96907,0,"p4_synth_sax_022.wav",70
Sample,96964,0,"p4_morse_l_dot.wav",70
Sample,96964,0,"p4_morse_r2_dash.wav",70
Sample,97006,0,"p4_morse_l_dot.wav",70
Sample,97049,0,"p4_drum_other_073.wav",70
Sample,97049,0,"p4_drum_breaks_002.wav",70
Sample,97091,0,"p4_morse_l_dot.wav",70
Sample,97134,0,"p4_drum_breaks_003.wav",70
Sample,97134,0,"p4_morse_l_dot.wav",70
Sample,97134,0,"p4_morse_r2_dot.wav",70
Sample,97219,0,"p4_morse_l_dash.wav",70
Sample,97219,0,"p4_drum_breaks_004.wav",70
Sample,97305,0,"p4_morse_l_dot.wav",70
Sample,97305,0,"p4_morse_r2_dot.wav",70
Sample,97347,0,"p4_morse_l_dash.wav",70
Sample,97390,0,"p4_drum_other_074.wav",70
Sample,97390,0,"p4_drum_breaks_005.wav",70
Sample,97390,0,"p4_morse_r2_dot.wav",70
Sample,97433,0,"p4_morse_l_dot.wav",70
Sample,97475,0,"p4_drum_breaks_006.wav",70
Sample,97475,0,"p4_morse_r2_dash.wav",70
Sample,97518,0,"p4_morse_l_dot.wav",70
Sample,97560,0,"p4_drum_other_075.wav",70
Sample,97560,0,"p4_morse_l_dot.wav",70
Sample,97560,0,"p4_drum_breaks_007.wav",70
Sample,97646,0,"p4_morse_l_dash.wav",70
Sample,97646,0,"p4_drum_breaks_008.wav",70
Sample,97731,0,"p4_drum_breaks_009.wav",70
Sample,97816,0,"p4_morse_l_dot.wav",70
Sample,97816,0,"p4_drum_breaks_010.wav",70
Sample,97902,0,"p4_drum_breaks_011.wav",70
Sample,97902,0,"p4_morse_l_dash.wav",70
Sample,97902,0,"p4_drum_other_076.wav",70
Sample,97902,0,"p4_morse_r2_dot.wav",70
Sample,97987,0,"p4_morse_l_dot.wav",70
Sample,97987,0,"p4_morse_r2_dash.wav",70
Sample,98072,0,"p4_drum_breaks_012.wav",70
Sample,98072,0,"p4_morse_l_dot.wav",70
Sample,98115,0,"p4_morse_l_dot.wav",70
Sample,98157,0,"p4_morse_r2_dot.wav",70
Sample,98157,0,"p4_drum_breaks_013.wav",70
Sample,98200,0,"p4_morse_l_dash.wav",70
Sample,98243,0,"p4_morse_r2_dot.wav",70
Sample,98243,0,"p4_drum_other_077.wav",70
Sample,98243,0,"p4_drum_breaks_001.wav",70
Sample,98285,0,"p4_morse_l_dash.wav",70
Sample,98413,0,"p4_drum_breaks_002.wav",70
Sample,98413,0,"p4_morse_r2_dash.wav",70
Sample,98456,0,"p4_morse_l_dot.wav",70
Sample,98499,0,"p4_drum_breaks_003.wav",70
Sample,98499,0,"p4_morse_l_dot.wav",70
Sample,98499,0,"p4_drum_other_078.wav",70
Sample,98541,0,"p4_morse_l_dot.wav",70
Sample,98584,0,"p4_drum_breaks_004.wav",70
Sample,98584,0,"p4_drum_other_079.wav",70
Sample,98584,0,"p4_morse_r2_dash.wav",70
Sample,98626,0,"p4_morse_l_dot.wav",70
Sample,98669,0,"p4_drum_other_080.wav",70
Sample,98669,0,"p4_morse_l_dash.wav",70
Sample,98754,0,"p4_morse_l_dash.wav",70
Sample,98754,0,"p4_drum_other_081.wav",70
Sample,98754,0,"p4_drum_breaks_005.wav",70
Sample,98754,0,"p4_morse_r2_dash.wav",70
Sample,98840,0,"p4_drum_breaks_006.wav",70
Sample,98840,0,"p4_morse_l_dot.wav",70
Sample,98925,0,"p4_drum_breaks_007.wav",70
Sample,98925,0,"p4_morse_l_dot.wav",70
Sample,98925,0,"p4_morse_r2_dot.wav",70
Sample,98968,0,"p4_morse_l_dot.wav",70
Sample,99010,0,"p4_drum_breaks_008.wav",70
Sample,99010,0,"p4_morse_r2_dash.wav",70
Sample,99010,0,"p4_drum_other_082.wav",70
Sample,99053,0,"p4_morse_l_dot.wav",70
Sample,99096,0,"p4_morse_l_dash.wav",70
Sample,99096,0,"p4_drum_breaks_009.wav",70
Sample,99096,0,"p4_drum_other_083.wav",70
Sample,99181,0,"p4_drum_other_084.wav",70
Sample,99181,0,"p4_morse_l_dot.wav",70
Sample,99181,0,"p4_drum_breaks_010.wav",70
Sample,99266,0,"p4_morse_r2_dot.wav",70
Sample,99266,0,"p4_drum_breaks_011.wav",70
Sample,99266,0,"p4_drum_other_085.wav",70
Sample,99266,0,"p4_morse_l_dot.wav",70
Sample,99309,0,"p4_morse_l_dot.wav",70
Sample,99351,0,"p4_morse_r2_dot.wav",70
Sample,99394,0,"p4_morse_l_dash.wav",70
Sample,99437,0,"p4_drum_other_086.wav",70
Sample,99437,0,"p4_drum_breaks_012.wav",70
Sample,99522,0,"p4_morse_r2_dot.wav",70
Sample,99522,0,"p4_morse_l_dot.wav",70
Sample,99522,0,"p4_drum_breaks_013.wav",70
Sample,99565,0,"p4_morse_l_dot.wav",70
Sample,99607,0,"p4_drum_other_087.wav",70
Sample,99607,0,"p4_morse_l_dash.wav",70
Sample,99607,0,"p4_drum_breaks_001.wav",70
Sample,99607,0,"p4_morse_r2_dash.wav",70
Sample,99692,0,"p4_synth_uplift_017.wav",70
Sample,99735,0,"p4_morse_l_dot.wav",70
Sample,99778,0,"p4_drum_breaks_002.wav",70
Sample,99778,0,"p4_morse_l_dot.wav",70
Sample,99778,0,"p4_drum_other_088.wav",70
Sample,99778,0,"p4_synth_uplift_018.wav",70
Sample,99778,0,"p4_morse_r2_dot.wav",70
Sample,99820,0,"p4_morse_l_dot.wav",70
Sample,99863,0,"p4_drum_breaks_003.wav",70
Sample,99863,0,"p4_synth_uplift_019.wav",70
Sample,99948,0,"p4_morse_r2_dot.wav",70
Sample,99948,0,"p4_synth_uplift_020.wav",70
Sample,99948,0,"p4_drum_breaks_004.wav",70
Sample,99991,0,"p4_morse_l_dot.wav",70
Sample,100034,0,"p4_synth_uplift_021.wav",70
Sample,100034,0,"p4_morse_l_dot.wav",70
Sample,100034,0,"p4_morse_r2_dot.wav",70
Sample,100076,0,"p4_morse_l_dash.wav",70
Sample,100119,0,"p4_synth_uplift_022.wav",70
Sample,100119,0,"p4_drum_breaks_005.wav",70
Sample,100119,0,"p4_drum_other_089.wav",70
Sample,100119,0,"p4_morse_r2_dot.wav",70
Sample,100204,0,"p4_drum_breaks_006.wav",70
Sample,100204,0,"p4_morse_l_dash.wav",70
Sample,100204,0,"p4_synth_uplift_023.wav",70
Sample,100289,0,"p4_drum_other_090.wav",70
Sample,100289,0,"p4_fx_misc1_002.wav",70
Sample,100289,0,"p4_synth_uplift_024.wav",70
Sample,100289,0,"p4_morse_r2_dot.wav",70
Sample,100289,0,"p4_drum_breaks_007.wav",70
Sample,100375,0,"p4_drum_breaks_008.wav",70
Sample,100375,0,"p4_morse_l_dot.wav",70
Sample,100375,0,"p4_synth_uplift_025.wav",70
Sample,100375,0,"p4_morse_r2_dot.wav",70
Sample,100417,0,"p4_morse_l_dash.wav",70
Sample,100460,0,"p4_synth_uplift_026.wav",70
Sample,100460,0,"p4_morse_r2_dot.wav",70
Sample,100460,0,"p4_drum_breaks_009.wav",70
Sample,100503,0,"p4_morse_l_dot.wav",70
Sample,100545,0,"p4_synth_uplift_027.wav",70
Sample,100545,0,"p4_drum_breaks_010.wav",70
Sample,100545,0,"p4_morse_r2_dot.wav",70
Sample,100588,0,"p4_morse_l_dot.wav",70
Sample,100631,0,"p4_synth_uplift_028.wav",70
Sample,100631,0,"p4_drum_other_091.wav",70
Sample,100631,0,"p4_synth_sax_023.wav",70
Sample,100631,0,"p4_drum_breaks_011.wav",70
Sample,100673,0,"p4_morse_l_dash.wav",70
Sample,100702,0,"p4_synth_sax_024.wav",70
Sample,100716,0,"p4_synth_uplift_029.wav",70
Sample,100758,0,"p4_morse_l_dash.wav",70
Sample,100801,0,"p4_drum_other_092.wav",70
Sample,100801,0,"p4_drum_breaks_012.wav",70
Sample,100801,0,"p4_synth_uplift_030.wav",70
Sample,100844,0,"p4_morse_l_dot.wav",70
Sample,100886,0,"p4_synth_uplift_031.wav",70
Sample,100886,0,"p4_drum_breaks_013.wav",70
Sample,100886,0,"p4_morse_l_dash.wav",70
Sample,100972,0,"p4_drum_cym_004.wav",70
Sample,100972,0,"p4_drum_cym_002.wav",70
Sample,100972,0,"p4_drum_breaks_001.wav",70
Sample,100972,0,"p4_drum_dirtyperc_001.wav",70
Sample,100972,0,"p4_synth_bassbuild_001.wav",70
Sample,100972,0,"p4_morse_r2_dot.wav",70
Sample,100993,0,"p4_synth_sax_025.wav",70
Sample,101014,0,"p4_morse_l_dot.wav",70
Sample,101057,0,"p4_morse_l_dot.wav",70
Sample,101057,0,"p4_drum_dirtyperc_002.wav",70
Sample,101057,0,"p4_drum_mainpercsloop_002.wav",70
Sample,101057,0,"p4_morse_r2_dot.wav",70
Sample,101100,0,"p4_morse_l_dash.wav",70
Sample,101142,0,"p4_drum_mainpercsloop_003.wav",70
Sample,101142,0,"p4_synth_bassbuild_002.wav",70
Sample,101142,0,"p4_drum_dirtyperc_003.wav",70
Sample,101142,0,"p4_morse_r2_dash.wav",70
Sample,101142,0,"p4_drum_breaks_002.wav",70
Sample,101171,0,"p4_synth_sax_026.wav",70
Sample,101228,0,"p4_morse_l_dot.wav",70
Sample,101228,0,"p4_synth_bassbuild_003.wav",70
Sample,101228,0,"p4_drum_breaks_003.wav",70
Sample,101228,0,"p4_drum_dirtyperc_004.wav",70
Sample,101228,0,"p4_drum_mainpercsloop_004.wav",70
Sample,101270,0,"p4_morse_l_dot.wav",70
Sample,101313,0,"p4_drum_dirtyperc_005.wav",70
Sample,101313,0,"p4_drum_breaks_004.wav",70
Sample,101313,0,"p4_morse_r2_dot.wav",70
Sample,101327,0,"p4_synth_sax_027.wav",70
Sample,101355,0,"p4_morse_l_dot.wav",70
Sample,101398,0,"p4_drum_dirtyperc_006.wav",70
Sample,101398,0,"p4_synth_bassbuild_004.wav",70
Sample,101398,0,"p4_morse_r2_dash.wav",70
Sample,101441,0,"p4_morse_l_dot.wav",70
Sample,101462,0,"p4_synth_sax_028.wav",70
Sample,101483,0,"p4_morse_l_dot.wav",70
Sample,101483,0,"p4_drum_mainsnare_002.wav",70
Sample,101483,0,"p4_drum_mainpercsloop_006.wav",70
Sample,101483,0,"p4_drum_breaks_005.wav",70
Sample,101483,0,"p4_drum_dirtyperc_007.wav",70
Sample,101483,0,"p4_synth_bassbuild_005.wav",70
Sample,101526,0,"p4_morse_l_dot.wav",70
Sample,101569,0,"p4_drum_dirtyperc_008.wav",70
Sample,101569,0,"p4_drum_breaks_006.wav",70
Sample,101604,0,"p4_synth_sax_029.wav",70
Sample,101611,0,"p4_morse_l_dash.wav",70
Sample,101654,0,"p4_drum_mainpercsloop_008.wav",70
Sample,101654,0,"p4_synth_bassbuild_006.wav",70
Sample,101654,0,"p4_drum_dirtyperc_009.wav",70
Sample,101654,0,"p4_morse_r2_dot.wav",70
Sample,101654,0,"p4_drum_breaks_007.wav",70
Sample,101697,0,"p4_morse_l_dot.wav",70
Sample,101739,0,"p4_drum_dirtyperc_010.wav",70
Sample,101739,0,"p4_morse_l_dash.wav",70
Sample,101739,0,"p4_drum_subsnare_2_001.wav",70
Sample,101739,0,"p4_drum_breaks_008.wav",70
Sample,101739,0,"p4_morse_r2_dot.wav",70
Sample,101775,0,"p4_synth_sax_030.wav",70
Sample,101825,0,"p4_synth_bassbuild_007.wav",70
Sample,101825,0,"p4_morse_l_dot.wav",70
Sample,101825,0,"p4_morse_r2_dash.wav",70
Sample,101825,0,"p4_drum_breaks_009.wav",70
Sample,101825,0,"p4_drum_mainpercsloop_010.wav",70
Sample,101825,0,"p4_drum_dirtyperc_011.wav",70
Sample,101910,0,"p4_drum_breaks_010.wav",70
Sample,101910,0,"p4_morse_l_dot.wav",70
Sample,101910,0,"p4_synth_bassbuild_008.wav",70
Sample,101910,0,"p4_drum_mainpercsloop_011.wav",70
Sample,101910,0,"p4_drum_dirtyperc_012.wav",70
Sample,101952,0,"p4_morse_l_dash.wav",70
Sample,101960,0,"p4_synth_sax_031.wav",70
Sample,101995,0,"p4_drum_subsnare_2_001.wav",70
Sample,101995,0,"p4_drum_breaks_011.wav",70
Sample,101995,0,"p4_drum_dirtyperc_013.wav",70
Sample,101995,0,"p4_morse_r2_dot.wav",70
Sample,102080,0,"p4_morse_r2_dot.wav",70
Sample,102080,0,"p4_synth_bassbuild_009.wav",70
Sample,102080,0,"p4_morse_l_dash.wav",70
Sample,102080,0,"p4_drum_dirtyperc_014.wav",70
Sample,102123,0,"p4_synth_sax_032.wav",70
Sample,102166,0,"p4_synth_bassbuild_010.wav",70
Sample,102166,0,"p4_drum_mainsnare_002.wav",70
Sample,102166,0,"p4_drum_breaks_012.wav",70
Sample,102166,0,"p4_drum_mainpercsloop_006.wav",70
Sample,102166,0,"p4_morse_l_dot.wav",70
Sample,102166,0,"p4_drum_dirtyperc_015.wav",70
Sample,102251,0,"p4_morse_r2_dash.wav",70
Sample,102251,0,"p4_drum_dirtyperc_016.wav",70
Sample,102251,0,"p4_morse_l_dash.wav",70
Sample,102251,0,"p4_drum_breaks_013.wav",70
Sample,102286,0,"p4_synth_sax_033.wav",70
Sample,102336,0,"p4_drum_breaks_001.wav",70
Sample,102336,0,"p4_synth_bassbuild_011.wav",70
Sample,102336,0,"p4_drum_dirtyperc_001.wav",70
Sample,102421,0,"p4_drum_mainpercsloop_002.wav",70
Sample,102421,0,"p4_drum_dirtyperc_002.wav",70
Sample,102421,0,"p4_morse_l_dot.wav",70
Sample,102421,0,"p4_morse_r2_dash.wav",70
Sample,102457,0,"p4_synth_sax_034.wav",70
Sample,102464,0,"p4_morse_l_dash.wav",70
Sample,102507,0,"p4_synth_bassbuild_012.wav",70
Sample,102507,0,"p4_drum_mainpercsloop_003.wav",70
Sample,102507,0,"p4_drum_dirtyperc_003.wav",70
Sample,102507,0,"p4_drum_breaks_002.wav",70
Sample,102592,0,"p4_drum_dirtyperc_004.wav",70
Sample,102592,0,"p4_synth_bassbuild_013.wav",70
Sample,102592,0,"p4_drum_breaks_003.wav",70
Sample,102592,0,"p4_drum_mainpercsloop_004.wav",70
Sample,102592,0,"p4_morse_r2_dash.wav",70
Sample,102635,0,"p4_morse_l_dot.wav",70
Sample,102677,0,"p4_morse_l_dash.wav",70
Sample,102677,0,"p4_drum_breaks_004.wav",70
Sample,102677,0,"p4_drum_dirtyperc_005.wav",70
Sample,102763,0,"p4_morse_r2_dash.wav",70
Sample,102763,0,"p4_synth_bassbuild_014.wav",70
Sample,102763,0,"p4_drum_dirtyperc_006.wav",70
Sample,102763,0,"p4_morse_l_dot.wav",70
Sample,102805,0,"p4_morse_l_dot.wav",70
Sample,102848,0,"p4_drum_breaks_005.wav",70
Sample,102848,0,"p4_synth_bassbuild_015.wav",70
Sample,102848,0,"p4_drum_dirtyperc_007.wav",70
Sample,102891,0,"p4_morse_l_dot.wav",70
Sample,102933,0,"p4_drum_dirtyperc_008.wav",70
Sample,102933,0,"p4_drum_breaks_006.wav",70
Sample,102933,0,"p4_morse_l_dash.wav",70
Sample,103018,0,"p4_drum_dirtyperc_018.wav",70
Sample,103018,0,"p4_drum_breaks_007.wav",70
Sample,103018,0,"p4_synth_bassbuild_016.wav",70
Sample,103018,0,"p4_morse_r2_dash.wav",70
Sample,103061,0,"p4_morse_l_dash.wav",70
Sample,103104,0,"p4_drum_subsnare_2_001.wav",70
Sample,103104,0,"p4_drum_dirtyperc_019.wav",70
Sample,103104,0,"p4_drum_breaks_008.wav",70
Sample,103146,0,"p4_morse_l_dot.wav",70
Sample,103189,0,"p4_drum_breaks_009.wav",70
Sample,103189,0,"p4_synth_bassbuild_017.wav",70
Sample,103189,0,"p4_drum_dirtyperc_020.wav",70
Sample,103189,0,"p4_morse_r2_dash.wav",70
Sample,103189,0,"p4_morse_l_dot.wav",70
Sample,103232,0,"p4_morse_l_dot.wav",70
Sample,103274,0,"p4_drum_breaks_010.wav",70
Sample,103274,0,"p4_synth_bassbuild_018.wav",70
Sample,103274,0,"p4_drum_mainpercsloop_010.wav",70
Sample,103274,0,"p4_drum_dirtyperc_021.wav",70
Sample,103317,0,"p4_morse_l_dash.wav",70
Sample,103360,0,"p4_synth_sax_035.wav",70
Sample,103360,0,"p4_drum_dirtyperc_022.wav",70
Sample,103360,0,"p4_drum_breaks_011.wav",70
Sample,103360,0,"p4_morse_r2_dash.wav",70
Sample,103360,0,"p4_drum_subsnare_2_001.wav",70
Sample,103402,0,"p4_morse_l_dash.wav",70
Sample,103431,0,"p4_synth_sax_036.wav",70
Sample,103445,0,"p4_drum_dirtyperc_023.wav",70
Sample,103445,0,"p4_synth_bassbuild_019.wav",70
Sample,103487,0,"p4_drum_dirtyperc_024.wav",70
Sample,103487,0,"p4_morse_l_dash.wav",70
Sample,103530,0,"p4_drum_mainsnare_002.wav",70
Sample,103530,0,"p4_synth_bassbuild_020.wav",70
Sample,103530,0,"p4_drum_breaks_012.wav",70
Sample,103530,0,"p4_morse_r2_dash.wav",70
Sample,103530,0,"p4_drum_dirtyperc_025.wav",70
Sample,103615,0,"p4_morse_l_dot.wav",70
Sample,103615,0,"p4_drum_dirtyperc_026.wav",70
Sample,103615,0,"p4_drum_breaks_013.wav",70
Sample,103658,0,"p4_morse_l_dash.wav",70
Sample,103658,0,"p4_drum_dirtyperc_027.wav",70
Sample,103701,0,"p4_drum_dirtyperc_001.wav",70
Sample,103701,0,"p4_drum_breaks_001.wav",70
Sample,103701,0,"p4_synth_bassbuild_021.wav",70
Sample,103722,0,"p4_synth_sax_037.wav",70
Sample,103743,0,"p4_morse_l_dot.wav",70
Sample,103786,0,"p4_drum_dirtyperc_002.wav",70
Sample,103786,0,"p4_morse_r2_dot.wav",70
Sample,103786,0,"p4_drum_mainpercsloop_002.wav",70
Sample,103829,0,"p4_morse_l_dot.wav",70
Sample,103871,0,"p4_drum_breaks_002.wav",70
Sample,103871,0,"p4_morse_l_dot.wav",70
Sample,103871,0,"p4_morse_r2_dash.wav",70
Sample,103871,0,"p4_drum_mainpercsloop_003.wav",70
Sample,103871,0,"p4_synth_bassbuild_022.wav",70
Sample,103871,0,"p4_drum_dirtyperc_003.wav",70
Sample,103900,0,"p4_synth_sax_038.wav",70
Sample,103957,0,"p4_synth_bassbuild_023.wav",70
Sample,103957,0,"p4_drum_dirtyperc_004.wav",70
Sample,103957,0,"p4_morse_l_dash.wav",70
Sample,103957,0,"p4_drum_breaks_003.wav",70
Sample,103957,0,"p4_drum_mainpercsloop_004.wav",70
Sample,104042,0,"p4_synth_sax_039.wav",70
Sample,104042,0,"p4_drum_dirtyperc_005.wav",70
Sample,104042,0,"p4_drum_breaks_004.wav",70
Sample,104042,0,"p4_morse_r2_dot.wav",70
Sample,104042,0,"p4_morse_l_dot.wav",70
Sample,104084,0,"p4_morse_l_dot.wav",70
Sample,104127,0,"p4_morse_r2_dash.wav",70
Sample,104127,0,"p4_drum_dirtyperc_006.wav",70
Sample,104127,0,"p4_synth_bassbuild_024.wav",70
Sample,104127,0,"p4_morse_l_dot.wav",70
Sample,104191,0,"p4_synth_sax_040.wav",70
Sample,104212,0,"p4_drum_dirtyperc_007.wav",70
Sample,104212,0,"p4_synth_bassbuild_025.wav",70
Sample,104212,0,"p4_drum_breaks_005.wav",70
Sample,104212,0,"p4_morse_l_dot.wav",70
Sample,104255,0,"p4_morse_l_dot.wav",70
Sample,104298,0,"p4_drum_breaks_006.wav",70
Sample,104298,0,"p4_drum_dirtyperc_008.wav",70
Sample,104298,0,"p4_morse_l_dash.wav",70
Sample,104333,0,"p4_synth_sax_041.wav",70
Sample,104383,0,"p4_drum_dirtyperc_009.wav",70
Sample,104383,0,"p4_drum_breaks_007.wav",70
Sample,104383,0,"p4_synth_bassbuild_026.wav",70
Sample,104383,0,"p4_morse_r2_dot.wav",70
Sample,104426,0,"p4_morse_l_dot.wav",70
Sample,104468,0,"p4_drum_breaks_008.wav",70
Sample,104468,0,"p4_morse_l_dot.wav",70
Sample,104468,0,"p4_drum_subsnare_2_001.wav",70
Sample,104468,0,"p4_morse_r2_dot.wav",70
Sample,104468,0,"p4_drum_dirtyperc_010.wav",70
Sample,104504,0,"p4_synth_sax_042.wav",70
Sample,104511,0,"p4_morse_l_dot.wav",70
Sample,104553,0,"p4_drum_mainpercsloop_010.wav",70
Sample,104553,0,"p4_drum_breaks_009.wav",70
Sample,104553,0,"p4_drum_dirtyperc_011.wav",70
Sample,104553,0,"p4_morse_r2_dash.wav",70
Sample,104553,0,"p4_synth_bassbuild_027.wav",70
Sample,104639,0,"p4_drum_dirtyperc_012.wav",70
Sample,104639,0,"p4_drum_breaks_010.wav",70
Sample,104639,0,"p4_drum_mainpercsloop_011.wav",70
Sample,104639,0,"p4_synth_bassbuild_028.wav",70
Sample,104639,0,"p4_morse_l_dot.wav",70
Sample,104681,0,"p4_morse_l_dot.wav",70
Sample,104689,0,"p4_synth_sax_043.wav",70
Sample,104724,0,"p4_morse_l_dot.wav",70
Sample,104724,0,"p4_drum_breaks_011.wav",70
Sample,104724,0,"p4_drum_dirtyperc_013.wav",70
Sample,104724,0,"p4_drum_subsnare_2_001.wav",70
Sample,104724,0,"p4_morse_r2_dot.wav",70
Sample,104809,0,"p4_morse_r2_dot.wav",70
Sample,104809,0,"p4_morse_l_dot.wav",70
Sample,104809,0,"p4_synth_bassbuild_029.wav",70
Sample,104809,0,"p4_drum_dirtyperc_014.wav",70
Sample,104838,0,"p4_synth_sax_044.wav",70
Sample,104852,0,"p4_morse_l_dot.wav",70
Sample,104895,0,"p4_synth_bassbuild_030.wav",70
Sample,104895,0,"p4_drum_mainsnare_002.wav",70
Sample,104895,0,"p4_drum_dirtyperc_015.wav",70
Sample,104895,0,"p4_drum_breaks_012.wav",70
Sample,104895,0,"p4_morse_l_dash.wav",70
Sample,104980,0,"p4_drum_dirtyperc_016.wav",70
Sample,104980,0,"p4_drum_breaks_013.wav",70
Sample,104980,0,"p4_morse_r2_dot.wav",70
Sample,105015,0,"p4_synth_sax_045.wav",70
Sample,105023,0,"p4_morse_l_dot.wav",70
Sample,105065,0,"p4_drum_dirtyperc_001.wav",70
Sample,105065,0,"p4_morse_l_dot.wav",70
Sample,105065,0,"p4_synth_bassbuild_031.wav",70
Sample,105065,0,"p4_morse_r2_dot.wav",70
Sample,105065,0,"p4_drum_breaks_001.wav",70
Sample,105150,0,"p4_drum_dirtyperc_002.wav",70
Sample,105150,0,"p4_morse_l_dot.wav",70
Sample,105150,0,"p4_drum_mainpercsloop_002.wav",70
Sample,105150,0,"p4_morse_r2_dash.wav",70
Sample,105186,0,"p4_synth_sax_046.wav",70
Sample,105193,0,"p4_morse_l_dot.wav",70
Sample,105236,0,"p4_drum_breaks_002.wav",70
Sample,105236,0,"p4_synth_bassbuild_032.wav",70
Sample,105236,0,"p4_morse_l_dot.wav",70
Sample,105236,0,"p4_drum_dirtyperc_003.wav",70
Sample,105236,0,"p4_drum_mainpercsloop_003.wav",70
Sample,105321,0,"p4_drum_breaks_003.wav",70
Sample,105321,0,"p4_synth_bassbuild_033.wav",70
Sample,105321,0,"p4_drum_dirtyperc_004.wav",70
Sample,105321,0,"p4_morse_r2_dash.wav",70
Sample,105321,0,"p4_drum_mainpercsloop_004.wav",70
Sample,105364,0,"p4_morse_l_dot.wav",70
Sample,105406,0,"p4_drum_breaks_004.wav",70
Sample,105406,0,"p4_drum_dirtyperc_005.wav",70
Sample,105449,0,"p4_morse_l_dash.wav",70
Sample,105492,0,"p4_synth_bassbuild_034.wav",70
Sample,105492,0,"p4_drum_dirtyperc_006.wav",70
Sample,105577,0,"p4_drum_breaks_005.wav",70
Sample,105577,0,"p4_synth_bassbuild_035.wav",70
Sample,105577,0,"p4_drum_dirtyperc_007.wav",70
Sample,105619,0,"p4_morse_l_dash.wav",70
Sample,105662,0,"p4_drum_breaks_006.wav",70
Sample,105662,0,"p4_drum_dirtyperc_008.wav",70
Sample,105705,0,"p4_morse_l_dash.wav",70
Sample,105747,0,"p4_synth_bassbuild_036.wav",70
Sample,105747,0,"p4_drum_breaks_007.wav",70
Sample,105747,0,"p4_drum_dirtyperc_018.wav",70
Sample,105790,0,"p4_morse_l_dash.wav",70
Sample,105833,0,"p4_drum_breaks_008.wav",70
Sample,105833,0,"p4_drum_subsnare_2_001.wav",70
Sample,105833,0,"p4_drum_dirtyperc_019.wav",70
Sample,105918,0,"p4_drum_dirtyperc_020.wav",70
Sample,105918,0,"p4_synth_bassbuild_037.wav",70
Sample,105918,0,"p4_drum_breaks_009.wav",70
Sample,105918,0,"p4_morse_l_dot.wav",70
Sample,105918,0,"p4_drum_mainpercsloop_010.wav",70
Sample,105961,0,"p4_morse_l_dash.wav",70
Sample,106003,0,"p4_synth_bassbuild_038.wav",70
Sample,106003,0,"p4_drum_breaks_010.wav",70
Sample,106003,0,"p4_drum_dirtyperc_021.wav",70
Sample,106046,0,"p4_morse_l_dash.wav",70
Sample,106089,0,"p4_drum_subsnare_2_001.wav",70
Sample,106089,0,"p4_drum_breaks_011.wav",70
Sample,106089,0,"p4_drum_dirtyperc_022.wav",70
Sample,106131,0,"p4_morse_l_dot.wav",70
Sample,106174,0,"p4_synth_bassbuild_039.wav",70
Sample,106174,0,"p4_drum_dirtyperc_023.wav",70
Sample,106216,0,"p4_morse_l_dot.wav",70
Sample,106216,0,"p4_drum_dirtyperc_024.wav",70
Sample,106259,0,"p4_drum_dirtyperc_025.wav",70
Sample,106259,0,"p4_drum_mainsnare_002.wav",70
Sample,106259,0,"p4_drum_breaks_012.wav",70
Sample,106259,0,"p4_synth_bassbuild_040.wav",70
Sample,106302,0,"p4_morse_l_dot.wav",70
Sample,106344,0,"p4_drum_snareshot_2_001.wav",70
Sample,106344,0,"p4_drum_breaks_013.wav",70
Sample,106344,0,"p4_drum_mainpercsloop_008.wav",70
Sample,106344,0,"p4_drum_dirtyperc_026.wav",70
Sample,106344,0,"p4_morse_l_dash.wav",70
Sample,106387,0,"p4_drum_dirtyperc_027.wav",70
Sample,106430,0,"p4_drum_dirtyperc_001.wav",70
Sample,106430,0,"p4_drum_subsnare_3_001.wav",70
Sample,106430,0,"p4_drum_breaks_001.wav",70
Sample,106430,0,"p4_drum_cym_002.wav",70
Sample,106430,0,"p4_drum_other_093.wav",70
Sample,106430,0,"p4_morse_r2_dot.wav",70
Sample,106430,0,"p4_morse_l_dot.wav",70
Sample,106430,0,"p4_synth_bassbuild_041.wav",70
Sample,106430,0,"p4_drum_cym_004.wav",70
Sample,106515,0,"p4_morse_l_dot.wav",70
Sample,106515,0,"p4_drum_dirtyperc_002.wav",70
Sample,106515,0,"p4_drum_other_094.wav",70
Sample,106515,0,"p4_morse_r2_dash.wav",70
Sample,106558,0,"p4_morse_l_dash.wav",70
Sample,106600,0,"p4_drum_breaks_002.wav",70
Sample,106600,0,"p4_drum_dirtyperc_003.wav",70
Sample,106600,0,"p4_drum_other_095.wav",70
Sample,106600,0,"p4_drum_mainpercsloop_003.wav",70
Sample,106600,0,"p4_drum_subsnare_3_001.wav",70
Sample,106600,0,"p4_synth_bassbuild_042.wav",70
Sample,106685,0,"p4_synth_bassbuild_043.wav",70
Sample,106685,0,"p4_drum_mainpercsloop_004.wav",70
Sample,106685,0,"p4_morse_r2_dot.wav",70
Sample,106685,0,"p4_drum_other_096.wav",70
Sample,106685,0,"p4_drum_breaks_003.wav",70
Sample,106685,0,"p4_drum_dirtyperc_004.wav",70
Sample,106728,0,"p4_morse_l_dot.wav",70
Sample,106771,0,"p4_drum_dirtyperc_005.wav",70
Sample,106771,0,"p4_drum_subsnare_3_001.wav",70
Sample,106771,0,"p4_drum_other_097.wav",70
Sample,106771,0,"p4_drum_breaks_004.wav",70
Sample,106771,0,"p4_morse_l_dot.wav",70
Sample,106856,0,"p4_drum_dirtyperc_006.wav",70
Sample,106856,0,"p4_drum_other_098.wav",70
Sample,106856,0,"p4_synth_bassbuild_044.wav",70
Sample,106856,0,"p4_morse_l_dot.wav",70
Sample,106856,0,"p4_morse_r2_dot.wav",70
Sample,106899,0,"p4_morse_l_dash.wav",70
Sample,106941,0,"p4_drum_dirtyperc_007.wav",70
Sample,106941,0,"p4_drum_mainpercsloop_006.wav",70
Sample,106941,0,"p4_morse_r2_dash.wav",70
Sample,106941,0,"p4_synth_bassbuild_045.wav",70
Sample,106941,0,"p4_drum_breaks_005.wav",70
Sample,106941,0,"p4_drum_other_099.wav",70
Sample,106941,0,"p4_drum_subsnare_3_001.wav",70
Sample,106984,0,"p4_morse_l_dot.wav",70
Sample,107027,0,"p4_drum_dirtyperc_008.wav",70
Sample,107027,0,"p4_synth_bassbuild_046.wav",70
Sample,107027,0,"p4_drum_breaks_006.wav",70
Sample,107027,0,"p4_drum_other_100.wav",70
Sample,107027,0,"p4_morse_l_dot.wav",70
Sample,107112,0,"p4_drum_breaks_007.wav",70
Sample,107112,0,"p4_drum_dirtyperc_009.wav",70
Sample,107112,0,"p4_drum_mainpercsloop_008.wav",70
Sample,107112,0,"p4_morse_l_dot.wav",70
Sample,107112,0,"p4_drum_subsnare_3_001.wav",70
Sample,107112,0,"p4_synth_bassbuild_047.wav",70
Sample,107112,0,"p4_drum_other_101.wav",70
Sample,107112,0,"p4_morse_r2_dot.wav",70
Sample,107155,0,"p4_morse_l_dash.wav",70
Sample,107197,0,"p4_drum_other_102.wav",70
Sample,107197,0,"p4_drum_dirtyperc_010.wav",70
Sample,107197,0,"p4_drum_subsnare_2_001.wav",70
Sample,107197,0,"p4_morse_r2_dot.wav",70
Sample,107197,0,"p4_drum_breaks_008.wav",70
Sample,107240,0,"p4_morse_l_dot.wav",70
Sample,107282,0,"p4_drum_dirtyperc_011.wav",70
Sample,107282,0,"p4_synth_bassbuild_048.wav",70
Sample,107282,0,"p4_drum_other_103.wav",70
Sample,107282,0,"p4_drum_breaks_009.wav",70
Sample,107282,0,"p4_drum_subsnare_3_001.wav",70
Sample,107282,0,"p4_morse_l_dot.wav",70
Sample,107282,0,"p4_drum_mainpercsloop_010.wav",70
Sample,107368,0,"p4_drum_other_104.wav",70
Sample,107368,0,"p4_morse_r2_dash.wav",70
Sample,107368,0,"p4_morse_l_dash.wav",70
Sample,107368,0,"p4_drum_breaks_010.wav",70
Sample,107368,0,"p4_drum_mainpercsloop_011.wav",70
Sample,107368,0,"p4_synth_bassbuild_049.wav",70
Sample,107368,0,"p4_drum_dirtyperc_012.wav",70
Sample,107453,0,"p4_drum_dirtyperc_013.wav",70
Sample,107453,0,"p4_drum_other_105.wav",70
Sample,107453,0,"p4_drum_breaks_011.wav",70
Sample,107453,0,"p4_morse_l_dash.wav",70
Sample,107453,0,"p4_drum_subsnare_2_001.wav",70
Sample,107538,0,"p4_drum_dirtyperc_014.wav",70
Sample,107538,0,"p4_drum_other_106.wav",70
Sample,107538,0,"p4_synth_bassbuild_050.wav",70
Sample,107538,0,"p4_morse_l_dash.wav",70
Sample,107538,0,"p4_morse_r2_dash.wav",70
Sample,107624,0,"p4_drum_other_107.wav",70
Sample,107624,0,"p4_drum_subsnare_3_001.wav",70
Sample,107624,0,"p4_drum_dirtyperc_015.wav",70
Sample,107624,0,"p4_drum_mainpercsloop_006.wav",70
Sample,107624,0,"p4_drum_breaks_012.wav",70
Sample,107624,0,"p4_synth_bassbuild_051.wav",70
Sample,107666,0,"p4_morse_l_dot.wav",70
Sample,107709,0,"p4_drum_breaks_013.wav",70
Sample,107709,0,"p4_drum_dirtyperc_016.wav",70
Sample,107709,0,"p4_drum_other_108.wav",70
Sample,107709,0,"p4_synth_bassbuild_052.wav",70
Sample,107709,0,"p4_morse_l_dash.wav",70
Sample,107709,0,"p4_morse_r2_dash.wav",70
Sample,107794,0,"p4_drum_breaks_001.wav",70
Sample,107794,0,"p4_drum_other_109.wav",70
Sample,107794,0,"p4_drum_subsnare_3_001.wav",70
Sample,107794,0,"p4_synth_bassbuild_053.wav",70
Sample,107794,0,"p4_drum_dirtyperc_001.wav",70
Sample,107794,0,"p4_morse_l_dot.wav",70
Sample,107879,0,"p4_morse_r2_dot.wav",70
Sample,107879,0,"p4_drum_other_110.wav",70
Sample,107879,0,"p4_morse_l_dot.wav",70
Sample,107879,0,"p4_drum_dirtyperc_002.wav",70
Sample,107922,0,"p4_morse_l_dot.wav",70
Sample,107965,0,"p4_drum_breaks_002.wav",70
Sample,107965,0,"p4_drum_subsnare_3_001.wav",70
Sample,107965,0,"p4_morse_l_dash.wav",70
Sample,107965,0,"p4_drum_mainpercsloop_003.wav",70
Sample,107965,0,"p4_drum_other_111.wav",70
Sample,107965,0,"p4_synth_bassbuild_054.wav",70
Sample,107965,0,"p4_drum_dirtyperc_003.wav",70
Sample,108050,0,"p4_drum_other_112.wav",70
Sample,108050,0,"p4_drum_dirtyperc_004.wav",70
Sample,108050,0,"p4_drum_mainpercsloop_004.wav",70
Sample,108050,0,"p4_synth_bassbuild_055.wav",70
Sample,108050,0,"p4_drum_breaks_003.wav",70
Sample,108050,0,"p4_morse_r2_dot.wav",70
Sample,108093,0,"p4_morse_l_dash.wav",70
Sample,108135,0,"p4_drum_dirtyperc_005.wav",70
Sample,108135,0,"p4_drum_subsnare_3_001.wav",70
Sample,108135,0,"p4_drum_other_113.wav",70
Sample,108135,0,"p4_morse_r2_dot.wav",70
Sample,108135,0,"p4_drum_breaks_004.wav",70
Sample,108178,0,"p4_morse_l_dash.wav",70
Sample,108221,0,"p4_drum_other_114.wav",70
Sample,108221,0,"p4_drum_dirtyperc_006.wav",70
Sample,108221,0,"p4_synth_bassbuild_056.wav",70
Sample,108306,0,"p4_drum_mainpercsloop_006.wav",70
Sample,108306,0,"p4_morse_r2_dash.wav",70
Sample,108306,0,"p4_drum_dirtyperc_007.wav",70
Sample,108306,0,"p4_drum_breaks_005.wav",70
Sample,108306,0,"p4_drum_other_115.wav",70
Sample,108306,0,"p4_drum_subsnare_3_001.wav",70
Sample,108306,0,"p4_synth_bassbuild_057.wav",70
Sample,108348,0,"p4_morse_l_dot.wav",70
Sample,108391,0,"p4_drum_dirtyperc_008.wav",70
Sample,108391,0,"p4_drum_other_116.wav",70
Sample,108391,0,"p4_morse_l_dot.wav",70
Sample,108391,0,"p4_drum_breaks_006.wav",70
Sample,108391,0,"p4_synth_bassbuild_058.wav",70
Sample,108434,0,"p4_morse_l_dot.wav",70
Sample,108476,0,"p4_drum_mainpercsloop_008.wav",70
Sample,108476,0,"p4_drum_breaks_007.wav",70
Sample,108476,0,"p4_drum_subsnare_3_001.wav",70
Sample,108476,0,"p4_drum_other_117.wav",70
Sample,108476,0,"p4_morse_r2_dot.wav",70
Sample,108476,0,"p4_drum_dirtyperc_018.wav",70
Sample,108476,0,"p4_synth_bassbuild_059.wav",70
Sample,108519,0,"p4_morse_l_dot.wav",70
Sample,108562,0,"p4_drum_dirtyperc_019.wav",70
Sample,108562,0,"p4_drum_subsnare_2_001.wav",70
Sample,108562,0,"p4_drum_breaks_008.wav",70
Sample,108562,0,"p4_morse_r2_dot.wav",70
Sample,108562,0,"p4_drum_other_118.wav",70
Sample,108604,0,"p4_morse_l_dash.wav",70
Sample,108647,0,"p4_synth_bassbuild_060.wav",70
Sample,108647,0,"p4_drum_other_119.wav",70
Sample,108647,0,"p4_drum_breaks_009.wav",70
Sample,108647,0,"p4_drum_subsnare_3_001.wav",70
Sample,108647,0,"p4_morse_r2_dash.wav",70
Sample,108647,0,"p4_drum_mainpercsloop_010.wav",70
Sample,108647,0,"p4_drum_dirtyperc_020.wav",70
Sample,108690,0,"p4_morse_l_dash.wav",70
Sample,108732,0,"p4_drum_other_120.wav",70
Sample,108732,0,"p4_drum_breaks_010.wav",70
Sample,108732,0,"p4_drum_dirtyperc_021.wav",70
Sample,108732,0,"p4_drum_mainpercsloop_011.wav",70
Sample,108732,0,"p4_synth_bassbuild_061.wav",70
Sample,108775,0,"p4_morse_l_dot.wav",70
Sample,108818,0,"p4_drum_breaks_011.wav",70
Sample,108818,0,"p4_drum_dirtyperc_022.wav",70
Sample,108818,0,"p4_morse_l_dash.wav",70
Sample,108818,0,"p4_drum_other_121.wav",70
Sample,108818,0,"p4_drum_subsnare_2_001.wav",70
Sample,108818,0,"p4_morse_r2_dash.wav",70
Sample,108903,0,"p4_synth_bassbuild_062.wav",70
Sample,108903,0,"p4_drum_other_122.wav",70
Sample,108903,0,"p4_drum_dirtyperc_023.wav",70
Sample,108945,0,"p4_drum_dirtyperc_024.wav",70
Sample,108945,0,"p4_morse_l_dot.wav",70
Sample,108988,0,"p4_drum_breaks_012.wav",70
Sample,108988,0,"p4_drum_dirtyperc_025.wav",70
Sample,108988,0,"p4_synth_bassbuild_063.wav",70
Sample,108988,0,"p4_morse_l_dot.wav",70
Sample,108988,0,"p4_drum_subsnare_3_001.wav",70
Sample,108988,0,"p4_drum_mainpercsloop_006.wav",70
Sample,108988,0,"p4_drum_other_123.wav",70
Sample,109031,0,"p4_morse_l_dash.wav",70
Sample,109073,0,"p4_drum_breaks_013.wav",70
Sample,109073,0,"p4_drum_other_124.wav",70
Sample,109073,0,"p4_drum_dirtyperc_026.wav",70
Sample,109073,0,"p4_morse_r2_dot.wav",70
Sample,109073,0,"p4_synth_bassbuild_064.wav",70
Sample,109116,0,"p4_drum_dirtyperc_027.wav",70
Sample,109159,0,"p4_drum_subsnare_2_001.wav",70
Sample,109159,0,"p4_drum_dirtyperc_001.wav",70
Sample,109159,0,"p4_synth_bassbuild_065.wav",70
Sample,109159,0,"p4_fx_misc1_003.wav",70
Sample,109159,0,"p4_morse_l_dot.wav",70
Sample,109159,0,"p4_drum_cym_002.wav",70
Sample,109159,0,"p4_drum_other_125.wav",70
Sample,109159,0,"p4_drum_breaks_001.wav",70
Sample,109159,0,"p4_morse_r2_dash.wav",70
Sample,109244,0,"p4_morse_l_dash.wav",70
Sample,109244,0,"p4_drum_subsnare_2_001.wav",70
Sample,109244,0,"p4_drum_dirtyperc_002.wav",70
Sample,109244,0,"p4_drum_other_126.wav",70
Sample,109329,0,"p4_drum_breaks_002.wav",70
Sample,109329,0,"p4_synth_bassbuild_066.wav",70
Sample,109329,0,"p4_drum_mainpercsloop_003.wav",70
Sample,109329,0,"p4_drum_dirtyperc_003.wav",70
Sample,109329,0,"p4_morse_r2_dot.wav",70
Sample,109329,0,"p4_drum_subsnare_2_001.wav",70
Sample,109329,0,"p4_drum_other_127.wav",70
Sample,109329,0,"p4_morse_l_dot.wav",70
Sample,109414,0,"p4_drum_breaks_003.wav",70
Sample,109414,0,"p4_synth_bassbuild_067.wav",70
Sample,109414,0,"p4_drum_subsnare_2_001.wav",70
Sample,109414,0,"p4_drum_dirtyperc_004.wav",70
Sample,109414,0,"p4_morse_l_dash.wav",70
Sample,109414,0,"p4_drum_other_128.wav",70
Sample,109414,0,"p4_drum_mainpercsloop_004.wav",70
Sample,109414,0,"p4_morse_r2_dot.wav",70
Sample,109500,0,"p4_drum_breaks_004.wav",70
Sample,109500,0,"p4_drum_subsnare_2_001.wav",70
Sample,109500,0,"p4_drum_other_129.wav",70
Sample,109500,0,"p4_drum_dirtyperc_005.wav",70
Sample,109542,0,"p4_morse_l_dot.wav",70
Sample,109585,0,"p4_drum_other_130.wav",70
Sample,109585,0,"p4_synth_bassbuild_068.wav",70
Sample,109585,0,"p4_morse_r2_dash.wav",70
Sample,109585,0,"p4_drum_subsnare_2_001.wav",70
Sample,109585,0,"p4_drum_dirtyperc_006.wav",70
Sample,109585,0,"p4_morse_l_dot.wav",70
Sample,109628,0,"p4_morse_l_dash.wav",70
Sample,109670,0,"p4_drum_subsnare_2_001.wav",70
Sample,109670,0,"p4_synth_bassbuild_069.wav",70
Sample,109670,0,"p4_drum_breaks_005.wav",70
Sample,109670,0,"p4_drum_mainpercsloop_006.wav",70
Sample,109670,0,"p4_drum_other_131.wav",70
Sample,109670,0,"p4_drum_dirtyperc_007.wav",70
Sample,109756,0,"p4_drum_dirtyperc_008.wav",70
Sample,109756,0,"p4_morse_r2_dash.wav",70
Sample,109756,0,"p4_drum_other_132.wav",70
Sample,109756,0,"p4_drum_breaks_006.wav",70
Sample,109756,0,"p4_synth_bassbuild_070.wav",70
Sample,109756,0,"p4_morse_l_dot.wav",70
Sample,109756,0,"p4_drum_subsnare_2_001.wav",70
Sample,109798,0,"p4_morse_l_dot.wav",70
Sample,109841,0,"p4_synth_bassbuild_071.wav",70
Sample,109841,0,"p4_drum_breaks_007.wav",70
Sample,109841,0,"p4_drum_other_133.wav",70
Sample,109841,0,"p4_drum_subsnare_2_001.wav",70
Sample,109841,0,"p4_drum_dirtyperc_009.wav",70
Sample,109841,0,"p4_drum_mainpercsloop_008.wav",70
Sample,109841,0,"p4_morse_l_dash.wav",70
Sample,109926,0,"p4_drum_dirtyperc_010.wav",70
Sample,109926,0,"p4_drum_subsnare_2_001.wav",70
Sample,109926,0,"p4_drum_breaks_008.wav",70
Sample,109926,0,"p4_morse_r2_dot.wav",70
Sample,109926,0,"p4_drum_other_134.wav",70
Sample,109969,0,"p4_morse_l_dot.wav",70
Sample,110011,0,"p4_morse_l_dash.wav",70
Sample,110011,0,"p4_drum_dirtyperc_011.wav",70
Sample,110011,0,"p4_drum_subsnare_2_001.wav",70
Sample,110011,0,"p4_synth_bassbuild_072.wav",70
Sample,110011,0,"p4_morse_r2_dash.wav",70
Sample,110011,0,"p4_drum_other_135.wav",70
Sample,110011,0,"p4_drum_mainpercsloop_010.wav",70
Sample,110011,0,"p4_drum_breaks_009.wav",70
Sample,110097,0,"p4_drum_subsnare_2_001.wav",70
Sample,110097,0,"p4_drum_other_136.wav",70
Sample,110097,0,"p4_drum_dirtyperc_012.wav",70
Sample,110097,0,"p4_synth_bassbuild_073.wav",70
Sample,110097,0,"p4_drum_breaks_010.wav",70
Sample,110097,0,"p4_morse_l_dot.wav",70
Sample,110097,0,"p4_drum_mainpercsloop_011.wav",70
Sample,110182,0,"p4_drum_breaks_011.wav",70
Sample,110182,0,"p4_drum_other_137.wav",70
Sample,110182,0,"p4_drum_dirtyperc_013.wav",70
Sample,110182,0,"p4_drum_subsnare_2_001.wav",70
Sample,110182,0,"p4_morse_r2_dot.wav",70
Sample,110225,0,"p4_morse_l_dot.wav",70
Sample,110267,0,"p4_drum_subsnare_2_001.wav",70
Sample,110267,0,"p4_morse_l_dot.wav",70
Sample,110267,0,"p4_synth_bassbuild_074.wav",70
Sample,110267,0,"p4_drum_other_138.wav",70
Sample,110267,0,"p4_drum_dirtyperc_014.wav",70
Sample,110353,0,"p4_drum_mainpercsloop_006.wav",70
Sample,110353,0,"p4_drum_subsnare_2_001.wav",70
Sample,110353,0,"p4_drum_other_139.wav",70
Sample,110353,0,"p4_morse_l_dot.wav",70
Sample,110353,0,"p4_morse_r2_dash.wav",70
Sample,110353,0,"p4_drum_breaks_012.wav",70
Sample,110353,0,"p4_drum_dirtyperc_015.wav",70
Sample,110353,0,"p4_synth_bassbuild_075.wav",70
Sample,110395,0,"p4_morse_l_dash.wav",70
Sample,110438,0,"p4_drum_breaks_013.wav",70
Sample,110438,0,"p4_synth_bassbuild_076.wav",70
Sample,110438,0,"p4_drum_other_140.wav",70
Sample,110438,0,"p4_drum_dirtyperc_016.wav",70
Sample,110438,0,"p4_drum_subsnare_2_001.wav",70
Sample,110480,0,"p4_morse_l_dash.wav",70
Sample,110523,0,"p4_drum_other_141.wav",70
Sample,110523,0,"p4_drum_dirtyperc_001.wav",70
Sample,110523,0,"p4_drum_subsnare_2_002.wav",70
Sample,110523,0,"p4_morse_r2_dot.wav",70
Sample,110523,0,"p4_drum_cym_003.wav",70
Sample,110566,0,"p4_morse_l_dot.wav",70
Sample,110580,0,"p4_drum_subsnare_2_002.wav",70
Sample,110608,0,"p4_morse_r2_dash.wav",70
Sample,110608,0,"p4_drum_other_142.wav",70
Sample,110608,0,"p4_drum_dirtyperc_002.wav",70
Sample,110637,0,"p4_drum_subsnare_2_002.wav",70
Sample,110651,0,"p4_morse_l_dot.wav",70
Sample,110694,0,"p4_morse_l_dot.wav",70
Sample,110694,0,"p4_drum_other_143.wav",70
Sample,110694,0,"p4_drum_dirtyperc_003.wav",70
Sample,110694,0,"p4_drum_subsnare_2_002.wav",70
Sample,110736,0,"p4_morse_l_dot.wav",70
Sample,110751,0,"p4_drum_subsnare_2_002.wav",70
Sample,110779,0,"p4_drum_dirtyperc_004.wav",70
Sample,110779,0,"p4_morse_r2_dot.wav",70
Sample,110779,0,"p4_drum_other_144.wav",70
Sample,110807,0,"p4_drum_subsnare_2_002.wav",70
Sample,110822,0,"p4_morse_l_dash.wav",70
Sample,110864,0,"p4_drum_other_145.wav",70
Sample,110864,0,"p4_drum_subsnare_2_002.wav",70
Sample,110864,0,"p4_drum_dirtyperc_005.wav",70
Sample,110864,0,"p4_morse_r2_dot.wav",70
Sample,110907,0,"p4_morse_l_dash.wav",70
Sample,110921,0,"p4_drum_subsnare_2_002.wav",70
Sample,110950,0,"p4_drum_other_146.wav",70
Sample,110950,0,"p4_drum_dirtyperc_006.wav",70
Sample,110978,0,"p4_drum_subsnare_2_002.wav",70
Sample,110992,0,"p4_morse_l_dash.wav",70
Sample,111035,0,"p4_drum_other_147.wav",70
Sample,111035,0,"p4_drum_dirtyperc_007.wav",70
Sample,111035,0,"p4_drum_subsnare_2_002.wav",70
Sample,111092,0,"p4_drum_subsnare_2_002.wav",70
Sample,111120,0,"p4_drum_other_148.wav",70
Sample,111120,0,"p4_drum_dirtyperc_008.wav",70
Sample,111120,0,"p4_morse_l_dot.wav",70
Sample,111149,0,"p4_drum_subsnare_2_002.wav",70
Sample,111163,0,"p4_morse_l_dot.wav",70
Sample,111205,0,"p4_morse_l_dot.wav",70
Sample,111888,0,"p4_drum_cym_003.wav",70
Sample,111888,0,"p4_fx_misc2_001.wav",70
Sample,111888,0,"p4_drum_cym_001.wav",70
Sample,121439,0,"p4_synth_uplift_001.wav",70
Sample,121524,0,"p4_synth_uplift_002.wav",70
Sample,121610,0,"p4_synth_uplift_003.wav",70
Sample,121695,0,"p4_synth_uplift_004.wav",70
Sample,121780,0,"p4_synth_uplift_005.wav",70
Sample,121865,0,"p4_synth_uplift_006.wav",70
Sample,121951,0,"p4_synth_uplift_007.wav",70
Sample,122036,0,"p4_synth_uplift_008.wav",70
Sample,122121,0,"p4_synth_uplift_009.wav",70
Sample,122207,0,"p4_synth_uplift_010.wav",70
Sample,122292,0,"p4_synth_uplift_011.wav",70
Sample,122377,0,"p4_synth_uplift_012.wav",70
Sample,122462,0,"p4_synth_uplift_013.wav",70
Sample,122548,0,"p4_synth_uplift_014.wav",70
Sample,122633,0,"p4_synth_uplift_015.wav",70
Sample,122718,0,"p4_synth_uplift_025.wav",70
Sample,122804,0,"p4_fx_impact1_006.wav",70
Sample,122804,0,"p4_drum_dirtyperc_001.wav",70
Sample,122804,0,"p4_synth_bassbuild_001.wav",70
Sample,122804,0,"p4_drum_cym_002.wav",70
Sample,122804,0,"p4_drum_cym_001.wav",70
Sample,122804,0,"p4_fx_misc2_002.wav",70
Sample,122889,0,"p4_drum_dirtyperc_002.wav",70
Sample,122889,0,"p4_drum_mainpercsloop_002.wav",70
Sample,122974,0,"p4_drum_mainpercsloop_003.wav",70
Sample,122974,0,"p4_synth_bassbuild_002.wav",70
Sample,122974,0,"p4_drum_dirtyperc_003.wav",70
Sample,123059,0,"p4_synth_bassbuild_003.wav",70
Sample,123059,0,"p4_drum_mainpercsloop_004.wav",70
Sample,123059,0,"p4_drum_dirtyperc_004.wav",70
Sample,123145,0,"p4_drum_dirtyperc_005.wav",70
Sample,123230,0,"p4_drum_dirtyperc_006.wav",70
Sample,123230,0,"p4_synth_bassbuild_004.wav",70
Sample,123315,0,"p4_drum_dirtyperc_007.wav",70
Sample,123315,0,"p4_drum_mainpercsloop_006.wav",70
Sample,123315,0,"p4_drum_mainsnare_002.wav",70
Sample,123315,0,"p4_synth_bassbuild_005.wav",70
Sample,123400,0,"p4_drum_dirtyperc_008.wav",70
Sample,123486,0,"p4_drum_dirtyperc_009.wav",70
Sample,123486,0,"p4_synth_bassbuild_006.wav",70
Sample,123486,0,"p4_drum_mainpercsloop_008.wav",70
Sample,123571,0,"p4_drum_subsnare_2_001.wav",70
Sample,123571,0,"p4_drum_dirtyperc_010.wav",70
Sample,123656,0,"p4_synth_bassbuild_007.wav",70
Sample,123656,0,"p4_drum_dirtyperc_011.wav",70
Sample,123656,0,"p4_drum_mainpercsloop_010.wav",70
Sample,123742,0,"p4_drum_dirtyperc_012.wav",70
Sample,123742,0,"p4_synth_bassbuild_008.wav",70
Sample,123742,0,"p4_drum_mainpercsloop_011.wav",70
Sample,123827,0,"p4_drum_dirtyperc_013.wav",70
Sample,123827,0,"p4_drum_subsnare_2_001.wav",70
Sample,123912,0,"p4_synth_bassbuild_009.wav",70
Sample,123912,0,"p4_drum_dirtyperc_014.wav",70
Sample,123997,0,"p4_synth_bassbuild_010.wav",70
Sample,123997,0,"p4_drum_dirtyperc_015.wav",70
Sample,123997,0,"p4_drum_mainpercsloop_006.wav",70
Sample,123997,0,"p4_drum_mainsnare_002.wav",70
Sample,124083,0,"p4_drum_dirtyperc_016.wav",70
Sample,124168,0,"p4_drum_dirtyperc_001.wav",70
Sample,124168,0,"p4_synth_bassbuild_011.wav",70
Sample,124253,0,"p4_drum_mainpercsloop_002.wav",70
Sample,124253,0,"p4_drum_dirtyperc_002.wav",70
Sample,124339,0,"p4_drum_mainpercsloop_003.wav",70
Sample,124339,0,"p4_drum_dirtyperc_003.wav",70
Sample,124339,0,"p4_synth_bassbuild_012.wav",70
Sample,124424,0,"p4_drum_mainpercsloop_004.wav",70
Sample,124424,0,"p4_drum_dirtyperc_004.wav",70
Sample,124424,0,"p4_synth_bassbuild_013.wav",70
Sample,124509,0,"p4_drum_dirtyperc_005.wav",70
Sample,124594,0,"p4_synth_bassbuild_014.wav",70
Sample,124594,0,"p4_drum_dirtyperc_006.wav",70
Sample,124680,0,"p4_drum_dirtyperc_007.wav",70
Sample,124680,0,"p4_synth_bassbuild_015.wav",70
Sample,124765,0,"p4_drum_dirtyperc_008.wav",70
Sample,124850,0,"p4_synth_bassbuild_016.wav",70
Sample,124850,0,"p4_drum_dirtyperc_018.wav",70
Sample,124936,0,"p4_drum_subsnare_2_001.wav",70
Sample,124936,0,"p4_drum_dirtyperc_019.wav",70
Sample,125021,0,"p4_drum_dirtyperc_020.wav",70
Sample,125021,0,"p4_synth_bassbuild_017.wav",70
Sample,125106,0,"p4_drum_mainpercsloop_010.wav",70
Sample,125106,0,"p4_drum_dirtyperc_021.wav",70
Sample,125106,0,"p4_synth_bassbuild_018.wav",70
Sample,125191,0,"p4_drum_dirtyperc_022.wav",70
Sample,125191,0,"p4_drum_subsnare_2_001.wav",70
Sample,125277,0,"p4_drum_dirtyperc_023.wav",70
Sample,125277,0,"p4_synth_bassbuild_019.wav",70
Sample,125319,0,"p4_drum_dirtyperc_024.wav",70
Sample,125362,0,"p4_drum_mainsnare_002.wav",70
Sample,125362,0,"p4_drum_dirtyperc_025.wav",70
Sample,125362,0,"p4_synth_bassbuild_020.wav",70
Sample,125447,0,"p4_drum_dirtyperc_026.wav",70
Sample,125490,0,"p4_drum_dirtyperc_027.wav",70
Sample,125533,0,"p4_drum_dirtyperc_001.wav",70
Sample,125533,0,"p4_synth_bassbuild_021.wav",70
Sample,125618,0,"p4_drum_mainpercsloop_002.wav",70
Sample,125618,0,"p4_drum_dirtyperc_002.wav",70
Sample,125703,0,"p4_synth_bassbuild_022.wav",70
Sample,125703,0,"p4_drum_dirtyperc_003.wav",70
Sample,125703,0,"p4_drum_mainpercsloop_003.wav",70
Sample,125788,0,"p4_drum_mainpercsloop_004.wav",70
Sample,125788,0,"p4_synth_bassbuild_023.wav",70
Sample,125788,0,"p4_drum_dirtyperc_004.wav",70
Sample,125874,0,"p4_drum_dirtyperc_005.wav",70
Sample,125959,0,"p4_synth_bassbuild_024.wav",70
Sample,125959,0,"p4_drum_dirtyperc_006.wav",70
Sample,126044,0,"p4_drum_dirtyperc_007.wav",70
Sample,126044,0,"p4_synth_bassbuild_025.wav",70
Sample,126129,0,"p4_drum_dirtyperc_008.wav",70
Sample,126215,0,"p4_synth_bassbuild_026.wav",70
Sample,126215,0,"p4_drum_dirtyperc_009.wav",70
Sample,126300,0,"p4_drum_dirtyperc_010.wav",70
Sample,126300,0,"p4_drum_subsnare_2_001.wav",70
Sample,126385,0,"p4_drum_dirtyperc_011.wav",70
Sample,126385,0,"p4_drum_mainpercsloop_010.wav",70
Sample,126385,0,"p4_synth_bassbuild_027.wav",70
Sample,126471,0,"p4_drum_mainpercsloop_011.wav",70
Sample,126471,0,"p4_drum_dirtyperc_012.wav",70
Sample,126471,0,"p4_synth_bassbuild_028.wav",70
Sample,126556,0,"p4_drum_subsnare_2_001.wav",70
Sample,126556,0,"p4_drum_dirtyperc_013.wav",70
Sample,126641,0,"p4_drum_dirtyperc_014.wav",70
Sample,126641,0,"p4_synth_bassbuild_029.wav",70
Sample,126726,0,"p4_synth_bassbuild_030.wav",70
Sample,126726,0,"p4_drum_mainsnare_002.wav",70
Sample,126726,0,"p4_drum_dirtyperc_015.wav",70
Sample,126812,0,"p4_drum_dirtyperc_016.wav",70
Sample,126897,0,"p4_synth_bassbuild_031.wav",70
Sample,126897,0,"p4_drum_dirtyperc_001.wav",70
Sample,126982,0,"p4_drum_dirtyperc_002.wav",70
Sample,126982,0,"p4_drum_mainpercsloop_002.wav",70
Sample,127068,0,"p4_drum_mainpercsloop_003.wav",70
Sample,127068,0,"p4_drum_dirtyperc_003.wav",70
Sample,127068,0,"p4_synth_bassbuild_032.wav",70
Sample,127153,0,"p4_drum_dirtyperc_004.wav",70
Sample,127153,0,"p4_drum_mainpercsloop_004.wav",70
Sample,127153,0,"p4_synth_bassbuild_033.wav",70
Sample,127238,0,"p4_drum_dirtyperc_005.wav",70
Sample,127323,0,"p4_drum_dirtyperc_006.wav",70
Sample,127323,0,"p4_synth_bassbuild_034.wav",70
Sample,127409,0,"p4_synth_bassbuild_035.wav",70
Sample,127409,0,"p4_drum_dirtyperc_007.wav",70
Sample,127494,0,"p4_drum_dirtyperc_008.wav",70
Sample,127579,0,"p4_drum_dirtyperc_018.wav",70
Sample,127579,0,"p4_synth_bassbuild_036.wav",70
Sample,127665,0,"p4_drum_dirtyperc_019.wav",70
Sample,127665,0,"p4_drum_subsnare_2_001.wav",70
Sample,127750,0,"p4_synth_bassbuild_037.wav",70
Sample,127750,0,"p4_drum_dirtyperc_020.wav",70
Sample,127750,0,"p4_drum_mainpercsloop_010.wav",70
Sample,127835,0,"p4_drum_dirtyperc_021.wav",70
Sample,127835,0,"p4_synth_bassbuild_038.wav",70
Sample,127920,0,"p4_drum_subsnare_2_001.wav",70
Sample,127920,0,"p4_drum_dirtyperc_022.wav",70
Sample,128006,0,"p4_synth_bassbuild_039.wav",70
Sample,128006,0,"p4_drum_dirtyperc_023.wav",70
Sample,128048,0,"p4_drum_dirtyperc_024.wav",70
Sample,128091,0,"p4_drum_dirtyperc_025.wav",70
Sample,128091,0,"p4_drum_mainsnare_002.wav",70
Sample,128091,0,"p4_synth_bassbuild_040.wav",70
Sample,128176,0,"p4_drum_snareshot_2_001.wav",70
Sample,128176,0,"p4_drum_mainpercsloop_008.wav",70
Sample,128176,0,"p4_drum_dirtyperc_026.wav",70
Sample,128219,0,"p4_drum_dirtyperc_027.wav",70
Sample,128261,0,"p4_synth_bassbuild_041.wav",70
Sample,128261,0,"p4_drum_subsnare_3_001.wav",70
Sample,128261,0,"p4_drum_other_093.wav",70
Sample,128261,0,"p4_drum_dirtyperc_001.wav",70
Sample,128347,0,"p4_drum_other_094.wav",70
Sample,128347,0,"p4_drum_dirtyperc_002.wav",70
Sample,128432,0,"p4_drum_mainpercsloop_003.wav",70
Sample,128432,0,"p4_drum_subsnare_3_001.wav",70
Sample,128432,0,"p4_drum_dirtyperc_003.wav",70
Sample,128432,0,"p4_synth_bassbuild_042.wav",70
Sample,128432,0,"p4_drum_other_095.wav",70
Sample,128517,0,"p4_drum_other_096.wav",70
Sample,128517,0,"p4_drum_dirtyperc_004.wav",70
Sample,128517,0,"p4_drum_mainpercsloop_004.wav",70
Sample,128517,0,"p4_synth_bassbuild_043.wav",70
Sample,128603,0,"p4_drum_subsnare_3_001.wav",70
Sample,128603,0,"p4_drum_dirtyperc_005.wav",70
Sample,128603,0,"p4_drum_other_097.wav",70
Sample,128688,0,"p4_drum_dirtyperc_006.wav",70
Sample,128688,0,"p4_synth_bassbuild_044.wav",70
Sample,128688,0,"p4_drum_other_098.wav",70
Sample,128773,0,"p4_drum_mainpercsloop_006.wav",70
Sample,128773,0,"p4_drum_other_099.wav",70
Sample,128773,0,"p4_drum_dirtyperc_007.wav",70
Sample,128773,0,"p4_synth_bassbuild_045.wav",70
Sample,128773,0,"p4_drum_subsnare_3_001.wav",70
Sample,128858,0,"p4_drum_dirtyperc_008.wav",70
Sample,128858,0,"p4_synth_bassbuild_046.wav",70
Sample,128858,0,"p4_drum_other_100.wav",70
Sample,128944,0,"p4_drum_dirtyperc_009.wav",70
Sample,128944,0,"p4_drum_mainpercsloop_008.wav",70
Sample,128944,0,"p4_drum_subsnare_3_001.wav",70
Sample,128944,0,"p4_synth_bassbuild_047.wav",70
Sample,128944,0,"p4_drum_other_101.wav",70
Sample,129029,0,"p4_drum_dirtyperc_010.wav",70
Sample,129029,0,"p4_drum_other_102.wav",70
Sample,129029,0,"p4_drum_subsnare_2_001.wav",70
Sample,129114,0,"p4_drum_subsnare_3_001.wav",70
Sample,129114,0,"p4_drum_dirtyperc_011.wav",70
Sample,129114,0,"p4_drum_mainpercsloop_010.wav",70
Sample,129114,0,"p4_drum_other_103.wav",70
Sample,129114,0,"p4_synth_bassbuild_048.wav",70
Sample,129200,0,"p4_synth_bassbuild_049.wav",70
Sample,129200,0,"p4_drum_dirtyperc_012.wav",70
Sample,129200,0,"p4_drum_mainpercsloop_011.wav",70
Sample,129200,0,"p4_drum_other_104.wav",70
Sample,129285,0,"p4_drum_other_105.wav",70
Sample,129285,0,"p4_drum_dirtyperc_013.wav",70
Sample,129285,0,"p4_drum_subsnare_2_001.wav",70
Sample,129370,0,"p4_drum_other_106.wav",70
Sample,129370,0,"p4_drum_dirtyperc_014.wav",70
Sample,129370,0,"p4_synth_bassbuild_050.wav",70
Sample,129455,0,"p4_drum_other_107.wav",70
Sample,129455,0,"p4_drum_dirtyperc_015.wav",70
Sample,129455,0,"p4_drum_mainpercsloop_006.wav",70
Sample,129455,0,"p4_drum_subsnare_3_001.wav",70
Sample,129455,0,"p4_synth_bassbuild_051.wav",70
Sample,129541,0,"p4_drum_other_108.wav",70
Sample,129541,0,"p4_drum_dirtyperc_016.wav",70
Sample,129541,0,"p4_synth_bassbuild_052.wav",70
Sample,129626,0,"p4_synth_bassbuild_053.wav",70
Sample,129626,0,"p4_drum_subsnare_3_001.wav",70
Sample,129626,0,"p4_drum_other_109.wav",70
Sample,129626,0,"p4_drum_dirtyperc_001.wav",70
Sample,129711,0,"p4_drum_dirtyperc_002.wav",70
Sample,129711,0,"p4_drum_other_110.wav",70
Sample,129797,0,"p4_drum_other_111.wav",70
Sample,129797,0,"p4_drum_subsnare_3_001.wav",70
Sample,129797,0,"p4_drum_mainpercsloop_003.wav",70
Sample,129797,0,"p4_synth_bassbuild_054.wav",70
Sample,129797,0,"p4_drum_dirtyperc_003.wav",70
Sample,129882,0,"p4_drum_mainpercsloop_004.wav",70
Sample,129882,0,"p4_drum_dirtyperc_004.wav",70
Sample,129882,0,"p4_drum_other_112.wav",70
Sample,129882,0,"p4_synth_bassbuild_055.wav",70
Sample,129967,0,"p4_drum_subsnare_3_001.wav",70
Sample,129967,0,"p4_drum_dirtyperc_005.wav",70
Sample,129967,0,"p4_drum_other_113.wav",70
Sample,130052,0,"p4_drum_other_114.wav",70
Sample,130052,0,"p4_synth_bassbuild_056.wav",70
Sample,130052,0,"p4_drum_dirtyperc_006.wav",70
Sample,130138,0,"p4_drum_subsnare_3_001.wav",70
Sample,130138,0,"p4_drum_mainpercsloop_006.wav",70
Sample,130138,0,"p4_drum_other_115.wav",70
Sample,130138,0,"p4_synth_bassbuild_057.wav",70
Sample,130138,0,"p4_drum_dirtyperc_007.wav",70
Sample,130223,0,"p4_drum_dirtyperc_008.wav",70
Sample,130223,0,"p4_synth_bassbuild_058.wav",70
Sample,130223,0,"p4_drum_other_116.wav",70
Sample,130308,0,"p4_drum_other_117.wav",70
Sample,130308,0,"p4_drum_mainpercsloop_008.wav",70
Sample,130308,0,"p4_drum_dirtyperc_018.wav",70
Sample,130308,0,"p4_synth_bassbuild_059.wav",70
Sample,130308,0,"p4_drum_subsnare_3_001.wav",70
Sample,130393,0,"p4_drum_dirtyperc_019.wav",70
Sample,130393,0,"p4_drum_other_118.wav",70
Sample,130393,0,"p4_drum_subsnare_2_001.wav",70
Sample,130479,0,"p4_drum_subsnare_3_001.wav",70
Sample,130479,0,"p4_drum_mainpercsloop_010.wav",70
Sample,130479,0,"p4_drum_other_119.wav",70
Sample,130479,0,"p4_drum_dirtyperc_020.wav",70
Sample,130479,0,"p4_synth_bassbuild_060.wav",70
Sample,130564,0,"p4_synth_bassbuild_061.wav",70
Sample,130564,0,"p4_drum_other_120.wav",70
Sample,130564,0,"p4_drum_mainpercsloop_011.wav",70
Sample,130564,0,"p4_drum_dirtyperc_021.wav",70
Sample,130649,0,"p4_drum_dirtyperc_022.wav",70
Sample,130649,0,"p4_drum_subsnare_2_001.wav",70
Sample,130649,0,"p4_drum_other_121.wav",70
Sample,130735,0,"p4_drum_dirtyperc_023.wav",70
Sample,130735,0,"p4_drum_other_122.wav",70
Sample,130735,0,"p4_synth_bassbuild_062.wav",70
Sample,130777,0,"p4_drum_dirtyperc_024.wav",70
Sample,130820,0,"p4_drum_mainpercsloop_006.wav",70
Sample,130820,0,"p4_drum_other_123.wav",70
Sample,130820,0,"p4_drum_dirtyperc_025.wav",70
Sample,130820,0,"p4_synth_bassbuild_063.wav",70
Sample,130820,0,"p4_drum_subsnare_3_001.wav",70
Sample,130905,0,"p4_drum_dirtyperc_026.wav",70
Sample,130905,0,"p4_synth_bassbuild_064.wav",70
Sample,130905,0,"p4_drum_other_124.wav",70
Sample,130948,0,"p4_drum_dirtyperc_027.wav",70
Sample,130990,0,"p4_drum_subsnare_2_001.wav",70
Sample,130990,0,"p4_synth_main_054.wav",70
Sample,130990,0,"p4_drum_dirtyperc_001.wav",70
Sample,130990,0,"p4_fx_misc1_003.wav",70
Sample,130990,0,"p4_drum_cym_002.wav",70
Sample,130990,0,"p4_drum_mainkick_6.wav",70
Sample,130990,0,"p4_drum_other_125.wav",70
Sample,130990,0,"p4_synth_bassbuild_065.wav",70
Sample,131076,0,"p4_drum_subsnare_2_001.wav",70
Sample,131076,0,"p4_drum_dirtyperc_002.wav",70
Sample,131076,0,"p4_drum_other_126.wav",70
Sample,131076,0,"p4_drum_mainkick_6.wav",70
Sample,131161,0,"p4_drum_subsnare_2_001.wav",70
Sample,131161,0,"p4_drum_other_127.wav",70
Sample,131161,0,"p4_synth_bassbuild_066.wav",70
Sample,131161,0,"p4_drum_mainkick_6.wav",70
Sample,131161,0,"p4_drum_mainpercsloop_003.wav",70
Sample,131161,0,"p4_drum_dirtyperc_003.wav",70
Sample,131246,0,"p4_drum_subsnare_2_001.wav",70
Sample,131246,0,"p4_drum_mainkick_6.wav",70
Sample,131246,0,"p4_drum_mainpercsloop_004.wav",70
Sample,131246,0,"p4_drum_dirtyperc_004.wav",70
Sample,131246,0,"p4_drum_other_128.wav",70
Sample,131246,0,"p4_synth_bassbuild_067.wav",70
Sample,131332,0,"p4_drum_subsnare_2_001.wav",70
Sample,131332,0,"p4_drum_mainkick_6.wav",70
Sample,131332,0,"p4_drum_dirtyperc_005.wav",70
Sample,131332,0,"p4_drum_other_129.wav",70
Sample,131417,0,"p4_drum_other_130.wav",70
Sample,131417,0,"p4_drum_mainkick_6.wav",70
Sample,131417,0,"p4_drum_subsnare_2_001.wav",70
Sample,131417,0,"p4_drum_dirtyperc_006.wav",70
Sample,131417,0,"p4_synth_bassbuild_068.wav",70
Sample,131502,0,"p4_drum_mainkick_6.wav",70
Sample,131502,0,"p4_drum_subsnare_2_001.wav",70
Sample,131502,0,"p4_drum_mainpercsloop_006.wav",70
Sample,131502,0,"p4_drum_dirtyperc_007.wav",70
Sample,131502,0,"p4_drum_other_131.wav",70
Sample,131502,0,"p4_synth_bassbuild_069.wav",70
Sample,131587,0,"p4_drum_dirtyperc_008.wav",70
Sample,131587,0,"p4_drum_mainkick_6.wav",70
Sample,131587,0,"p4_drum_other_132.wav",70
Sample,131587,0,"p4_synth_bassbuild_070.wav",70
Sample,131587,0,"p4_drum_subsnare_2_001.wav",70
Sample,131673,0,"p4_drum_subsnare_2_001.wav",70
Sample,131673,0,"p4_synth_bassbuild_071.wav",70
Sample,131673,0,"p4_drum_other_133.wav",70
Sample,131673,0,"p4_drum_dirtyperc_009.wav",70
Sample,131673,0,"p4_synth_main_055.wav",70
Sample,131673,0,"p4_drum_mainkick_6.wav",70
Sample,131673,0,"p4_drum_mainpercsloop_008.wav",70
Sample,131758,0,"p4_drum_other_134.wav",70
Sample,131758,0,"p4_drum_dirtyperc_010.wav",70
Sample,131758,0,"p4_drum_subsnare_2_001.wav",70
Sample,131758,0,"p4_drum_mainkick_6.wav",70
Sample,131843,0,"p4_drum_other_135.wav",70
Sample,131843,0,"p4_drum_mainpercsloop_010.wav",70
Sample,131843,0,"p4_synth_bassbuild_072.wav",70
Sample,131843,0,"p4_drum_subsnare_2_001.wav",70
Sample,131843,0,"p4_drum_mainkick_6.wav",70
Sample,131843,0,"p4_drum_dirtyperc_011.wav",70
Sample,131929,0,"p4_drum_subsnare_2_001.wav",70
Sample,131929,0,"p4_drum_other_136.wav",70
Sample,131929,0,"p4_drum_mainkick_6.wav",70
Sample,131929,0,"p4_drum_mainpercsloop_011.wav",70
Sample,131929,0,"p4_drum_dirtyperc_012.wav",70
Sample,131929,0,"p4_synth_bassbuild_073.wav",70
Sample,132014,0,"p4_drum_other_137.wav",70
Sample,132014,0,"p4_drum_dirtyperc_013.wav",70
Sample,132014,0,"p4_drum_subsnare_2_001.wav",70
Sample,132014,0,"p4_drum_mainkick_6.wav",70
Sample,132099,0,"p4_drum_dirtyperc_014.wav",70
Sample,132099,0,"p4_drum_other_138.wav",70
Sample,132099,0,"p4_drum_mainkick_6.wav",70
Sample,132099,0,"p4_synth_bassbuild_074.wav",70
Sample,132099,0,"p4_drum_subsnare_2_001.wav",70
Sample,132184,0,"p4_drum_mainkick_6.wav",70
Sample,132184,0,"p4_drum_other_139.wav",70
Sample,132184,0,"p4_drum_subsnare_2_001.wav",70
Sample,132184,0,"p4_drum_dirtyperc_015.wav",70
Sample,132184,0,"p4_drum_mainpercsloop_006.wav",70
Sample,132184,0,"p4_synth_bassbuild_075.wav",70
Sample,132270,0,"p4_drum_mainkick_6.wav",70
Sample,132270,0,"p4_drum_subsnare_2_001.wav",70
Sample,132270,0,"p4_drum_dirtyperc_016.wav",70
Sample,132270,0,"p4_drum_other_140.wav",70
Sample,132270,0,"p4_synth_bassbuild_076.wav",70
Sample,132355,0,"p4_synth_main_055_002.wav",70
Sample,132561,0,"p4_synth_granular_027.wav",70
Sample,132703,0,"p4_synth_granular_028.wav",70
Sample,132838,0,"p4_synth_granular_029.wav",70
Sample,132895,0,"p4_synth_granular_030.wav",70
Sample,132931,0,"p4_synth_granular_031.wav",70
Sample,132966,0,"p4_synth_granular_032.wav",70
Sample,133009,0,"p4_synth_granular_033.wav",70
Sample,133719,0,"p4_morse_l_dash.wav",70
Sample,133719,0,"p4_drum_dirtyperc_001.wav",70
Sample,133719,0,"p4_morse_r2_dash.wav",70
Sample,133719,0,"p4_bgm_004.wav",70
Sample,133805,0,"p4_drum_mainpercsloop_002.wav",70
Sample,133805,0,"p4_drum_dirtyperc_002.wav",70
Sample,133805,0,"p4_morse_l_dot.wav",70
Sample,133847,0,"p4_morse_l_dot.wav",70
Sample,133890,0,"p4_morse_l_dot.wav",70
Sample,133890,0,"p4_morse_r2_dash.wav",70
Sample,133890,0,"p4_drum_dirtyperc_003.wav",70
Sample,133890,0,"p4_drum_mainpercsloop_003.wav",70
Sample,133975,0,"p4_drum_mainpercsloop_004.wav",70
Sample,133975,0,"p4_morse_l_dot.wav",70
Sample,133975,0,"p4_drum_dirtyperc_004.wav",70
Sample,134061,0,"p4_morse_l_dot.wav",70
Sample,134061,0,"p4_drum_dirtyperc_005.wav",70
Sample,134103,0,"p4_morse_l_dash.wav",70
Sample,134146,0,"p4_drum_dirtyperc_006.wav",70
Sample,134146,0,"p4_morse_r2_dash.wav",70
Sample,134231,0,"p4_drum_dirtyperc_007.wav",70
Sample,134231,0,"p4_morse_l_dash.wav",70
Sample,134231,0,"p4_drum_mainpercsloop_006.wav",70
Sample,134316,0,"p4_drum_dirtyperc_008.wav",70
Sample,134316,0,"p4_morse_r2_dot.wav",70
Sample,134359,0,"p4_morse_l_dot.wav",70
Sample,134402,0,"p4_morse_l_dot.wav",70
Sample,134402,0,"p4_drum_mainpercsloop_008.wav",70
Sample,134402,0,"p4_morse_r2_dot.wav",70
Sample,134402,0,"p4_drum_dirtyperc_009.wav",70
Sample,134487,0,"p4_morse_r2_dash.wav",70
Sample,134487,0,"p4_drum_dirtyperc_010.wav",70
Sample,134530,0,"p4_morse_l_dash.wav",70
Sample,134572,0,"p4_drum_dirtyperc_011.wav",70
Sample,134572,0,"p4_drum_mainpercsloop_010.wav",70
Sample,134615,0,"p4_morse_l_dash.wav",70
Sample,134658,0,"p4_drum_dirtyperc_012.wav",70
Sample,134658,0,"p4_morse_r2_dot.wav",70
Sample,134658,0,"p4_drum_mainpercsloop_011.wav",70
Sample,134743,0,"p4_drum_dirtyperc_013.wav",70
Sample,134743,0,"p4_morse_l_dash.wav",70
Sample,134828,0,"p4_morse_r2_dash.wav",70
Sample,134828,0,"p4_drum_dirtyperc_014.wav",70
Sample,134828,0,"p4_morse_l_dash.wav",70
Sample,134913,0,"p4_morse_l_dash.wav",70
Sample,134913,0,"p4_drum_mainpercsloop_006.wav",70
Sample,134913,0,"p4_drum_dirtyperc_015.wav",70
Sample,134999,0,"p4_morse_r2_dash.wav",70
Sample,134999,0,"p4_drum_dirtyperc_016.wav",70
Sample,135041,0,"p4_morse_l_dot.wav",70
Sample,135084,0,"p4_morse_l_dash.wav",70
Sample,135084,0,"p4_drum_dirtyperc_001.wav",70
Sample,135169,0,"p4_morse_r2_dash.wav",70
Sample,135169,0,"p4_drum_mainpercsloop_002.wav",70
Sample,135169,0,"p4_morse_l_dot.wav",70
Sample,135169,0,"p4_drum_dirtyperc_002.wav",70
Sample,135254,0,"p4_drum_dirtyperc_003.wav",70
Sample,135254,0,"p4_morse_l_dash.wav",70
Sample,135254,0,"p4_drum_mainpercsloop_003.wav",70
Sample,135340,0,"p4_drum_mainpercsloop_004.wav",70
Sample,135340,0,"p4_drum_dirtyperc_004.wav",70
Sample,135340,0,"p4_morse_r2_dot.wav",70
Sample,135382,0,"p4_morse_l_dot.wav",70
Sample,135425,0,"p4_morse_l_dot.wav",70
Sample,135425,0,"p4_morse_r2_dash.wav",70
Sample,135425,0,"p4_drum_dirtyperc_005.wav",70
Sample,135468,0,"p4_morse_l_dash.wav",70
Sample,135510,0,"p4_drum_dirtyperc_006.wav",70
Sample,135596,0,"p4_drum_mainpercsloop_006.wav",70
Sample,135596,0,"p4_drum_dirtyperc_007.wav",70
Sample,135596,0,"p4_morse_l_dot.wav",70
Sample,135638,0,"p4_morse_l_dot.wav",70
Sample,135681,0,"p4_morse_r2_dot.wav",70
Sample,135681,0,"p4_drum_dirtyperc_008.wav",70
Sample,135766,0,"p4_morse_r2_dash.wav",70
Sample,135766,0,"p4_morse_l_dot.wav",70
Sample,135766,0,"p4_drum_mainpercsloop_008.wav",70
Sample,135766,0,"p4_drum_dirtyperc_018.wav",70
Sample,135809,0,"p4_morse_l_dot.wav",70
Sample,135851,0,"p4_drum_dirtyperc_019.wav",70
Sample,135851,0,"p4_drum_subsnare_2_001.wav",70
Sample,135894,0,"p4_morse_l_dash.wav",70
Sample,135937,0,"p4_morse_r2_dot.wav",70
Sample,135937,0,"p4_drum_dirtyperc_020.wav",70
Sample,135937,0,"p4_synth_weapon_313.wav",70
Sample,135979,0,"p4_morse_l_dot.wav",70
Sample,136022,0,"p4_drum_dirtyperc_021.wav",70
Sample,136022,0,"p4_drum_mainpercsloop_010.wav",70
Sample,136022,0,"p4_morse_r2_dot.wav",70
Sample,136107,0,"p4_morse_l_dash.wav",70
Sample,136107,0,"p4_drum_mainsnare_001.wav",70
Sample,136107,0,"p4_drum_subsnare_2_001.wav",70
Sample,136107,0,"p4_synth_weapon_314.wav",70
Sample,136107,0,"p4_drum_dirtyperc_022.wav",70
Sample,136193,0,"p4_morse_r2_dot.wav",70
Sample,136193,0,"p4_morse_l_dot.wav",70
Sample,136193,0,"p4_drum_dirtyperc_023.wav",70
Sample,136214,0,"p4_synth_weapon_315.wav",70
Sample,136235,0,"p4_morse_l_dot.wav",70
Sample,136235,0,"p4_drum_dirtyperc_024.wav",70
Sample,136278,0,"p4_synth_weapon_316.wav",70
Sample,136278,0,"p4_drum_subkick_4.wav",70
Sample,136278,0,"p4_drum_dirtyperc_025.wav",70
Sample,136278,0,"p4_drum_mainsnare_002.wav",70
Sample,136278,0,"p4_morse_r2_dot.wav",70
Sample,136320,0,"p4_morse_l_dash.wav",70
Sample,136356,0,"p4_synth_weapon_317.wav",70
Sample,136363,0,"p4_drum_dirtyperc_026.wav",70
Sample,136363,0,"p4_drum_snareshot_1_001.wav",70
Sample,136406,0,"p4_drum_dirtyperc_027.wav",70
Sample,136406,0,"p4_morse_l_dash.wav",70
Sample,136448,0,"p4_morse_r2_dot.wav",70
Sample,136448,0,"p4_drum_cym_001.wav",70
Sample,136448,0,"p4_drum_breaks_001.wav",70
Sample,136448,0,"p4_drum_dirtyperc_001.wav",70
Sample,136491,0,"p4_morse_l_dash.wav",70
Sample,136534,0,"p4_drum_mainpercsloop_002.wav",70
Sample,136534,0,"p4_drum_dirtyperc_002.wav",70
Sample,136534,0,"p4_morse_r2_dot.wav",70
Sample,136619,0,"p4_morse_l_dash.wav",70
Sample,136619,0,"p4_drum_mainpercsloop_003.wav",70
Sample,136619,0,"p4_morse_r2_dot.wav",70
Sample,136619,0,"p4_drum_dirtyperc_003.wav",70
Sample,136619,0,"p4_synth_weapon_318.wav",70
Sample,136619,0,"p4_drum_breaks_002.wav",70
Sample,136704,0,"p4_drum_breaks_003.wav",70
Sample,136704,0,"p4_drum_dirtyperc_004.wav",70
Sample,136704,0,"p4_drum_mainpercsloop_004.wav",70
Sample,136704,0,"p4_morse_l_dash.wav",70
Sample,136790,0,"p4_drum_subsnare_2_001.wav",70
Sample,136790,0,"p4_synth_weapon_319.wav",70
Sample,136790,0,"p4_drum_breaks_004.wav",70
Sample,136790,0,"p4_drum_dirtyperc_005.wav",70
Sample,136832,0,"p4_morse_l_dot.wav",70
Sample,136875,0,"p4_morse_l_dot.wav",70
Sample,136875,0,"p4_drum_dirtyperc_006.wav",70
Sample,136960,0,"p4_morse_r2_dash.wav",70
Sample,136960,0,"p4_morse_l_dash.wav",70
Sample,136960,0,"p4_drum_breaks_005.wav",70
Sample,136960,0,"p4_drum_dirtyperc_007.wav",70
Sample,137045,0,"p4_drum_subsnare_1_002.wav",70
Sample,137045,0,"p4_drum_breaks_006.wav",70
Sample,137045,0,"p4_drum_dirtyperc_008.wav",70
Sample,137045,0,"p4_synth_weapon_320.wav",70
Sample,137045,0,"p4_morse_l_dot.wav",70
Sample,137088,0,"p4_synth_weapon_321.wav",70
Sample,137131,0,"p4_drum_dirtyperc_009.wav",70
Sample,137131,0,"p4_synth_weapon_322.wav",70
Sample,137131,0,"p4_drum_breaks_007.wav",70
Sample,137131,0,"p4_morse_r2_dash.wav",70
Sample,137131,0,"p4_morse_l_dash.wav",70
Sample,137216,0,"p4_drum_dirtyperc_010.wav",70
Sample,137216,0,"p4_synth_weapon_323.wav",70
Sample,137216,0,"p4_drum_subsnare_2_001.wav",70
Sample,137216,0,"p4_drum_breaks_008.wav",70
Sample,137216,0,"p4_morse_l_dash.wav",70
Sample,137301,0,"p4_drum_dirtyperc_011.wav",70
Sample,137301,0,"p4_synth_weapon_324.wav",70
Sample,137301,0,"p4_drum_breaks_009.wav",70
Sample,137301,0,"p4_morse_l_dash.wav",70
Sample,137301,0,"p4_drum_mainpercsloop_010.wav",70
Sample,137301,0,"p4_morse_r2_dot.wav",70
Sample,137387,0,"p4_drum_mainpercsloop_011.wav",70
Sample,137387,0,"p4_drum_breaks_010.wav",70
Sample,137387,0,"p4_synth_weapon_325.wav",70
Sample,137387,0,"p4_morse_r2_dot.wav",70
Sample,137387,0,"p4_drum_dirtyperc_012.wav",70
Sample,137472,0,"p4_drum_subsnare_2_001.wav",70
Sample,137472,0,"p4_drum_dirtyperc_013.wav",70
Sample,137472,0,"p4_drum_breaks_011.wav",70
Sample,137472,0,"p4_morse_l_dash.wav",70
Sample,137472,0,"p4_synth_weapon_326.wav",70
Sample,137472,0,"p4_morse_r2_dash.wav",70
Sample,137557,0,"p4_drum_dirtyperc_014.wav",70
Sample,137557,0,"p4_morse_l_dash.wav",70
Sample,137642,0,"p4_drum_mainsnare_002.wav",70
Sample,137642,0,"p4_drum_dirtyperc_015.wav",70
Sample,137642,0,"p4_drum_breaks_012.wav",70
Sample,137657,0,"p4_synth_weapon_327.wav",70
Sample,137685,0,"p4_morse_l_dash.wav",70
Sample,137728,0,"p4_morse_r2_dot.wav",70
Sample,137728,0,"p4_drum_breaks_013.wav",70
Sample,137728,0,"p4_drum_dirtyperc_016.wav",70
Sample,137770,0,"p4_morse_l_dash.wav",70
Sample,137813,0,"p4_drum_dirtyperc_001.wav",70
Sample,137813,0,"p4_drum_breaks_001.wav",70
Sample,137813,0,"p4_synth_weapon_328.wav",70
Sample,137813,0,"p4_morse_r2_dot.wav",70
Sample,137856,0,"p4_morse_l_dash.wav",70
Sample,137898,0,"p4_drum_dirtyperc_002.wav",70
Sample,137898,0,"p4_morse_r2_dash.wav",70
Sample,137898,0,"p4_drum_mainpercsloop_002.wav",70
Sample,137983,0,"p4_synth_weapon_329.wav",70
Sample,137983,0,"p4_morse_l_dot.wav",70
Sample,137983,0,"p4_drum_breaks_002.wav",70
Sample,137983,0,"p4_drum_dirtyperc_003.wav",70
Sample,137983,0,"p4_drum_mainpercsloop_003.wav",70
Sample,138026,0,"p4_morse_l_dash.wav",70
Sample,138069,0,"p4_drum_dirtyperc_004.wav",70
Sample,138069,0,"p4_drum_mainpercsloop_004.wav",70
Sample,138069,0,"p4_drum_breaks_003.wav",70
Sample,138069,0,"p4_morse_r2_dot.wav",70
Sample,138111,0,"p4_morse_l_dot.wav",70
Sample,138154,0,"p4_drum_breaks_004.wav",70
Sample,138154,0,"p4_drum_subsnare_2_001.wav",70
Sample,138154,0,"p4_drum_dirtyperc_005.wav",70
Sample,138154,0,"p4_morse_r2_dot.wav",70
Sample,138197,0,"p4_morse_l_dot.wav",70
Sample,138239,0,"p4_drum_dirtyperc_006.wav",70
Sample,138239,0,"p4_morse_l_dot.wav",70
Sample,138325,0,"p4_drum_dirtyperc_007.wav",70
Sample,138325,0,"p4_drum_breaks_005.wav",70
Sample,138325,0,"p4_morse_l_dot.wav",70
Sample,138325,0,"p4_morse_r2_dash.wav",70
Sample,138325,0,"p4_drum_subkick_4.wav",70
Sample,138410,0,"p4_drum_dirtyperc_008.wav",70
Sample,138410,0,"p4_drum_breaks_006.wav",70
Sample,138410,0,"p4_morse_l_dash.wav",70
Sample,138495,0,"p4_morse_r2_dash.wav",70
Sample,138495,0,"p4_morse_l_dot.wav",70
Sample,138495,0,"p4_drum_breaks_007.wav",70
Sample,138495,0,"p4_drum_dirtyperc_018.wav",70
Sample,138580,0,"p4_morse_l_dash.wav",70
Sample,138580,0,"p4_synth_weapon_332.wav",70
Sample,138580,0,"p4_drum_dirtyperc_019.wav",70
Sample,138580,0,"p4_drum_subsnare_2_001.wav",70
Sample,138580,0,"p4_drum_breaks_008.wav",70
Sample,138666,0,"p4_morse_r2_dot.wav",70
Sample,138666,0,"p4_drum_dirtyperc_020.wav",70
Sample,138666,0,"p4_drum_breaks_009.wav",70
Sample,138666,0,"p4_drum_mainpercsloop_010.wav",70
Sample,138708,0,"p4_morse_l_dot.wav",70
Sample,138751,0,"p4_synth_weapon_334.wav",70
Sample,138751,0,"p4_drum_breaks_010.wav",70
Sample,138751,0,"p4_drum_dirtyperc_021.wav",70
Sample,138794,0,"p4_morse_l_dot.wav",70
Sample,138836,0,"p4_drum_breaks_011.wav",70
Sample,138836,0,"p4_drum_mainsnare_001.wav",70
Sample,138836,0,"p4_drum_subsnare_2_001.wav",70
Sample,138836,0,"p4_drum_dirtyperc_022.wav",70
Sample,138836,0,"p4_morse_l_dot.wav",70
Sample,138836,0,"p4_morse_r2_dot.wav",70
Sample,138879,0,"p4_morse_l_dot.wav",70
Sample,138922,0,"p4_morse_r2_dot.wav",70
Sample,138922,0,"p4_drum_dirtyperc_023.wav",70
Sample,138964,0,"p4_drum_dirtyperc_024.wav",70
Sample,139007,0,"p4_morse_l_dash.wav",70
Sample,139007,0,"p4_drum_breaks_012.wav",70
Sample,139007,0,"p4_drum_dirtyperc_025.wav",70
Sample,139007,0,"p4_drum_mainsnare_002.wav",70
Sample,139007,0,"p4_drum_subkick_4.wav",70
Sample,139007,0,"p4_morse_r2_dash.wav",70
Sample,139092,0,"p4_morse_l_dot.wav",70
Sample,139092,0,"p4_drum_snareshot_2_001.wav",70
Sample,139092,0,"p4_drum_dirtyperc_026.wav",70
Sample,139092,0,"p4_drum_mainpercsloop_008.wav",70
Sample,139092,0,"p4_drum_breaks_013.wav",70
Sample,139135,0,"p4_drum_dirtyperc_027.wav",70
Sample,139135,0,"p4_morse_l_dot.wav",70
Sample,139177,0,"p4_drum_cym_002.wav",70
Sample,139177,0,"p4_drum_mainkick_2.wav",70
Sample,139177,0,"p4_drum_other_150.wav",70
Sample,139177,0,"p4_morse_r2_dot.wav",70
Sample,139177,0,"p4_synth_weapon_339.wav",70
Sample,139220,0,"p4_morse_l_dot.wav",70
Sample,139263,0,"p4_morse_r2_dash.wav",70
Sample,139305,0,"p4_morse_l_dot.wav",70
Sample,139348,0,"p4_morse_l_dot.wav",70
Sample,139433,0,"p4_morse_l_dash.wav",70
Sample,139519,0,"p4_morse_l_dot.wav",70
Sample,139519,0,"p4_morse_r2_dot.wav",70
Sample,139519,0,"p4_drum_other_151.wav",70
Sample,139604,0,"p4_morse_r2_dash.wav",70
Sample,139604,0,"p4_drum_other_152.wav",70
Sample,139604,0,"p4_morse_l_dash.wav",70
Sample,139689,0,"p4_morse_l_dot.wav",70
Sample,139689,0,"p4_drum_other_153.wav",70
Sample,139732,0,"p4_morse_l_dash.wav",70
Sample,139774,0,"p4_drum_other_154.wav",70
Sample,139774,0,"p4_morse_r2_dash.wav",70
Sample,139817,0,"p4_morse_l_dot.wav",70
Sample,139860,0,"p4_synth_weapon_340.wav",70
Sample,139860,0,"p4_drum_other_155.wav",70
Sample,139860,0,"p4_synth_sax_013.wav",70
Sample,139860,0,"p4_synth_subbell_001.wav",70
Sample,139902,0,"p4_morse_l_dot.wav",70
Sample,139988,0,"p4_morse_l_dot.wav",70
Sample,140030,0,"p4_drum_other_156.wav",70
Sample,140030,0,"p4_morse_l_dash.wav",70
Sample,140030,0,"p4_morse_r2_dash.wav",70
Sample,140115,0,"p4_morse_l_dash.wav",70
Sample,140201,0,"p4_morse_l_dot.wav",70
Sample,140201,0,"p4_morse_r2_dot.wav",70
Sample,140201,0,"p4_drum_other_157.wav",70
Sample,140229,0,"p4_synth_sax_014.wav",70
Sample,140286,0,"p4_morse_r2_dot.wav",70
Sample,140286,0,"p4_morse_l_dot.wav",70
Sample,140329,0,"p4_morse_l_dot.wav",70
Sample,140371,0,"p4_morse_l_dot.wav",70
Sample,140371,0,"p4_drum_other_158.wav",70
Sample,140371,0,"p4_morse_r2_dash.wav",70
Sample,140542,0,"p4_synth_subbell_002.wav",70
Sample,140542,0,"p4_morse_l_dash.wav",70
Sample,140542,0,"p4_drum_other_159.wav",70
Sample,140627,0,"p4_morse_l_dot.wav",70
Sample,140627,0,"p4_synth_sax_015.wav",70
Sample,140627,0,"p4_morse_r2_dot.wav",70
Sample,140670,0,"p4_morse_l_dot.wav",70
Sample,140684,0,"p4_synth_sax_016.wav",70
Sample,140712,0,"p4_morse_r2_dot.wav",70
Sample,140712,0,"p4_drum_other_160.wav",70
Sample,140741,0,"p4_synth_sax_017.wav",70
Sample,140755,0,"p4_morse_l_dot.wav",70
Sample,140798,0,"p4_morse_l_dot.wav",70
Sample,140798,0,"p4_morse_r2_dash.wav",70
Sample,140883,0,"p4_drum_other_161.wav",70
Sample,140883,0,"p4_morse_l_dash.wav",70
Sample,140897,0,"p4_synth_sax_018.wav",70
Sample,140968,0,"p4_morse_r2_dash.wav",70
Sample,140968,0,"p4_morse_l_dot.wav",70
Sample,141011,0,"p4_morse_l_dash.wav",70
Sample,141054,0,"p4_drum_other_162.wav",70
Sample,141096,0,"p4_morse_l_dot.wav",70
Sample,141139,0,"p4_drum_other_163.wav",70
Sample,141181,0,"p4_morse_l_dot.wav",70
Sample,141224,0,"p4_morse_l_dot.wav",70
Sample,141224,0,"p4_synth_subbell_003.wav",70
Sample,141224,0,"p4_drum_other_164.wav",70
Sample,141267,0,"p4_synth_sax_019.wav",70
Sample,141309,0,"p4_morse_l_dash.wav",70
Sample,141324,0,"p4_synth_sax_020.wav",70
Sample,141380,0,"p4_synth_sax_021.wav",70
Sample,141395,0,"p4_drum_mainkick_3.wav",70
Sample,141395,0,"p4_morse_r2_dash.wav",70
Sample,141480,0,"p4_morse_l_dot.wav",70
Sample,141565,0,"p4_drum_other_165.wav",70
Sample,141565,0,"p4_drum_breaks_011.wav",70
Sample,141565,0,"p4_morse_r2_dot.wav",70
Sample,141565,0,"p4_drum_subsnare_2_001.wav",70
Sample,141565,0,"p4_morse_l_dash.wav",70
Sample,141565,0,"p4_drum_snareshot_2_001.wav",70
Sample,141594,0,"p4_synth_sax_022.wav",70
Sample,141651,0,"p4_morse_l_dot.wav",70
Sample,141651,0,"p4_morse_r2_dot.wav",70
Sample,141736,0,"p4_drum_breaks_012.wav",70
Sample,141736,0,"p4_morse_l_dot.wav",70
Sample,141736,0,"p4_drum_other_166.wav",70
Sample,141736,0,"p4_morse_r2_dash.wav",70
Sample,141778,0,"p4_morse_l_dot.wav",70
Sample,141821,0,"p4_drum_breaks_013.wav",70
Sample,141821,0,"p4_drum_other_167.wav",70
Sample,141864,0,"p4_morse_l_dash.wav",70
Sample,141906,0,"p4_drum_dirtyperc_001.wav",70
Sample,141906,0,"p4_drum_breaks_001.wav",70
Sample,141906,0,"p4_synth_subbell_004.wav",70
Sample,141906,0,"p4_synth_weapon_341.wav",70
Sample,141949,0,"p4_morse_l_dash.wav",70
Sample,141992,0,"p4_drum_dirtyperc_002.wav",70
Sample,141992,0,"p4_morse_r2_dash.wav",70
Sample,141992,0,"p4_drum_mainpercsloop_002.wav",70
Sample,142077,0,"p4_drum_breaks_002.wav",70
Sample,142077,0,"p4_drum_mainpercsloop_003.wav",70
Sample,142077,0,"p4_synth_saw_001.wav",70
Sample,142077,0,"p4_drum_dirtyperc_003.wav",70
Sample,142120,0,"p4_morse_l_dot.wav",70
Sample,142162,0,"p4_drum_breaks_003.wav",70
Sample,142162,0,"p4_drum_mainpercsloop_004.wav",70
Sample,142162,0,"p4_morse_r2_dot.wav",70
Sample,142162,0,"p4_morse_l_dot.wav",70
Sample,142162,0,"p4_drum_dirtyperc_004.wav",70
Sample,142162,0,"p4_synth_saw_002.wav",70
Sample,142205,0,"p4_synth_weapon_342.wav",70
Sample,142205,0,"p4_morse_l_dot.wav",70
Sample,142247,0,"p4_drum_dirtyperc_005.wav",70
Sample,142247,0,"p4_synth_saw_003.wav",70
Sample,142247,0,"p4_drum_breaks_004.wav",70
Sample,142247,0,"p4_morse_r2_dash.wav",70
Sample,142290,0,"p4_morse_l_dot.wav",70
Sample,142333,0,"p4_morse_l_dash.wav",70
Sample,142333,0,"p4_drum_dirtyperc_006.wav",70
Sample,142333,0,"p4_synth_saw_004.wav",70
Sample,142418,0,"p4_synth_saw_005.wav",70
Sample,142418,0,"p4_morse_l_dash.wav",70
Sample,142418,0,"p4_morse_r2_dot.wav",70
Sample,142418,0,"p4_drum_dirtyperc_007.wav",70
Sample,142418,0,"p4_synth_weapon_343.wav",70
Sample,142418,0,"p4_drum_breaks_005.wav",70
Sample,142503,0,"p4_synth_saw_006.wav",70
Sample,142503,0,"p4_drum_breaks_006.wav",70
Sample,142503,0,"p4_drum_dirtyperc_008.wav",70
Sample,142503,0,"p4_morse_r2_dot.wav",70
Sample,142503,0,"p4_morse_l_dot.wav",70
Sample,142589,0,"p4_synth_weapon_344.wav",70
Sample,142589,0,"p4_synth_saw_007.wav",70
Sample,142589,0,"p4_drum_breaks_007.wav",70
Sample,142589,0,"p4_drum_dirtyperc_009.wav",70
Sample,142589,0,"p4_morse_l_dot.wav",70
Sample,142631,0,"p4_morse_l_dot.wav",70
Sample,142674,0,"p4_drum_subsnare_2_001.wav",70
Sample,142674,0,"p4_synth_weapon_345.wav",70
Sample,142674,0,"p4_morse_r2_dot.wav",70
Sample,142674,0,"p4_synth_saw_008.wav",70
Sample,142674,0,"p4_drum_breaks_008.wav",70
Sample,142674,0,"p4_drum_dirtyperc_010.wav",70
Sample,142717,0,"p4_morse_l_dot.wav",70
Sample,142759,0,"p4_drum_breaks_009.wav",70
Sample,142759,0,"p4_morse_l_dash.wav",70
Sample,142759,0,"p4_drum_mainpercsloop_010.wav",70
Sample,142759,0,"p4_synth_saw_009.wav",70
Sample,142759,0,"p4_drum_dirtyperc_011.wav",70
Sample,142759,0,"p4_morse_r2_dot.wav",70
Sample,142844,0,"p4_drum_breaks_010.wav",70
Sample,142844,0,"p4_synth_weapon_346.wav",70
Sample,142844,0,"p4_morse_r2_dash.wav",70
Sample,142844,0,"p4_synth_saw_010.wav",70
Sample,142844,0,"p4_drum_dirtyperc_012.wav",70
Sample,142844,0,"p4_morse_l_dot.wav",70
Sample,142930,0,"p4_drum_dirtyperc_013.wav",70
Sample,142930,0,"p4_synth_weapon_347.wav",70
Sample,142930,0,"p4_synth_saw_011.wav",70
Sample,142930,0,"p4_drum_breaks_011.wav",70
Sample,142930,0,"p4_morse_l_dot.wav",70
Sample,142972,0,"p4_morse_l_dot.wav",70
Sample,143015,0,"p4_drum_dirtyperc_014.wav",70
Sample,143015,0,"p4_morse_r2_dash.wav",70
Sample,143015,0,"p4_synth_saw_012.wav",70
Sample,143058,0,"p4_morse_l_dash.wav",70
Sample,143100,0,"p4_drum_dirtyperc_015.wav",70
Sample,143100,0,"p4_synth_saw_013.wav",70
Sample,143100,0,"p4_drum_breaks_012.wav",70
Sample,143100,0,"p4_drum_mainsnare_002.wav",70
Sample,143186,0,"p4_morse_l_dot.wav",70
Sample,143186,0,"p4_drum_breaks_013.wav",70
Sample,143186,0,"p4_drum_dirtyperc_016.wav",70
Sample,143186,0,"p4_drum_subkick_4.wav",70
Sample,143186,0,"p4_synth_saw_014.wav",70
Sample,143228,0,"p4_morse_l_dot.wav",70
Sample,143271,0,"p4_morse_l_dash.wav",70
Sample,143271,0,"p4_drum_dirtyperc_001.wav",70
Sample,143271,0,"p4_synth_saw_015.wav",70
Sample,143271,0,"p4_drum_breaks_001.wav",70
Sample,143271,0,"p4_morse_r2_dash.wav",70
Sample,143356,0,"p4_drum_dirtyperc_002.wav",70
Sample,143356,0,"p4_synth_saw_016.wav",70
Sample,143356,0,"p4_synth_uplift_017.wav",70
Sample,143356,0,"p4_drum_mainpercsloop_002.wav",70
Sample,143399,0,"p4_morse_l_dot.wav",70
Sample,143441,0,"p4_synth_uplift_018.wav",70
Sample,143441,0,"p4_morse_r2_dot.wav",70
Sample,143441,0,"p4_synth_saw_017.wav",70
Sample,143441,0,"p4_drum_breaks_002.wav",70
Sample,143441,0,"p4_morse_l_dot.wav",70
Sample,143441,0,"p4_drum_dirtyperc_003.wav",70
Sample,143441,0,"p4_drum_mainpercsloop_003.wav",70
Sample,143484,0,"p4_morse_l_dot.wav",70
Sample,143527,0,"p4_synth_saw_018.wav",70
Sample,143527,0,"p4_drum_mainpercsloop_004.wav",70
Sample,143527,0,"p4_drum_breaks_003.wav",70
Sample,143527,0,"p4_synth_uplift_019.wav",70
Sample,143527,0,"p4_morse_r2_dot.wav",70
Sample,143527,0,"p4_drum_dirtyperc_004.wav",70
Sample,143527,0,"p4_drum_subkick_4.wav",70
Sample,143612,0,"p4_synth_saw_019.wav",70
Sample,143612,0,"p4_drum_mainsnare_001.wav",70
Sample,143612,0,"p4_drum_subsnare_2_001.wav",70
Sample,143612,0,"p4_synth_uplift_020.wav",70
Sample,143612,0,"p4_drum_breaks_004.wav",70
Sample,143612,0,"p4_drum_dirtyperc_005.wav",70
Sample,143612,0,"p4_morse_r2_dot.wav",70
Sample,143655,0,"p4_morse_l_dot.wav",70
Sample,143697,0,"p4_synth_uplift_021.wav",70
Sample,143697,0,"p4_drum_dirtyperc_006.wav",70
Sample,143697,0,"p4_synth_saw_020.wav",70
Sample,143697,0,"p4_morse_l_dot.wav",70
Sample,143740,0,"p4_morse_l_dash.wav",70
Sample,143783,0,"p4_drum_breaks_005.wav",70
Sample,143783,0,"p4_drum_subkick_4.wav",70
Sample,143783,0,"p4_morse_r2_dash.wav",70
Sample,143783,0,"p4_drum_dirtyperc_007.wav",70
Sample,143783,0,"p4_synth_uplift_022.wav",70
Sample,143783,0,"p4_synth_saw_021.wav",70
Sample,143868,0,"p4_synth_saw_022.wav",70
Sample,143868,0,"p4_drum_subsnare_1_002.wav",70
Sample,143868,0,"p4_drum_dirtyperc_008.wav",70
Sample,143868,0,"p4_synth_uplift_023.wav",70
Sample,143868,0,"p4_morse_l_dash.wav",70
Sample,143868,0,"p4_drum_breaks_006.wav",70
Sample,143953,0,"p4_synth_saw_023.wav",70
Sample,143953,0,"p4_synth_uplift_024.wav",70
Sample,143953,0,"p4_drum_breaks_007.wav",70
Sample,143953,0,"p4_morse_r2_dot.wav",70
Sample,143953,0,"p4_drum_dirtyperc_018.wav",70
Sample,144038,0,"p4_morse_l_dot.wav",70
Sample,144038,0,"p4_drum_snareshot_2_001.wav",70
Sample,144038,0,"p4_synth_saw_024.wav",70
Sample,144038,0,"p4_drum_mainkick_3.wav",70
Sample,144038,0,"p4_synth_uplift_025.wav",70
Sample,144038,0,"p4_morse_r2_dash.wav",70
Sample,144038,0,"p4_drum_breaks_008.wav",70
Sample,144038,0,"p4_drum_dirtyperc_019.wav",70
Sample,144081,0,"p4_morse_l_dash.wav",70
Sample,144124,0,"p4_synth_uplift_026.wav",70
Sample,144124,0,"p4_synth_saw_025.wav",70
Sample,144124,0,"p4_drum_breaks_009.wav",70
Sample,144124,0,"p4_drum_dirtyperc_020.wav",70
Sample,144124,0,"p4_drum_mainpercsloop_010.wav",70
Sample,144166,0,"p4_morse_l_dot.wav",70
Sample,144209,0,"p4_drum_breaks_010.wav",70
Sample,144209,0,"p4_synth_saw_026.wav",70
Sample,144209,0,"p4_drum_subkick_4.wav",70
Sample,144209,0,"p4_drum_dirtyperc_021.wav",70
Sample,144209,0,"p4_synth_uplift_027.wav",70
Sample,144209,0,"p4_morse_r2_dot.wav",70
Sample,144252,0,"p4_morse_l_dot.wav",70
Sample,144294,0,"p4_synth_uplift_028.wav",70
Sample,144294,0,"p4_synth_saw_027.wav",70
Sample,144294,0,"p4_drum_subsnare_1_001.wav",70
Sample,144294,0,"p4_synth_sax_048.wav",70
Sample,144294,0,"p4_drum_dirtyperc_022.wav",70
Sample,144294,0,"p4_drum_breaks_011.wav",70
Sample,144294,0,"p4_drum_mainsnare_001.wav",70
Sample,144337,0,"p4_morse_l_dash.wav",70
Sample,144365,0,"p4_synth_sax_049.wav",70
Sample,144380,0,"p4_drum_subsnare_1_001.wav",70
Sample,144380,0,"p4_drum_dirtyperc_023.wav",70
Sample,144380,0,"p4_synth_uplift_029.wav",70
Sample,144380,0,"p4_synth_saw_028.wav",70
Sample,144422,0,"p4_drum_dirtyperc_024.wav",70
Sample,144422,0,"p4_morse_l_dash.wav",70
Sample,144465,0,"p4_drum_breaks_012.wav",70
Sample,144465,0,"p4_synth_saw_029.wav",70
Sample,144465,0,"p4_drum_dirtyperc_025.wav",70
Sample,144465,0,"p4_drum_mainsnare_002.wav",70
Sample,144465,0,"p4_drum_subkick_4.wav",70
Sample,144465,0,"p4_synth_uplift_030.wav",70
Sample,144465,0,"p4_drum_subsnare_1_001.wav",70
Sample,144507,0,"p4_morse_l_dot.wav",70
Sample,144550,0,"p4_drum_snareshot_2_001.wav",70
Sample,144550,0,"p4_synth_saw_030.wav",70
Sample,144550,0,"p4_drum_breaks_013.wav",70
Sample,144550,0,"p4_morse_l_dash.wav",70
Sample,144550,0,"p4_synth_uplift_031.wav",70
Sample,144550,0,"p4_drum_dirtyperc_026.wav",70
Sample,144550,0,"p4_drum_mainpercsloop_008.wav",70
Sample,144593,0,"p4_drum_dirtyperc_027.wav",70
Sample,144635,0,"p4_synth_weapon_360.wav",70
Sample,144635,0,"p4_fx_impact1_003.wav",70
Sample,144635,0,"p4_synth_saw_031.wav",70
Sample,144635,0,"p4_synth_main_065.wav",70
Sample,144635,0,"p4_morse_r2_dot.wav",70
Sample,144635,0,"p4_drum_dirtyperc_001.wav",70
Sample,144635,0,"p4_drum_mainkick_2.wav",70
Sample,144657,0,"p4_synth_sax_050.wav",70
Sample,144678,0,"p4_morse_l_dot.wav",70
Sample,144706,0,"p4_synth_weapon_361.wav",70
Sample,144721,0,"p4_drum_dirtyperc_002.wav",70
Sample,144721,0,"p4_morse_l_dot.wav",70
Sample,144721,0,"p4_drum_mainpercsloop_002.wav",70
Sample,144721,0,"p4_morse_r2_dot.wav",70
Sample,144763,0,"p4_morse_l_dash.wav",70
Sample,144770,0,"p4_synth_weapon_362.wav",70
Sample,144806,0,"p4_drum_dirtyperc_003.wav",70
Sample,144806,0,"p4_drum_mainpercsloop_003.wav",70
Sample,144806,0,"p4_morse_r2_dot.wav",70
Sample,144827,0,"p4_synth_weapon_363.wav",70
Sample,144834,0,"p4_synth_sax_051.wav",70
Sample,144891,0,"p4_drum_mainpercsloop_004.wav",70
Sample,144891,0,"p4_drum_dirtyperc_004.wav",70
Sample,144891,0,"p4_synth_weapon_364.wav",70
Sample,144891,0,"p4_morse_l_dot.wav",70
Sample,144891,0,"p4_morse_r2_dash.wav",70
Sample,144934,0,"p4_morse_l_dot.wav",70
Sample,144969,0,"p4_synth_weapon_365.wav",70
Sample,144976,0,"p4_drum_cym_005.wav",70
Sample,144976,0,"p4_drum_breaks_004.wav",70
Sample,144976,0,"p4_drum_subsnare_2_001.wav",70
Sample,144976,0,"p4_drum_dirtyperc_005.wav",70
Sample,144991,0,"p4_synth_sax_052.wav",70
Sample,145019,0,"p4_morse_l_dot.wav",70
Sample,145033,0,"p4_synth_weapon_366.wav",70
Sample,145062,0,"p4_drum_dirtyperc_006.wav",70
Sample,145090,0,"p4_synth_weapon_367.wav",70
Sample,145104,0,"p4_morse_l_dot.wav",70
Sample,145126,0,"p4_synth_sax_053.wav",70
Sample,145147,0,"p4_morse_l_dot.wav",70
Sample,145147,0,"p4_drum_mainsnare_002.wav",70
Sample,145147,0,"p4_drum_dirtyperc_007.wav",70
Sample,145147,0,"p4_morse_r2_dash.wav",70
Sample,145147,0,"p4_drum_breaks_005.wav",70
Sample,145190,0,"p4_morse_l_dot.wav",70
Sample,145232,0,"p4_drum_breaks_006.wav",70
Sample,145232,0,"p4_drum_dirtyperc_008.wav",70
Sample,145232,0,"p4_synth_weapon_368.wav",70
Sample,145232,0,"p4_drum_subsnare_1_002.wav",70
Sample,145232,0,"p4_drum_subkick_4.wav",70
Sample,145268,0,"p4_synth_sax_054.wav",70
Sample,145275,0,"p4_morse_l_dash.wav",70
Sample,145318,0,"p4_synth_weapon_369.wav",70
Sample,145318,0,"p4_drum_breaks_007.wav",70
Sample,145318,0,"p4_drum_dirtyperc_009.wav",70
Sample,145318,0,"p4_morse_r2_dot.wav",70
Sample,145360,0,"p4_morse_l_dot.wav",70
Sample,145403,0,"p4_drum_dirtyperc_010.wav",70
Sample,145403,0,"p4_drum_breaks_008.wav",70
Sample,145403,0,"p4_morse_r2_dot.wav",70
Sample,145403,0,"p4_morse_l_dash.wav",70
Sample,145403,0,"p4_drum_subsnare_2_001.wav",70
Sample,145403,0,"p4_synth_weapon_370.wav",70
Sample,145438,0,"p4_synth_sax_055.wav",70
Sample,145488,0,"p4_drum_breaks_009.wav",70
Sample,145488,0,"p4_drum_dirtyperc_011.wav",70
Sample,145488,0,"p4_morse_l_dot.wav",70
Sample,145488,0,"p4_morse_r2_dash.wav",70
Sample,145488,0,"p4_drum_mainpercsloop_010.wav",70
Sample,145573,0,"p4_drum_mainpercsloop_011.wav",70
Sample,145573,0,"p4_drum_breaks_010.wav",70
Sample,145573,0,"p4_morse_l_dot.wav",70
Sample,145573,0,"p4_synth_weapon_371.wav",70
Sample,145573,0,"p4_drum_dirtyperc_012.wav",70
Sample,145616,0,"p4_morse_l_dash.wav",70
Sample,145623,0,"p4_synth_sax_056.wav",70
Sample,145659,0,"p4_synth_weapon_372.wav",70
Sample,145659,0,"p4_drum_subsnare_2_001.wav",70
Sample,145659,0,"p4_drum_breaks_011.wav",70
Sample,145659,0,"p4_drum_dirtyperc_013.wav",70
Sample,145659,0,"p4_morse_r2_dot.wav",70
Sample,145744,0,"p4_morse_l_dash.wav",70
Sample,145744,0,"p4_drum_dirtyperc_014.wav",70
Sample,145787,0,"p4_synth_sax_057.wav",70
Sample,145829,0,"p4_drum_breaks_012.wav",70
Sample,145829,0,"p4_drum_dirtyperc_015.wav",70
Sample,145829,0,"p4_morse_l_dot.wav",70
Sample,145829,0,"p4_synth_weapon_373.wav",70
Sample,145829,0,"p4_drum_mainsnare_002.wav",70
Sample,145829,0,"p4_morse_r2_dash.wav",70
Sample,145915,0,"p4_drum_breaks_013.wav",70
Sample,145915,0,"p4_drum_dirtyperc_016.wav",70
Sample,145915,0,"p4_morse_l_dash.wav",70
Sample,145950,0,"p4_synth_sax_058.wav",70
Sample,146000,0,"p4_drum_breaks_001.wav",70
Sample,146000,0,"p4_morse_r2_dot.wav",70
Sample,146000,0,"p4_drum_dirtyperc_001.wav",70
Sample,146085,0,"p4_drum_dirtyperc_002.wav",70
Sample,146085,0,"p4_drum_mainpercsloop_002.wav",70
Sample,146085,0,"p4_morse_l_dot.wav",70
Sample,146085,0,"p4_morse_r2_dash.wav",70
Sample,146121,0,"p4_synth_sax_059.wav",70
Sample,146128,0,"p4_morse_l_dash.wav",70
Sample,146170,0,"p4_drum_mainpercsloop_003.wav",70
Sample,146170,0,"p4_synth_weapon_374.wav",70
Sample,146170,0,"p4_drum_breaks_002.wav",70
Sample,146170,0,"p4_drum_dirtyperc_003.wav",70
Sample,146256,0,"p4_morse_r2_dash.wav",70
Sample,146256,0,"p4_drum_mainpercsloop_004.wav",70
Sample,146256,0,"p4_drum_breaks_003.wav",70
Sample,146256,0,"p4_drum_dirtyperc_004.wav",70
Sample,146298,0,"p4_morse_l_dot.wav",70
Sample,146341,0,"p4_drum_breaks_004.wav",70
Sample,146341,0,"p4_drum_subsnare_2_001.wav",70
Sample,146341,0,"p4_morse_l_dash.wav",70
Sample,146341,0,"p4_synth_weapon_375.wav",70
Sample,146341,0,"p4_drum_dirtyperc_005.wav",70
Sample,146426,0,"p4_morse_r2_dot.wav",70
Sample,146426,0,"p4_morse_l_dot.wav",70
Sample,146426,0,"p4_drum_dirtyperc_006.wav",70
Sample,146469,0,"p4_morse_l_dot.wav",70
Sample,146512,0,"p4_drum_dirtyperc_007.wav",70
Sample,146512,0,"p4_drum_breaks_005.wav",70
Sample,146554,0,"p4_morse_l_dot.wav",70
Sample,146597,0,"p4_drum_breaks_006.wav",70
Sample,146597,0,"p4_morse_l_dash.wav",70
Sample,146597,0,"p4_drum_dirtyperc_008.wav",70
Sample,146597,0,"p4_morse_r2_dash.wav",70
Sample,146597,0,"p4_drum_subsnare_1_002.wav",70
Sample,146682,0,"p4_drum_dirtyperc_018.wav",70
Sample,146682,0,"p4_drum_breaks_007.wav",70
Sample,146682,0,"p4_synth_weapon_376.wav",70
Sample,146725,0,"p4_morse_l_dash.wav",70
Sample,146767,0,"p4_drum_subsnare_2_001.wav",70
Sample,146767,0,"p4_drum_dirtyperc_019.wav",70
Sample,146767,0,"p4_drum_breaks_008.wav",70
Sample,146767,0,"p4_morse_r2_dot.wav",70
Sample,146767,0,"p4_synth_weapon_377.wav",70
Sample,146810,0,"p4_morse_l_dot.wav",70
Sample,146853,0,"p4_morse_r2_dot.wav",70
Sample,146853,0,"p4_drum_breaks_009.wav",70
Sample,146853,0,"p4_drum_dirtyperc_020.wav",70
Sample,146853,0,"p4_morse_l_dot.wav",70
Sample,146895,0,"p4_morse_l_dot.wav",70
Sample,146938,0,"p4_drum_breaks_010.wav",70
Sample,146938,0,"p4_synth_weapon_378.wav",70
Sample,146938,0,"p4_drum_mainpercsloop_010.wav",70
Sample,146938,0,"p4_drum_dirtyperc_021.wav",70
Sample,146938,0,"p4_morse_r2_dash.wav",70
Sample,146981,0,"p4_morse_l_dash.wav",70
Sample,147023,0,"p4_drum_subsnare_2_001.wav",70
Sample,147023,0,"p4_drum_mainsnare_001.wav",70
Sample,147023,0,"p4_drum_breaks_011.wav",70
Sample,147023,0,"p4_synth_sax_060.wav",70
Sample,147023,0,"p4_drum_dirtyperc_022.wav",70
Sample,147023,0,"p4_synth_weapon_379.wav",70
Sample,147066,0,"p4_morse_l_dash.wav",70
Sample,147094,0,"p4_synth_sax_061.wav",70
Sample,147108,0,"p4_drum_dirtyperc_023.wav",70
Sample,147108,0,"p4_morse_r2_dot.wav",70
Sample,147151,0,"p4_drum_dirtyperc_024.wav",70
Sample,147151,0,"p4_morse_l_dash.wav",70
Sample,147194,0,"p4_synth_weapon_380.wav",70
Sample,147194,0,"p4_drum_breaks_012.wav",70
Sample,147194,0,"p4_drum_dirtyperc_025.wav",70
Sample,147194,0,"p4_drum_mainsnare_002.wav",70
Sample,147279,0,"p4_drum_snareshot_1_001.wav",70
Sample,147279,0,"p4_drum_breaks_013.wav",70
Sample,147279,0,"p4_drum_dirtyperc_026.wav",70
Sample,147279,0,"p4_morse_l_dot.wav",70
Sample,147279,0,"p4_morse_r2_dash.wav",70
Sample,147322,0,"p4_morse_l_dash.wav",70
Sample,147322,0,"p4_drum_dirtyperc_027.wav",70
Sample,147364,0,"p4_drum_breaks_001.wav",70
Sample,147364,0,"p4_drum_dirtyperc_001.wav",70
Sample,147364,0,"p4_synth_weapon_381.wav",70
Sample,147386,0,"p4_synth_sax_062.wav",70
Sample,147407,0,"p4_morse_l_dot.wav",70
Sample,147450,0,"p4_drum_mainpercsloop_002.wav",70
Sample,147450,0,"p4_morse_r2_dash.wav",70
Sample,147450,0,"p4_drum_dirtyperc_002.wav",70
Sample,147492,0,"p4_morse_l_dot.wav",70
Sample,147535,0,"p4_drum_dirtyperc_003.wav",70
Sample,147535,0,"p4_morse_l_dot.wav",70
Sample,147535,0,"p4_drum_breaks_002.wav",70
Sample,147535,0,"p4_drum_mainpercsloop_003.wav",70
Sample,147563,0,"p4_synth_sax_063.wav",70
Sample,147620,0,"p4_drum_dirtyperc_004.wav",70
Sample,147620,0,"p4_morse_l_dash.wav",70
Sample,147620,0,"p4_drum_breaks_003.wav",70
Sample,147620,0,"p4_morse_r2_dash.wav",70
Sample,147620,0,"p4_drum_mainpercsloop_004.wav",70
Sample,147663,0,"p4_synth_weapon_382.wav",70
Sample,147705,0,"p4_morse_l_dot.wav",70
Sample,147705,0,"p4_drum_breaks_004.wav",70
Sample,147705,0,"p4_synth_sax_064.wav",70
Sample,147705,0,"p4_drum_dirtyperc_005.wav",70
Sample,147705,0,"p4_drum_subsnare_2_001.wav",70
Sample,147748,0,"p4_morse_l_dot.wav",70
Sample,147791,0,"p4_drum_dirtyperc_006.wav",70
Sample,147791,0,"p4_morse_l_dot.wav",70
Sample,147791,0,"p4_morse_r2_dot.wav",70
Sample,147855,0,"p4_synth_sax_065.wav",70
Sample,147876,0,"p4_drum_dirtyperc_007.wav",70
Sample,147876,0,"p4_drum_breaks_005.wav",70
Sample,147876,0,"p4_morse_l_dot.wav",70
Sample,147876,0,"p4_morse_r2_dash.wav",70
Sample,147919,0,"p4_morse_l_dot.wav",70
Sample,147961,0,"p4_drum_breaks_006.wav",70
Sample,147961,0,"p4_synth_weapon_383.wav",70
Sample,147961,0,"p4_morse_l_dash.wav",70
Sample,147961,0,"p4_drum_subsnare_1_002.wav",70
Sample,147961,0,"p4_drum_dirtyperc_008.wav",70
Sample,147997,0,"p4_synth_sax_066.wav",70
Sample,148047,0,"p4_drum_breaks_007.wav",70
Sample,148047,0,"p4_synth_weapon_384.wav",70
Sample,148047,0,"p4_drum_dirtyperc_009.wav",70
Sample,148089,0,"p4_morse_l_dot.wav",70
Sample,148132,0,"p4_morse_l_dot.wav",70
Sample,148132,0,"p4_drum_subsnare_2_001.wav",70
Sample,148132,0,"p4_synth_weapon_385.wav",70
Sample,148132,0,"p4_drum_dirtyperc_010.wav",70
Sample,148132,0,"p4_drum_breaks_008.wav",70
Sample,148132,0,"p4_morse_r2_dash.wav",70
Sample,148167,0,"p4_synth_sax_067.wav",70
Sample,148174,0,"p4_morse_l_dot.wav",70
Sample,148217,0,"p4_drum_breaks_009.wav",70
Sample,148217,0,"p4_drum_dirtyperc_011.wav",70
Sample,148217,0,"p4_drum_mainpercsloop_010.wav",70
Sample,148302,0,"p4_morse_l_dot.wav",70
Sample,148302,0,"p4_drum_mainpercsloop_011.wav",70
Sample,148302,0,"p4_morse_r2_dot.wav",70
Sample,148302,0,"p4_drum_dirtyperc_012.wav",70
Sample,148302,0,"p4_drum_breaks_010.wav",70
Sample,148302,0,"p4_synth_weapon_386.wav",70
Sample,148345,0,"p4_morse_l_dot.wav",70
Sample,148388,0,"p4_drum_breaks_011.wav",70
Sample,148388,0,"p4_synth_weapon_387.wav",70
Sample,148388,0,"p4_drum_dirtyperc_013.wav",70
Sample,148388,0,"p4_morse_l_dot.wav",70
Sample,148388,0,"p4_drum_subsnare_2_001.wav",70
Sample,148388,0,"p4_morse_r2_dot.wav",70
Sample,148473,0,"p4_morse_l_dot.wav",70
Sample,148473,0,"p4_drum_dirtyperc_014.wav",70
Sample,148473,0,"p4_morse_r2_dot.wav",70
Sample,148516,0,"p4_morse_l_dot.wav",70
Sample,148558,0,"p4_drum_dirtyperc_015.wav",70
Sample,148558,0,"p4_morse_l_dash.wav",70
Sample,148558,0,"p4_synth_weapon_388.wav",70
Sample,148558,0,"p4_drum_breaks_012.wav",70
Sample,148558,0,"p4_drum_mainsnare_002.wav",70
Sample,148558,0,"p4_morse_r2_dash.wav",70
Sample,148644,0,"p4_drum_subkick_4.wav",70
Sample,148644,0,"p4_drum_dirtyperc_016.wav",70
Sample,148644,0,"p4_drum_breaks_013.wav",70
Sample,148686,0,"p4_morse_l_dot.wav",70
Sample,148729,0,"p4_drum_dirtyperc_001.wav",70
Sample,148729,0,"p4_morse_l_dot.wav",70
Sample,148729,0,"p4_drum_breaks_001.wav",70
Sample,148814,0,"p4_morse_r2_dash.wav",70
Sample,148814,0,"p4_morse_l_dot.wav",70
Sample,148814,0,"p4_drum_dirtyperc_002.wav",70
Sample,148814,0,"p4_drum_mainpercsloop_002.wav",70
Sample,148857,0,"p4_morse_l_dot.wav",70
Sample,148899,0,"p4_morse_l_dot.wav",70
Sample,148899,0,"p4_drum_breaks_002.wav",70
Sample,148899,0,"p4_synth_weapon_389.wav",70
Sample,148899,0,"p4_drum_dirtyperc_003.wav",70
Sample,148899,0,"p4_drum_mainpercsloop_003.wav",70
Sample,148985,0,"p4_drum_mainpercsloop_004.wav",70
Sample,148985,0,"p4_drum_dirtyperc_004.wav",70
Sample,148985,0,"p4_drum_breaks_003.wav",70
Sample,148985,0,"p4_morse_r2_dot.wav",70
Sample,149027,0,"p4_morse_l_dot.wav",70
Sample,149070,0,"p4_drum_breaks_004.wav",70
Sample,149070,0,"p4_drum_subsnare_2_001.wav",70
Sample,149070,0,"p4_drum_dirtyperc_005.wav",70
Sample,149070,0,"p4_morse_r2_dash.wav",70
Sample,149070,0,"p4_synth_weapon_390.wav",70
Sample,149113,0,"p4_morse_l_dash.wav",70
Sample,149155,0,"p4_drum_dirtyperc_006.wav",70
Sample,149241,0,"p4_morse_r2_dash.wav",70
Sample,149241,0,"p4_drum_dirtyperc_007.wav",70
Sample,149241,0,"p4_drum_breaks_005.wav",70
Sample,149283,0,"p4_morse_l_dash.wav",70
Sample,149326,0,"p4_drum_breaks_006.wav",70
Sample,149326,0,"p4_drum_subsnare_1_002.wav",70
Sample,149326,0,"p4_drum_dirtyperc_008.wav",70
Sample,149368,0,"p4_morse_l_dash.wav",70
Sample,149411,0,"p4_morse_r2_dot.wav",70
Sample,149411,0,"p4_drum_breaks_007.wav",70
Sample,149411,0,"p4_drum_dirtyperc_018.wav",70
Sample,149411,0,"p4_synth_weapon_391.wav",70
Sample,149454,0,"p4_morse_l_dash.wav",70
Sample,149496,0,"p4_drum_subsnare_2_001.wav",70
Sample,149496,0,"p4_drum_dirtyperc_019.wav",70
Sample,149496,0,"p4_drum_breaks_008.wav",70
Sample,149496,0,"p4_synth_weapon_392.wav",70
Sample,149582,0,"p4_drum_breaks_009.wav",70
Sample,149582,0,"p4_synth_weapon_393.wav",70
Sample,149582,0,"p4_drum_dirtyperc_020.wav",70
Sample,149582,0,"p4_morse_l_dot.wav",70
Sample,149582,0,"p4_drum_mainpercsloop_010.wav",70
Sample,149624,0,"p4_morse_l_dash.wav",70
Sample,149667,0,"p4_drum_breaks_010.wav",70
Sample,149667,0,"p4_drum_subkick_4.wav",70
Sample,149667,0,"p4_drum_dirtyperc_021.wav",70
Sample,149667,0,"p4_synth_weapon_394.wav",70
Sample,149710,0,"p4_morse_l_dash.wav",70
Sample,149752,0,"p4_synth_weapon_395.wav",70
Sample,149752,0,"p4_drum_breaks_011.wav",70
Sample,149752,0,"p4_drum_dirtyperc_022.wav",70
Sample,149752,0,"p4_drum_subsnare_2_001.wav",70
Sample,149795,0,"p4_morse_l_dot.wav",70
Sample,149837,0,"p4_drum_dirtyperc_023.wav",70
Sample,149837,0,"p4_synth_weapon_396.wav",70
Sample,149880,0,"p4_drum_dirtyperc_024.wav",70
Sample,149880,0,"p4_morse_l_dot.wav",70
Sample,149923,0,"p4_drum_dirtyperc_025.wav",70
Sample,149923,0,"p4_synth_weapon_397.wav",70
Sample,149923,0,"p4_drum_breaks_012.wav",70
Sample,149923,0,"p4_drum_mainsnare_002.wav",70
Sample,149965,0,"p4_morse_l_dot.wav",70
Sample,150008,0,"p4_drum_dirtyperc_026.wav",70
Sample,150008,0,"p4_drum_breaks_013.wav",70
Sample,150008,0,"p4_drum_snareshot_2_001.wav",70
Sample,150008,0,"p4_synth_weapon_398.wav",70
Sample,150008,0,"p4_morse_l_dash.wav",70
Sample,150008,0,"p4_drum_mainpercsloop_008.wav",70
Sample,150051,0,"p4_drum_dirtyperc_027.wav",70
Sample,150093,0,"p4_synth_weapon_399.wav",70
Sample,150093,0,"p4_morse_l_dot.wav",70
Sample,150093,0,"p4_synth_seq_124.wav",70
Sample,150093,0,"p4_synth_lastpad_001.wav",70
Sample,150093,0,"p4_synth_laststr_001.wav",70
Sample,150093,0,"p4_drum_dirtyperc_001.wav",70
Sample,150093,0,"p4_drum_breaks_001.wav",70
Sample,150093,0,"p4_morse_r2_dash.wav",70
Sample,150179,0,"p4_drum_dirtyperc_002.wav",70
Sample,150179,0,"p4_synth_seq_125.wav",70
Sample,150179,0,"p4_morse_l_dot.wav",70
Sample,150179,0,"p4_drum_mainpercsloop_002.wav",70
Sample,150221,0,"p4_morse_l_dash.wav",70
Sample,150264,0,"p4_drum_breaks_002.wav",70
Sample,150264,0,"p4_drum_dirtyperc_003.wav",70
Sample,150264,0,"p4_synth_seq_126.wav",70
Sample,150264,0,"p4_morse_r2_dash.wav",70
Sample,150264,0,"p4_drum_mainpercsloop_003.wav",70
Sample,150349,0,"p4_synth_seq_127.wav",70
Sample,150349,0,"p4_drum_breaks_003.wav",70
Sample,150349,0,"p4_drum_mainpercsloop_004.wav",70
Sample,150349,0,"p4_drum_dirtyperc_004.wav",70
Sample,150392,0,"p4_morse_l_dot.wav",70
Sample,150434,0,"p4_synth_seq_128.wav",70
Sample,150434,0,"p4_drum_mainsnare_001.wav",70
Sample,150434,0,"p4_drum_dirtyperc_005.wav",70
Sample,150434,0,"p4_drum_subsnare_2_001.wav",70
Sample,150434,0,"p4_morse_l_dot.wav",70
Sample,150434,0,"p4_drum_breaks_004.wav",70
Sample,150434,0,"p4_morse_r2_dot.wav",70
Sample,150520,0,"p4_morse_r2_dash.wav",70
Sample,150520,0,"p4_synth_seq_129.wav",70
Sample,150520,0,"p4_drum_dirtyperc_006.wav",70
Sample,150520,0,"p4_morse_l_dot.wav",70
Sample,150562,0,"p4_morse_l_dash.wav",70
Sample,150605,0,"p4_drum_dirtyperc_007.wav",70
Sample,150605,0,"p4_drum_mainsnare_002.wav",70
Sample,150605,0,"p4_drum_breaks_005.wav",70
Sample,150605,0,"p4_synth_seq_130.wav",70
Sample,150648,0,"p4_morse_l_dot.wav",70
Sample,150690,0,"p4_morse_l_dot.wav",70
Sample,150690,0,"p4_drum_breaks_006.wav",70
Sample,150690,0,"p4_synth_seq_131.wav",70
Sample,150690,0,"p4_morse_r2_dash.wav",70
Sample,150690,0,"p4_drum_dirtyperc_008.wav",70
Sample,150776,0,"p4_synth_seqsub_001.wav",70
Sample,150776,0,"p4_morse_l_dot.wav",70
Sample,150776,0,"p4_drum_breaks_007.wav",70
Sample,150776,0,"p4_drum_snareshot_1_001.wav",70
Sample,150776,0,"p4_drum_dirtyperc_009.wav",70
Sample,150818,0,"p4_morse_l_dash.wav",70
Sample,150861,0,"p4_synth_seqsub_004.wav",70
Sample,150861,0,"p4_drum_subsnare_2_001.wav",70
Sample,150861,0,"p4_drum_breaks_008.wav",70
Sample,150861,0,"p4_drum_dirtyperc_010.wav",70
Sample,150903,0,"p4_morse_l_dot.wav",70
Sample,150946,0,"p4_drum_dirtyperc_011.wav",70
Sample,150946,0,"p4_drum_breaks_009.wav",70
Sample,150946,0,"p4_morse_r2_dash.wav",70
Sample,150946,0,"p4_drum_mainpercsloop_010.wav",70
Sample,150946,0,"p4_morse_l_dot.wav",70
Sample,150946,0,"p4_synth_seqsub_005.wav",70
Sample,151031,0,"p4_drum_dirtyperc_012.wav",70
Sample,151031,0,"p4_morse_l_dash.wav",70
Sample,151031,0,"p4_drum_mainpercsloop_011.wav",70
Sample,151031,0,"p4_synth_seqsub_006.wav",70
Sample,151031,0,"p4_drum_breaks_010.wav",70
Sample,151117,0,"p4_drum_dirtyperc_013.wav",70
Sample,151117,0,"p4_drum_mainsnare_001.wav",70
Sample,151117,0,"p4_synth_seqsub_003.wav",70
Sample,151117,0,"p4_morse_l_dash.wav",70
Sample,151117,0,"p4_drum_subsnare_2_001.wav",70
Sample,151117,0,"p4_drum_breaks_011.wav",70
Sample,151117,0,"p4_morse_r2_dash.wav",70
Sample,151202,0,"p4_drum_dirtyperc_014.wav",70
Sample,151202,0,"p4_synth_seqsub_004.wav",70
Sample,151202,0,"p4_morse_l_dash.wav",70
Sample,151287,0,"p4_drum_breaks_012.wav",70
Sample,151287,0,"p4_drum_dirtyperc_015.wav",70
Sample,151287,0,"p4_synth_seqsub_005.wav",70
Sample,151287,0,"p4_morse_r2_dot.wav",70
Sample,151287,0,"p4_drum_mainsnare_002.wav",70
Sample,151330,0,"p4_morse_l_dot.wav",70
Sample,151373,0,"p4_drum_breaks_013.wav",70
Sample,151373,0,"p4_drum_dirtyperc_016.wav",70
Sample,151373,0,"p4_synth_seqsub_006.wav",70
Sample,151373,0,"p4_morse_l_dash.wav",70
Sample,151458,0,"p4_drum_breaks_001.wav",70
Sample,151458,0,"p4_synth_lastpad_002.wav",70
Sample,151458,0,"p4_morse_r2_dash.wav",70
Sample,151458,0,"p4_synth_laststr_002.wav",70
Sample,151458,0,"p4_drum_dirtyperc_001.wav",70
Sample,151458,0,"p4_synth_seq_133.wav",70
Sample,151458,0,"p4_morse_l_dot.wav",70
Sample,151543,0,"p4_drum_dirtyperc_002.wav",70
Sample,151543,0,"p4_synth_seq_134.wav",70
Sample,151543,0,"p4_morse_l_dot.wav",70
Sample,151543,0,"p4_drum_mainpercsloop_002.wav",70
Sample,151586,0,"p4_morse_l_dot.wav",70
Sample,151628,0,"p4_drum_mainpercsloop_003.wav",70
Sample,151628,0,"p4_drum_breaks_002.wav",70
Sample,151628,0,"p4_synth_seq_135.wav",70
Sample,151628,0,"p4_morse_l_dash.wav",70
Sample,151628,0,"p4_drum_dirtyperc_003.wav",70
Sample,151628,0,"p4_morse_r2_dash.wav",70
Sample,151714,0,"p4_drum_mainpercsloop_004.wav",70
Sample,151714,0,"p4_drum_breaks_003.wav",70
Sample,151714,0,"p4_synth_seq_136.wav",70
Sample,151714,0,"p4_drum_dirtyperc_004.wav",70
Sample,151756,0,"p4_morse_l_dash.wav",70
Sample,151799,0,"p4_drum_mainsnare_001.wav",70
Sample,151799,0,"p4_drum_dirtyperc_005.wav",70
Sample,151799,0,"p4_morse_r2_dot.wav",70
Sample,151799,0,"p4_drum_subsnare_2_001.wav",70
Sample,151799,0,"p4_synth_seq_137.wav",70
Sample,151799,0,"p4_drum_breaks_004.wav",70
Sample,151842,0,"p4_morse_l_dash.wav",70
Sample,151884,0,"p4_drum_dirtyperc_006.wav",70
Sample,151884,0,"p4_synth_seq_138.wav",70
Sample,151884,0,"p4_morse_r2_dash.wav",70
Sample,151969,0,"p4_drum_dirtyperc_007.wav",70
Sample,151969,0,"p4_drum_breaks_005.wav",70
Sample,151969,0,"p4_synth_seq_139.wav",70
Sample,151969,0,"p4_drum_mainsnare_002.wav",70
Sample,152012,0,"p4_morse_l_dot.wav",70
Sample,152055,0,"p4_drum_breaks_006.wav",70
Sample,152055,0,"p4_drum_dirtyperc_008.wav",70
Sample,152055,0,"p4_morse_l_dot.wav",70
Sample,152055,0,"p4_morse_r2_dash.wav",70
Sample,152055,0,"p4_synth_seq_140.wav",70
Sample,152097,0,"p4_morse_l_dot.wav",70
Sample,152140,0,"p4_drum_snareshot_1_001.wav",70
Sample,152140,0,"p4_synth_seqsub_008.wav",70
Sample,152140,0,"p4_drum_breaks_007.wav",70
Sample,152140,0,"p4_drum_dirtyperc_018.wav",70
Sample,152183,0,"p4_morse_l_dot.wav",70
Sample,152225,0,"p4_drum_dirtyperc_019.wav",70
Sample,152225,0,"p4_drum_subsnare_2_001.wav",70
Sample,152225,0,"p4_synth_seqsub_009.wav",70
Sample,152225,0,"p4_drum_breaks_008.wav",70
Sample,152268,0,"p4_morse_l_dash.wav",70
Sample,152311,0,"p4_synth_seqsub_010.wav",70
Sample,152311,0,"p4_drum_dirtyperc_020.wav",70
Sample,152311,0,"p4_drum_breaks_009.wav",70
Sample,152311,0,"p4_drum_mainpercsloop_010.wav",70
Sample,152311,0,"p4_morse_r2_dash.wav",70
Sample,152353,0,"p4_morse_l_dash.wav",70
Sample,152396,0,"p4_drum_breaks_010.wav",70
Sample,152396,0,"p4_drum_dirtyperc_021.wav",70
Sample,152396,0,"p4_drum_mainpercsloop_011.wav",70
Sample,152396,0,"p4_synth_seqsub_011.wav",70
Sample,152439,0,"p4_morse_l_dot.wav",70
Sample,152481,0,"p4_drum_dirtyperc_022.wav",70
Sample,152481,0,"p4_morse_l_dash.wav",70
Sample,152481,0,"p4_drum_mainsnare_001.wav",70
Sample,152481,0,"p4_drum_subsnare_2_001.wav",70
Sample,152481,0,"p4_morse_r2_dot.wav",70
Sample,152481,0,"p4_drum_breaks_011.wav",70
Sample,152481,0,"p4_synth_seqsub_008.wav",70
Sample,152566,0,"p4_synth_seqsub_009.wav",70
Sample,152566,0,"p4_drum_dirtyperc_023.wav",70
Sample,152566,0,"p4_morse_r2_dash.wav",70
Sample,152609,0,"p4_morse_l_dot.wav",70
Sample,152609,0,"p4_drum_dirtyperc_024.wav",70
Sample,152652,0,"p4_drum_mainsnare_002.wav",70
Sample,152652,0,"p4_drum_breaks_012.wav",70
Sample,152652,0,"p4_synth_seqsub_010.wav",70
Sample,152652,0,"p4_morse_l_dot.wav",70
Sample,152652,0,"p4_drum_dirtyperc_025.wav",70
Sample,152694,0,"p4_morse_l_dash.wav",70
Sample,152737,0,"p4_morse_r2_dash.wav",70
Sample,152737,0,"p4_drum_dirtyperc_026.wav",70
Sample,152737,0,"p4_drum_breaks_013.wav",70
Sample,152737,0,"p4_synth_seqsub_011.wav",70
Sample,152780,0,"p4_drum_dirtyperc_027.wav",70
Sample,152822,0,"p4_synth_seq_142.wav",70
Sample,152822,0,"p4_fx_impact1_003.wav",70
Sample,152822,0,"p4_drum_breaks_001.wav",70
Sample,152822,0,"p4_drum_dirtyperc_001.wav",70
Sample,152822,0,"p4_morse_l_dot.wav",70
Sample,152908,0,"p4_morse_l_dash.wav",70
Sample,152908,0,"p4_synth_seq_143.wav",70
Sample,152908,0,"p4_drum_dirtyperc_002.wav",70
Sample,152908,0,"p4_drum_mainpercsloop_002.wav",70
Sample,152993,0,"p4_drum_dirtyperc_003.wav",70
Sample,152993,0,"p4_drum_breaks_002.wav",70
Sample,152993,0,"p4_synth_seq_144.wav",70
Sample,152993,0,"p4_morse_l_dot.wav",70
Sample,152993,0,"p4_drum_mainpercsloop_003.wav",70
Sample,152993,0,"p4_morse_r2_dot.wav",70
Sample,153078,0,"p4_morse_l_dash.wav",70
Sample,153078,0,"p4_drum_mainsnare_001.wav",70
Sample,153078,0,"p4_drum_dirtyperc_004.wav",70
Sample,153078,0,"p4_synth_seq_145.wav",70
Sample,153078,0,"p4_morse_r2_dot.wav",70
Sample,153078,0,"p4_drum_mainpercsloop_004.wav",70
Sample,153078,0,"p4_drum_breaks_003.wav",70
Sample,153163,0,"p4_synth_seq_146.wav",70
Sample,153163,0,"p4_drum_dirtyperc_005.wav",70
Sample,153163,0,"p4_drum_breaks_004.wav",70
Sample,153163,0,"p4_drum_subsnare_2_001.wav",70
Sample,153163,0,"p4_morse_r2_dash.wav",70
Sample,153206,0,"p4_morse_l_dot.wav",70
Sample,153249,0,"p4_drum_dirtyperc_006.wav",70
Sample,153249,0,"p4_synth_seq_147.wav",70
Sample,153249,0,"p4_morse_l_dot.wav",70
Sample,153291,0,"p4_morse_l_dash.wav",70
Sample,153334,0,"p4_drum_dirtyperc_007.wav",70
Sample,153334,0,"p4_drum_breaks_005.wav",70
Sample,153334,0,"p4_synth_seq_148.wav",70
Sample,153334,0,"p4_morse_r2_dash.wav",70
Sample,153419,0,"p4_drum_dirtyperc_008.wav",70
Sample,153419,0,"p4_synth_seq_149.wav",70
Sample,153419,0,"p4_drum_breaks_006.wav",70
Sample,153419,0,"p4_morse_l_dot.wav",70
Sample,153462,0,"p4_morse_l_dot.wav",70
Sample,153505,0,"p4_drum_dirtyperc_009.wav",70
Sample,153505,0,"p4_drum_breaks_007.wav",70
Sample,153505,0,"p4_morse_l_dash.wav",70
Sample,153505,0,"p4_synth_seq_150.wav",70
Sample,153590,0,"p4_drum_breaks_008.wav",70
Sample,153590,0,"p4_drum_subsnare_2_001.wav",70
Sample,153590,0,"p4_drum_dirtyperc_010.wav",70
Sample,153590,0,"p4_drum_mainsnare_001.wav",70
Sample,153590,0,"p4_synth_seq_151.wav",70
Sample,153590,0,"p4_morse_r2_dot.wav",70
Sample,153632,0,"p4_morse_l_dot.wav",70
Sample,153675,0,"p4_morse_l_dash.wav",70
Sample,153675,0,"p4_drum_mainpercsloop_010.wav",70
Sample,153675,0,"p4_morse_r2_dash.wav",70
Sample,153675,0,"p4_drum_breaks_009.wav",70
Sample,153675,0,"p4_drum_dirtyperc_011.wav",70
Sample,153675,0,"p4_synth_seq_152.wav",70
Sample,153760,0,"p4_drum_mainpercsloop_011.wav",70
Sample,153760,0,"p4_drum_breaks_010.wav",70
Sample,153760,0,"p4_drum_dirtyperc_012.wav",70
Sample,153760,0,"p4_synth_seq_153.wav",70
Sample,153760,0,"p4_morse_l_dot.wav",70
Sample,153846,0,"p4_drum_mainsnare_001.wav",70
Sample,153846,0,"p4_synth_seq_154.wav",70
Sample,153846,0,"p4_drum_breaks_011.wav",70
Sample,153846,0,"p4_drum_dirtyperc_013.wav",70
Sample,153846,0,"p4_drum_subsnare_2_001.wav",70
Sample,153846,0,"p4_morse_r2_dash.wav",70
Sample,153888,0,"p4_morse_l_dot.wav",70
Sample,153931,0,"p4_morse_l_dot.wav",70
Sample,153931,0,"p4_drum_dirtyperc_014.wav",70
Sample,153931,0,"p4_synth_seq_155.wav",70
Sample,154016,0,"p4_synth_seq_156.wav",70
Sample,154016,0,"p4_drum_breaks_012.wav",70
Sample,154016,0,"p4_morse_l_dot.wav",70
Sample,154016,0,"p4_drum_dirtyperc_015.wav",70
Sample,154016,0,"p4_morse_r2_dot.wav",70
Sample,154059,0,"p4_morse_l_dash.wav",70
Sample,154101,0,"p4_synth_seq_157.wav",70
Sample,154101,0,"p4_drum_dirtyperc_016.wav",70
Sample,154101,0,"p4_drum_snareshot_2_001.wav",70
Sample,154101,0,"p4_drum_breaks_013.wav",70
Sample,154144,0,"p4_morse_l_dash.wav",70
Sample,154187,0,"p4_drum_breaks_001.wav",70
Sample,154187,0,"p4_synth_seq_158.wav",70
Sample,154187,0,"p4_drum_dirtyperc_001.wav",70
Sample,154187,0,"p4_morse_r2_dash.wav",70
Sample,154229,0,"p4_morse_l_dot.wav",70
Sample,154272,0,"p4_drum_mainpercsloop_002.wav",70
Sample,154272,0,"p4_drum_cym_010.wav",70
Sample,154272,0,"p4_drum_subsnare_2_001.wav",70
Sample,154272,0,"p4_synth_seq_159.wav",70
Sample,154272,0,"p4_synth_uplift_017.wav",70
Sample,154272,0,"p4_drum_mainsnare_001.wav",70
Sample,154272,0,"p4_drum_dirtyperc_002.wav",70
Sample,154272,0,"p4_synth_weapon_400.wav",70
Sample,154315,0,"p4_morse_l_dot.wav",70
Sample,154357,0,"p4_morse_r2_dot.wav",70
Sample,154357,0,"p4_synth_weapon_401.wav",70
Sample,154357,0,"p4_drum_mainpercsloop_003.wav",70
Sample,154357,0,"p4_drum_breaks_002.wav",70
Sample,154357,0,"p4_drum_cym_010.wav",70
Sample,154357,0,"p4_synth_seq_160.wav",70
Sample,154357,0,"p4_drum_subsnare_2_001.wav",70
Sample,154357,0,"p4_morse_l_dot.wav",70
Sample,154357,0,"p4_synth_uplift_018.wav",70
Sample,154357,0,"p4_drum_dirtyperc_003.wav",70
Sample,154400,0,"p4_morse_l_dot.wav",70
Sample,154443,0,"p4_drum_mainpercsloop_004.wav",70
Sample,154443,0,"p4_morse_r2_dash.wav",70
Sample,154443,0,"p4_drum_subsnare_2_001.wav",70
Sample,154443,0,"p4_drum_cym_010.wav",70
Sample,154443,0,"p4_synth_seq_161.wav",70
Sample,154443,0,"p4_drum_breaks_003.wav",70
Sample,154443,0,"p4_synth_uplift_019.wav",70
Sample,154443,0,"p4_drum_dirtyperc_004.wav",70
Sample,154443,0,"p4_synth_weapon_402.wav",70
Sample,154485,0,"p4_morse_l_dash.wav",70
Sample,154528,0,"p4_synth_weapon_403.wav",70
Sample,154528,0,"p4_drum_subsnare_2_001.wav",70
Sample,154528,0,"p4_synth_uplift_020.wav",70
Sample,154528,0,"p4_drum_dirtyperc_005.wav",70
Sample,154528,0,"p4_drum_breaks_004.wav",70
Sample,154528,0,"p4_drum_cym_010.wav",70
Sample,154528,0,"p4_drum_snareshot_2_001.wav",70
Sample,154528,0,"p4_synth_seq_162.wav",70
Sample,154571,0,"p4_morse_l_dash.wav",70
Sample,154613,0,"p4_drum_dirtyperc_006.wav",70
Sample,154613,0,"p4_synth_seq_163.wav",70
Sample,154613,0,"p4_synth_uplift_021.wav",70
Sample,154613,0,"p4_synth_weapon_404.wav",70
Sample,154613,0,"p4_drum_cym_010.wav",70
Sample,154613,0,"p4_drum_subsnare_2_001.wav",70
Sample,154613,0,"p4_morse_r2_dot.wav",70
Sample,154656,0,"p4_morse_l_dash.wav",70
Sample,154698,0,"p4_drum_cym_010.wav",70
Sample,154698,0,"p4_synth_weapon_405.wav",70
Sample,154698,0,"p4_synth_seq_164.wav",70
Sample,154698,0,"p4_synth_uplift_022.wav",70
Sample,154698,0,"p4_drum_breaks_005.wav",70
Sample,154698,0,"p4_morse_r2_dot.wav",70
Sample,154698,0,"p4_drum_subsnare_2_001.wav",70
Sample,154698,0,"p4_drum_dirtyperc_007.wav",70
Sample,154784,0,"p4_drum_breaks_006.wav",70
Sample,154784,0,"p4_drum_snareshot_2_001.wav",70
Sample,154784,0,"p4_synth_seq_165.wav",70
Sample,154784,0,"p4_drum_dirtyperc_008.wav",70
Sample,154784,0,"p4_morse_l_dot.wav",70
Sample,154784,0,"p4_synth_uplift_023.wav",70
Sample,154784,0,"p4_synth_weapon_406.wav",70
Sample,154784,0,"p4_drum_subsnare_2_001.wav",70
Sample,154784,0,"p4_drum_cym_010.wav",70
Sample,154826,0,"p4_morse_l_dot.wav",70
Sample,154869,0,"p4_drum_breaks_007.wav",70
Sample,154869,0,"p4_drum_dirtyperc_018.wav",70
Sample,154869,0,"p4_synth_weapon_407.wav",70
Sample,154869,0,"p4_morse_l_dot.wav",70
Sample,154869,0,"p4_drum_cym_010.wav",70
Sample,154869,0,"p4_synth_uplift_024.wav",70
Sample,154869,0,"p4_drum_subsnare_2_001.wav",70
Sample,154869,0,"p4_synth_seq_166.wav",70
Sample,154954,0,"p4_drum_breaks_008.wav",70
Sample,154954,0,"p4_synth_weapon_408.wav",70
Sample,154954,0,"p4_drum_snareshot_2_001.wav",70
Sample,154954,0,"p4_drum_dirtyperc_019.wav",70
Sample,154954,0,"p4_synth_seq_167.wav",70
Sample,154954,0,"p4_drum_subsnare_2_001.wav",70
Sample,154954,0,"p4_drum_cym_010.wav",70
Sample,155040,0,"p4_drum_mainpercsloop_010.wav",70
Sample,155040,0,"p4_synth_weapon_409.wav",70
Sample,155040,0,"p4_drum_cym_010.wav",70
Sample,155040,0,"p4_drum_breaks_009.wav",70
Sample,155040,0,"p4_drum_subsnare_2_001.wav",70
Sample,155040,0,"p4_synth_seq_168.wav",70
Sample,155040,0,"p4_drum_dirtyperc_020.wav",70
Sample,155125,0,"p4_synth_seq_169.wav",70
Sample,155125,0,"p4_drum_cym_011.wav",70
Sample,155125,0,"p4_drum_mainpercsloop_011.wav",70
Sample,155125,0,"p4_drum_dirtyperc_021.wav",70
Sample,155125,0,"p4_synth_weapon_410.wav",70
Sample,155125,0,"p4_drum_cym_010.wav",70
Sample,155125,0,"p4_drum_subsnare_2_001.wav",70
Sample,155125,0,"p4_drum_breaks_010.wav",70
Sample,155210,0,"p4_drum_dirtyperc_022.wav",70
Sample,155210,0,"p4_drum_cym_011.wav",70
Sample,155210,0,"p4_synth_seq_170.wav",70
Sample,155210,0,"p4_synth_weapon_411.wav",70
Sample,155210,0,"p4_drum_mainsnare_001.wav",70
Sample,155210,0,"p4_drum_subsnare_2_001.wav",70
Sample,155210,0,"p4_drum_breaks_011.wav",70
Sample,155295,0,"p4_synth_seq_171.wav",70
Sample,155295,0,"p4_drum_dirtyperc_023.wav",70
Sample,155295,0,"p4_drum_subsnare_2_001.wav",70
Sample,155295,0,"p4_synth_weapon_412.wav",70
Sample,155295,0,"p4_drum_cym_011.wav",70
Sample,155338,0,"p4_drum_dirtyperc_024.wav",70
Sample,155381,0,"p4_drum_breaks_012.wav",70
Sample,155381,0,"p4_drum_dirtyperc_025.wav",70
Sample,155381,0,"p4_synth_weapon_413.wav",70
Sample,155381,0,"p4_synth_seq_172.wav",70
Sample,155381,0,"p4_drum_cym_011.wav",70
Sample,155381,0,"p4_drum_subsnare_2_001.wav",70
Sample,155466,0,"p4_drum_breaks_013.wav",70
Sample,155466,0,"p4_synth_weapon_414.wav",70
Sample,155466,0,"p4_drum_mainpercsloop_008.wav",70
Sample,155466,0,"p4_drum_snareshot_2_001.wav",70
Sample,155466,0,"p4_drum_dirtyperc_026.wav",70
Sample,155466,0,"p4_synth_seq_173.wav",70
Sample,155466,0,"p4_drum_cym_011.wav",70
Sample,155466,0,"p4_drum_subsnare_2_001.wav",70
Sample,155509,0,"p4_drum_dirtyperc_027.wav",70

[TimingPoints]
0,341.122292341805,4,2,0,70,1,0
0,341.122292341805,4,2,0,70,1,0
66859,-100,2,2,0,70,0,0
67542,-100,4,2,0,70,0,0
67627,-100,4,2,0,70,0,0
67712,-100,4,2,0,70,0,0
67798,-100,4,2,0,70,0,0
67883,-100,4,2,0,70,0,0
67968,-100,4,2,0,70,0,0
68053,-100,4,2,0,70,0,0
68139,-100,4,2,0,70,0,0
68224,-100,4,2,0,70,0,0

[HitObjects]
288,192,2728,5,0,0:0:0:0:p4_synth_weapon_001.wav
96,192,13644,5,0,0:0:0:0:p4_drum_other_001.wav
96,192,13986,1,0,0:0:0:0:p4_drum_other_002.wav
96,192,15009,1,0,0:0:0:0:p4_drum_other_007.wav
96,192,15350,1,0,0:0:0:0:p4_drum_other_008.wav
96,192,15862,1,0,0:0:0:0:p4_drum_other_009.wav
96,192,16373,1,0,0:0:0:0:p4_drum_other_012.wav
96,192,16714,1,0,0:0:0:0:p4_drum_other_013.wav
96,192,17738,1,0,0:0:0:0:p4_drum_other_016.wav
96,192,18079,1,0,0:0:0:0:p4_drum_other_017.wav
96,192,18591,1,0,0:0:0:0:p4_drum_other_019.wav
96,192,19102,1,0,0:0:0:0:p4_drum_other_001.wav
96,192,19443,1,0,0:0:0:0:p4_drum_other_002.wav
96,192,20467,1,0,0:0:0:0:p4_drum_other_007.wav
96,192,20808,1,0,0:0:0:0:p4_drum_other_008.wav
96,192,21320,1,0,0:0:0:0:p4_drum_other_009.wav
96,192,21831,1,0,0:0:0:0:p4_drum_other_012.wav
96,192,22172,1,0,0:0:0:0:p4_drum_other_013.wav
96,192,23196,1,0,0:0:0:0:p4_drum_other_016.wav
96,192,23537,5,0,0:0:0:0:p4_drum_other_017.wav
160,192,24049,1,0,0:0:0:0:p4_drum_other_019.wav
288,192,24219,1,0,0:0:0:0:p4_synth_weapon_004.wav
416,192,24304,1,0,0:0:0:0:p4_synth_weapon_005.wav
288,192,24390,1,0,0:0:0:0:p4_synth_weapon_006.wav
416,192,24475,1,0,0:0:0:0:p4_synth_weapon_007.wav
96,192,24560,1,0,0:0:0:0:p4_drum_subkick_4.wav
32,192,24560,1,0,0:0:0:0:p4_fx_impact1_003.wav
480,192,24560,1,0,0:0:0:0:p4_synth_weapon_008.wav
288,192,24901,1,0,0:0:0:0:p4_drum_other_023.wav
416,192,25243,1,0,0:0:0:0:p4_drum_other_026.wav
96,192,25413,1,0,0:0:0:0:p4_drum_subkick_4.wav
288,192,25754,1,0,0:0:0:0:p4_drum_mainpercsloop_009.wav
416,192,25840,1,0,0:0:0:0:p4_drum_mainpercsloop_010.wav
96,192,25925,1,0,0:0:0:0:p4_drum_subkick_4.wav
352,192,26266,1,0,0:0:0:0:p4_drum_other_029.wav
480,192,26436,1,0,0:0:0:0:p4_drum_other_030.wav
224,192,26692,1,0,0:0:0:0:p4_drum_other_031.wav
96,192,26778,1,0,0:0:0:0:p4_drum_subkick_4.wav
288,192,26948,1,0,0:0:0:0:p4_drum_other_032.wav
416,192,27119,1,0,0:0:0:0:p4_drum_mainpercsloop_010.wav
96,192,27289,1,0,0:0:0:0:p4_drum_subkick_4.wav
288,192,27630,1,0,0:0:0:0:p4_drum_other_023.wav
416,192,27972,1,0,0:0:0:0:p4_drum_other_026.wav
96,192,28142,1,0,0:0:0:0:p4_drum_subkick_4.wav
288,192,28483,1,0,0:0:0:0:p4_drum_mainpercsloop_009.wav
416,192,28568,1,0,0:0:0:0:p4_drum_mainpercsloop_010.wav
96,192,28654,1,0,0:0:0:0:p4_drum_subkick_4.wav
352,192,28995,1,0,0:0:0:0:p4_drum_other_029.wav
480,192,29165,1,0,0:0:0:0:p4_drum_other_030.wav
96,192,29251,1,0,0:0:0:0:p4_drum_mainpercsloop_007.wav
224,192,29421,1,0,0:0:0:0:p4_drum_mainpercsloop_009.wav
96,192,29507,1,0,0:0:0:0:p4_drum_subkick_4.wav
416,192,29677,1,0,0:0:0:0:p4_drum_other_032.wav
224,192,29848,1,0,0:0:0:0:p4_drum_mainpercsloop_009.wav
96,192,30018,1,0,0:0:0:0:p4_drum_subkick_4.wav
288,192,30359,1,0,0:0:0:0:p4_drum_other_023.wav
416,192,30701,1,0,0:0:0:0:p4_drum_other_026.wav
96,192,30871,1,0,0:0:0:0:p4_drum_subkick_4.wav
288,192,31212,1,0,0:0:0:0:p4_drum_mainpercsloop_009.wav
416,192,31297,1,0,0:0:0:0:p4_drum_mainpercsloop_010.wav
96,192,31383,1,0,0:0:0:0:p4_drum_subkick_4.wav
352,192,31724,1,0,0:0:0:0:p4_drum_other_029.wav
480,192,31894,1,0,0:0:0:0:p4_drum_other_030.wav
224,192,32150,1,0,0:0:0:0:p4_drum_other_031.wav
96,192,32236,1,0,0:0:0:0:p4_drum_subkick_4.wav
288,192,32406,1,0,0:0:0:0:p4_drum_other_032.wav
416,192,32577,1,0,0:0:0:0:p4_drum_mainpercsloop_010.wav
96,192,32747,1,0,0:0:0:0:p4_drum_subkick_4.wav
288,192,33088,1,0,0:0:0:0:p4_drum_other_023.wav
416,192,33429,1,0,0:0:0:0:p4_drum_other_026.wav
96,192,33600,1,0,0:0:0:0:p4_drum_subkick_4.wav
288,192,33941,1,0,0:0:0:0:p4_drum_mainpercsloop_009.wav
416,192,34026,1,0,0:0:0:0:p4_drum_mainpercsloop_010.wav
32,192,34112,1,0,0:0:0:0:p4_synth_granular_001.wav
416,192,34453,1,0,0:0:0:0:p4_synth_granular_002.wav
160,192,34709,1,0,0:0:0:0:p4_synth_granular_003.wav
352,192,34879,1,0,0:0:0:0:p4_synth_granular_004.wav
224,192,35050,1,0,0:0:0:0:p4_synth_granular_005.wav
32,192,35135,1,0,0:0:0:0:p4_synth_granular_006.wav
96,192,35476,1,0,0:0:0:0:p4_drum_subkick_4.wav
96,192,35732,1,0,0:0:0:0:p4_drum_subkick_4.wav
416,192,35817,1,0,0:0:0:0:p4_drum_mainsnare_001.wav
96,192,35988,1,0,0:0:0:0:p4_drum_subkick_4.wav
96,192,36158,1,0,0:0:0:0:p4_drum_subkick_4.wav
96,192,36414,1,0,0:0:0:0:p4_drum_subkick_4.wav
416,192,36500,1,0,0:0:0:0:p4_drum_mainsnare_001.wav
96,192,36670,1,0,0:0:0:0:p4_drum_subkick_4.wav
96,192,36841,1,0,0:0:0:0:p4_drum_subkick_4.wav
96,192,37097,1,0,0:0:0:0:p4_drum_subkick_4.wav
416,192,37182,1,0,0:0:0:0:p4_drum_mainsnare_001.wav
96,192,37352,1,0,0:0:0:0:p4_drum_subkick_4.wav
96,192,37523,1,0,0:0:0:0:p4_drum_subkick_4.wav
96,192,37779,1,0,0:0:0:0:p4_drum_subkick_4.wav
416,192,37864,1,0,0:0:0:0:p4_drum_mainsnare_001.wav
96,192,38035,1,0,0:0:0:0:p4_drum_subkick_4.wav
160,192,38205,1,0,0:0:0:0:p4_drum_subkick_4.wav
160,192,38461,1,0,0:0:0:0:p4_drum_subkick_4.wav
416,192,38546,1,0,0:0:0:0:p4_drum_mainsnare_001.wav
160,192,38717,1,0,0:0:0:0:p4_drum_subkick_4.wav
160,192,38887,1,0,0:0:0:0:p4_drum_subkick_4.wav
160,192,39143,1,0,0:0:0:0:p4_drum_subkick_4.wav
416,192,39229,1,0,0:0:0:0:p4_drum_mainsnare_001.wav
160,192,39399,1,0,0:0:0:0:p4_drum_subkick_4.wav
224,192,39570,1,0,0:0:0:0:p4_drum_subkick_4.wav
224,192,39826,1,0,0:0:0:0:p4_drum_subkick_4.wav
416,192,39911,1,0,0:0:0:0:p4_drum_mainsnare_001.wav
224,192,40081,1,0,0:0:0:0:p4_drum_subkick_4.wav
224,192,40252,1,0,0:0:0:0:p4_drum_subkick_4.wav
224,192,40508,1,0,0:0:0:0:p4_drum_subkick_4.wav
416,192,40593,1,0,0:0:0:0:p4_drum_mainsnare_001.wav
224,192,40764,1,0,0:0:0:0:p4_drum_subkick_4.wav
96,192,40934,1,0,0:0:0:0:p4_drum_mainkick_6.wav
288,192,40934,1,0,0:0:0:0:p4_drum_dirtyperc_001.wav
96,192,41105,1,0,0:0:0:0:p4_drum_mainkick_6.wav
288,192,41105,1,0,0:0:0:0:p4_drum_dirtyperc_003.wav
96,192,41275,1,0,0:0:0:0:p4_drum_mainkick_6.wav
288,192,41275,1,0,0:0:0:0:p4_drum_dirtyperc_005.wav
96,192,41446,1,0,0:0:0:0:p4_drum_mainkick_6.wav
288,192,41446,1,0,0:0:0:0:p4_drum_dirtyperc_007.wav
160,192,41616,1,0,0:0:0:0:p4_drum_mainkick_6.wav
352,192,41616,1,0,0:0:0:0:p4_drum_dirtyperc_009.wav
160,192,41787,1,0,0:0:0:0:p4_drum_mainkick_6.wav
352,192,41787,1,0,0:0:0:0:p4_drum_dirtyperc_011.wav
160,192,41958,1,0,0:0:0:0:p4_drum_mainkick_6.wav
352,192,41958,1,0,0:0:0:0:p4_drum_dirtyperc_013.wav
160,192,42128,1,0,0:0:0:0:p4_drum_mainkick_6.wav
352,192,42128,1,0,0:0:0:0:p4_drum_dirtyperc_015.wav
224,192,42299,1,0,0:0:0:0:p4_drum_mainkick_6.wav
416,192,42299,1,0,0:0:0:0:p4_drum_dirtyperc_001.wav
224,192,42469,1,0,0:0:0:0:p4_drum_mainkick_6.wav
416,192,42469,1,0,0:0:0:0:p4_drum_dirtyperc_003.wav
224,192,42640,1,0,0:0:0:0:p4_drum_mainkick_6.wav
416,192,42640,1,0,0:0:0:0:p4_drum_dirtyperc_005.wav
224,192,42810,1,0,0:0:0:0:p4_drum_mainkick_6.wav
416,192,42810,1,0,0:0:0:0:p4_drum_dirtyperc_007.wav
288,192,42981,1,0,0:0:0:0:p4_drum_mainkick_6.wav
480,192,42981,1,0,0:0:0:0:p4_drum_dirtyperc_018.wav
288,192,43151,1,0,0:0:0:0:p4_drum_mainkick_6.wav
480,192,43151,1,0,0:0:0:0:p4_drum_dirtyperc_020.wav
288,192,43322,1,0,0:0:0:0:p4_drum_mainkick_6.wav
480,192,43322,1,0,0:0:0:0:p4_drum_dirtyperc_022.wav
288,192,43493,1,0,0:0:0:0:p4_drum_mainkick_6.wav
480,192,43493,1,0,0:0:0:0:p4_drum_dirtyperc_025.wav
352,192,43663,1,0,0:0:0:0:p4_drum_mainkick_6.wav
32,192,43663,1,0,0:0:0:0:p4_synth_beast_001.wav
224,192,43748,1,0,0:0:0:0:p4_drum_mainkick_6.wav
352,192,43834,1,0,0:0:0:0:p4_drum_mainkick_6.wav
224,192,43919,1,0,0:0:0:0:p4_drum_mainkick_6.wav
352,192,44004,1,0,0:0:0:0:p4_drum_mainkick_6.wav
224,192,44090,1,0,0:0:0:0:p4_drum_mainkick_6.wav
352,192,44175,1,0,0:0:0:0:p4_drum_mainkick_6.wav
224,192,44260,1,0,0:0:0:0:p4_drum_mainkick_6.wav
352,192,44345,1,0,0:0:0:0:p4_drum_mainkick_6.wav
224,192,44431,1,0,0:0:0:0:p4_drum_mainkick_6.wav
352,192,44516,1,0,0:0:0:0:p4_drum_mainkick_6.wav
224,192,44601,1,0,0:0:0:0:p4_drum_mainkick_6.wav
352,192,44687,1,0,0:0:0:0:p4_drum_mainkick_6.wav
224,192,44772,1,0,0:0:0:0:p4_drum_mainkick_6.wav
352,192,44857,1,0,0:0:0:0:p4_drum_mainkick_6.wav
224,192,44942,1,0,0:0:0:0:p4_drum_mainkick_6.wav
32,192,45028,1,0,0:0:0:0:p4_synth_granular_007.wav
32,192,45710,1,0,0:0:0:0:p4_synth_granular_015.wav
32,192,45966,1,0,0:0:0:0:p4_synth_granular_016.wav
32,192,46051,1,0,0:0:0:0:p4_synth_granular_017.wav
96,192,46392,1,0,0:0:0:0:p4_drum_mainkick_2.wav
480,192,46392,1,0,0:0:0:0:p4_synth_weapon_045.wav
288,192,46691,1,0,0:0:0:0:p4_synth_weapon_046.wav
416,192,46733,1,0,0:0:0:0:p4_drum_oddsnare_001.wav
96,192,47160,1,0,0:0:0:0:p4_drum_mainkick_3.wav
224,192,47160,1,0,0:0:0:0:p4_drum_subsnare_2_001.wav
352,192,47415,1,0,0:0:0:0:p4_synth_weapon_052.wav
480,192,47415,1,0,0:0:0:0:p4_drum_oddsnare_001.wav
224,192,47671,1,0,0:0:0:0:p4_drum_subkick_4.wav
96,192,47757,1,0,0:0:0:0:p4_drum_mainkick_2.wav
288,192,48098,1,0,0:0:0:0:p4_synth_weapon_055.wav
416,192,48098,1,0,0:0:0:0:p4_drum_oddsnare_001.wav
96,192,48268,1,0,0:0:0:0:p4_drum_subkick_4.wav
224,192,48354,1,0,0:0:0:0:p4_drum_subsnare_1_002.wav
160,192,48609,1,0,0:0:0:0:p4_drum_mainkick_3.wav
352,192,48780,1,0,0:0:0:0:p4_drum_subsnare_2_001.wav
480,192,48780,1,0,0:0:0:0:p4_drum_oddsnare_001.wav
224,192,48951,1,0,0:0:0:0:p4_drum_subkick_4.wav
96,192,49121,1,0,0:0:0:0:p4_drum_mainkick_2.wav
288,192,49292,1,0,0:0:0:0:p4_synth_weapon_069.wav
352,192,49462,1,0,0:0:0:0:p4_drum_oddsnare_001.wav
480,192,49462,1,0,0:0:0:0:p4_synth_weapon_070.wav
224,192,49718,1,0,0:0:0:0:p4_synth_weapon_071.wav
96,192,49889,1,0,0:0:0:0:p4_drum_mainkick_3.wav
288,192,50144,1,0,0:0:0:0:p4_synth_weapon_077.wav
416,192,50144,1,0,0:0:0:0:p4_drum_oddsnare_001.wav
224,192,50400,1,0,0:0:0:0:p4_drum_subkick_4.wav
96,192,50486,1,0,0:0:0:0:p4_drum_mainkick_2.wav
224,192,50656,1,0,0:0:0:0:p4_synth_weapon_079.wav
352,192,50827,1,0,0:0:0:0:p4_drum_oddsnare_001.wav
480,192,50827,1,0,0:0:0:0:p4_synth_weapon_080.wav
288,192,51083,1,0,0:0:0:0:p4_synth_weapon_081.wav
160,192,51338,1,0,0:0:0:0:p4_synth_weapon_082.wav
288,192,51509,1,0,0:0:0:0:p4_synth_weapon_084.wav
416,192,51594,1,0,0:0:0:0:p4_synth_weapon_085.wav
288,192,51680,1,0,0:0:0:0:p4_synth_weapon_086.wav
416,192,51765,1,0,0:0:0:0:p4_synth_weapon_087.wav
96,192,51850,1,0,0:0:0:0:p4_drum_mainkick_2.wav
288,192,52191,1,0,0:0:0:0:p4_synth_weapon_089.wav
416,192,52191,1,0,0:0:0:0:p4_drum_oddsnare_001.wav
224,192,52447,1,0,0:0:0:0:p4_drum_subkick_4.wav
96,192,52618,1,0,0:0:0:0:p4_drum_mainkick_3.wav
288,192,52873,1,0,0:0:0:0:p4_drum_oddsnare_001.wav
416,192,52888,1,0,0:0:0:0:p4_synth_weapon_093.wav
96,192,53215,1,0,0:0:0:0:p4_drum_mainkick_2.wav
352,192,53215,1,0,0:0:0:0:p4_synth_weapon_095.wav
160,192,53470,1,0,0:0:0:0:p4_drum_subkick_4.wav
416,192,53556,1,0,0:0:0:0:p4_drum_oddsnare_001.wav
288,192,53577,1,0,0:0:0:0:p4_synth_weapon_098.wav
96,192,53726,1,0,0:0:0:0:p4_drum_subkick_4.wav
480,192,53812,1,0,0:0:0:0:p4_synth_weapon_099.wav
96,192,54067,1,0,0:0:0:0:p4_drum_mainkick_3.wav
352,192,54238,1,0,0:0:0:0:p4_drum_oddsnare_001.wav
224,192,54409,1,0,0:0:0:0:p4_drum_subkick_4.wav
96,192,54579,1,0,0:0:0:0:p4_drum_mainkick_2.wav
480,192,54579,1,0,0:0:0:0:p4_synth_weapon_104.wav
160,192,54920,1,0,0:0:0:0:p4_synth_weapon_105.wav
224,192,55148,1,0,0:0:0:0:p4_synth_weapon_106.wav
288,192,55375,1,0,0:0:0:0:p4_synth_weapon_107.wav
352,192,55602,1,0,0:0:0:0:p4_synth_weapon_108.wav
480,192,55602,1,0,0:0:0:0:p4_drum_oddsnare_001.wav
224,192,55858,1,0,0:0:0:0:p4_synth_weapon_109.wav
96,192,55944,1,0,0:0:0:0:p4_drum_mainkick_2.wav
288,192,56157,1,0,0:0:0:0:p4_synth_weapon_110.wav
160,192,56235,1,0,0:0:0:0:p4_synth_weapon_111.wav
416,192,56327,1,0,0:0:0:0:p4_synth_weapon_112.wav
288,192,56505,1,0,0:0:0:0:p4_synth_weapon_113.wav
160,192,56597,1,0,0:0:0:0:p4_synth_weapon_114.wav
416,192,56711,1,0,0:0:0:0:p4_synth_weapon_115.wav
288,192,56832,1,0,0:0:0:0:p4_synth_weapon_116.wav
160,192,56938,1,0,0:0:0:0:p4_synth_weapon_117.wav
352,192,57052,1,0,0:0:0:0:p4_synth_weapon_118.wav
224,192,57137,1,0,0:0:0:0:p4_synth_weapon_119.wav
352,192,57223,1,0,0:0:0:0:p4_synth_weapon_120.wav
96,192,57308,1,0,0:0:0:0:p4_drum_mainkick_2.wav
480,192,57308,1,0,0:0:0:0:p4_synth_weapon_121_easy.wav
224,192,57649,1,0,0:0:0:0:p4_drum_oddsnare_001.wav
160,192,57905,1,0,0:0:0:0:p4_drum_subkick_4.wav
352,192,57990,1,0,0:0:0:0:p4_synth_weapon_130.wav
480,192,58076,1,0,0:0:0:0:p4_synth_weapon_131.wav
352,192,58246,1,0,0:0:0:0:p4_synth_weapon_132.wav
224,192,58331,1,0,0:0:0:0:p4_drum_oddsnare_001.wav
480,192,58331,1,0,0:0:0:0:p4_synth_weapon_133.wav
480,192,58502,1,0,0:0:0:0:p4_synth_weapon_134.wav
96,192,58673,1,0,0:0:0:0:p4_drum_mainkick_2.wav
352,192,58843,1,0,0:0:0:0:p4_synth_weapon_135.wav
224,192,59014,1,0,0:0:0:0:p4_drum_oddsnare_001.wav
480,192,59014,1,0,0:0:0:0:p4_synth_weapon_136.wav
96,192,59184,1,0,0:0:0:0:p4_drum_subkick_4.wav
352,192,59355,1,0,0:0:0:0:p4_synth_weapon_137.wav
480,192,59440,1,0,0:0:0:0:p4_synth_weapon_138.wav
288,192,59611,1,0,0:0:0:0:p4_synth_weapon_139.wav
224,192,59696,1,0,0:0:0:0:p4_drum_oddsnare_001.wav
416,192,59696,1,0,0:0:0:0:p4_synth_weapon_140.wav
416,192,59866,1,0,0:0:0:0:p4_synth_weapon_141.wav
96,192,60037,1,0,0:0:0:0:p4_drum_mainkick_2.wav
480,192,60037,1,0,0:0:0:0:p4_synth_weapon_142.wav
352,192,60336,1,0,0:0:0:0:p4_synth_weapon_143.wav
224,192,60378,1,0,0:0:0:0:p4_drum_oddsnare_001.wav
160,192,60634,1,0,0:0:0:0:p4_synth_weapon_144.wav
352,192,60719,1,0,0:0:0:0:p4_synth_weapon_145.wav
480,192,60805,1,0,0:0:0:0:p4_synth_weapon_146.wav
352,192,60975,1,0,0:0:0:0:p4_synth_weapon_147.wav
224,192,61060,1,0,0:0:0:0:p4_drum_oddsnare_001.wav
480,192,61060,1,0,0:0:0:0:p4_synth_weapon_148.wav
480,192,61231,1,0,0:0:0:0:p4_synth_weapon_149.wav
96,192,61402,1,0,0:0:0:0:p4_drum_mainkick_2.wav
352,192,61572,1,0,0:0:0:0:p4_synth_weapon_150.wav
224,192,61743,1,0,0:0:0:0:p4_drum_oddsnare_001.wav
480,192,61743,1,0,0:0:0:0:p4_synth_weapon_151.wav
96,192,61913,1,0,0:0:0:0:p4_drum_subkick_4.wav
224,192,61998,1,0,0:0:0:0:p4_drum_subsnare_1_002.wav
352,192,62084,1,0,0:0:0:0:p4_synth_weapon_152.wav
480,192,62169,1,0,0:0:0:0:p4_synth_weapon_153.wav
160,192,62254,1,0,0:0:0:0:p4_synth_weapon_154.wav
416,192,62425,1,0,0:0:0:0:p4_drum_oddsnare_001.wav
224,192,62595,1,0,0:0:0:0:p4_drum_subkick_4.wav
288,192,62766,1,0,0:0:0:0:p4_synth_weapon_160.wav
352,192,63107,1,0,0:0:0:0:p4_drum_oddsnare_001.wav
480,192,63107,1,0,0:0:0:0:p4_synth_weapon_161.wav
288,192,63363,1,0,0:0:0:0:p4_drum_subkick_4.wav
416,192,63363,1,0,0:0:0:0:p4_synth_weapon_162.wav
224,192,63534,1,0,0:0:0:0:p4_drum_mainkick_3.wav
352,192,63534,1,0,0:0:0:0:p4_synth_weapon_163.wav
480,192,63789,1,0,0:0:0:0:p4_drum_oddsnare_001.wav
288,192,64045,1,0,0:0:0:0:p4_synth_weapon_164.wav
224,192,64130,1,0,0:0:0:0:p4_synth_weapon_165.wav
160,192,64386,1,0,0:0:0:0:p4_synth_weapon_166.wav
416,192,64592,1,0,0:0:0:0:p4_synth_weapon_167.wav
288,192,64983,1,0,0:0:0:0:p4_synth_weapon_168.wav
480,192,65154,1,0,0:0:0:0:p4_drum_oddsnare_001.wav
352,192,65495,1,0,0:0:0:0:p4_synth_weapon_175.wav
224,192,65609,1,0,0:0:0:0:p4_synth_weapon_176.wav
96,192,65722,1,0,0:0:0:0:p4_synth_weapon_177.wav
288,192,65836,1,0,0:0:0:0:p4_synth_weapon_178.wav
480,192,66035,1,0,0:0:0:0:p4_synth_weapon_179.wav
416,192,66263,1,0,0:0:0:0:p4_synth_weapon_180.wav
288,192,66490,1,0,0:0:0:0:p4_synth_weapon_181.wav
160,192,66668,1,0,0:0:0:0:p4_synth_weapon_182.wav
224,192,66859,1,0,0:0:0:0:p4_drum_mainkick_2.wav
480,192,66859,1,0,0:0:0:0:p4_synth_weapon_183.wav
96,192,67115,1,0,0:0:0:0:p4_synth_weapon_184.wav
352,192,67115,1,0,0:0:0:0:p4_drum_subkick_4.wav
160,192,67371,1,0,0:0:0:0:p4_drum_subkick_4.wav
416,192,67371,1,0,0:0:0:0:p4_synth_weapon_185.wav
96,192,68224,1,0,0:0:0:0:p4_drum_mainkick_2.wav
224,192,68224,1,0,0:0:0:0:p4_synth_main_001.wav
32,192,68224,1,0,0:0:0:0:p4_drum_cym_001.wav
416,192,68565,1,0,0:0:0:0:p4_drum_mainsnare_001.wav
160,192,68821,1,0,0:0:0:0:p4_drum_subkick_4.wav
96,192,68991,1,0,0:0:0:0:p4_drum_mainkick_3.wav
416,192,69247,1,0,0:0:0:0:p4_drum_mainsnare_001.wav
224,192,69503,1,0,0:0:0:0:p4_drum_subkick_4.wav
96,192,69588,1,0,0:0:0:0:p4_drum_mainkick_2.wav
96,192,69844,1,0,0:0:0:0:p4_drum_subkick_4.wav
416,192,69930,1,0,0:0:0:0:p4_drum_mainsnare_001.wav
224,192,70100,1,0,0:0:0:0:p4_drum_subkick_4.wav
96,192,70441,1,0,0:0:0:0:p4_drum_mainkick_3.wav
416,192,70612,1,0,0:0:0:0:p4_drum_mainsnare_001.wav
224,192,70782,1,0,0:0:0:0:p4_drum_subkick_4.wav
96,192,70953,1,0,0:0:0:0:p4_drum_mainkick_2.wav
96,192,71209,1,0,0:0:0:0:p4_drum_subkick_4.wav
416,192,71294,1,0,0:0:0:0:p4_drum_mainsnare_001.wav
224,192,71465,1,0,0:0:0:0:p4_drum_subkick_4.wav
352,192,71635,1,0,0:0:0:0:p4_synth_main_002.wav
160,192,71891,1,0,0:0:0:0:p4_drum_mainpercsloop_011.wav
416,192,71976,1,0,0:0:0:0:p4_drum_mainsnare_001.wav
224,192,72232,1,0,0:0:0:0:p4_drum_subkick_4.wav
96,192,72317,1,0,0:0:0:0:p4_drum_mainkick_2.wav
352,192,72317,1,0,0:0:0:0:p4_synth_main_003.wav
96,192,72573,1,0,0:0:0:0:p4_drum_subkick_4.wav
416,192,72659,1,0,0:0:0:0:p4_drum_mainsnare_001.wav
96,192,72829,1,0,0:0:0:0:p4_drum_subkick_4.wav
480,192,73000,1,0,0:0:0:0:p4_synth_main_004.wav
224,192,73085,1,0,0:0:0:0:p4_drum_mainkick_3.wav
96,192,73256,1,0,0:0:0:0:p4_drum_subkick_4.wav
416,192,73341,1,0,0:0:0:0:p4_drum_mainsnare_001.wav
224,192,73511,1,0,0:0:0:0:p4_drum_subkick_4.wav
96,192,73682,1,0,0:0:0:0:p4_drum_mainkick_2.wav
352,192,73682,1,0,0:0:0:0:p4_synth_main_005.wav
416,192,74023,1,0,0:0:0:0:p4_drum_mainsnare_001.wav
160,192,74279,1,0,0:0:0:0:p4_drum_subkick_4.wav
288,192,74364,1,0,0:0:0:0:p4_synth_main_006.wav
96,192,74449,1,0,0:0:0:0:p4_drum_mainkick_3.wav
416,192,74705,1,0,0:0:0:0:p4_drum_mainsnare_001.wav
224,192,74961,1,0,0:0:0:0:p4_drum_subkick_4.wav
96,192,75046,1,0,0:0:0:0:p4_drum_mainkick_2.wav
96,192,75302,1,0,0:0:0:0:p4_drum_subkick_4.wav
416,192,75388,1,0,0:0:0:0:p4_drum_mainsnare_001.wav
224,192,75558,1,0,0:0:0:0:p4_drum_subkick_4.wav
96,192,75899,1,0,0:0:0:0:p4_drum_mainkick_3.wav
416,192,76070,1,0,0:0:0:0:p4_drum_mainsnare_001.wav
224,192,76240,1,0,0:0:0:0:p4_drum_subkick_4.wav
96,192,76411,1,0,0:0:0:0:p4_drum_mainkick_2.wav
288,192,76411,1,0,0:0:0:0:p4_synth_main_007.wav
96,192,76667,1,0,0:0:0:0:p4_drum_subkick_4.wav
416,192,76752,1,0,0:0:0:0:p4_drum_mainsnare_001.wav
224,192,76923,1,0,0:0:0:0:p4_drum_subkick_4.wav
352,192,77093,1,0,0:0:0:0:p4_synth_main_008.wav
96,192,77178,1,0,0:0:0:0:p4_drum_mainkick_3.wav
416,192,77434,1,0,0:0:0:0:p4_drum_mainsnare_001.wav
224,192,77690,1,0,0:0:0:0:p4_drum_subkick_4.wav
96,192,77775,1,0,0:0:0:0:p4_drum_mainkick_2.wav
96,192,78031,1,0,0:0:0:0:p4_drum_subkick_4.wav
416,192,78117,1,0,0:0:0:0:p4_drum_mainsnare_001.wav
96,192,78287,1,0,0:0:0:0:p4_drum_subkick_4.wav
352,192,78543,1,0,0:0:0:0:p4_synth_uplift_025.wav
224,192,78628,1,0,0:0:0:0:p4_synth_uplift_026.wav
352,192,78713,1,0,0:0:0:0:p4_synth_uplift_027.wav
224,192,78799,1,0,0:0:0:0:p4_synth_uplift_028.wav
352,192,78884,1,0,0:0:0:0:p4_synth_uplift_029.wav
224,192,78969,1,0,0:0:0:0:p4_synth_uplift_030.wav
352,192,79055,1,0,0:0:0:0:p4_synth_uplift_031.wav
96,192,79140,1,0,0:0:0:0:p4_drum_mainkick_2.wav
480,192,79140,1,0,0:0:0:0:p4_synth_main_009.wav
416,192,79481,1,0,0:0:0:0:p4_drum_mainsnare_001.wav
160,192,79737,1,0,0:0:0:0:p4_drum_subkick_4.wav
352,192,79822,1,0,0:0:0:0:p4_synth_main_010.wav
96,192,79907,1,0,0:0:0:0:p4_drum_mainkick_3.wav
416,192,80163,1,0,0:0:0:0:p4_drum_mainsnare_001.wav
224,192,80419,1,0,0:0:0:0:p4_drum_subkick_4.wav
96,192,80504,1,0,0:0:0:0:p4_drum_mainkick_2.wav
96,192,80760,1,0,0:0:0:0:p4_drum_subkick_4.wav
416,192,80845,1,0,0:0:0:0:p4_drum_mainsnare_001.wav
224,192,81016,1,0,0:0:0:0:p4_drum_subkick_4.wav
96,192,81357,1,0,0:0:0:0:p4_drum_mainkick_3.wav
416,192,81528,1,0,0:0:0:0:p4_drum_mainsnare_001.wav
224,192,81698,1,0,0:0:0:0:p4_drum_subkick_4.wav
96,192,81869,1,0,0:0:0:0:p4_drum_mainkick_2.wav
352,192,81869,1,0,0:0:0:0:p4_synth_main_011.wav
96,192,82125,1,0,0:0:0:0:p4_drum_subkick_4.wav
416,192,82210,1,0,0:0:0:0:p4_drum_mainsnare_001.wav
224,192,82381,1,0,0:0:0:0:p4_drum_subkick_4.wav
288,192,82551,1,0,0:0:0:0:p4_synth_main_012.wav
96,192,82636,1,0,0:0:0:0:p4_drum_mainkick_3.wav
160,192,82807,1,0,0:0:0:0:p4_drum_mainpercsloop_011.wav
416,192,82892,1,0,0:0:0:0:p4_drum_mainsnare_001.wav
224,192,83148,1,0,0:0:0:0:p4_drum_subkick_4.wav
96,192,83233,1,0,0:0:0:0:p4_drum_mainkick_2.wav
96,192,83489,1,0,0:0:0:0:p4_drum_subkick_4.wav
416,192,83574,1,0,0:0:0:0:p4_drum_mainsnare_001.wav
224,192,83745,1,0,0:0:0:0:p4_drum_subkick_4.wav
96,192,84001,1,0,0:0:0:0:p4_drum_mainkick_3.wav
160,192,84171,1,0,0:0:0:0:p4_drum_subkick_4.wav
416,192,84257,1,0,0:0:0:0:p4_drum_mainsnare_001.wav
224,192,84427,1,0,0:0:0:0:p4_drum_subkick_4.wav
96,192,84598,1,0,0:0:0:0:p4_drum_mainkick_2.wav
288,192,84598,1,0,0:0:0:0:p4_synth_main_013.wav
416,192,84939,1,0,0:0:0:0:p4_drum_mainsnare_001.wav
224,192,85195,1,0,0:0:0:0:p4_drum_subkick_4.wav
480,192,85280,1,0,0:0:0:0:p4_synth_main_014.wav
96,192,85365,1,0,0:0:0:0:p4_drum_mainkick_3.wav
416,192,85621,1,0,0:0:0:0:p4_drum_mainsnare_001.wav
224,192,85877,1,0,0:0:0:0:p4_drum_subkick_4.wav
96,192,85962,1,0,0:0:0:0:p4_drum_mainkick_2.wav
96,192,86218,1,0,0:0:0:0:p4_drum_subkick_4.wav
416,192,86303,1,0,0:0:0:0:p4_drum_mainsnare_001.wav
224,192,86474,1,0,0:0:0:0:p4_drum_subkick_4.wav
96,192,86815,1,0,0:0:0:0:p4_drum_mainkick_3.wav
416,192,86986,1,0,0:0:0:0:p4_drum_mainsnare_001.wav
224,192,87156,1,0,0:0:0:0:p4_drum_subkick_4.wav
96,192,87327,1,0,0:0:0:0:p4_drum_mainkick_2.wav
352,192,87327,1,0,0:0:0:0:p4_synth_main_015.wav
96,192,87583,1,0,0:0:0:0:p4_drum_subkick_4.wav
416,192,87668,1,0,0:0:0:0:p4_drum_mainsnare_001.wav
224,192,87838,1,0,0:0:0:0:p4_drum_subkick_4.wav
288,192,88009,1,0,0:0:0:0:p4_synth_main_016.wav
96,192,88094,1,0,0:0:0:0:p4_drum_mainkick_3.wav
416,192,88350,1,0,0:0:0:0:p4_drum_mainsnare_001.wav
224,192,88606,1,0,0:0:0:0:p4_drum_subkick_4.wav
96,192,88691,1,0,0:0:0:0:p4_drum_mainkick_2.wav
96,192,88947,1,0,0:0:0:0:p4_drum_subkick_4.wav
416,192,89032,1,0,0:0:0:0:p4_drum_mainsnare_001.wav
96,192,89203,1,0,0:0:0:0:p4_drum_subkick_4.wav
224,192,89288,1,0,0:0:0:0:p4_drum_subsnare_1_002.wav
288,192,89459,1,0,0:0:0:0:p4_drum_snareshot_2_001.wav
416,192,89715,1,0,0:0:0:0:p4_drum_mainsnare_001.wav
160,192,90056,1,0,0:0:0:0:p4_synth_main_017.wav
32,192,90056,1,0,0:0:0:0:p4_drum_cym_001.wav
224,192,93467,1,0,0:0:0:0:p4_synth_main_018.wav
288,192,94149,1,0,0:0:0:0:p4_synth_main_019.wav
352,192,94831,1,0,0:0:0:0:p4_synth_main_020.wav
160,192,95514,1,0,0:0:0:0:p4_synth_main_021.wav
96,192,96196,1,0,0:0:0:0:p4_synth_main_022.wav
160,192,98243,1,0,0:0:0:0:p4_synth_main_023.wav
224,192,98925,1,0,0:0:0:0:p4_synth_main_024.wav
96,192,100972,1,0,0:0:0:0:p4_drum_subkick_4.wav
32,192,100972,1,0,0:0:0:0:p4_fx_impact1_004.wav
416,192,100972,1,0,0:0:0:0:p4_synth_main_025.wav
96,192,101228,1,0,0:0:0:0:p4_drum_subkick_4.wav
480,192,101313,1,0,0:0:0:0:p4_drum_mainsnare_001.wav
96,192,101483,1,0,0:0:0:0:p4_drum_subkick_4.wav
96,192,101654,1,0,0:0:0:0:p4_drum_subkick_4.wav
352,192,101654,1,0,0:0:0:0:p4_synth_main_026.wav
96,192,101910,1,0,0:0:0:0:p4_drum_subkick_4.wav
480,192,101995,1,0,0:0:0:0:p4_drum_mainsnare_001.wav
96,192,102166,1,0,0:0:0:0:p4_drum_subkick_4.wav
96,192,102336,1,0,0:0:0:0:p4_drum_subkick_4.wav
96,192,102592,1,0,0:0:0:0:p4_drum_subkick_4.wav
480,192,102677,1,0,0:0:0:0:p4_drum_mainsnare_001.wav
96,192,102848,1,0,0:0:0:0:p4_drum_subkick_4.wav
96,192,103018,1,0,0:0:0:0:p4_drum_subkick_4.wav
96,192,103274,1,0,0:0:0:0:p4_drum_subkick_4.wav
480,192,103360,1,0,0:0:0:0:p4_drum_mainsnare_001.wav
96,192,103530,1,0,0:0:0:0:p4_drum_subkick_4.wav
160,192,103701,1,0,0:0:0:0:p4_drum_subkick_4.wav
352,192,103701,1,0,0:0:0:0:p4_synth_main_027.wav
160,192,103957,1,0,0:0:0:0:p4_drum_subkick_4.wav
480,192,104042,1,0,0:0:0:0:p4_drum_mainsnare_001.wav
160,192,104212,1,0,0:0:0:0:p4_drum_subkick_4.wav
160,192,104383,1,0,0:0:0:0:p4_drum_subkick_4.wav
288,192,104383,1,0,0:0:0:0:p4_synth_main_028.wav
160,192,104639,1,0,0:0:0:0:p4_drum_subkick_4.wav
480,192,104724,1,0,0:0:0:0:p4_drum_mainsnare_001.wav
160,192,104895,1,0,0:0:0:0:p4_drum_subkick_4.wav
160,192,105065,1,0,0:0:0:0:p4_drum_subkick_4.wav
160,192,105321,1,0,0:0:0:0:p4_drum_subkick_4.wav
480,192,105406,1,0,0:0:0:0:p4_drum_mainsnare_001.wav
160,192,105577,1,0,0:0:0:0:p4_drum_subkick_4.wav
160,192,105747,1,0,0:0:0:0:p4_drum_subkick_4.wav
160,192,106003,1,0,0:0:0:0:p4_drum_subkick_4.wav
480,192,106089,1,0,0:0:0:0:p4_drum_mainsnare_001.wav
160,192,106259,1,0,0:0:0:0:p4_drum_subkick_4.wav
96,192,106430,1,0,0:0:0:0:p4_synth_main_029.wav
480,192,106430,1,0,0:0:0:0:p4_drum_mainkick_6.wav
480,192,106600,1,0,0:0:0:0:p4_drum_mainkick_6.wav
480,192,106771,1,0,0:0:0:0:p4_drum_mainkick_6.wav
480,192,106941,1,0,0:0:0:0:p4_drum_mainkick_6.wav
352,192,107112,1,0,0:0:0:0:p4_synth_main_030.wav
480,192,107112,1,0,0:0:0:0:p4_drum_mainkick_6.wav
480,192,107282,1,0,0:0:0:0:p4_drum_mainkick_6.wav
480,192,107453,1,0,0:0:0:0:p4_drum_mainkick_6.wav
480,192,107624,1,0,0:0:0:0:p4_drum_mainkick_6.wav
96,192,107794,1,0,0:0:0:0:p4_drum_mainkick_6.wav
224,192,107794,1,0,0:0:0:0:p4_synth_main_031.wav
96,192,107965,1,0,0:0:0:0:p4_drum_mainkick_6.wav
96,192,108135,1,0,0:0:0:0:p4_drum_mainkick_6.wav
96,192,108306,1,0,0:0:0:0:p4_drum_mainkick_6.wav
96,192,108476,1,0,0:0:0:0:p4_drum_mainkick_6.wav
352,192,108476,1,0,0:0:0:0:p4_synth_main_032.wav
96,192,108647,1,0,0:0:0:0:p4_drum_mainkick_6.wav
96,192,108818,1,0,0:0:0:0:p4_drum_mainkick_6.wav
96,192,108988,1,0,0:0:0:0:p4_drum_mainkick_6.wav
288,192,109159,1,0,0:0:0:0:p4_synth_main_033.wav
480,192,109159,1,0,0:0:0:0:p4_drum_mainkick_6.wav
96,192,109244,1,0,0:0:0:0:p4_drum_mainkick_6.wav
480,192,109329,1,0,0:0:0:0:p4_drum_mainkick_6.wav
96,192,109414,1,0,0:0:0:0:p4_drum_mainkick_6.wav
480,192,109500,1,0,0:0:0:0:p4_drum_mainkick_6.wav
96,192,109585,1,0,0:0:0:0:p4_drum_mainkick_6.wav
480,192,109670,1,0,0:0:0:0:p4_drum_mainkick_6.wav
96,192,109756,1,0,0:0:0:0:p4_drum_mainkick_6.wav
352,192,109841,1,0,0:0:0:0:p4_synth_main_034.wav
480,192,109841,1,0,0:0:0:0:p4_drum_mainkick_6.wav
96,192,109926,1,0,0:0:0:0:p4_drum_mainkick_6.wav
480,192,110011,1,0,0:0:0:0:p4_drum_mainkick_6.wav
96,192,110097,1,0,0:0:0:0:p4_drum_mainkick_6.wav
480,192,110182,1,0,0:0:0:0:p4_drum_mainkick_6.wav
96,192,110267,1,0,0:0:0:0:p4_drum_mainkick_6.wav
480,192,110353,1,0,0:0:0:0:p4_drum_mainkick_6.wav
96,192,110438,1,0,0:0:0:0:p4_drum_mainkick_6.wav
32,192,110523,1,0,0:0:0:0:p4_drum_cym_004.wav
416,192,110523,1,0,0:0:0:0:p4_synth_main_035.wav
32,192,111205,1,0,0:0:0:0:p4_fx_misc1_004.wav
32,192,111888,1,0,0:0:0:0:p4_fx_impact1_005.wav
480,192,111888,1,0,0:0:0:0:p4_synth_main_036.wav
416,192,114133,1,0,0:0:0:0:p4_synth_main_037.wav
352,192,114389,1,0,0:0:0:0:p4_synth_main_038.wav
288,192,114617,1,0,0:0:0:0:p4_synth_main_039.wav
96,192,115981,1,0,0:0:0:0:p4_synth_main_040.wav
288,192,117346,1,0,0:0:0:0:p4_synth_main_041.wav
96,192,118028,1,0,0:0:0:0:p4_synth_main_042.wav
160,192,119392,1,0,0:0:0:0:p4_synth_main_043.wav
224,192,120075,1,0,0:0:0:0:p4_synth_main_044.wav
96,192,122804,1,0,0:0:0:0:p4_drum_subkick_4.wav
352,192,122804,1,0,0:0:0:0:p4_synth_main_045.wav
32,192,122804,1,0,0:0:0:0:p4_drum_cym_004.wav
96,192,123059,1,0,0:0:0:0:p4_drum_subkick_4.wav
416,192,123145,1,0,0:0:0:0:p4_drum_mainsnare_001.wav
96,192,123315,1,0,0:0:0:0:p4_drum_subkick_4.wav
96,192,123486,1,0,0:0:0:0:p4_drum_subkick_4.wav
288,192,123486,1,0,0:0:0:0:p4_synth_main_046.wav
96,192,123742,1,0,0:0:0:0:p4_drum_subkick_4.wav
416,192,123827,1,0,0:0:0:0:p4_drum_mainsnare_001.wav
96,192,123997,1,0,0:0:0:0:p4_drum_subkick_4.wav
96,192,124168,1,0,0:0:0:0:p4_drum_subkick_4.wav
96,192,124424,1,0,0:0:0:0:p4_drum_subkick_4.wav
416,192,124509,1,0,0:0:0:0:p4_drum_mainsnare_001.wav
96,192,124680,1,0,0:0:0:0:p4_drum_subkick_4.wav
96,192,124850,1,0,0:0:0:0:p4_drum_subkick_4.wav
224,192,124850,1,0,0:0:0:0:p4_synth_main_047.wav
96,192,125106,1,0,0:0:0:0:p4_drum_subkick_4.wav
416,192,125191,1,0,0:0:0:0:p4_drum_mainsnare_001.wav
96,192,125362,1,0,0:0:0:0:p4_drum_subkick_4.wav
160,192,125533,1,0,0:0:0:0:p4_drum_subkick_4.wav
352,192,125533,1,0,0:0:0:0:p4_synth_main_048.wav
160,192,125788,1,0,0:0:0:0:p4_drum_subkick_4.wav
480,192,125874,1,0,0:0:0:0:p4_drum_mainsnare_001.wav
160,192,126044,1,0,0:0:0:0:p4_drum_subkick_4.wav
160,192,126215,1,0,0:0:0:0:p4_drum_subkick_4.wav
352,192,126215,1,0,0:0:0:0:p4_synth_main_049.wav
160,192,126471,1,0,0:0:0:0:p4_drum_subkick_4.wav
480,192,126556,1,0,0:0:0:0:p4_drum_mainsnare_001.wav
160,192,126726,1,0,0:0:0:0:p4_drum_subkick_4.wav
160,192,126897,1,0,0:0:0:0:p4_drum_subkick_4.wav
160,192,127153,1,0,0:0:0:0:p4_drum_subkick_4.wav
480,192,127238,1,0,0:0:0:0:p4_drum_mainsnare_001.wav
160,192,127409,1,0,0:0:0:0:p4_drum_subkick_4.wav
160,192,127579,1,0,0:0:0:0:p4_drum_subkick_4.wav
160,192,127835,1,0,0:0:0:0:p4_drum_subkick_4.wav
480,192,127920,1,0,0:0:0:0:p4_drum_mainsnare_001.wav
160,192,128091,1,0,0:0:0:0:p4_drum_subkick_4.wav
96,192,128261,1,0,0:0:0:0:p4_drum_mainkick_6.wav
224,192,128261,1,0,0:0:0:0:p4_synth_main_050.wav
32,192,128261,1,0,0:0:0:0:p4_drum_cym_002.wav
96,192,128432,1,0,0:0:0:0:p4_drum_mainkick_6.wav
96,192,128603,1,0,0:0:0:0:p4_drum_mainkick_6.wav
96,192,128773,1,0,0:0:0:0:p4_drum_mainkick_6.wav
96,192,128944,1,0,0:0:0:0:p4_drum_mainkick_6.wav
416,192,128944,1,0,0:0:0:0:p4_synth_main_051.wav
96,192,129114,1,0,0:0:0:0:p4_drum_mainkick_6.wav
96,192,129285,1,0,0:0:0:0:p4_drum_mainkick_6.wav
96,192,129455,1,0,0:0:0:0:p4_drum_mainkick_6.wav
96,192,129626,1,0,0:0:0:0:p4_drum_mainkick_6.wav
352,192,129626,1,0,0:0:0:0:p4_synth_main_052.wav
96,192,129797,1,0,0:0:0:0:p4_drum_mainkick_6.wav
96,192,129967,1,0,0:0:0:0:p4_drum_mainkick_6.wav
96,192,130138,1,0,0:0:0:0:p4_drum_mainkick_6.wav
96,192,130308,1,0,0:0:0:0:p4_drum_mainkick_6.wav
480,192,130308,1,0,0:0:0:0:p4_synth_main_053.wav
96,192,130479,1,0,0:0:0:0:p4_drum_mainkick_6.wav
96,192,130649,1,0,0:0:0:0:p4_drum_mainkick_6.wav
96,192,130820,1,0,0:0:0:0:p4_drum_mainkick_6.wav
32,192,130990,128,0,132270:0:0:0:0:p4_synth_beast_002.wav
32,192,132355,1,0,0:0:0:0:p4_synth_granular_026.wav
32,192,133037,1,0,0:0:0:0:p4_synth_granular_034.wav
96,192,133719,128,0,135809:0:0:0:0:p4_synth_weapon_312.wav
224,192,133719,128,0,135809:0:0:0:0:p4_drum_mainkick_2.wav
352,192,133719,128,0,135809:0:0:0:0:p4_fx_impact1_003.wav
480,192,133719,128,0,135809:0:0:0:0:p4_synth_main_056.wav
160,192,135937,1,0,0:0:0:0:p4_drum_mainkick_3.wav
416,192,135965,1,0,0:0:0:0:p4_synth_main_057.wav
352,192,136221,1,0,0:0:0:0:p4_synth_main_058.wav
96,192,136448,1,0,0:0:0:0:p4_drum_mainkick_2.wav
288,192,136448,1,0,0:0:0:0:p4_synth_main_059.wav
32,192,136448,1,0,0:0:0:0:p4_drum_cym_004.wav
224,192,136704,1,0,0:0:0:0:p4_drum_subkick_4.wav
416,192,136790,1,0,0:0:0:0:p4_drum_mainsnare_001.wav
96,192,136960,1,0,0:0:0:0:p4_drum_subkick_4.wav
96,192,137216,1,0,0:0:0:0:p4_drum_mainkick_3.wav
416,192,137472,1,0,0:0:0:0:p4_drum_mainsnare_001.wav
224,192,137728,1,0,0:0:0:0:p4_drum_subkick_4.wav
96,192,137813,1,0,0:0:0:0:p4_drum_mainkick_2.wav
288,192,137813,1,0,0:0:0:0:p4_synth_main_060.wav
96,192,138069,1,0,0:0:0:0:p4_drum_subkick_4.wav
352,192,138154,1,0,0:0:0:0:p4_drum_mainsnare_001.wav
480,192,138154,1,0,0:0:0:0:p4_synth_weapon_330.wav
160,192,138410,1,0,0:0:0:0:p4_drum_subsnare_1_002.wav
288,192,138410,1,0,0:0:0:0:p4_synth_weapon_331.wav
352,192,138580,1,0,0:0:0:0:p4_drum_mainkick_3.wav
224,192,138666,1,0,0:0:0:0:p4_synth_weapon_333.wav
96,192,138751,1,0,0:0:0:0:p4_drum_subkick_4.wav
416,192,138836,1,0,0:0:0:0:p4_synth_weapon_335.wav
288,192,138922,1,0,0:0:0:0:p4_synth_weapon_336.wav
416,192,139007,1,0,0:0:0:0:p4_synth_weapon_337.wav
288,192,139092,1,0,0:0:0:0:p4_synth_weapon_338.wav
32,192,139177,1,0,0:0:0:0:p4_fx_impact1_004.wav
480,192,139177,1,0,0:0:0:0:p4_synth_main_061.wav
160,192,139860,1,0,0:0:0:0:p4_synth_main_062.wav
480,192,139860,1,0,0:0:0:0:p4_drum_cym_005.wav
416,192,140371,1,0,0:0:0:0:p4_drum_cym_006.wav
352,192,140883,1,0,0:0:0:0:p4_drum_cym_007.wav
224,192,141224,1,0,0:0:0:0:p4_synth_main_063.wav
480,192,141565,1,0,0:0:0:0:p4_drum_cym_002.wav
160,192,141736,1,0,0:0:0:0:p4_drum_subkick_4.wav
96,192,141906,1,0,0:0:0:0:p4_drum_mainkick_2.wav
224,192,141906,1,0,0:0:0:0:p4_synth_main_064.wav
32,192,141906,1,0,0:0:0:0:p4_drum_cym_004.wav
96,192,142162,1,0,0:0:0:0:p4_drum_subkick_4.wav
352,192,142247,1,0,0:0:0:0:p4_drum_subsnare_2_001.wav
480,192,142247,1,0,0:0:0:0:p4_drum_mainsnare_001.wav
224,192,142418,1,0,0:0:0:0:p4_drum_subkick_4.wav
416,192,142503,1,0,0:0:0:0:p4_drum_subsnare_1_002.wav
96,192,142674,1,0,0:0:0:0:p4_drum_mainkick_3.wav
160,192,142844,1,0,0:0:0:0:p4_drum_mainpercsloop_011.wav
288,192,142930,1,0,0:0:0:0:p4_drum_subsnare_2_001.wav
416,192,142930,1,0,0:0:0:0:p4_drum_mainsnare_001.wav
352,192,143100,1,0,0:0:0:0:p4_synth_weapon_348.wav
96,192,143271,1,0,0:0:0:0:p4_drum_mainkick_2.wav
224,192,143441,1,0,0:0:0:0:p4_synth_weapon_349.wav
352,192,143562,1,0,0:0:0:0:p4_synth_weapon_350.wav
416,192,143655,1,0,0:0:0:0:p4_synth_weapon_351.wav
288,192,143832,1,0,0:0:0:0:p4_synth_weapon_352.wav
160,192,143925,1,0,0:0:0:0:p4_synth_weapon_353.wav
416,192,144038,1,0,0:0:0:0:p4_synth_weapon_354.wav
288,192,144159,1,0,0:0:0:0:p4_synth_weapon_355.wav
160,192,144266,1,0,0:0:0:0:p4_synth_weapon_356.wav
480,192,144380,1,0,0:0:0:0:p4_synth_weapon_357.wav
352,192,144465,1,0,0:0:0:0:p4_synth_weapon_358.wav
480,192,144550,1,0,0:0:0:0:p4_synth_weapon_359.wav
96,192,144635,1,0,0:0:0:0:p4_drum_subsnare_2_001.wav
224,192,144721,1,0,0:0:0:0:p4_drum_subsnare_2_001.wav
352,192,144806,1,0,0:0:0:0:p4_drum_subsnare_2_001.wav
480,192,144891,1,0,0:0:0:0:p4_drum_subsnare_2_001.wav
32,192,144976,1,0,0:0:0:0:p4_drum_cym_001.wav
416,192,144976,1,0,0:0:0:0:p4_drum_mainsnare_001.wav
352,192,145318,1,0,0:0:0:0:p4_synth_subbell_005.wav
480,192,145318,1,0,0:0:0:0:p4_synth_main_066.wav
96,192,145403,1,0,0:0:0:0:p4_drum_mainkick_3.wav
416,192,145659,1,0,0:0:0:0:p4_drum_mainsnare_001.wav
224,192,145915,1,0,0:0:0:0:p4_drum_subkick_4.wav
96,192,146000,1,0,0:0:0:0:p4_drum_mainkick_2.wav
96,192,146256,1,0,0:0:0:0:p4_drum_subkick_4.wav
416,192,146341,1,0,0:0:0:0:p4_drum_mainsnare_001.wav
224,192,146512,1,0,0:0:0:0:p4_drum_subkick_4.wav
96,192,146853,1,0,0:0:0:0:p4_drum_mainkick_3.wav
352,192,146881,1,0,0:0:0:0:p4_synth_subbell_006.wav
480,192,146881,1,0,0:0:0:0:p4_synth_main_067.wav
288,192,147137,1,0,0:0:0:0:p4_synth_subbell_007.wav
416,192,147137,1,0,0:0:0:0:p4_synth_main_068.wav
160,192,147194,1,0,0:0:0:0:p4_drum_subkick_4.wav
96,192,147364,1,0,0:0:0:0:p4_drum_mainkick_2.wav
224,192,147364,1,0,0:0:0:0:p4_synth_subbell_008.wav
352,192,147364,1,0,0:0:0:0:p4_synth_main_069.wav
96,192,147620,1,0,0:0:0:0:p4_drum_subkick_4.wav
416,192,147705,1,0,0:0:0:0:p4_drum_mainsnare_001.wav
224,192,147876,1,0,0:0:0:0:p4_drum_subkick_4.wav
96,192,148132,1,0,0:0:0:0:p4_drum_mainkick_3.wav
224,192,148246,1,0,0:0:0:0:p4_synth_subbell_009.wav
416,192,148388,1,0,0:0:0:0:p4_drum_mainsnare_001.wav
288,192,148501,1,0,0:0:0:0:p4_synth_subbell_010.wav
96,192,148729,1,0,0:0:0:0:p4_drum_mainkick_2.wav
352,192,148729,1,0,0:0:0:0:p4_synth_main_070.wav
480,192,148729,1,0,0:0:0:0:p4_synth_subbell_011.wav
96,192,148985,1,0,0:0:0:0:p4_drum_subkick_4.wav
416,192,149070,1,0,0:0:0:0:p4_drum_mainsnare_001.wav
224,192,149241,1,0,0:0:0:0:p4_drum_subkick_4.wav
96,192,149496,1,0,0:0:0:0:p4_drum_mainkick_3.wav
416,192,149752,1,0,0:0:0:0:p4_drum_mainsnare_001.wav
224,192,149923,1,0,0:0:0:0:p4_drum_subkick_4.wav
96,192,150093,1,0,0:0:0:0:p4_drum_mainkick_2.wav
352,192,150093,1,0,0:0:0:0:p4_fx_impact1_007.wav
32,192,150093,1,0,0:0:0:0:p4_fx_misc2_003.wav
480,192,150776,1,0,0:0:0:0:p4_fx_misc1_006.wav
96,192,151458,1,0,0:0:0:0:p4_drum_mainkick_2.wav
352,192,151458,1,0,0:0:0:0:p4_fx_impact1_007.wav
32,192,151458,1,0,0:0:0:0:p4_fx_misc2_003.wav
480,192,152140,1,0,0:0:0:0:p4_fx_misc1_006.wav
96,192,152822,1,0,0:0:0:0:p4_drum_mainkick_2.wav
352,192,152822,1,0,0:0:0:0:p4_synth_laststr_003.wav
32,192,152822,1,0,0:0:0:0:p4_drum_cym_008.wav
224,192,153078,1,0,0:0:0:0:p4_drum_subkick_4.wav
352,192,153078,1,0,0:0:0:0:p4_synth_laststr_004.wav
32,192,153078,1,0,0:0:0:0:p4_drum_cym_008.wav
224,192,153334,1,0,0:0:0:0:p4_drum_subkick_4.wav
352,192,153334,1,0,0:0:0:0:p4_synth_laststr_005.wav
32,192,153334,1,0,0:0:0:0:p4_drum_cym_008.wav
96,192,153590,1,0,0:0:0:0:p4_drum_mainkick_3.wav
352,192,153590,1,0,0:0:0:0:p4_synth_laststr_006.wav
32,192,153590,1,0,0:0:0:0:p4_drum_cym_008.wav
224,192,153846,1,0,0:0:0:0:p4_drum_subkick_4.wav
352,192,153846,1,0,0:0:0:0:p4_synth_laststr_007.wav
32,192,153846,1,0,0:0:0:0:p4_drum_cym_008.wav
160,192,154101,1,0,0:0:0:0:p4_drum_mainkick_3.wav
32,192,154101,1,0,0:0:0:0:p4_drum_cym_009.wav
416,192,154101,1,0,0:0:0:0:p4_synth_laststr_008.wav
352,192,154272,1,0,0:0:0:0:p4_drum_mainkick_3.wav
224,192,154357,1,0,0:0:0:0:p4_drum_mainkick_3.wav
352,192,154443,1,0,0:0:0:0:p4_drum_mainkick_3.wav
224,192,154528,1,0,0:0:0:0:p4_drum_subkick_4.wav
352,192,154613,1,0,0:0:0:0:p4_drum_subkick_4.wav
224,192,154698,1,0,0:0:0:0:p4_drum_subkick_4.wav
352,192,154784,1,0,0:0:0:0:p4_drum_mainkick_3.wav
224,192,154869,1,0,0:0:0:0:p4_drum_mainkick_3.wav
352,192,154954,1,0,0:0:0:0:p4_drum_subkick_4.wav
480,192,154954,1,0,0:0:0:0:p4_synth_uplift_025.wav
96,192,155040,1,0,0:0:0:0:p4_synth_uplift_026.wav
224,192,155040,1,0,0:0:0:0:p4_drum_subkick_4.wav
352,192,155125,1,0,0:0:0:0:p4_drum_subkick_4.wav
480,192,155125,1,0,0:0:0:0:p4_synth_uplift_027.wav
96,192,155210,1,0,0:0:0:0:p4_synth_uplift_028.wav
224,192,155210,1,0,0:0:0:0:p4_drum_mainkick_6.wav
352,192,155295,1,0,0:0:0:0:p4_drum_mainkick_6.wav
480,192,155295,1,0,0:0:0:0:p4_synth_uplift_029.wav
96,192,155381,1,0,0:0:0:0:p4_synth_uplift_030.wav
224,192,155381,1,0,0:0:0:0:p4_drum_mainkick_6.wav
352,192,155466,1,0,0:0:0:0:p4_drum_mainkick_6.wav
480,192,155466,1,0,0:0:0:0:p4_synth_uplift_031.wav
