osu file format v14

[General]
AudioFilename: audio.mp3
AudioLeadIn: 0
PreviewTime: 44192
Countdown: 0
SampleSet: Normal
StackLeniency: 0.7
Mode: 1
LetterboxInBreaks: 0
WidescreenStoryboard: 0

[Editor]
Bookmarks: 67563,80538,80710,86037,86209,89560,100559,111557,136304,155465
DistanceSpacing: 2
BeatDivisor: 12
GridSize: 32
TimelineZoom: 2.4

[Metadata]
Title:Nhelv
TitleUnicode:Nhelv
Artist:Silentroom
ArtistUnicode:Silentroom
Creator:Nifty
Version:Psychoneurosis
Source:osu!
Tags:electronic instrumental BOFU2017 - LEGENDA EST A MYTH - neuro dnb katastrophe the bms of fighters ultimate 2017 fa featured artist mg mappers guild memory wave zeth [zeth] my angel ayame genjuro
BeatmapID:1940017
BeatmapSetID:928849

[Difficulty]
HPDrainRate:5
CircleSize:2
OverallDifficulty:6.5
ApproachRate:10
SliderMultiplier:1.4
SliderTickRate:1

[Events]
//Background and Video events
0,0,"nheman.jpg",0,0
//Break Periods
2,1778,12125
2,111750,120723
//Storyboard Layer 0 (Background)
//Storyboard Layer 1 (Fail)
//Storyboard Layer 2 (Pass)
//Storyboard Layer 3 (Foreground)
//Storyboard Layer 4 (Overlay)
//Storyboard Sound Samples

[TimingPoints]
204,343.662294518586,4,1,0,40,1,0
204,-200,4,1,0,40,0,0
2946,-192.307692307692,4,1,0,5,0,0
5695,-185.185185185185,4,1,0,5,0,0
8444,-178.571428571429,4,1,0,5,0,0
10849,-172.413793103448,4,1,0,5,0,0
12395,-166.666666666667,4,1,0,30,0,0
22961,-166.666666666667,4,1,0,50,0,0
23047,-166.666666666667,4,1,0,50,0,0
23133,-158.008586186573,4,1,0,50,0,0
23219,-150.205857127193,4,1,0,50,0,0
23305,-143.137282968095,4,1,0,50,0,0
23391,-136.704091690168,4,1,0,50,0,0
23477,-130.82429773517,4,1,0,50,0,0
23563,-125.429596367559,4,1,0,60,0,0
29060,-125,4,1,0,60,0,0
29404,-122.448929612682,4,1,0,60,0,0
29661,-120.602966591772,4,1,0,60,0,0
29833,-119.402985074627,4,1,0,60,0,0
29919,-118.811834133927,4,1,0,60,0,0
30005,-118.226647577004,4,1,0,60,0,0
30091,-117.647058823529,4,1,0,60,0,0
30263,-116.504899613553,4,1,0,60,0,0
30435,-115.384571005934,4,1,0,60,0,0
30778,-113.207589889657,4,1,0,60,0,0
31036,-111.627948512725,4,1,0,60,0,0
31208,-110.599037567175,4,1,0,60,0,0
31294,-110.091783519921,4,1,0,60,0,0
31379,-109.58904109589,4,1,0,60,0,0
31465,-109.090869421502,4,1,0,60,0,0
31637,-108.108108108108,4,1,0,60,0,0
31723,-107.623279776402,4,1,0,60,0,0
31809,-107.142895408177,4,1,0,60,0,0
32153,-105.263157894737,4,1,0,60,0,0
32410,-103.896103896104,4,1,0,60,0,0
32582,-103.004327211786,4,1,0,60,0,0
32668,-102.564102564103,4,1,0,60,0,0
32754,-102.127624807617,4,1,0,60,0,0
32840,-101.694949727102,4,1,0,60,0,0
33012,-100.840302238554,4,1,0,60,0,0
33183,-100,4,1,0,60,0,0
33269,-142.857142857143,4,1,0,60,0,0
34558,-100,4,1,0,60,0,0
34644,-99.4675502037593,4,1,0,60,0,0
34730,-98.9407404329251,4,1,0,60,0,0
34816,-98.4194815458551,4,1,0,60,0,0
34901,-97.9035904183714,4,1,0,60,0,0
35073,-96.8880526373412,4,1,0,60,0,0
35159,-96.3881434872459,4,1,0,60,0,0
35245,-95.8933665763671,4,1,0,60,0,0
35417,-94.9188064529601,4,1,0,60,0,0
35503,-94.4389617380546,4,1,0,60,0,0
35589,-93.9639441553487,4,1,0,60,0,0
35675,-93.4936812295541,4,1,0,60,0,0
35760,-93.0281019290307,4,1,0,60,0,0
35846,-92.5671366300193,4,1,0,60,0,0
35932,-92.1106322381686,4,1,0,60,0,0
36104,-91.2111657060611,4,1,0,60,0,0
36190,-90.7679879460112,4,1,0,60,0,0
36276,-90.3290959954402,4,1,0,60,0,0
36448,-89.4638431877757,4,1,0,60,0,0
36534,-89.0374429158694,4,1,0,60,0,0
36619,-88.6150879593363,4,1,0,60,0,0
36705,-88.1967210223058,4,1,0,60,0,0
36791,-87.7822858858374,4,1,0,60,0,0
36877,-87.3717273827362,4,1,0,60,0,0
36963,-86.9649913730728,4,1,0,60,0,0
37135,-86.1627010283518,4,1,0,60,0,0
37307,-85.3751512207366,4,1,0,60,0,0
37393,-84.9867505655868,4,1,0,60,0,0
37478,-84.6018678400382,4,1,0,60,0,0
37564,-84.2203845334317,4,1,0,60,0,0
37650,-83.8423964169113,4,1,0,60,0,0
37822,-83.0965082847219,4,1,0,60,0,0
37908,-82.7285189195986,4,1,0,60,0,0
37994,-82.3637744352728,4,1,0,60,0,0
38166,-81.6437832749444,4,1,0,60,0,0
38252,-81.2885205976982,4,1,0,60,0,0
38337,-80.9363362872398,4,1,0,60,0,0
38423,-80.5871905048949,4,1,0,60,0,0
38509,-80.2410440964658,4,1,0,60,0,0
38681,-79.557532825438,4,1,0,60,0,0
38767,-79.2201567766903,4,1,0,60,0,0
38853,-78.8856300358614,4,1,0,60,0,0
38939,-78.5539166590077,4,1,0,60,0,0
39025,-78.2249813042295,4,1,0,60,0,0
39196,-77.5752460492866,4,1,0,60,0,0
39282,-77.2544390400672,4,1,0,60,0,0
39368,-76.9362744532331,4,1,0,60,0,0
39540,-76.3077430229923,4,1,0,60,0,0
39626,-75.9973127350217,4,1,0,60,0,0
39712,-75.6893406701534,4,1,0,60,0,0
39798,-75.383911414858,4,1,0,60,0,0
39884,-75.0809372503559,4,1,0,60,0,0
39970,-74.7803886935043,4,1,0,60,0,0
40055,-74.4822367313619,4,1,0,70,0,0
40227,-73.8929542329209,4,1,0,70,0,0
40399,-73.312976763452,4,1,0,70,0,0
40571,-72.7420327470083,4,1,0,70,0,0
40657,-72.4598825860063,4,1,0,70,0,0
40743,-72.179860663997,4,1,0,70,0,0
40914,-71.6263625124809,4,1,0,70,0,0
41086,-71.081288561599,4,1,0,70,0,0
41258,-70.5444479403138,4,1,0,70,0,0
41344,-70.2790076604118,4,1,0,70,0,0
41430,-70.0156064786841,4,1,0,70,0,0
41602,-69.4946833092534,4,1,0,70,0,0
41773,-68.9814543360018,4,1,0,70,0,0
41945,-68.4757034509015,4,1,0,70,0,0
42031,-68.2256221323918,4,1,0,70,0,0
42117,-67.9773608197526,4,1,0,70,0,0
42289,-67.4862193140161,4,1,0,70,0,0
42461,-67.0020790745137,4,1,0,70,0,0
42633,-66.5248799724853,4,1,0,70,0,0
42718,-66.2888203904411,4,1,0,70,0,0
42804,-66.05443017155,4,1,0,70,0,0
42890,-65.8216483452108,4,1,0,70,0,0
42976,-65.5905444671096,4,1,0,70,0,0
43062,-65.3610577510698,4,1,0,70,0,0
43148,-65.1331712820032,4,1,0,70,0,0
43234,-64.9068683799051,4,1,0,70,0,0
43320,-64.6821325957845,4,1,0,70,0,0
43406,-64.4589477076787,4,1,0,70,0,0
43492,-64.2372564524718,4,1,0,70,0,0
43577,-64.0171258615105,4,1,0,70,0,0
43663,-63.7984988213227,4,1,0,70,0,0
43749,-63.5813599798574,4,1,0,70,0,0
43835,-63.3656941933579,4,1,0,70,0,0
43921,-63.1514865228413,4,1,0,70,0,0
44007,-62.9386826178464,4,1,0,70,0,0
44093,-62.727347429841,4,1,0,70,0,0
44179,-62.5174267327017,4,1,0,70,0,0
44694,-55.5693243992678,4,1,0,70,0,0
44751,-58.8389659875473,4,1,0,70,0,0
44809,-62.5174267327017,4,1,0,70,0,0
44866,-66.6864947844492,4,1,0,70,0,0
45561,-83.3643170711781,4,1,0,70,0,0
45895,-71.4285714285714,4,1,0,70,0,0
45952,-73.1343250835377,4,1,0,70,0,0
46010,-74.9235405268923,4,1,0,70,0,0
46067,-76.8024970027826,4,1,0,70,0,0
46153,-79.8045745578228,4,1,0,70,0,0
46239,-83.0508221200882,4,1,0,70,0,0
46325,-80,4,1,0,70,0,0
46411,-76.9230769230769,4,1,0,70,0,0
46497,-74.0740740740741,4,1,0,70,0,0
46582,-71.4285714285714,4,1,0,70,0,0
46840,-83.3333333333333,4,1,0,70,0,0
47270,-71.4285714285714,4,1,0,70,0,0
47327,-73.1343250835377,4,1,0,70,0,0
47384,-74.9235405268923,4,1,0,70,0,0
47442,-76.8024970027826,4,1,0,70,0,0
47528,-79.8045745578228,4,1,0,70,0,0
47614,-83.3333333333333,4,1,0,70,0,0
47699,-80.6451612903226,4,1,0,70,0,0
47785,-78.125,4,1,0,70,0,0
47871,-75.7575757575758,4,1,0,70,0,0
47957,-73.5294117647059,4,1,0,70,0,0
48043,-71.4285714285714,4,1,0,70,0,0
48215,-83.3333333333333,4,1,0,70,0,0
48817,-76.9230769230769,4,1,0,70,0,0
48874,-78.9473476454348,4,1,0,70,0,0
48931,-81.0811029948927,4,1,0,70,0,0
48988,-83.3333333333333,4,1,0,70,0,0
49074,-80.0653333119826,4,1,0,70,0,0
49160,-77.0440360596906,4,1,0,70,0,0
49246,-74.2424118686889,4,1,0,70,0,0
49332,-71.6374457525442,4,1,0,70,0,0
49590,-83.6177731249132,4,1,0,70,0,0
50019,-62.5,4,1,0,70,0,0
50077,-63.37412725905,4,1,0,70,0,0
50134,-64.2730524943729,4,1,0,70,0,0
50191,-65.1978461239555,4,1,0,70,0,0
50277,-66.6360141001806,4,1,0,70,0,0
50449,-69.7115267312335,4,1,0,70,0,0
50535,-71.3582835193049,4,1,0,70,0,0
50621,-73.0846700519486,4,1,0,70,0,0
50707,-74.8967174266686,4,1,0,70,0,0
50793,-76.8008454237064,4,1,0,70,0,0
50879,-78.8043178461834,4,1,0,70,0,0
50965,-80.9151830867848,4,1,0,70,0,0
51051,-83.1421756145662,4,1,0,70,0,0
51910,-76.9230769230769,4,1,0,70,0,0
51967,-78.8643533123028,4,1,0,70,0,0
52024,-80.9061488673139,4,1,0,70,0,0
52082,-83.0564784053156,4,1,0,70,0,0
52339,-71.4285714285714,4,1,0,70,0,0
52425,-72.0686958809137,4,1,0,70,0,0
52511,-72.7203973442511,4,1,0,70,0,0
52683,-74.0598655517201,4,1,0,70,0,0
52769,-74.7482479010692,4,1,0,70,0,0
52941,-76.1641886647885,4,1,0,70,0,0
53027,-76.8924382438382,4,1,0,70,0,0
53070,-77.6347486924367,4,1,0,70,0,0
53127,-77.8210116731517,4,1,0,70,0,0
53199,-78.3915312061008,4,1,0,70,0,0
53285,-79.1632758396849,4,1,0,70,0,0
53457,-80.7531360480384,4,1,0,70,0,0
53542,-81.5722562967664,4,1,0,70,0,0
53714,-83.2614509473488,4,1,0,70,0,0
53800,-71.4285714285714,4,1,0,70,0,0
53857,-73.1343250835377,4,1,0,70,0,0
53915,-74.9235405268923,4,1,0,70,0,0
53972,-76.8024970027826,4,1,0,70,0,0
54058,-79.8045745578228,4,1,0,70,0,0
54144,-83.3333333333333,4,1,0,70,0,0
54230,-81.7757104878166,4,1,0,70,0,0
54316,-80.2752477695522,4,1,0,70,0,0
54402,-78.8288554601989,4,1,0,70,0,0
54574,-76.0869399811,4,1,0,70,0,0
54659,-74.7863167963337,4,1,0,70,0,0
54745,-73.5294117647059,4,1,0,70,0,0
54831,-72.3140570572373,4,1,0,70,0,0
54889,-71.525897739424,4,1,0,70,0,0
55089,-83.4658353469466,4,1,0,70,0,0
55347,-62.5,4,1,0,70,0,0
55433,-63.7254808246842,4,1,0,70,0,0
55519,-64.9999805000058,4,1,0,70,0,0
55691,-67.7083368598092,4,1,0,70,0,0
55777,-69.1489288139437,4,1,0,70,0,0
55948,-72.2222422839562,4,1,0,70,0,0
56034,-73.8636447572324,4,1,0,70,0,0
56206,-77.3809339569205,4,1,0,70,0,0
56292,-79.2683216835323,4,1,0,70,0,0
56378,-81.2500152343779,4,1,0,70,0,0
56464,-83.3333333333333,4,1,0,70,0,0
56550,-71.4285714285714,4,1,0,70,0,0
56607,-72.4138130796726,4,1,0,70,0,0
56664,-73.4265605897621,4,1,0,70,0,0
56722,-74.4680930285205,4,1,0,70,0,0
56808,-76.0869399811,4,1,0,70,0,0
56894,-77.7777950617322,4,1,0,70,0,0
56951,-78.9473476454348,4,1,0,70,0,0
57008,-80.1526748149876,4,1,0,70,0,0
57065,-81.3953772309455,4,1,0,70,0,0
57151,-83.3333333333333,4,1,0,70,0,0
57323,-83.3333333333333,4,1,0,70,0,0
57409,-81.4176440176351,4,1,0,70,0,0
57495,-79.5879888990673,4,1,0,70,0,0
57581,-77.8388207107307,4,1,0,70,0,0
57667,-76.164884789187,4,1,0,70,0,0
57753,-74.5614296706771,4,1,0,70,0,0
57839,-73.0240424357315,4,1,0,70,0,0
57925,-71.4285714285714,4,1,0,70,0,0
58096,-72.8077053850763,4,1,0,70,0,0
58182,-73.5174651766147,4,1,0,70,0,0
58268,-74.2411992626364,4,1,0,70,0,0
58354,-74.9792682323338,4,1,0,70,0,0
58440,-75.7322169394794,4,1,0,70,0,0
58526,-76.5004414075469,4,1,0,70,0,0
58698,-78.0845546408384,4,1,0,70,0,0
58784,-78.9015017322825,4,1,0,70,0,0
58870,-79.7356603388447,4,1,0,70,0,0
58956,-80.5877100518662,4,1,0,70,0,0
59042,-81.4581663440923,4,1,0,70,0,0
59214,-83.2566678183839,4,1,0,70,0,0
59299,-71.4285714285714,4,1,0,70,0,0
59357,-72.4020689615226,4,1,0,70,0,0
59414,-73.4024147926418,4,1,0,70,0,0
59471,-74.4308459288932,4,1,0,70,0,0
59557,-76.0286293406645,4,1,0,70,0,0
59643,-77.6965158551395,4,1,0,70,0,0
59700,-78.8497399929824,4,1,0,70,0,0
59758,-80.0376497104238,4,1,0,70,0,0
59815,-81.2619658244677,4,1,0,70,0,0
59901,-83.1702503341365,4,1,0,70,0,0
60073,-83.3333333333333,4,1,0,70,0,0
60159,-81.3953772309455,4,1,0,70,0,0
60245,-79.5454455061994,4,1,0,70,0,0
60331,-77.7777950617322,4,1,0,70,0,0
60416,-76.0869399811,4,1,0,70,0,0
60502,-74.4680930285205,4,1,0,70,0,0
60588,-72.9166438802155,4,1,0,70,0,0
60674,-71.4285714285714,4,1,0,70,0,0
60846,-72.7203973442511,4,1,0,70,0,0
60932,-73.384046601805,4,1,0,70,0,0
61018,-74.0598655517201,4,1,0,70,0,0
61104,-74.7482479010692,4,1,0,70,0,0
61190,-75.4495472649916,4,1,0,70,0,0
61276,-76.1641886647885,4,1,0,70,0,0
61448,-77.6347486924367,4,1,0,70,0,0
61534,-78.3915312061008,4,1,0,70,0,0
61619,-79.1632758396849,4,1,0,70,0,0
61705,-79.9503028917225,4,1,0,70,0,0
61791,-80.7531360480384,4,1,0,70,0,0
61877,-81.5722562967664,4,1,0,70,0,0
61963,-82.4081643416577,4,1,0,70,0,0
62049,-83.2614509473488,4,1,0,70,0,0
62393,-62.5,4,1,0,70,0,0
62479,-63.34586525701,4,1,0,70,0,0
62565,-64.2149402479981,4,1,0,70,0,0
62651,-65.1081935406161,4,1,0,70,0,0
62736,-66.0266483552762,4,1,0,70,0,0
62822,-66.9713864751285,4,1,0,70,0,0
62908,-67.9435524965858,4,1,0,70,0,0
62994,-68.9443584555085,4,1,0,70,0,0
63080,-69.9750888683629,4,1,0,70,0,0
63166,-71.0371062324405,4,1,0,70,0,0
63252,-72.1318570346594,4,1,0,70,0,0
63338,-73.2608783246702,4,1,0,70,0,0
63424,-74.4258049150802,4,1,0,70,0,0
63510,-75.6283772797229,4,1,0,70,0,0
63596,-76.870450230227,4,1,0,70,0,0
63682,-78.1540024618511,4,1,0,70,0,0
63768,-79.4811470719145,4,1,0,70,0,0
63854,-80.8541431684313,4,1,0,70,0,0
63939,-82.2754087030927,4,1,0,70,0,0
64025,-83.7475346819478,4,1,0,70,0,0
64111,-85.273300929479,4,1,0,70,0,0
64197,-86.8556936078552,4,1,0,70,0,0
64283,-88.4979247236652,4,1,0,70,0,0
64369,-90.2034538902494,4,1,0,70,0,0
64455,-91.9760126558993,4,1,0,70,0,0
64541,-93.8196317579454,4,1,0,70,0,0
64627,-95.7386717216685,4,1,0,70,0,0
64713,-97.7378572929546,4,1,0,70,0,0
64799,-99.8223162770269,4,1,0,70,0,0
65142,-71.4285714285714,4,1,0,70,0,0
65314,-73.3186207301068,4,1,0,70,0,0
65486,-75.3114126914793,4,1,0,70,0,0
65572,-76.3490495306824,4,1,0,70,0,0
65744,-78.5124096714727,4,1,0,70,0,0
65830,-79.6407247624516,4,1,0,70,0,0
65916,-80.8019431251283,4,1,0,70,0,0
66002,-81.997525314686,4,1,0,70,0,0
66088,-83.229019628732,4,1,0,70,0,0
66174,-71.4285714285714,4,1,0,70,0,0
66231,-73.1707138608015,4,1,0,70,0,0
66288,-75.0000187500047,4,1,0,70,0,0
66345,-76.9230769230769,4,1,0,70,0,0
66431,-80,4,1,0,70,0,0
66517,-83.3333333333333,4,1,0,70,0,0
66861,-83.3333333333333,4,1,0,70,0,0
66947,-80,4,1,0,70,0,0
67033,-76.9230769230769,4,1,0,70,0,0
67119,-74.0740740740741,4,1,0,70,0,0
67205,-71.4285714285714,4,1,0,70,0,0
67291,-68.9655172413793,4,1,0,70,0,0
67376,-66.6666666666667,4,1,0,70,0,0
67462,-64.5161290322581,4,1,0,70,0,0
67561,-62.5,4,1,0,70,0,1
67634,-83.3333333333333,4,1,0,70,0,1
88181,-83.3333333333333,4,1,0,70,0,1
88267,-81.6413170377265,4,1,0,70,0,1
88353,-80.016579435259,4,1,0,70,0,1
88439,-78.4553091099951,4,1,0,70,0,1
88525,-76.9537400287191,4,1,0,70,0,1
88611,-75.5086261054463,4,1,0,70,0,1
88697,-74.1167323711499,4,1,0,70,0,1
88782,-72.7752779469803,4,1,0,70,0,1
88868,-71.4814677146803,4,1,0,70,0,1
88954,-70.2329063640846,4,1,0,70,0,1
89040,-69.027165641038,4,1,0,70,0,1
89126,-67.8621719288126,4,1,0,70,0,1
89212,-66.7358049606059,4,1,0,70,0,1
89298,-65.6462611828406,4,1,0,70,0,1
89384,-64.5916804623731,4,1,0,70,0,1
89470,-63.570487274142,4,1,0,70,0,1
89556,-62.581081613866,4,1,0,70,0,0
89631,-100,4,1,0,50,0,0
99341,-100,4,1,0,60,0,0
99427,-98.5997844608712,4,1,0,60,0,0
99513,-97.2382395211211,4,1,0,60,0,0
99599,-95.9136930224707,4,1,0,60,0,0
99685,-94.6248361807524,4,1,0,60,0,0
99771,-93.3701585238552,4,1,0,60,0,0
99856,-92.1483182471178,4,1,0,60,0,0
99942,-90.9580428739831,4,1,0,60,0,0
100028,-89.7981248355572,4,1,0,60,0,0
100114,-88.6673387650945,4,1,0,60,0,0
100200,-87.5647541356833,4,1,0,60,0,0
100286,-86.4892541426191,4,1,0,60,0,0
100372,-85.4398529067492,4,1,0,60,0,0
100458,-84.4156118232506,4,1,0,60,0,0
100544,-83.3333333333333,4,1,0,70,0,0
100802,-82.5964354682309,4,1,0,70,0,0
100888,-82.3536678264808,4,1,0,70,0,0
101059,-81.8723887825003,4,1,0,70,0,0
101145,-81.6339192199716,4,1,0,70,0,0
101231,-81.3967685482886,4,1,0,70,0,0
101317,-81.1609917548548,4,1,0,70,0,0
101403,-80.9265769352782,4,1,0,70,0,0
101489,-80.6935123223028,4,1,0,70,0,0
101575,-80.4618510248828,4,1,0,70,0,0
101747,-80.0023680700949,4,1,0,70,0,0
101833,-79.7745889215433,4,1,0,70,0,0
101919,-79.5481664147641,4,1,0,70,0,0
102091,-79.0990304040853,4,1,0,70,0,0
102176,-78.8763589410691,4,1,0,70,0,0
102262,-78.6549995084063,4,1,0,70,0,0
102434,-78.2158648367283,4,1,0,70,0,0
102520,-77.9981311647773,4,1,0,70,0,0
102606,-77.7816063612909,4,1,0,70,0,0
102692,-77.5663405519155,4,1,0,70,0,0
102778,-77.35220314545,4,1,0,70,0,0
102864,-77.139244822221,4,1,0,70,0,0
102950,-76.9274558705649,4,1,0,70,0,0
103036,-76.7168855399411,4,1,0,70,0,0
103122,-76.5074062994668,4,1,0,70,0,0
103293,-76.0918611384408,4,1,0,70,0,0
103551,-75.4769957438522,4,1,0,70,0,0
103637,-75.2742239980248,4,1,0,70,0,0
103809,-74.8719876191681,4,1,0,70,0,0
103895,-74.6724493011405,4,1,0,70,0,0
103981,-74.473971719254,4,1,0,70,0,0
104067,-74.2765464376968,4,1,0,70,0,0
104153,-74.0802199886213,4,1,0,70,0,0
104239,-73.8848740669264,4,1,0,70,0,0
104325,-73.6905556710041,4,1,0,70,0,0
104496,-73.304969197252,4,1,0,70,0,0
104582,-73.1137386564035,4,1,0,70,0,0
104668,-72.9234500667614,4,1,0,70,0,0
104840,-72.5458290138338,4,1,0,70,0,0
104926,-72.3585336398441,4,1,0,70,0,0
105012,-72.1721507878312,4,1,0,70,0,0
105184,-71.8022508569599,4,1,0,70,0,0
105270,-71.6187191278559,4,1,0,70,0,0
105356,-71.4361742785482,4,1,0,70,0,0
105442,-71.2545068475581,4,1,0,70,0,0
105528,-71.0737610599656,4,1,0,70,0,0
105613,-70.8939299199324,4,1,0,70,0,0
105699,-70.7150565084017,4,1,0,70,0,0
105785,-70.5370337061216,4,1,0,70,0,0
105871,-70.3599049859843,4,1,0,70,0,0
105957,-70.1836636293517,4,1,0,70,0,0
106043,-70.0083519963932,4,1,0,70,0,0
106215,-69.6602460817853,4,1,0,70,0,0
106387,-69.3155848467814,4,1,0,70,0,0
106559,-68.9743649875088,4,1,0,70,0,0
106645,-68.8049880864163,4,1,0,70,0,0
106731,-68.6364410083517,4,1,0,70,0,0
106902,-68.3018586984808,4,1,0,70,0,0
107074,-67.9704763438953,4,1,0,70,0,0
107246,-67.6423397755898,4,1,0,70,0,0
107332,-67.4794339555162,4,1,0,70,0,0
107418,-67.3173109157712,4,1,0,70,0,0
107590,-66.9954356009725,4,1,0,70,0,0
107762,-66.6765792514487,4,1,0,70,0,0
107933,-66.3607876760054,4,1,0,70,0,0
108019,-66.2039890551565,4,1,0,70,0,0
108105,-66.0479296615968,4,1,0,70,0,0
108277,-65.7380077439373,4,1,0,70,0,0
108449,-65.43102359639,4,1,0,70,0,0
108621,-65.1268508236918,4,1,0,70,0,0
108707,-64.9758647150516,4,1,0,70,0,0
108793,-64.8255350375534,4,1,0,70,0,0
108879,-64.6758993668876,4,1,0,70,0,0
108965,-64.5269529082298,4,1,0,70,0,0
109051,-64.3786909108233,4,1,0,70,0,0
109136,-64.231149923854,4,1,0,70,0,0
109222,-64.0842425819285,4,1,0,70,0,0
109308,-63.9380057096639,4,1,0,70,0,0
109394,-63.7924347275808,4,1,0,70,0,0
109480,-63.6475656079106,4,1,0,70,0,0
109566,-63.5033126503044,4,1,0,70,0,0
109652,-63.3597120934682,4,1,0,70,0,0
109738,-63.2167595215503,4,1,0,70,0,0
109824,-63.0744505584612,4,1,0,70,0,0
109910,-62.9328204728017,4,1,0,70,0,0
109996,-62.7917855786106,4,1,0,70,0,0
110082,-62.6513814003085,4,1,0,70,0,0
110168,-62.5116037164399,4,1,0,70,0,0
110511,-83.3333333333333,4,1,0,70,0,0
110597,-71.4285714285714,4,1,0,70,0,0
110683,-62.5,4,1,0,70,0,0
110769,-55.5555555555556,4,1,0,70,0,0
110863,-50,4,1,0,70,0,1
111550,-33.3333333333333,4,1,0,70,0,0
111628,-100,4,1,0,5,0,0
112917,-105.263157894737,4,1,0,5,0,0
114292,-111.111111111111,4,1,0,5,0,0
115667,-117.647058823529,4,1,0,5,0,0
117042,-125,4,1,0,5,0,0
118416,-133.333333333333,4,1,0,5,0,0
119791,-142.857142857143,4,1,0,30,0,0
121156,-142.857142857143,4,1,0,30,0,0
121242,-136.78243932331,4,1,0,30,0,0
121328,-131.20329162818,4,1,0,40,0,0
121414,-126.061437302084,4,1,0,40,0,0
121500,-121.30740266294,4,1,0,40,0,0
121586,-116.898905826241,4,1,0,40,0,0
121672,-112.799595726249,4,1,0,50,0,0
121758,-108.9779287001,4,1,0,50,0,0
121843,-105.406844066385,4,1,0,50,0,0
121929,-102.062374399491,4,1,0,50,0,0
122015,-98.9236121759139,4,1,0,60,0,0
122101,-95.9721450446223,4,1,0,60,0,0
122187,-93.1916943834298,4,1,0,60,0,0
122273,-90.5678149156134,4,1,0,60,0,0
122359,-88.0876436819578,4,1,0,70,0,0
122445,-85.7396891593309,4,1,0,70,0,0
122531,-83.3333333333333,4,1,0,70,0,0
122789,-82.5964354682309,4,1,0,70,0,0
122875,-82.3536678264808,4,1,0,70,0,0
123046,-81.8723887825003,4,1,0,70,0,0
123132,-81.6339192199716,4,1,0,70,0,0
123218,-81.3967685482886,4,1,0,70,0,0
123304,-81.1609917548548,4,1,0,70,0,0
123390,-80.9265769352782,4,1,0,70,0,0
123476,-80.6935123223028,4,1,0,70,0,0
123562,-80.4618510248828,4,1,0,70,0,0
123734,-80.0023680700949,4,1,0,70,0,0
123820,-79.7745889215433,4,1,0,70,0,0
123906,-79.5481664147641,4,1,0,70,0,0
124078,-79.0990304040853,4,1,0,70,0,0
124163,-78.8763589410691,4,1,0,70,0,0
124249,-78.6549995084063,4,1,0,70,0,0
124421,-78.2158648367283,4,1,0,70,0,0
124507,-77.9981311647773,4,1,0,70,0,0
124593,-77.7816063612909,4,1,0,70,0,0
124679,-77.5663405519155,4,1,0,70,0,0
124765,-77.35220314545,4,1,0,70,0,0
124851,-77.139244822221,4,1,0,70,0,0
124937,-76.9274558705649,4,1,0,70,0,0
125109,-76.5074062994668,4,1,0,70,0,0
125195,-76.2990679305862,4,1,0,70,0,0
125280,-76.0918611384408,4,1,0,70,0,0
125452,-75.6808628829262,4,1,0,70,0,0
125538,-75.4769957438522,4,1,0,70,0,0
125624,-75.2742239980248,4,1,0,70,0,0
125796,-74.8719876191681,4,1,0,70,0,0
125882,-74.6724493011405,4,1,0,70,0,0
125968,-74.473971719254,4,1,0,70,0,0
126054,-74.2765464376968,4,1,0,70,0,0
126140,-74.0802199886213,4,1,0,70,0,0
126226,-73.8848740669264,4,1,0,70,0,0
126312,-73.6905556710041,4,1,0,70,0,0
126483,-73.304969197252,4,1,0,70,0,0
126569,-73.1137386564035,4,1,0,70,0,0
126655,-72.9234500667614,4,1,0,70,0,0
126827,-72.5458290138338,4,1,0,70,0,0
126913,-72.3585336398441,4,1,0,70,0,0
126999,-72.1721507878312,4,1,0,70,0,0
127171,-71.8022508569599,4,1,0,70,0,0
127257,-71.6187191278559,4,1,0,70,0,0
127343,-71.4361742785482,4,1,0,70,0,0
127429,-71.2545068475581,4,1,0,70,0,0
127515,-71.0737610599656,4,1,0,70,0,0
127600,-70.8939299199324,4,1,0,70,0,0
127686,-70.7150565084017,4,1,0,70,0,0
127858,-70.3599049859843,4,1,0,70,0,0
127944,-70.1836636293517,4,1,0,70,0,0
128030,-70.0083519963932,4,1,0,70,0,0
128202,-69.6602460817853,4,1,0,70,0,0
128374,-69.3155848467814,4,1,0,70,0,0
128546,-68.9743649875088,4,1,0,70,0,0
128632,-68.8049880864163,4,1,0,70,0,0
128718,-68.6364410083517,4,1,0,70,0,0
128889,-68.3018586984808,4,1,0,70,0,0
129061,-67.9704763438953,4,1,0,70,0,0
129233,-67.6423397755898,4,1,0,70,0,0
129319,-67.4794339555162,4,1,0,70,0,0
129405,-67.3173109157712,4,1,0,70,0,0
129577,-66.9954356009725,4,1,0,70,0,0
129749,-66.6765792514487,4,1,0,70,0,0
129920,-66.3607876760054,4,1,0,70,0,0
130006,-66.2039890551565,4,1,0,70,0,0
130092,-66.0479296615968,4,1,0,70,0,0
130264,-65.7380077439373,4,1,0,70,0,0
130436,-65.43102359639,4,1,0,70,0,0
130608,-65.1268508236918,4,1,0,70,0,0
130694,-64.9758647150516,4,1,0,70,0,0
130780,-64.8255350375534,4,1,0,70,0,0
130866,-64.6758993668876,4,1,0,70,0,0
130952,-64.5269529082298,4,1,0,70,0,0
131038,-64.3786909108233,4,1,0,70,0,0
131123,-64.231149923854,4,1,0,70,0,0
131209,-64.0842425819285,4,1,0,70,0,0
131295,-63.9380057096639,4,1,0,70,0,0
131381,-63.7924347275808,4,1,0,70,0,0
131467,-63.6475656079106,4,1,0,70,0,0
131553,-63.5033126503044,4,1,0,70,0,0
131639,-63.3597120934682,4,1,0,70,0,0
131725,-63.2167595215503,4,1,0,70,0,0
131811,-63.0744505584612,4,1,0,70,0,0
131897,-62.9328204728017,4,1,0,70,0,0
131983,-62.7917855786106,4,1,0,70,0,0
132069,-62.6513814003085,4,1,0,70,0,0
132155,-62.5116037164399,4,1,0,70,0,0
132256,-25,4,1,0,70,0,0
132842,-25,4,1,0,70,0,0
133544,-40,4,1,0,70,0,1
133615,-50,4,1,0,70,0,1
134919,-76.9230769230769,4,1,0,70,0,1
135778,-71.4285714285714,4,1,0,70,0,0
135935,-74.9486414434509,4,1,0,70,0,0
136021,-76.8420971745161,4,1,0,70,0,0
136107,-78.8337026692303,4,1,0,70,0,0
136193,-80.9312925698599,4,1,0,70,0,0
136294,-83.1434890333738,4,1,0,70,0,1
137998,-71.4285714285714,4,1,0,70,0,1
138055,-73.7704676162401,4,1,0,70,0,1
138112,-76.2711929043384,4,1,0,70,0,1
138169,-78.9473476454348,4,1,0,70,0,1
138255,-83.3333333333333,4,1,0,70,0,1
138427,-83.3333333333333,4,1,0,70,0,1
138513,-81.4176440176351,4,1,0,70,0,1
138599,-79.5879888990673,4,1,0,70,0,1
138685,-77.8388207107307,4,1,0,70,0,1
138857,-74.5614296706771,4,1,0,70,0,1
138943,-73.0240424357315,4,1,0,70,0,1
139043,-71.5488245601357,4,1,0,70,0,0
139630,-125,4,1,0,70,0,0
141263,-120.886971890152,4,1,0,70,0,0
141435,-113.119100838891,4,1,0,70,0,0
141606,-106.289353633183,4,1,0,70,0,0
141792,-83.4980332038279,4,1,0,70,0,1
144528,-83.3333333333333,4,1,0,70,0,1
144614,-80.0653333119826,4,1,0,70,0,1
144700,-77.0440360596906,4,1,0,70,0,1
144786,-74.2424118686889,4,1,0,70,0,1
144872,-71.6374457525442,4,1,0,70,0,1
145129,-83.6177731249132,4,1,0,70,0,1
147277,-71.4285714285714,4,1,0,70,0,1
147335,-73.1343250835377,4,1,0,70,0,1
147392,-74.9235405268923,4,1,0,70,0,1
147449,-76.8024970027826,4,1,0,70,0,1
147535,-79.8045745578228,4,1,0,70,0,1
147621,-83.0508221200882,4,1,0,70,0,1
150040,-83.0508221200882,4,1,0,70,0,0
150371,-99.5934594983278,4,1,0,70,0,0
151402,-83.0508221200882,4,1,0,70,0,0
151746,-99.5934594983278,4,1,0,70,0,0
152777,-83.3333333333333,4,1,0,70,0,0
153035,-80.7291456434517,4,1,0,70,0,0
153292,-78.2828500280644,4,1,0,70,0,0
153550,-75.9803940191273,4,1,0,70,0,0
153808,-73.8095079932007,4,1,0,70,0,0
154066,-71.7592791923924,4,1,0,70,0,0
154237,-70.454537448348,4,1,0,70,0,0
154323,-69.8198229648569,4,1,0,70,0,0
154409,-69.1964424724996,4,1,0,70,0,0
154495,-68.5840480362672,4,1,0,70,0,0
154581,-67.9824442136063,4,1,0,70,0,0
154667,-67.3913028827978,4,1,0,70,0,0
154753,-66.810353466856,4,1,0,70,0,0
154839,-66.2393346391314,4,1,0,70,0,0
154925,-65.6779507953928,4,1,0,70,0,0
155011,-65.1260449473912,4,1,0,70,0,0
155097,-64.5833373697919,4,1,0,70,0,0
155183,-64.0496000102479,4,1,0,70,0,0
155269,-63.524571939672,4,1,0,70,0,0
155355,-63.0081211167307,4,1,0,70,0,0
155440,-62.5,4,1,0,70,0,0

[HitObjects]
229,293,1578,5,4,0:0:0:0:
286,165,12575,5,0,0:0:0:0:
286,165,12919,1,0,0:0:0:0:
275,148,13434,1,0,0:0:0:0:
286,165,13778,1,0,0:0:0:0:
286,165,13950,1,0,0:0:0:0:
289,159,14294,1,0,0:0:0:0:
303,151,14809,1,0,0:0:0:0:
303,151,15239,1,0,0:0:0:0:
303,151,15325,1,0,0:0:0:0:
303,151,15668,1,0,0:0:0:0:
303,151,16699,1,0,0:0:0:0:
303,151,17043,1,0,0:0:0:0:
303,151,17558,1,0,0:0:0:0:
303,151,18074,1,0,0:0:0:0:
303,151,18418,1,0,0:0:0:0:
303,151,18933,1,0,0:0:0:0:
303,151,19277,1,0,0:0:0:0:
303,151,19449,1,0,0:0:0:0:
303,151,19792,1,0,0:0:0:0:
303,151,20308,1,0,0:0:0:0:
303,151,20737,1,0,0:0:0:0:
303,151,20823,1,0,0:0:0:0:
298,145,21167,1,0,0:0:0:0:
303,151,21511,1,8,0:0:0:0:
298,145,21854,1,8,0:0:0:0:
298,145,22198,1,0,0:0:0:0:
298,145,22542,1,0,0:0:0:0:
298,145,22885,1,8,0:0:0:0:
298,145,23057,1,0,0:0:0:0:
298,145,23143,1,0,0:0:0:0:
329,150,23229,1,8,0:0:0:0:
322,148,23315,1,8,0:0:0:0:
322,148,23401,1,8,0:0:0:0:
320,147,23487,1,8,0:0:0:0:
309,144,23573,1,4,0:0:0:0:
306,141,23916,1,8,0:0:0:0:
309,141,24174,1,0,0:0:0:0:
312,139,24346,1,8,0:0:0:0:
312,139,24432,1,0,0:0:0:0:
317,131,24518,1,8,0:0:0:0:
309,144,24604,1,8,0:0:0:0:
306,141,24775,1,0,0:0:0:0:
306,141,24947,1,0,0:0:0:0:
312,139,25291,1,8,0:0:0:0:
309,144,25549,1,0,0:0:0:0:
306,141,25720,1,8,0:0:0:0:
306,141,25806,1,0,0:0:0:0:
306,141,25892,1,0,0:0:0:0:
306,141,25978,1,8,0:0:0:0:
312,139,26150,1,8,0:0:0:0:
312,139,26236,1,8,0:0:0:0:
312,139,26322,1,0,0:0:0:0:
306,141,26665,1,8,0:0:0:0:
306,141,26923,1,0,0:0:0:0:
312,139,27095,1,8,0:0:0:0:
312,139,27181,1,0,0:0:0:0:
312,139,27267,1,8,0:0:0:0:
312,139,27353,1,8,0:0:0:0:
306,141,27525,1,0,0:0:0:0:
306,141,27696,1,0,0:0:0:0:
312,139,28040,1,8,0:0:0:0:
312,139,28298,1,0,0:0:0:0:
313,139,28470,1,8,0:0:0:0:
313,139,28556,1,0,0:0:0:0:
306,141,28642,1,0,0:0:0:0:
313,139,28727,1,8,0:0:0:0:
312,139,28899,1,0,0:0:0:0:
312,139,29071,1,0,0:0:0:0:
313,139,29415,1,8,0:0:0:0:
313,139,29673,1,0,0:0:0:0:
312,139,29844,1,8,0:0:0:0:
312,139,29930,1,0,0:0:0:0:
312,139,30016,1,8,0:0:0:0:
312,139,30102,1,8,0:0:0:0:
313,139,30274,1,0,0:0:0:0:
313,139,30446,1,0,0:0:0:0:
312,139,30789,1,8,0:0:0:0:
312,139,31047,1,0,0:0:0:0:
313,139,31219,1,8,0:0:0:0:
313,139,31305,1,0,0:0:0:0:
313,139,31391,1,0,0:0:0:0:
313,139,31477,1,8,0:0:0:0:
312,139,31649,1,8,0:0:0:0:
312,139,31735,1,8,0:0:0:0:
312,139,31820,1,0,0:0:0:0:
313,139,32164,1,8,0:0:0:0:
313,139,32422,1,0,0:0:0:0:
312,139,32594,1,8,0:0:0:0:
312,139,32680,1,0,0:0:0:0:
312,139,32766,1,8,0:0:0:0:
312,139,32851,1,8,0:0:0:0:
313,139,33023,1,0,0:0:0:0:
313,139,33195,1,0,0:0:0:0:
312,139,33539,1,8,0:0:0:0:
312,139,33796,1,0,0:0:0:0:
313,139,33968,1,8,0:0:0:0:
313,139,34140,1,0,0:0:0:0:
313,139,34226,1,8,0:0:0:0:
312,139,34570,1,0,0:0:0:0:
312,139,34656,1,0,0:0:0:0:
312,139,34742,1,8,0:0:0:0:
312,139,34827,1,0,0:0:0:0:
313,139,34913,1,8,0:0:0:0:
313,139,35085,1,0,0:0:0:0:
313,139,35171,1,8,0:0:0:0:
313,139,35257,1,0,0:0:0:0:
312,139,35429,1,8,0:0:0:0:
312,139,35515,1,0,0:0:0:0:
312,139,35601,1,8,0:0:0:0:
312,139,35687,1,8,0:0:0:0:
312,139,35773,1,0,0:0:0:0:
312,139,35858,1,8,0:0:0:0:
313,139,35944,1,0,0:0:0:0:
305,141,36116,1,0,0:0:0:0:
303,142,36202,1,0,0:0:0:0:
303,142,36288,1,8,0:0:0:0:
303,142,36460,1,0,0:0:0:0:
287,141,36546,1,8,0:0:0:0:
289,141,36632,1,0,0:0:0:0:
305,143,36718,1,0,0:0:0:0:
305,143,36804,1,8,0:0:0:0:
304,143,36889,1,0,0:0:0:0:
304,143,36975,1,8,0:0:0:0:
305,141,37147,1,0,0:0:0:0:
303,142,37319,1,0,0:0:0:0:
303,142,37405,1,8,0:0:0:0:
303,142,37491,1,8,0:0:0:0:
304,143,37577,1,0,0:0:0:0:
304,143,37663,1,8,0:0:0:0:
305,143,37835,1,0,0:0:0:0:
304,143,37920,1,8,0:0:0:0:
304,143,38006,1,0,0:0:0:0:
305,141,38178,1,8,0:0:0:0:
303,142,38264,1,0,0:0:0:0:
303,142,38350,1,8,0:0:0:0:
303,142,38436,1,0,0:0:0:0:
303,142,38522,1,0,0:0:0:0:
304,143,38694,1,0,0:0:0:0:
305,143,38780,1,8,0:0:0:0:
305,143,38866,1,0,0:0:0:0:
304,143,38951,1,0,0:0:0:0:
304,143,39037,1,8,0:0:0:0:
305,141,39209,1,0,0:0:0:0:
303,142,39295,1,8,0:0:0:0:
303,142,39381,1,0,0:0:0:0:
303,142,39553,1,8,0:0:0:0:
304,143,39639,1,0,0:0:0:0:
304,143,39725,1,8,0:0:0:0:
305,143,39811,1,8,0:0:0:0:
305,143,39896,1,0,0:0:0:0:
304,143,39982,1,8,0:0:0:0:
304,143,40068,1,0,0:0:0:0:
305,141,40240,1,8,0:0:0:0:
312,136,40412,1,0,0:0:0:0:
292,138,40584,1,8,0:0:0:0:
314,128,40670,1,0,0:0:0:0:
306,133,40756,1,8,0:0:0:0:
306,133,40927,1,0,0:0:0:0:
306,133,41099,1,8,0:0:0:0:
306,133,41271,1,0,0:0:0:0:
312,136,41357,1,8,0:0:0:0:
312,136,41443,1,0,0:0:0:0:
302,132,41615,1,8,0:0:0:0:
306,133,41787,1,0,0:0:0:0:
306,133,41958,1,8,0:0:0:0:
306,133,42044,1,0,0:0:0:0:
306,133,42130,1,8,0:0:0:0:
306,133,42302,1,0,0:0:0:0:
302,132,42474,1,8,0:0:0:0:
302,132,42646,1,0,0:0:0:0:
306,133,42732,1,8,0:0:0:0:
306,133,42818,1,0,0:0:0:0:
306,133,42904,1,0,0:0:0:0:
306,133,42989,1,8,0:0:0:0:
306,133,43075,1,8,0:0:0:0:
306,133,43161,1,0,0:0:0:0:
306,133,43247,1,0,0:0:0:0:
306,133,43333,1,8,0:0:0:0:
302,132,43419,1,0,0:0:0:0:
302,132,43505,1,8,0:0:0:0:
302,132,43591,1,8,0:0:0:0:
302,132,43677,1,0,0:0:0:0:
306,133,43763,1,0,0:0:0:0:
306,133,43849,1,8,0:0:0:0:
306,133,43935,1,8,0:0:0:0:
306,133,44020,1,0,0:0:0:0:
306,133,44106,1,8,0:0:0:0:
306,133,44192,1,0,0:0:0:0:
311,127,44708,1,0,0:0:0:0:
308,115,44765,1,0,0:0:0:0:
308,115,44822,1,8,0:0:0:0:
307,115,44880,1,0,0:0:0:0:
311,127,45567,1,0,0:0:0:0:
301,122,45825,1,0,0:0:0:0:
301,122,45911,1,8,0:0:0:0:
315,119,45968,1,8,0:0:0:0:
313,116,46025,1,0,0:0:0:0:
311,111,46082,1,0,0:0:0:0:
291,109,46168,1,8,0:0:0:0:
307,112,46254,1,0,0:0:0:0:
307,112,46340,1,8,0:0:0:0:
307,112,46426,1,0,0:0:0:0:
307,112,46512,1,0,0:0:0:0:
307,114,46598,1,8,0:0:0:0:
306,111,46856,1,0,0:0:0:0:
306,111,46942,1,0,0:0:0:0:
311,111,47113,1,8,0:0:0:0:
305,110,47199,1,0,0:0:0:0:
307,112,47285,1,8,0:0:0:0:
307,112,47343,1,8,0:0:0:0:
313,108,47400,1,8,0:0:0:0:
300,115,47457,1,0,0:0:0:0:
300,115,47543,1,0,0:0:0:0:
307,114,47629,1,8,0:0:0:0:
285,146,47715,1,8,0:0:0:0:
300,115,47801,1,0,0:0:0:0:
300,115,47887,1,0,0:0:0:0:
300,115,47973,1,8,0:0:0:0:
300,115,48058,1,0,0:0:0:0:
300,115,48230,1,8,0:0:0:0:
300,115,48316,1,0,0:0:0:0:
313,108,48488,1,0,0:0:0:0:
308,109,48574,1,0,0:0:0:0:
307,114,48660,1,8,0:0:0:0:
321,103,48832,1,0,0:0:0:0:
297,106,48889,1,0,0:0:0:0:
301,105,48946,1,8,0:0:0:0:
304,107,49004,1,8,0:0:0:0:
316,101,49089,1,0,0:0:0:0:
316,106,49175,1,0,0:0:0:0:
304,101,49261,1,0,0:0:0:0:
301,102,49347,1,8,0:0:0:0:
266,83,49605,1,0,0:0:0:0:
288,104,49691,1,0,0:0:0:0:
295,110,49863,1,0,0:0:0:0:
295,110,49949,1,0,0:0:0:0:
295,110,50035,1,8,0:0:0:0:
262,109,50092,1,8,0:0:0:0:
276,108,50149,1,0,0:0:0:0:
276,108,50206,1,0,0:0:0:0:
285,103,50292,1,8,0:0:0:0:
285,102,50464,1,8,0:0:0:0:
300,95,50550,1,0,0:0:0:0:
282,102,50636,1,0,0:0:0:0:
288,104,50722,1,8,0:0:0:0:
282,86,50808,1,0,0:0:0:0:
282,86,50894,1,0,0:0:0:0:
282,86,50980,1,8,0:0:0:0:
272,112,51066,1,0,0:0:0:0:
276,108,51151,1,8,0:0:0:0:
272,111,51323,1,0,0:0:0:0:
271,111,51409,1,8,0:0:0:0:
269,105,51495,1,8,0:0:0:0:
269,105,51581,1,0,0:0:0:0:
259,125,51638,1,0,0:0:0:0:
273,98,51753,1,8,0:0:0:0:
263,108,51839,1,0,0:0:0:0:
263,108,51925,1,8,0:0:0:0:
264,99,51982,1,8,0:0:0:0:
262,100,52039,1,0,0:0:0:0:
262,100,52097,1,0,0:0:0:0:
261,107,52354,1,8,0:0:0:0:
261,107,52440,1,0,0:0:0:0:
261,107,52526,1,8,0:0:0:0:
261,107,52698,1,0,0:0:0:0:
261,107,52784,1,8,0:0:0:0:
263,108,52956,1,0,0:0:0:0:
250,103,53042,1,8,0:0:0:0:
249,122,53099,1,8,0:0:0:0:
250,122,53156,1,8,0:0:0:0:
287,98,53213,1,0,0:0:0:0:
261,107,53299,1,0,0:0:0:0:
261,107,53471,1,8,0:0:0:0:
261,107,53557,1,0,0:0:0:0:
261,107,53729,1,8,0:0:0:0:
261,107,53815,1,0,0:0:0:0:
263,108,53872,1,0,0:0:0:0:
263,108,53929,1,0,0:0:0:0:
263,108,53987,1,8,0:0:0:0:
259,111,54073,1,0,0:0:0:0:
275,118,54158,1,8,0:0:0:0:
257,110,54244,1,0,0:0:0:0:
271,113,54330,1,0,0:0:0:0:
261,107,54416,1,8,0:0:0:0:
261,107,54588,1,8,0:0:0:0:
261,107,54674,1,0,0:0:0:0:
261,107,54760,1,0,0:0:0:0:
269,105,54846,1,8,0:0:0:0:
254,100,54903,1,0,0:0:0:0:
259,99,55104,1,0,0:0:0:0:
259,99,55189,1,0,0:0:0:0:
253,97,55361,1,8,0:0:0:0:
261,107,55447,1,0,0:0:0:0:
261,107,55533,1,8,0:0:0:0:
266,100,55705,1,0,0:0:0:0:
266,100,55791,1,8,0:0:0:0:
266,100,55963,1,0,0:0:0:0:
266,100,56049,1,0,0:0:0:0:
265,94,56220,1,8,0:0:0:0:
267,96,56306,1,0,0:0:0:0:
267,96,56392,1,0,0:0:0:0:
267,96,56478,1,0,0:0:0:0:
259,94,56564,1,8,0:0:0:0:
273,96,56621,1,0,0:0:0:0:
272,96,56679,1,8,0:0:0:0:
272,96,56736,1,0,0:0:0:0:
270,94,56822,1,0,0:0:0:0:
270,94,56908,1,8,0:0:0:0:
272,90,56965,1,8,0:0:0:0:
270,92,57022,1,0,0:0:0:0:
270,93,57080,1,0,0:0:0:0:
276,93,57166,1,8,0:0:0:0:
276,95,57337,1,8,0:0:0:0:
276,95,57423,1,0,0:0:0:0:
276,96,57509,1,0,0:0:0:0:
276,96,57595,1,8,0:0:0:0:
272,96,57681,1,8,0:0:0:0:
272,96,57767,1,0,0:0:0:0:
269,102,57853,1,8,0:0:0:0:
269,102,57939,1,0,0:0:0:0:
269,102,58111,1,0,0:0:0:0:
259,113,58197,1,0,0:0:0:0:
265,108,58282,1,8,0:0:0:0:
268,109,58368,1,0,0:0:0:0:
268,109,58454,1,0,0:0:0:0:
268,109,58540,1,8,0:0:0:0:
268,109,58712,1,8,0:0:0:0:
268,109,58798,1,0,0:0:0:0:
268,109,58884,1,8,0:0:0:0:
268,109,58970,1,8,0:0:0:0:
268,109,59056,1,0,0:0:0:0:
268,109,59227,1,8,0:0:0:0:
265,108,59313,1,0,0:0:0:0:
278,96,59371,1,0,0:0:0:0:
268,109,59428,1,8,0:0:0:0:
268,109,59485,1,8,0:0:0:0:
268,109,59571,1,0,0:0:0:0:
268,109,59657,1,8,0:0:0:0:
278,98,59714,1,8,0:0:0:0:
273,101,59772,1,0,0:0:0:0:
268,109,59829,1,0,0:0:0:0:
268,109,59915,1,8,0:0:0:0:
268,109,60087,1,8,0:0:0:0:
268,109,60173,1,0,0:0:0:0:
268,109,60258,1,0,0:0:0:0:
272,108,60344,1,8,0:0:0:0:
258,111,60430,1,0,0:0:0:0:
268,109,60516,1,8,0:0:0:0:
268,109,60602,1,0,0:0:0:0:
268,109,60688,1,0,0:0:0:0:
268,109,60860,1,0,0:0:0:0:
268,109,60946,1,8,0:0:0:0:
268,109,61032,1,8,0:0:0:0:
268,109,61118,1,0,0:0:0:0:
268,109,61204,1,0,0:0:0:0:
272,108,61289,1,8,0:0:0:0:
268,109,61461,1,8,0:0:0:0:
268,109,61547,1,8,0:0:0:0:
284,98,61633,1,0,0:0:0:0:
268,109,61719,1,8,0:0:0:0:
268,109,61805,1,0,0:0:0:0:
268,109,61891,1,0,0:0:0:0:
268,109,61977,1,8,0:0:0:0:
268,109,62063,1,0,0:0:0:0:
270,100,62235,1,0,0:0:0:0:
269,101,62406,1,8,0:0:0:0:
271,91,62492,1,8,0:0:0:0:
272,95,62578,1,0,0:0:0:0:
271,91,62664,1,8,0:0:0:0:
272,95,62750,1,0,0:0:0:0:
272,95,62836,1,8,0:0:0:0:
272,95,62922,1,0,0:0:0:0:
277,91,63008,1,0,0:0:0:0:
279,100,63094,1,8,0:0:0:0:
279,100,63180,1,0,0:0:0:0:
279,100,63266,1,8,0:0:0:0:
270,88,63351,1,0,0:0:0:0:
279,100,63437,1,0,0:0:0:0:
279,100,63523,1,8,0:0:0:0:
279,100,63609,1,8,0:0:0:0:
277,90,63695,1,0,0:0:0:0:
277,90,63781,1,8,0:0:0:0:
279,100,63867,1,8,0:0:0:0:
277,91,63953,1,0,0:0:0:0:
278,91,64039,1,8,0:0:0:0:
275,81,64125,1,0,0:0:0:0:
279,100,64211,1,0,0:0:0:0:
275,81,64297,1,8,0:0:0:0:
283,85,64382,1,0,0:0:0:0:
277,90,64468,1,8,0:0:0:0:
290,94,64554,1,8,0:0:0:0:
277,90,64640,1,0,0:0:0:0:
277,90,64726,1,8,0:0:0:0:
277,90,64812,1,0,0:0:0:0:
277,91,64898,1,0,0:0:0:0:
277,91,65070,1,0,0:0:0:0:
277,90,65156,1,8,0:0:0:0:
290,94,65328,1,8,0:0:0:0:
290,94,65499,1,0,0:0:0:0:
290,94,65585,1,8,0:0:0:0:
290,94,65757,1,0,0:0:0:0:
290,94,65843,1,8,0:0:0:0:
290,94,65929,1,8,0:0:0:0:
290,94,66015,1,0,0:0:0:0:
290,94,66101,1,0,0:0:0:0:
290,94,66187,1,8,0:0:0:0:
290,94,66244,1,8,0:0:0:0:
480,248,66301,1,8,0:0:0:0:
290,94,66358,1,0,0:0:0:0:
309,97,66444,1,0,0:0:0:0:
300,102,66530,1,8,0:0:0:0:
302,93,66702,1,0,0:0:0:0:
302,93,66788,1,0,0:0:0:0:
329,101,66874,1,8,0:0:0:0:
329,101,66960,1,8,0:0:0:0:
329,101,67046,1,8,0:0:0:0:
329,101,67132,1,8,0:0:0:0:
329,101,67218,1,8,0:0:0:0:
329,101,67304,1,8,0:0:0:0:
329,101,67389,1,8,0:0:0:0:
329,101,67475,1,8,0:0:0:0:
313,100,67561,1,4,0:0:0:0:
321,97,67905,1,8,0:0:0:0:
322,96,68077,1,0,0:0:0:0:
322,96,68163,1,8,0:0:0:0:
322,96,68335,1,8,0:0:0:0:
322,96,68420,1,0,0:0:0:0:
322,96,68506,1,0,0:0:0:0:
322,96,68592,1,8,0:0:0:0:
321,97,68678,1,0,0:0:0:0:
321,97,68764,1,8,0:0:0:0:
321,97,68850,1,8,0:0:0:0:
321,97,68936,1,0,0:0:0:0:
322,96,69022,1,8,0:0:0:0:
322,96,69108,1,0,0:0:0:0:
322,96,69194,1,0,0:0:0:0:
322,96,69280,1,8,0:0:0:0:
322,96,69366,1,8,0:0:0:0:
322,96,69451,1,0,0:0:0:0:
322,96,69537,1,8,0:0:0:0:
313,101,69709,1,0,0:0:0:0:
313,101,69795,1,8,0:0:0:0:
313,101,69881,1,0,0:0:0:0:
313,101,69967,1,8,0:0:0:0:
313,101,70053,1,0,0:0:0:0:
322,96,70139,1,0,0:0:0:0:
313,101,70225,1,8,0:0:0:0:
313,101,70311,1,0,0:0:0:0:
309,102,70397,1,8,0:0:0:0:
309,102,70482,1,0,0:0:0:0:
313,101,70568,1,0,0:0:0:0:
313,101,70654,1,8,0:0:0:0:
313,101,70740,1,8,0:0:0:0:
313,101,70826,1,0,0:0:0:0:
304,104,70912,1,8,0:0:0:0:
304,104,70998,1,0,0:0:0:0:
304,104,71084,1,8,0:0:0:0:
309,106,71170,1,0,0:0:0:0:
306,106,71256,1,0,0:0:0:0:
313,101,71342,1,8,0:0:0:0:
309,102,71428,1,0,0:0:0:0:
309,102,71513,1,8,0:0:0:0:
304,104,71599,1,0,0:0:0:0:
304,104,71685,1,0,0:0:0:0:
305,106,71771,1,8,0:0:0:0:
305,106,71857,1,8,0:0:0:0:
304,104,71943,1,0,0:0:0:0:
304,104,72029,1,8,0:0:0:0:
304,104,72115,1,0,0:0:0:0:
302,100,72201,1,0,0:0:0:0:
306,106,72287,1,8,0:0:0:0:
302,100,72373,1,0,0:0:0:0:
309,102,72458,1,8,0:0:0:0:
304,104,72544,1,8,0:0:0:0:
304,104,72630,1,0,0:0:0:0:
304,104,72716,1,8,0:0:0:0:
305,106,72802,1,0,0:0:0:0:
305,106,72888,1,0,0:0:0:0:
309,116,72974,1,8,0:0:0:0:
304,104,73060,1,0,0:0:0:0:
306,106,73318,1,0,0:0:0:0:
304,104,73404,1,8,0:0:0:0:
305,109,73489,1,0,0:0:0:0:
304,104,73575,1,8,0:0:0:0:
304,104,73661,1,8,0:0:0:0:
304,104,73747,1,0,0:0:0:0:
305,106,73833,1,8,0:0:0:0:
305,106,73919,1,0,0:0:0:0:
305,109,74005,1,0,0:0:0:0:
304,104,74091,1,8,0:0:0:0:
306,106,74177,1,0,0:0:0:0:
306,106,74263,1,8,0:0:0:0:
301,123,74349,1,8,0:0:0:0:
304,104,74435,1,0,0:0:0:0:
305,109,74520,1,8,0:0:0:0:
304,104,74606,1,0,0:0:0:0:
304,104,74692,1,0,0:0:0:0:
304,104,74778,1,8,0:0:0:0:
305,106,74864,1,8,0:0:0:0:
305,106,74950,1,0,0:0:0:0:
305,109,75036,1,8,0:0:0:0:
306,106,75208,1,8,0:0:0:0:
306,106,75294,1,0,0:0:0:0:
306,106,75380,1,0,0:0:0:0:
304,104,75466,1,8,0:0:0:0:
305,109,75551,1,8,0:0:0:0:
304,104,75637,1,0,0:0:0:0:
300,121,75723,1,8,0:0:0:0:
304,104,75809,1,0,0:0:0:0:
305,106,75895,1,0,0:0:0:0:
305,106,75981,1,8,0:0:0:0:
305,109,76067,1,0,0:0:0:0:
304,104,76153,1,8,0:0:0:0:
306,106,76239,1,0,0:0:0:0:
306,106,76325,1,0,0:0:0:0:
306,106,76411,1,8,0:0:0:0:
304,104,76497,1,0,0:0:0:0:
305,109,76582,1,8,0:0:0:0:
304,104,76668,1,0,0:0:0:0:
304,105,76754,1,0,0:0:0:0:
304,104,76840,1,8,0:0:0:0:
305,106,76926,1,0,0:0:0:0:
305,106,77012,1,8,0:0:0:0:
305,109,77098,1,0,0:0:0:0:
304,104,77184,1,8,0:0:0:0:
306,106,77270,1,0,0:0:0:0:
306,106,77356,1,0,0:0:0:0:
306,106,77442,1,0,0:0:0:0:
304,104,77528,1,8,0:0:0:0:
305,109,77613,1,0,0:0:0:0:
304,104,77699,1,0,0:0:0:0:
304,105,77785,1,8,0:0:0:0:
304,104,77871,1,0,0:0:0:0:
305,106,77957,1,8,0:0:0:0:
305,106,78043,1,0,0:0:0:0:
305,109,78129,1,0,0:0:0:0:
304,104,78215,1,8,0:0:0:0:
306,106,78301,1,8,0:0:0:0:
306,106,78387,1,8,0:0:0:0:
303,119,78473,1,8,0:0:0:0:
304,104,78559,1,0,0:0:0:0:
314,106,78816,1,0,0:0:0:0:
304,104,78902,1,8,0:0:0:0:
305,106,78988,1,0,0:0:0:0:
305,106,79074,1,0,0:0:0:0:
305,109,79160,1,8,0:0:0:0:
299,109,79246,1,0,0:0:0:0:
299,109,79332,1,8,0:0:0:0:
299,109,79418,1,0,0:0:0:0:
299,109,79504,1,0,0:0:0:0:
304,104,79589,1,8,0:0:0:0:
299,109,79675,1,8,0:0:0:0:
299,109,79761,1,0,0:0:0:0:
299,109,79847,1,0,0:0:0:0:
299,109,79933,1,8,0:0:0:0:
305,106,80019,1,0,0:0:0:0:
305,106,80105,1,0,0:0:0:0:
305,109,80191,1,0,0:0:0:0:
304,104,80277,1,8,0:0:0:0:
299,109,80363,1,8,0:0:0:0:
299,109,80449,1,0,0:0:0:0:
299,109,80535,1,8,0:0:0:0:
299,109,80706,1,0,0:0:0:0:
299,109,80792,1,8,0:0:0:0:
299,109,80878,1,0,0:0:0:0:
304,104,80964,1,8,0:0:0:0:
307,130,81050,1,8,0:0:0:0:
298,110,81136,1,0,0:0:0:0:
303,119,81222,1,8,0:0:0:0:
296,107,81308,1,0,0:0:0:0:
299,109,81394,1,0,0:0:0:0:
299,109,81480,1,8,0:0:0:0:
299,109,81566,1,0,0:0:0:0:
304,104,81651,1,8,0:0:0:0:
299,109,81737,1,8,0:0:0:0:
299,109,81823,1,0,0:0:0:0:
299,109,81909,1,8,0:0:0:0:
295,108,81995,1,0,0:0:0:0:
298,110,82081,1,8,0:0:0:0:
298,110,82167,1,0,0:0:0:0:
295,108,82253,1,0,0:0:0:0:
304,104,82339,1,8,0:0:0:0:
299,109,82425,1,8,0:0:0:0:
299,109,82511,1,0,0:0:0:0:
299,109,82597,1,0,0:0:0:0:
295,108,82682,1,8,0:0:0:0:
299,109,82768,1,0,0:0:0:0:
299,109,82854,1,8,0:0:0:0:
299,109,82940,1,0,0:0:0:0:
304,104,83026,1,8,0:0:0:0:
298,110,83112,1,8,0:0:0:0:
298,110,83198,1,0,0:0:0:0:
295,108,83284,1,8,0:0:0:0:
295,108,83370,1,0,0:0:0:0:
299,109,83456,1,8,0:0:0:0:
299,109,83542,1,0,0:0:0:0:
299,109,83628,1,0,0:0:0:0:
317,91,83713,1,8,0:0:0:0:
299,109,83799,1,8,0:0:0:0:
299,109,83885,1,0,0:0:0:0:
303,119,83971,1,8,0:0:0:0:
295,108,84057,1,0,0:0:0:0:
295,108,84315,1,0,0:0:0:0:
304,102,84401,1,8,0:0:0:0:
299,109,84487,1,0,0:0:0:0:
292,111,84573,1,0,0:0:0:0:
292,111,84659,1,8,0:0:0:0:
292,111,84744,1,0,0:0:0:0:
292,111,84830,1,8,0:0:0:0:
292,113,84916,1,8,0:0:0:0:
292,113,85002,1,0,0:0:0:0:
304,102,85088,1,8,0:0:0:0:
295,108,85174,1,0,0:0:0:0:
295,108,85260,1,8,0:0:0:0:
317,124,85346,1,8,0:0:0:0:
292,113,85432,1,0,0:0:0:0:
294,115,85518,1,8,0:0:0:0:
292,111,85604,1,0,0:0:0:0:
292,111,85689,1,0,0:0:0:0:
304,102,85775,1,8,0:0:0:0:
292,111,85861,1,8,0:0:0:0:
292,113,85947,1,0,0:0:0:0:
292,113,86033,1,8,0:0:0:0:
291,114,86205,1,8,0:0:0:0:
291,114,86291,1,0,0:0:0:0:
291,114,86377,1,0,0:0:0:0:
304,102,86463,1,8,0:0:0:0:
294,115,86549,1,8,0:0:0:0:
292,111,86635,1,0,0:0:0:0:
303,119,86720,1,8,0:0:0:0:
285,109,86806,1,0,0:0:0:0:
285,109,86892,1,0,0:0:0:0:
285,109,86978,1,8,0:0:0:0:
285,109,87064,1,0,0:0:0:0:
304,102,87150,1,8,0:0:0:0:
285,110,87236,1,0,0:0:0:0:
285,110,87322,1,0,0:0:0:0:
285,110,87408,1,8,0:0:0:0:
285,110,87494,1,0,0:0:0:0:
285,110,87580,1,8,0:0:0:0:
285,110,87666,1,0,0:0:0:0:
285,110,87751,1,0,0:0:0:0:
304,102,87837,1,8,0:0:0:0:
285,109,87923,1,8,0:0:0:0:
285,109,88009,1,0,0:0:0:0:
285,109,88095,1,0,0:0:0:0:
285,110,88181,1,8,0:0:0:0:
285,110,88267,1,0,0:0:0:0:
285,110,88353,1,0,0:0:0:0:
285,110,88439,1,0,0:0:0:0:
304,102,88525,1,8,0:0:0:0:
285,110,88611,1,0,0:0:0:0:
285,110,88697,1,0,0:0:0:0:
285,110,88782,1,8,0:0:0:0:
285,109,88868,1,0,0:0:0:0:
285,109,88954,1,8,0:0:0:0:
285,109,89040,1,8,0:0:0:0:
285,109,89126,1,0,0:0:0:0:
316,101,89212,1,8,0:0:0:0:
293,118,89298,1,8,0:0:0:0:
293,118,89384,1,8,0:0:0:0:
303,119,89470,1,8,0:0:0:0:
293,118,89556,1,4,0:0:0:0:
299,126,90071,1,0,0:0:0:0:
295,110,90415,1,0,0:0:0:0:
295,110,90587,1,8,0:0:0:0:
295,109,90930,1,0,0:0:0:0:
295,109,91274,1,8,0:0:0:0:
285,109,91446,1,0,0:0:0:0:
285,109,91618,1,8,0:0:0:0:
227,153,91961,1,0,0:0:0:0:
227,153,92305,1,0,0:0:0:0:
229,159,92820,1,0,0:0:0:0:
247,151,93164,1,0,0:0:0:0:
247,151,93336,1,8,0:0:0:0:
266,124,93680,1,0,0:0:0:0:
266,124,94023,1,8,0:0:0:0:
264,123,94367,1,0,0:0:0:0:
264,123,94539,1,0,0:0:0:0:
264,123,94711,1,8,0:0:0:0:
251,105,95054,1,0,0:0:0:0:
256,103,95398,1,8,0:0:0:0:
256,103,95570,1,0,0:0:0:0:
256,103,95913,1,0,0:0:0:0:
256,103,96085,1,8,0:0:0:0:
256,102,96429,1,0,0:0:0:0:
255,102,96773,1,0,0:0:0:0:
255,102,96944,1,8,0:0:0:0:
252,94,97288,1,0,0:0:0:0:
252,94,97460,1,8,0:0:0:0:
250,95,97804,1,8,0:0:0:0:
250,95,98147,1,0,0:0:0:0:
250,95,98319,1,8,0:0:0:0:
253,94,98663,1,0,0:0:0:0:
253,94,98835,1,8,0:0:0:0:
253,93,99178,1,0,0:0:0:0:
253,93,99350,1,0,0:0:0:0:
253,93,99436,1,0,0:0:0:0:
253,93,99522,1,8,0:0:0:0:
253,93,99608,1,8,0:0:0:0:
253,93,99694,1,0,0:0:0:0:
253,93,99780,1,0,0:0:0:0:
253,93,99866,1,8,0:0:0:0:
253,93,99951,1,8,0:0:0:0:
253,93,100037,1,0,0:0:0:0:
253,93,100123,1,0,0:0:0:0:
253,93,100209,1,8,0:0:0:0:
253,93,100295,1,8,0:0:0:0:
253,93,100381,1,8,0:0:0:0:
253,93,100467,1,8,0:0:0:0:
253,93,100553,1,4,0:0:0:0:
253,92,100811,1,0,0:0:0:0:
253,92,100897,1,8,0:0:0:0:
253,92,101068,1,0,0:0:0:0:
253,92,101154,1,8,0:0:0:0:
253,92,101240,1,0,0:0:0:0:
253,92,101326,1,0,0:0:0:0:
253,92,101412,1,8,0:0:0:0:
253,92,101498,1,0,0:0:0:0:
253,92,101584,1,8,0:0:0:0:
253,92,101756,1,0,0:0:0:0:
253,92,101842,1,8,0:0:0:0:
253,92,101928,1,0,0:0:0:0:
253,92,102099,1,8,0:0:0:0:
253,92,102185,1,0,0:0:0:0:
253,92,102271,1,8,0:0:0:0:
253,92,102443,1,0,0:0:0:0:
253,92,102529,1,8,0:0:0:0:
253,92,102615,1,0,0:0:0:0:
253,92,102701,1,8,0:0:0:0:
253,92,102787,1,8,0:0:0:0:
253,92,102873,1,0,0:0:0:0:
253,92,102959,1,8,0:0:0:0:
253,92,103044,1,0,0:0:0:0:
253,92,103130,1,0,0:0:0:0:
253,92,103302,1,0,0:0:0:0:
252,93,103560,1,0,0:0:0:0:
252,93,103646,1,8,0:0:0:0:
252,93,103818,1,0,0:0:0:0:
252,93,103904,1,8,0:0:0:0:
252,93,103990,1,0,0:0:0:0:
252,93,104075,1,0,0:0:0:0:
252,93,104161,1,8,0:0:0:0:
252,93,104247,1,0,0:0:0:0:
252,93,104333,1,8,0:0:0:0:
252,93,104505,1,0,0:0:0:0:
252,93,104591,1,8,0:0:0:0:
252,93,104677,1,0,0:0:0:0:
252,93,104849,1,8,0:0:0:0:
252,93,104935,1,0,0:0:0:0:
252,93,105020,1,8,0:0:0:0:
252,93,105192,1,0,0:0:0:0:
252,93,105278,1,8,0:0:0:0:
252,93,105364,1,0,0:0:0:0:
252,93,105450,1,8,0:0:0:0:
252,93,105536,1,0,0:0:0:0:
252,93,105622,1,0,0:0:0:0:
252,93,105708,1,8,0:0:0:0:
252,93,105794,1,8,0:0:0:0:
252,93,105880,1,0,0:0:0:0:
252,93,105966,1,8,0:0:0:0:
252,93,106051,1,0,0:0:0:0:
252,93,106223,1,8,0:0:0:0:
252,93,106395,1,0,0:0:0:0:
252,93,106567,1,8,0:0:0:0:
252,93,106653,1,0,0:0:0:0:
252,93,106739,1,8,0:0:0:0:
241,89,106911,1,0,0:0:0:0:
226,74,107082,1,8,0:0:0:0:
237,85,107254,1,0,0:0:0:0:
237,85,107340,1,8,0:0:0:0:
237,85,107426,1,0,0:0:0:0:
237,85,107598,1,8,0:0:0:0:
237,85,107770,1,0,0:0:0:0:
237,85,107942,1,8,0:0:0:0:
237,85,108028,1,0,0:0:0:0:
237,85,108113,1,8,0:0:0:0:
237,85,108285,1,0,0:0:0:0:
237,85,108457,1,8,0:0:0:0:
237,85,108629,1,0,0:0:0:0:
237,85,108715,1,8,0:0:0:0:
237,85,108801,1,0,0:0:0:0:
237,85,108887,1,0,0:0:0:0:
237,85,108973,1,8,0:0:0:0:
237,85,109059,1,0,0:0:0:0:
237,85,109144,1,8,0:0:0:0:
237,85,109230,1,8,0:0:0:0:
237,85,109316,1,0,0:0:0:0:
237,85,109402,1,0,0:0:0:0:
237,85,109488,1,8,0:0:0:0:
237,85,109574,1,0,0:0:0:0:
237,85,109660,1,0,0:0:0:0:
237,85,109746,1,0,0:0:0:0:
237,85,109832,1,8,0:0:0:0:
237,85,109918,1,8,0:0:0:0:
237,85,110004,1,8,0:0:0:0:
237,85,110090,1,8,0:0:0:0:
250,98,110175,1,0,0:0:0:0:
244,109,110519,1,8,0:0:0:0:
244,109,110605,1,8,0:0:0:0:
244,109,110691,1,8,0:0:0:0:
244,109,110777,1,8,0:0:0:0:
244,109,110863,1,4,0:0:0:0:
242,108,111550,1,12,0:0:0:0:
319,177,121173,5,8,0:0:0:0:
308,171,121259,1,8,0:0:0:0:
308,171,121344,1,8,0:0:0:0:
308,171,121430,1,8,0:0:0:0:
308,171,121516,1,8,0:0:0:0:
308,171,121602,1,8,0:0:0:0:
308,171,121688,1,8,0:0:0:0:
308,171,121774,1,8,0:0:0:0:
308,171,121860,1,8,0:0:0:0:
308,171,121946,1,8,0:0:0:0:
308,171,122032,1,8,0:0:0:0:
308,171,122118,1,8,0:0:0:0:
308,171,122204,1,8,0:0:0:0:
308,171,122290,1,8,0:0:0:0:
308,171,122375,1,8,0:0:0:0:
308,171,122461,1,8,0:0:0:0:
308,171,122547,1,4,0:0:0:0:
308,168,122805,1,0,0:0:0:0:
308,168,122891,1,8,0:0:0:0:
308,168,123063,1,0,0:0:0:0:
308,168,123149,1,8,0:0:0:0:
308,168,123235,1,0,0:0:0:0:
308,168,123321,1,8,0:0:0:0:
308,168,123406,1,0,0:0:0:0:
308,168,123492,1,0,0:0:0:0:
308,168,123578,1,8,0:0:0:0:
308,168,123750,1,0,0:0:0:0:
308,168,123836,1,8,0:0:0:0:
308,168,123922,1,0,0:0:0:0:
301,164,124094,1,8,0:0:0:0:
301,164,124180,1,0,0:0:0:0:
301,164,124266,1,8,0:0:0:0:
301,164,124437,1,0,0:0:0:0:
301,164,124523,1,8,0:0:0:0:
301,164,124609,1,0,0:0:0:0:
301,164,124695,1,0,0:0:0:0:
293,160,124781,1,8,0:0:0:0:
293,160,124867,1,0,0:0:0:0:
293,160,124953,1,8,0:0:0:0:
293,160,125125,1,0,0:0:0:0:
293,160,125211,1,8,0:0:0:0:
293,160,125297,1,0,0:0:0:0:
293,160,125468,1,8,0:0:0:0:
293,160,125554,1,0,0:0:0:0:
293,160,125640,1,8,0:0:0:0:
293,160,125812,1,0,0:0:0:0:
293,160,125898,1,8,0:0:0:0:
293,160,125984,1,0,0:0:0:0:
293,160,126070,1,8,0:0:0:0:
293,160,126156,1,8,0:0:0:0:
293,160,126242,1,0,0:0:0:0:
293,160,126328,1,8,0:0:0:0:
279,147,126499,1,0,0:0:0:0:
279,147,126585,1,8,0:0:0:0:
279,147,126671,1,0,0:0:0:0:
285,173,126843,1,8,0:0:0:0:
277,161,126929,1,0,0:0:0:0:
277,161,127015,1,8,0:0:0:0:
277,161,127187,1,0,0:0:0:0:
277,161,127273,1,8,0:0:0:0:
277,161,127359,1,0,0:0:0:0:
277,161,127444,1,0,0:0:0:0:
277,161,127530,1,8,0:0:0:0:
277,161,127616,1,0,0:0:0:0:
277,161,127702,1,8,0:0:0:0:
277,161,127874,1,0,0:0:0:0:
277,161,127960,1,8,0:0:0:0:
277,161,128046,1,0,0:0:0:0:
277,161,128218,1,8,0:0:0:0:
277,161,128390,1,0,0:0:0:0:
277,161,128561,1,8,0:0:0:0:
277,161,128647,1,0,0:0:0:0:
277,161,128733,1,8,0:0:0:0:
277,161,128905,1,0,0:0:0:0:
277,161,129077,1,8,0:0:0:0:
277,161,129249,1,0,0:0:0:0:
277,161,129335,1,8,0:0:0:0:
277,161,129421,1,0,0:0:0:0:
277,161,129592,1,8,0:0:0:0:
277,161,129764,1,0,0:0:0:0:
277,161,129936,1,8,0:0:0:0:
277,161,130022,1,0,0:0:0:0:
277,161,130108,1,8,0:0:0:0:
277,161,130280,1,0,0:0:0:0:
277,161,130452,1,8,0:0:0:0:
277,161,130623,1,0,0:0:0:0:
277,161,130709,1,8,0:0:0:0:
277,161,130795,1,0,0:0:0:0:
277,161,130881,1,8,0:0:0:0:
277,161,130967,1,0,0:0:0:0:
277,161,131053,1,0,0:0:0:0:
277,161,131139,1,8,0:0:0:0:
277,161,131225,1,8,0:0:0:0:
277,161,131311,1,0,0:0:0:0:
277,161,131397,1,8,0:0:0:0:
277,161,131482,1,0,0:0:0:0:
277,161,131568,1,8,0:0:0:0:
277,161,131654,1,0,0:0:0:0:
277,161,131740,1,0,0:0:0:0:
277,161,131826,1,8,0:0:0:0:
277,161,131912,1,8,0:0:0:0:
277,161,131998,1,8,0:0:0:0:
277,161,132084,1,8,0:0:0:0:
277,161,132170,1,0,0:0:0:0:
256,192,132256,12,0,132685,0:0:0:0:
209,225,132857,6,4,B|397:163|300:183,6,140
252,126,133544,1,12,0:0:0:0:
188,199,133716,2,4,L|273:194,20,70
233,159,135778,5,0,0:0:0:0:
233,159,135950,1,8,0:0:0:0:
233,159,136036,1,0,0:0:0:0:
233,159,136122,1,0,0:0:0:0:
233,159,136208,1,8,0:0:0:0:
233,159,136294,1,0,0:0:0:0:
240,150,136466,1,0,0:0:0:0:
240,150,136552,1,0,0:0:0:0:
240,150,136637,1,8,0:0:0:0:
240,150,136809,1,0,0:0:0:0:
240,150,136895,1,0,0:0:0:0:
240,150,137067,1,8,0:0:0:0:
240,150,137153,1,0,0:0:0:0:
240,150,137239,1,0,0:0:0:0:
240,150,137325,1,8,0:0:0:0:
240,150,137497,1,0,0:0:0:0:
240,150,137583,1,8,0:0:0:0:
240,150,137668,1,0,0:0:0:0:
240,150,137840,1,0,0:0:0:0:
240,150,137926,1,0,0:0:0:0:
240,150,138012,1,8,0:0:0:0:
251,139,138069,1,8,0:0:0:0:
252,139,138127,1,0,0:0:0:0:
259,146,138184,1,0,0:0:0:0:
259,146,138270,1,8,0:0:0:0:
259,146,138442,1,8,0:0:0:0:
259,146,138528,1,8,0:0:0:0:
259,146,138613,1,0,0:0:0:0:
259,146,138699,1,8,0:0:0:0:
259,146,138871,1,0,0:0:0:0:
259,146,138957,1,8,0:0:0:0:
259,146,139043,1,4,0:0:0:0:
274,115,139644,1,0,0:0:0:0:
274,115,139730,1,8,0:0:0:0:
275,111,140074,1,0,0:0:0:0:
275,111,140246,1,0,0:0:0:0:
274,111,140590,1,0,0:0:0:0:
274,111,140761,1,8,0:0:0:0:
274,111,140933,1,0,0:0:0:0:
274,111,141019,1,0,0:0:0:0:
274,111,141105,1,8,0:0:0:0:
274,111,141277,1,0,0:0:0:0:
274,111,141449,1,8,0:0:0:0:
274,111,141621,1,0,0:0:0:0:
274,111,141792,1,4,0:0:0:0:
274,111,141964,1,0,0:0:0:0:
274,111,142050,1,0,0:0:0:0:
274,111,142136,1,8,0:0:0:0:
274,111,142222,1,0,0:0:0:0:
274,111,142308,1,0,0:0:0:0:
274,111,142394,1,0,0:0:0:0:
274,111,142480,1,8,0:0:0:0:
274,111,142566,1,8,0:0:0:0:
274,111,142652,1,0,0:0:0:0:
274,111,142737,1,0,0:0:0:0:
266,112,142823,1,8,0:0:0:0:
266,112,142909,1,8,0:0:0:0:
267,112,142995,1,0,0:0:0:0:
267,112,143081,1,8,0:0:0:0:
267,112,143167,1,0,0:0:0:0:
267,112,143253,1,8,0:0:0:0:
267,112,143339,1,0,0:0:0:0:
267,112,143425,1,0,0:0:0:0:
267,112,143511,1,8,0:0:0:0:
267,112,143597,1,8,0:0:0:0:
267,112,143683,1,0,0:0:0:0:
267,112,143768,1,8,0:0:0:0:
267,112,143854,1,0,0:0:0:0:
267,112,143940,1,0,0:0:0:0:
267,112,144026,1,8,0:0:0:0:
267,112,144112,1,0,0:0:0:0:
267,112,144198,1,8,0:0:0:0:
267,112,144284,1,0,0:0:0:0:
267,112,144370,1,0,0:0:0:0:
267,112,144456,1,8,0:0:0:0:
267,112,144542,1,0,0:0:0:0:
275,100,144628,1,0,0:0:0:0:
275,103,144713,1,0,0:0:0:0:
274,106,144799,1,0,0:0:0:0:
275,100,144885,1,8,0:0:0:0:
271,99,145143,1,0,0:0:0:0:
271,99,145229,1,8,0:0:0:0:
271,99,145315,1,0,0:0:0:0:
271,99,145487,1,0,0:0:0:0:
271,99,145573,1,8,0:0:0:0:
271,99,145744,1,8,0:0:0:0:
271,99,145830,1,0,0:0:0:0:
271,99,145916,1,0,0:0:0:0:
279,94,146088,1,0,0:0:0:0:
273,99,146174,1,0,0:0:0:0:
273,99,146260,1,8,0:0:0:0:
273,99,146432,1,0,0:0:0:0:
273,99,146518,1,0,0:0:0:0:
273,99,146690,1,8,0:0:0:0:
273,99,146775,1,0,0:0:0:0:
273,99,146861,1,0,0:0:0:0:
273,99,146947,1,8,0:0:0:0:
273,99,147033,1,0,0:0:0:0:
273,99,147205,1,8,0:0:0:0:
273,99,147291,1,0,0:0:0:0:
295,109,147348,1,0,0:0:0:0:
291,108,147406,1,8,0:0:0:0:
290,108,147463,1,8,0:0:0:0:
266,94,147549,1,0,0:0:0:0:
266,94,147635,1,8,0:0:0:0:
266,94,147806,1,0,0:0:0:0:
266,94,147892,1,8,0:0:0:0:
266,94,148064,1,8,0:0:0:0:
266,94,148150,1,8,0:0:0:0:
266,94,148236,1,0,0:0:0:0:
266,94,148322,1,8,0:0:0:0:
266,94,148494,1,8,0:0:0:0:
284,99,148580,1,8,0:0:0:0:
266,94,148666,1,0,0:0:0:0:
259,96,148752,1,0,0:0:0:0:
263,105,148837,1,8,0:0:0:0:
266,94,148923,1,0,0:0:0:0:
266,94,149009,1,8,0:0:0:0:
266,94,149181,1,0,0:0:0:0:
266,94,149267,1,8,0:0:0:0:
266,94,149439,1,8,0:0:0:0:
266,94,149525,1,0,0:0:0:0:
266,94,149611,1,0,0:0:0:0:
266,94,149697,1,8,0:0:0:0:
266,94,149783,1,8,0:0:0:0:
266,94,149868,1,0,0:0:0:0:
266,94,149954,1,8,0:0:0:0:
266,94,150040,1,4,0:0:0:0:
266,100,150384,1,0,0:0:0:0:
266,100,150728,1,8,0:0:0:0:
266,100,151071,1,0,0:0:0:0:
266,100,151415,1,4,0:0:0:0:
265,100,151759,1,0,0:0:0:0:
265,100,152102,1,8,0:0:0:0:
265,100,152446,1,0,0:0:0:0:
283,139,152790,5,4,0:0:0:0:
280,131,153047,1,12,0:0:0:0:
280,131,153305,1,4,0:0:0:0:
280,131,153563,1,12,0:0:0:0:
280,131,153821,1,12,0:0:0:0:
280,131,154078,1,8,0:0:0:0:
280,131,154250,1,8,0:0:0:0:
251,139,154336,1,0,0:0:0:0:
262,138,154422,1,0,0:0:0:0:
269,134,154508,1,8,0:0:0:0:
265,132,154594,1,0,0:0:0:0:
269,134,154680,1,0,0:0:0:0:
269,134,154766,1,8,0:0:0:0:
269,134,154852,1,0,0:0:0:0:
269,134,154937,1,8,0:0:0:0:
269,134,155023,1,8,0:0:0:0:
269,134,155109,1,0,0:0:0:0:
269,134,155195,1,8,0:0:0:0:
269,134,155281,1,8,0:0:0:0:
269,134,155367,1,0,0:0:0:0:
269,134,155453,1,8,0:0:0:0:
