osu file format v14

[General]
AudioFilename: audio.mp3
AudioLeadIn: 0
PreviewTime: 44192
Countdown: 0
SampleSet: Normal
StackLeniency: 0.7
Mode: 1
LetterboxInBreaks: 0
WidescreenStoryboard: 0

[Editor]
Bookmarks: 67563,80538,80710,86037,86209,89560,100559,111557,136304,155465
DistanceSpacing: 2
BeatDivisor: 4
GridSize: 32
TimelineZoom: 2

[Metadata]
Title:Nhelv
TitleUnicode:Nhelv
Artist:Silentroom
ArtistUnicode:Silentroom
Creator:Nifty
Version:Muzukashii
Source:osu!
Tags:electronic instrumental BOFU2017 - LEGENDA EST A MYTH - neuro dnb katastrophe the bms of fighters ultimate 2017 fa featured artist mg mappers guild memory wave zeth [zeth] my angel ayame genjuro
BeatmapID:1947270
BeatmapSetID:928849

[Difficulty]
HPDrainRate:5
CircleSize:2
OverallDifficulty:4
ApproachRate:10
SliderMultiplier:1.4
SliderTickRate:1

[Events]
//Background and Video events
0,0,"nheman.jpg",0,0
//Break Periods
2,1778,12125
2,111750,121410
//Storyboard Layer 0 (Background)
//Storyboard Layer 1 (Fail)
//Storyboard Layer 2 (Pass)
//Storyboard Layer 3 (Foreground)
//Storyboard Layer 4 (Overlay)
//Storyboard Sound Samples

[TimingPoints]
204,343.662294518586,4,1,0,40,1,0
204,-142.857142857143,4,1,0,40,0,0
2946,-138.888888888889,4,1,0,5,0,0
5695,-135.135135135135,4,1,0,5,0,0
8444,-131.578947368421,4,1,0,5,0,0
10849,-128.205128205129,4,1,0,5,0,0
12395,-125,4,1,0,30,0,0
23047,-117.647058823529,4,1,0,50,0,0
23563,-111.45041571005,4,1,0,60,0,0
40068,-111.111111111111,4,1,0,60,0,0
40240,-110.600016147602,4,1,0,60,0,0
40412,-110.093480374186,4,1,0,60,0,0
40756,-109.094320767849,4,1,0,60,0,0
40927,-108.601570161501,4,1,0,60,0,0
41099,-108.113133907847,4,1,0,60,0,0
41443,-107.149439179835,4,1,0,60,0,0
41615,-106.674062735016,4,1,0,60,0,0
41787,-106.202885744811,4,1,0,60,0,0
42130,-105.272798666825,4,1,0,60,0,0
42302,-104.813782593156,4,1,0,60,0,0
42474,-104.358860902161,4,1,0,60,0,0
42818,-103.460655464637,4,1,0,60,0,0
42904,-103.238488134284,4,1,0,60,0,0
42989,-103.017272906148,4,1,0,60,0,0
43161,-102.577779601383,4,1,0,60,0,0
43333,-102.142020307876,4,1,0,60,0,0
43505,-101.70984419069,4,1,0,60,0,0
43677,-101.281412430065,4,1,0,60,0,0
43849,-100.856473170161,4,1,0,60,0,0
44020,-100.435185659462,4,1,0,60,0,0
44106,-100.225808747107,4,1,0,60,0,0
44192,-100.017302993418,4,1,0,60,0,0
44708,-111.132473242079,4,1,0,60,0,0
45567,-100.017302993418,4,1,0,60,0,0
67561,-100,4,1,0,70,0,1
89556,-100,4,1,0,70,0,0
89631,-100,4,1,0,50,0,0
90071,-100,4,1,0,50,0,0
90415,-101.398590762386,4,1,0,50,0,0
90587,-102.112712011518,4,1,0,50,0,0
90930,-103.571454464292,4,1,0,50,0,0
91274,-105.072478996011,4,1,0,50,0,0
91961,-108.208947148586,4,1,0,50,0,0
92305,-109.848464043852,4,1,0,50,0,0
92820,-112.403122558745,4,1,0,50,0,0
93164,-114.173237336475,4,1,0,50,0,0
93336,-115.07930114642,4,1,0,50,0,0
93680,-116.935540452681,4,1,0,50,0,0
94023,-118.852502855431,4,1,0,50,0,0
94367,-120.833363541674,4,1,0,50,0,0
94539,-121.84868829887,4,1,0,50,0,0
94711,-122.881371552717,4,1,0,50,0,0
95054,-125,4,1,0,50,0,0
99178,-125,4,1,0,50,0,0
99350,-123.086770018525,4,1,0,50,0,0
99522,-121.231224314134,4,1,0,50,0,0
99694,-119.430650204346,4,1,0,50,0,0
99866,-117.682917500744,4,1,0,50,0,0
99951,-116.828025641415,4,1,0,50,0,0
100037,-115.985599228,4,1,0,50,0,0
100209,-114.336545046884,4,1,0,50,0,0
100381,-112.733598106977,4,1,0,50,0,0
100553,-111.175098556725,4,1,0,50,0,0
106051,-111.111111111111,4,1,0,50,0,0
106223,-110.672601669386,4,1,0,50,0,0
106395,-110.237539850871,4,1,0,50,0,0
106739,-109.377597717946,4,1,0,50,0,0
106911,-108.952519581492,4,1,0,50,0,0
107082,-108.530850436891,4,1,0,50,0,0
107426,-107.697228627216,4,1,0,50,0,0
107598,-107.285201615715,4,1,0,50,0,0
107770,-106.876315246655,4,1,0,50,0,0
108113,-106.067821886671,4,1,0,50,0,0
108285,-105.668033306564,4,1,0,50,0,0
108457,-105.271357979464,4,1,0,50,0,0
108801,-104.486875403581,4,1,0,50,0,0
108973,-104.099002315162,4,1,0,50,0,0
109144,-103.713998278348,4,1,0,50,0,0
109316,-103.331831577381,4,1,0,50,0,0
109488,-102.952470962256,4,1,0,50,0,0
109660,-102.575780422181,4,1,0,50,0,0
109832,-102.201940814856,4,1,0,50,0,0
109918,-102.016041002287,4,1,0,50,0,0
110004,-101.830816245274,4,1,0,50,0,0
110175,-101.462377243206,4,1,0,50,0,0
110519,-100.733440177936,4,1,0,50,0,0
110691,-100.372885268774,4,1,0,50,0,0
110863,-100.014902220431,4,1,0,50,0,1
111550,-125.023285586941,4,1,0,50,0,0
111628,-125,4,1,0,5,0,0
121774,-125,4,1,0,50,0,0
122032,-121.212121212121,4,1,0,60,0,0
122204,-117.647058823529,4,1,0,60,0,0
122290,-115.942028985507,4,1,0,60,0,0
122375,-114.285714285714,4,1,0,70,0,0
122547,-111.111111111111,4,1,0,70,0,0
128046,-111.111111111111,4,1,0,70,0,0
128218,-110.600016147602,4,1,0,70,0,0
128390,-110.093480374186,4,1,0,70,0,0
128733,-109.094320767849,4,1,0,70,0,0
128905,-108.601570161501,4,1,0,70,0,0
129077,-108.113133907847,4,1,0,70,0,0
129421,-107.149439179835,4,1,0,70,0,0
129592,-106.674062735016,4,1,0,70,0,0
129764,-106.202885744811,4,1,0,70,0,0
130108,-105.272798666825,4,1,0,70,0,0
130280,-104.813782593156,4,1,0,70,0,0
130452,-104.358860902161,4,1,0,70,0,0
130795,-103.460655464637,4,1,0,70,0,0
130967,-103.017272906148,4,1,0,70,0,0
131139,-102.577779601383,4,1,0,70,0,0
131311,-102.142020307876,4,1,0,70,0,0
131482,-101.70984419069,4,1,0,70,0,0
131654,-101.281412430065,4,1,0,70,0,0
131826,-100.856473170161,4,1,0,70,0,0
131912,-100.645337906657,4,1,0,70,0,0
131998,-100.435185659462,4,1,0,70,0,0
132170,-100.017302993418,4,1,0,70,0,0
132857,-66.674356442443,4,1,0,70,0,0
133544,-83.3453489544743,4,1,0,70,0,0
133630,-66.674356442443,4,1,0,70,0,0
135606,-100,4,1,0,70,0,0
136294,-100,4,1,0,70,0,1
139043,-100,4,1,0,70,0,0
139129,-125,4,1,0,70,0,0
140761,-125,4,1,0,70,0,0
140933,-120.03317717017,4,1,0,70,0,0
141105,-115.445846085289,4,1,0,70,0,0
141277,-111.196361655047,4,1,0,70,0,0
141449,-107.248496912316,4,1,0,70,0,0
141621,-103.571454464292,4,1,0,70,0,0
141792,-100,4,1,0,70,0,1
150040,-100,4,1,0,70,0,0

[HitObjects]
260,157,1578,5,4,0:0:0:0:
255,169,12575,5,0,0:0:0:0:
255,169,12919,1,0,0:0:0:0:
255,169,13434,1,0,0:0:0:0:
256,172,13950,1,0,0:0:0:0:
256,172,14294,1,0,0:0:0:0:
258,167,14809,1,0,0:0:0:0:
258,167,15325,1,0,0:0:0:0:
258,172,15668,1,0,0:0:0:0:
260,171,16699,1,0,0:0:0:0:
261,175,17043,1,0,0:0:0:0:
253,180,17558,1,0,0:0:0:0:
253,180,18074,1,0,0:0:0:0:
253,181,18418,1,0,0:0:0:0:
253,181,18933,1,0,0:0:0:0:
253,181,19449,1,0,0:0:0:0:
253,181,19792,1,0,0:0:0:0:
252,181,20308,1,0,0:0:0:0:
252,181,20823,1,0,0:0:0:0:
252,181,21167,1,0,0:0:0:0:
253,181,21511,1,8,0:0:0:0:
253,181,22198,1,0,0:0:0:0:
253,181,22542,1,0,0:0:0:0:
251,181,22885,1,8,0:0:0:0:
251,181,23057,1,0,0:0:0:0:
251,181,23229,1,8,0:0:0:0:
251,181,23315,1,8,0:0:0:0:
251,181,23401,1,8,0:0:0:0:
251,181,23573,1,4,0:0:0:0:
272,168,23916,1,8,0:0:0:0:
271,160,24174,1,0,0:0:0:0:
271,160,24432,1,0,0:0:0:0:
271,163,24604,1,8,0:0:0:0:
279,150,24775,1,0,0:0:0:0:
279,150,24947,1,0,0:0:0:0:
281,151,25291,1,8,0:0:0:0:
280,151,25806,1,0,0:0:0:0:
280,151,25978,1,8,0:0:0:0:
280,151,26150,1,8,0:0:0:0:
280,151,26322,1,0,0:0:0:0:
279,147,26665,1,8,0:0:0:0:
279,147,26923,1,0,0:0:0:0:
273,131,27181,1,0,0:0:0:0:
280,141,27353,1,8,0:0:0:0:
280,141,27525,1,0,0:0:0:0:
280,141,27696,1,0,0:0:0:0:
275,139,28040,1,8,0:0:0:0:
275,139,28556,1,0,0:0:0:0:
275,139,28727,1,8,0:0:0:0:
275,139,28899,1,8,0:0:0:0:
275,139,29071,1,0,0:0:0:0:
271,131,29415,1,8,0:0:0:0:
271,131,29673,1,0,0:0:0:0:
271,131,29930,1,0,0:0:0:0:
271,131,30102,1,8,0:0:0:0:
271,131,30274,1,0,0:0:0:0:
271,131,30446,1,0,0:0:0:0:
265,126,30789,1,8,0:0:0:0:
288,123,31305,1,0,0:0:0:0:
282,117,31477,1,8,0:0:0:0:
282,117,31649,1,8,0:0:0:0:
282,117,31820,1,0,0:0:0:0:
286,118,32164,1,8,0:0:0:0:
285,116,32422,1,0,0:0:0:0:
285,116,32680,1,0,0:0:0:0:
285,116,32851,1,8,0:0:0:0:
285,116,33023,1,0,0:0:0:0:
285,116,33195,1,0,0:0:0:0:
204,193,33539,2,0,L|277:174,4,62.8081995182238
280,104,34570,5,0,0:0:0:0:
280,104,34742,1,8,0:0:0:0:
280,104,34827,1,8,0:0:0:0:
280,104,34913,1,8,0:0:0:0:
280,104,35085,1,0,0:0:0:0:
280,104,35257,1,0,0:0:0:0:
280,104,35429,1,8,0:0:0:0:
280,104,35601,1,8,0:0:0:0:
278,112,35944,1,0,0:0:0:0:
278,112,36288,1,8,0:0:0:0:
278,112,36460,1,0,0:0:0:0:
278,112,36632,1,8,0:0:0:0:
274,106,36804,1,0,0:0:0:0:
274,106,36889,1,0,0:0:0:0:
274,106,36975,1,0,0:0:0:0:
265,101,37319,1,0,0:0:0:0:
262,108,37491,1,8,0:0:0:0:
265,101,37577,1,8,0:0:0:0:
273,106,37663,1,8,0:0:0:0:
265,101,37835,1,0,0:0:0:0:
265,101,38006,1,0,0:0:0:0:
265,101,38178,1,8,0:0:0:0:
271,108,38350,1,8,0:0:0:0:
266,101,38694,1,0,0:0:0:0:
271,108,39037,1,8,0:0:0:0:
266,102,39209,1,8,0:0:0:0:
266,102,39381,1,8,0:0:0:0:
266,102,39553,1,0,0:0:0:0:
266,102,39639,1,0,0:0:0:0:
270,108,39725,1,0,0:0:0:0:
264,100,40068,1,0,0:0:0:0:
257,96,40240,1,0,0:0:0:0:
269,97,40412,1,8,0:0:0:0:
265,99,40756,1,0,0:0:0:0:
265,99,40927,1,0,0:0:0:0:
265,99,41099,1,8,0:0:0:0:
265,99,41443,1,0,0:0:0:0:
265,99,41615,1,0,0:0:0:0:
269,97,41787,1,8,0:0:0:0:
269,97,42130,1,0,0:0:0:0:
269,97,42302,1,0,0:0:0:0:
269,97,42474,1,8,0:0:0:0:
269,97,42818,1,0,0:0:0:0:
269,97,42904,1,0,0:0:0:0:
269,97,42989,1,0,0:0:0:0:
269,97,43161,1,8,0:0:0:0:
269,97,43333,1,0,0:0:0:0:
269,97,43505,1,8,0:0:0:0:
269,97,43677,1,0,0:0:0:0:
269,97,43849,1,8,0:0:0:0:
269,97,44020,1,0,0:0:0:0:
265,96,44106,1,0,0:0:0:0:
269,97,44192,1,8,0:0:0:0:
267,90,44708,1,0,0:0:0:0:
262,78,44794,1,0,0:0:0:0:
262,79,44880,1,0,0:0:0:0:
247,139,45567,1,4,0:0:0:0:
258,140,45911,1,8,0:0:0:0:
258,140,46254,1,0,0:0:0:0:
258,140,46340,1,0,0:0:0:0:
258,140,46426,1,0,0:0:0:0:
258,140,46598,1,8,0:0:0:0:
266,122,46942,1,0,0:0:0:0:
266,122,47113,1,8,0:0:0:0:
266,122,47285,1,0,0:0:0:0:
266,122,47371,1,0,0:0:0:0:
266,122,47457,1,0,0:0:0:0:
266,122,47629,1,8,0:0:0:0:
261,114,47801,1,0,0:0:0:0:
261,114,47973,1,8,0:0:0:0:
260,103,48316,1,0,0:0:0:0:
263,120,48660,1,8,0:0:0:0:
269,108,49004,1,0,0:0:0:0:
269,108,49089,1,0,0:0:0:0:
269,108,49175,1,0,0:0:0:0:
269,108,49347,1,8,0:0:0:0:
273,103,49691,1,0,0:0:0:0:
273,103,49863,1,0,0:0:0:0:
273,103,50035,1,8,0:0:0:0:
273,103,50292,1,8,0:0:0:0:
273,103,50550,1,0,0:0:0:0:
273,103,50722,1,8,0:0:0:0:
271,111,50894,1,0,0:0:0:0:
273,103,50980,1,0,0:0:0:0:
273,103,51066,1,0,0:0:0:0:
264,94,51581,1,8,0:0:0:0:
264,94,51753,1,0,0:0:0:0:
256,80,51925,1,8,0:0:0:0:
264,94,52011,1,8,0:0:0:0:
262,100,52097,1,8,0:0:0:0:
253,96,52440,1,0,0:0:0:0:
253,96,52784,1,0,0:0:0:0:
248,96,53042,1,8,0:0:0:0:
252,89,53299,1,0,0:0:0:0:
252,89,53471,1,8,0:0:0:0:
263,82,53643,1,0,0:0:0:0:
263,82,53729,1,0,0:0:0:0:
252,89,53815,1,0,0:0:0:0:
249,88,54158,1,8,0:0:0:0:
249,88,54416,1,0,0:0:0:0:
249,88,54674,1,0,0:0:0:0:
249,88,54846,1,8,0:0:0:0:
253,87,55189,1,0,0:0:0:0:
253,87,55361,1,8,0:0:0:0:
244,94,55447,1,8,0:0:0:0:
253,87,55533,1,8,0:0:0:0:
253,87,55791,1,0,0:0:0:0:
253,87,56049,1,0,0:0:0:0:
253,87,56220,1,8,0:0:0:0:
235,91,56392,1,0,0:0:0:0:
253,87,56478,1,0,0:0:0:0:
253,87,56564,1,0,0:0:0:0:
261,91,57166,1,0,0:0:0:0:
253,108,57337,1,0,0:0:0:0:
261,91,57423,1,0,0:0:0:0:
261,91,57595,1,8,0:0:0:0:
254,88,57939,1,0,0:0:0:0:
261,94,58282,1,8,0:0:0:0:
261,94,58540,1,0,0:0:0:0:
258,102,58712,1,0,0:0:0:0:
261,94,58798,1,0,0:0:0:0:
261,94,58970,1,8,0:0:0:0:
261,94,59227,1,0,0:0:0:0:
261,94,59313,1,0,0:0:0:0:
262,92,59657,1,8,0:0:0:0:
262,92,59915,1,0,0:0:0:0:
262,92,60087,1,0,0:0:0:0:
262,92,60173,1,0,0:0:0:0:
262,92,60344,1,8,0:0:0:0:
240,119,60688,1,0,0:0:0:0:
236,97,61032,1,8,0:0:0:0:
245,96,61204,1,0,0:0:0:0:
245,96,61289,1,0,0:0:0:0:
245,96,61461,1,8,0:0:0:0:
245,96,61719,1,8,0:0:0:0:
257,93,61891,1,0,0:0:0:0:
245,96,61977,1,0,0:0:0:0:
245,96,62063,1,0,0:0:0:0:
236,87,62406,1,8,0:0:0:0:
245,95,62664,1,0,0:0:0:0:
245,95,62836,1,0,0:0:0:0:
245,95,62922,1,0,0:0:0:0:
245,95,63094,1,8,0:0:0:0:
243,94,63437,1,0,0:0:0:0:
241,93,63781,1,8,0:0:0:0:
241,93,64039,1,0,0:0:0:0:
241,93,64211,1,0,0:0:0:0:
241,93,64297,1,0,0:0:0:0:
241,93,64468,1,8,0:0:0:0:
218,100,64640,1,0,0:0:0:0:
232,93,64726,1,0,0:0:0:0:
232,93,64812,1,0,0:0:0:0:
230,92,65328,1,8,0:0:0:0:
230,92,65585,1,0,0:0:0:0:
230,92,65843,1,8,0:0:0:0:
230,92,66187,1,8,0:0:0:0:
230,89,66444,1,0,0:0:0:0:
233,100,66702,1,8,0:0:0:0:
230,86,66874,1,0,0:0:0:0:
232,95,67046,1,8,0:0:0:0:
232,95,67218,1,8,0:0:0:0:
236,89,67389,1,8,0:0:0:0:
230,86,67561,1,4,0:0:0:0:
253,130,67905,1,8,0:0:0:0:
252,128,68163,1,0,0:0:0:0:
239,109,68335,1,0,0:0:0:0:
239,109,68420,1,0,0:0:0:0:
254,116,68592,1,8,0:0:0:0:
254,116,68936,1,0,0:0:0:0:
254,116,69108,1,0,0:0:0:0:
254,116,69280,1,8,0:0:0:0:
250,109,69537,1,0,0:0:0:0:
250,109,69709,1,0,0:0:0:0:
250,109,69795,1,0,0:0:0:0:
250,109,69967,1,8,0:0:0:0:
251,109,70311,1,0,0:0:0:0:
251,109,70654,1,8,0:0:0:0:
259,106,70826,1,0,0:0:0:0:
251,109,70912,1,0,0:0:0:0:
251,109,71084,1,0,0:0:0:0:
251,109,71170,1,0,0:0:0:0:
251,109,71342,1,8,0:0:0:0:
248,106,71685,1,0,0:0:0:0:
248,106,71857,1,8,0:0:0:0:
248,106,71943,1,8,0:0:0:0:
248,106,72029,1,8,0:0:0:0:
248,106,72287,1,0,0:0:0:0:
248,106,72458,1,0,0:0:0:0:
248,106,72544,1,0,0:0:0:0:
248,106,72716,1,8,0:0:0:0:
244,104,73060,1,0,0:0:0:0:
253,87,73661,1,0,0:0:0:0:
239,107,73833,1,0,0:0:0:0:
260,102,73919,1,0,0:0:0:0:
260,102,74091,1,8,0:0:0:0:
254,103,74435,1,0,0:0:0:0:
254,103,74606,1,8,0:0:0:0:
254,103,74692,1,8,0:0:0:0:
254,103,74778,1,8,0:0:0:0:
254,103,75036,1,0,0:0:0:0:
254,103,75294,1,0,0:0:0:0:
254,88,75466,1,8,0:0:0:0:
245,93,75723,1,8,0:0:0:0:
246,92,75809,1,0,0:0:0:0:
256,98,76153,1,8,0:0:0:0:
256,98,76411,1,0,0:0:0:0:
256,98,76582,1,0,0:0:0:0:
256,98,76668,1,0,0:0:0:0:
256,98,76840,1,8,0:0:0:0:
251,92,77184,1,0,0:0:0:0:
251,92,77356,1,0,0:0:0:0:
251,92,77528,1,8,0:0:0:0:
251,92,77785,1,0,0:0:0:0:
251,92,78043,1,0,0:0:0:0:
251,92,78215,1,8,0:0:0:0:
251,92,78301,1,8,0:0:0:0:
251,92,78387,1,8,0:0:0:0:
251,92,78559,1,0,0:0:0:0:
255,88,79074,1,0,0:0:0:0:
256,98,79160,1,0,0:0:0:0:
256,98,79246,1,0,0:0:0:0:
247,83,79418,1,0,0:0:0:0:
260,88,79589,1,8,0:0:0:0:
260,88,79933,1,0,0:0:0:0:
260,88,80105,1,0,0:0:0:0:
260,88,80277,1,8,0:0:0:0:
260,88,80535,1,0,0:0:0:0:
260,88,80792,1,0,0:0:0:0:
260,88,80964,1,8,0:0:0:0:
260,88,81222,1,8,0:0:0:0:
260,88,81308,1,0,0:0:0:0:
264,86,81651,1,8,0:0:0:0:
264,86,81995,1,0,0:0:0:0:
264,86,82081,1,0,0:0:0:0:
264,86,82167,1,0,0:0:0:0:
264,86,82339,1,8,0:0:0:0:
262,88,82682,1,0,0:0:0:0:
262,88,82854,1,0,0:0:0:0:
262,88,83026,1,8,0:0:0:0:
262,88,83284,1,0,0:0:0:0:
262,88,83456,1,0,0:0:0:0:
262,88,83542,1,0,0:0:0:0:
262,88,83713,1,8,0:0:0:0:
261,106,84057,1,0,0:0:0:0:
264,104,84659,1,0,0:0:0:0:
257,95,84830,1,0,0:0:0:0:
269,97,84916,1,0,0:0:0:0:
262,95,85088,1,8,0:0:0:0:
261,95,85432,1,0,0:0:0:0:
261,95,85604,1,0,0:0:0:0:
261,95,85775,1,8,0:0:0:0:
261,95,86033,1,0,0:0:0:0:
261,95,86205,1,0,0:0:0:0:
261,95,86291,1,0,0:0:0:0:
261,95,86463,1,8,0:0:0:0:
281,107,86720,1,8,0:0:0:0:
261,95,86806,1,0,0:0:0:0:
261,95,87150,1,8,0:0:0:0:
264,96,87408,1,0,0:0:0:0:
264,96,87580,1,0,0:0:0:0:
264,96,87666,1,0,0:0:0:0:
264,96,87837,1,8,0:0:0:0:
256,93,88181,1,0,0:0:0:0:
256,93,88353,1,8,0:0:0:0:
256,93,88439,1,8,0:0:0:0:
256,93,88525,1,8,0:0:0:0:
256,93,88782,1,0,0:0:0:0:
256,93,88954,1,0,0:0:0:0:
256,93,89040,1,0,0:0:0:0:
256,93,89212,1,8,0:0:0:0:
256,93,89298,1,8,0:0:0:0:
256,93,89384,1,8,0:0:0:0:
256,93,89556,1,4,0:0:0:0:
307,108,90071,1,0,0:0:0:0:
303,92,90415,1,0,0:0:0:0:
303,92,90587,1,8,0:0:0:0:
303,91,90930,1,0,0:0:0:0:
303,91,91274,1,8,0:0:0:0:
235,135,91961,1,0,0:0:0:0:
235,135,92305,1,0,0:0:0:0:
237,141,92820,1,0,0:0:0:0:
255,133,93164,1,0,0:0:0:0:
255,133,93336,1,8,0:0:0:0:
274,106,93680,1,0,0:0:0:0:
274,106,94023,1,8,0:0:0:0:
272,105,94367,1,0,0:0:0:0:
272,105,94539,1,0,0:0:0:0:
272,105,94711,1,8,0:0:0:0:
281,115,95054,1,0,0:0:0:0:
264,85,95570,1,0,0:0:0:0:
264,85,95913,1,0,0:0:0:0:
264,85,96085,1,8,0:0:0:0:
264,84,96429,1,0,0:0:0:0:
263,84,96944,1,8,0:0:0:0:
260,76,97288,1,0,0:0:0:0:
260,76,97460,1,8,0:0:0:0:
258,77,97804,1,8,0:0:0:0:
258,77,98319,1,8,0:0:0:0:
261,76,98663,1,0,0:0:0:0:
261,76,98835,1,8,0:0:0:0:
261,75,99178,1,0,0:0:0:0:
247,86,99350,1,0,0:0:0:0:
261,80,99522,1,8,0:0:0:0:
261,80,99694,1,8,0:0:0:0:
261,80,99866,1,0,0:0:0:0:
261,80,99951,1,0,0:0:0:0:
261,80,100037,1,0,0:0:0:0:
261,80,100209,1,8,0:0:0:0:
261,80,100381,1,8,0:0:0:0:
261,80,100553,1,4,0:0:0:0:
261,86,100897,1,8,0:0:0:0:
261,86,101068,1,0,0:0:0:0:
261,86,101240,1,0,0:0:0:0:
261,86,101326,1,0,0:0:0:0:
261,86,101412,1,0,0:0:0:0:
261,86,101584,1,8,0:0:0:0:
260,85,101928,1,0,0:0:0:0:
259,85,102271,1,8,0:0:0:0:
259,85,102443,1,0,0:0:0:0:
259,85,102615,1,0,0:0:0:0:
259,85,102701,1,8,0:0:0:0:
259,85,102873,1,0,0:0:0:0:
259,85,102959,1,8,0:0:0:0:
257,81,103302,1,0,0:0:0:0:
256,83,103646,1,8,0:0:0:0:
256,83,103818,1,0,0:0:0:0:
256,83,103990,1,0,0:0:0:0:
256,83,104075,1,0,0:0:0:0:
256,83,104161,1,0,0:0:0:0:
256,83,104333,1,8,0:0:0:0:
256,82,104677,1,0,0:0:0:0:
258,85,105020,1,8,0:0:0:0:
258,85,105192,1,0,0:0:0:0:
258,85,105364,1,0,0:0:0:0:
258,85,105450,1,0,0:0:0:0:
258,85,105622,1,0,0:0:0:0:
258,85,105708,1,8,0:0:0:0:
258,85,106051,1,12,0:0:0:0:
258,85,106223,1,0,0:0:0:0:
258,85,106395,1,8,0:0:0:0:
258,85,106739,1,0,0:0:0:0:
258,85,106911,1,8,0:0:0:0:
258,85,107082,1,0,0:0:0:0:
265,76,107426,1,8,0:0:0:0:
273,88,107598,1,0,0:0:0:0:
273,88,107770,1,8,0:0:0:0:
273,88,108113,1,0,0:0:0:0:
273,88,108285,1,8,0:0:0:0:
273,88,108457,1,0,0:0:0:0:
275,96,108801,1,8,0:0:0:0:
275,96,108973,1,0,0:0:0:0:
275,96,109144,1,8,0:0:0:0:
275,96,109316,1,0,0:0:0:0:
275,96,109488,1,8,0:0:0:0:
275,96,109660,1,0,0:0:0:0:
275,96,109832,1,8,0:0:0:0:
275,96,109918,1,8,0:0:0:0:
275,96,110004,1,8,0:0:0:0:
275,96,110175,1,8,0:0:0:0:
265,123,110519,1,8,0:0:0:0:
265,123,110691,1,8,0:0:0:0:
265,123,110863,1,4,0:0:0:0:
260,107,111550,1,12,0:0:0:0:
297,147,121860,5,8,0:0:0:0:
287,134,122032,1,8,0:0:0:0:
291,144,122204,1,8,0:0:0:0:
291,144,122290,1,8,0:0:0:0:
291,144,122375,1,8,0:0:0:0:
291,144,122547,1,4,0:0:0:0:
261,86,122891,1,8,0:0:0:0:
261,86,123063,1,0,0:0:0:0:
278,111,123235,1,8,0:0:0:0:
261,86,123321,1,8,0:0:0:0:
278,111,123406,1,8,0:0:0:0:
261,86,123578,1,8,0:0:0:0:
260,85,123922,1,0,0:0:0:0:
259,85,124266,1,8,0:0:0:0:
259,85,124437,1,0,0:0:0:0:
259,85,124609,1,0,0:0:0:0:
259,85,124695,1,8,0:0:0:0:
259,85,124867,1,0,0:0:0:0:
259,85,124953,1,8,0:0:0:0:
257,81,125297,1,0,0:0:0:0:
256,83,125640,1,8,0:0:0:0:
256,83,125812,1,0,0:0:0:0:
256,83,125984,1,0,0:0:0:0:
262,78,126070,1,0,0:0:0:0:
259,76,126156,1,0,0:0:0:0:
256,83,126328,1,8,0:0:0:0:
256,82,126671,1,0,0:0:0:0:
258,85,127015,1,8,0:0:0:0:
258,85,127187,1,0,0:0:0:0:
258,85,127359,1,0,0:0:0:0:
258,85,127444,1,0,0:0:0:0:
258,85,127616,1,0,0:0:0:0:
258,85,127702,1,8,0:0:0:0:
258,85,128046,1,12,0:0:0:0:
258,85,128218,1,0,0:0:0:0:
258,85,128390,1,8,0:0:0:0:
258,85,128733,1,0,0:0:0:0:
258,85,128905,1,8,0:0:0:0:
258,85,129077,1,0,0:0:0:0:
265,76,129421,1,8,0:0:0:0:
273,88,129592,1,0,0:0:0:0:
273,88,129764,1,8,0:0:0:0:
273,88,130108,1,0,0:0:0:0:
273,88,130280,1,8,0:0:0:0:
273,88,130452,1,0,0:0:0:0:
275,96,130795,1,8,0:0:0:0:
275,96,130967,1,0,0:0:0:0:
275,96,131139,1,8,0:0:0:0:
275,96,131311,1,0,0:0:0:0:
275,96,131482,1,8,0:0:0:0:
275,96,131654,1,0,0:0:0:0:
275,96,131826,1,8,0:0:0:0:
275,96,131912,1,8,0:0:0:0:
275,96,131998,1,8,0:0:0:0:
275,96,132170,1,8,0:0:0:0:
169,196,132857,2,4,L|397:165,1,209.975785949672
268,79,133544,1,12,0:0:0:0:
230,201,133716,2,4,L|365:192,10,104.987892974836
248,118,135778,5,0,0:0:0:0:
261,115,135950,1,8,0:0:0:0:
261,115,136122,1,0,0:0:0:0:
261,115,136294,1,0,0:0:0:0:
250,107,136637,1,8,0:0:0:0:
255,113,136809,1,0,0:0:0:0:
255,113,136895,1,0,0:0:0:0:
255,113,137067,1,8,0:0:0:0:
255,113,137153,1,0,0:0:0:0:
264,113,137325,1,8,0:0:0:0:
266,113,137668,1,0,0:0:0:0:
266,113,137840,1,0,0:0:0:0:
257,110,138012,1,8,0:0:0:0:
257,110,138270,1,0,0:0:0:0:
257,110,138442,1,8,0:0:0:0:
257,110,138528,1,0,0:0:0:0:
257,110,138699,1,8,0:0:0:0:
247,102,138871,1,0,0:0:0:0:
247,102,139043,1,4,0:0:0:0:
251,91,139730,1,8,0:0:0:0:
253,92,140074,1,0,0:0:0:0:
253,92,140246,1,0,0:0:0:0:
253,93,140761,1,8,0:0:0:0:
253,93,140933,1,0,0:0:0:0:
259,91,141105,1,8,0:0:0:0:
263,82,141277,1,0,0:0:0:0:
263,82,141449,1,8,0:0:0:0:
263,82,141621,1,0,0:0:0:0:
263,82,141792,1,4,0:0:0:0:
254,84,142136,1,8,0:0:0:0:
254,84,142308,1,0,0:0:0:0:
256,92,142394,1,0,0:0:0:0:
254,84,142480,1,0,0:0:0:0:
254,84,142652,1,0,0:0:0:0:
252,79,142823,1,8,0:0:0:0:
252,79,142995,1,0,0:0:0:0:
252,79,143167,1,0,0:0:0:0:
259,79,143511,1,8,0:0:0:0:
259,79,143683,1,0,0:0:0:0:
259,79,143768,1,8,0:0:0:0:
259,79,143940,1,0,0:0:0:0:
259,79,144026,1,0,0:0:0:0:
259,79,144198,1,8,0:0:0:0:
259,79,144370,1,0,0:0:0:0:
267,75,144542,1,0,0:0:0:0:
259,79,144885,1,8,0:0:0:0:
261,75,145143,1,0,0:0:0:0:
261,75,145315,1,0,0:0:0:0:
261,75,145401,1,0,0:0:0:0:
261,75,145573,1,8,0:0:0:0:
259,75,145916,1,0,0:0:0:0:
259,75,146088,1,0,0:0:0:0:
259,75,146260,1,8,0:0:0:0:
259,75,146518,1,0,0:0:0:0:
241,75,146690,1,0,0:0:0:0:
259,75,146775,1,0,0:0:0:0:
259,75,146947,1,8,0:0:0:0:
251,77,147119,1,0,0:0:0:0:
258,70,147205,1,0,0:0:0:0:
251,77,147291,1,0,0:0:0:0:
250,82,147635,1,8,0:0:0:0:
250,82,147892,1,0,0:0:0:0:
250,82,148064,1,8,0:0:0:0:
250,82,148150,1,0,0:0:0:0:
250,82,148322,1,8,0:0:0:0:
250,82,148494,1,0,0:0:0:0:
250,82,148666,1,0,0:0:0:0:
250,82,149009,1,8,0:0:0:0:
250,82,149267,1,0,0:0:0:0:
250,82,149439,1,0,0:0:0:0:
250,82,149525,1,0,0:0:0:0:
250,82,149697,1,8,0:0:0:0:
250,82,149868,1,0,0:0:0:0:
250,82,150040,1,4,0:0:0:0:
250,84,150728,1,8,0:0:0:0:
250,84,151415,1,4,0:0:0:0:
250,84,152102,1,8,0:0:0:0:
247,83,152790,1,4,0:0:0:0:
247,83,153047,1,12,0:0:0:0:
247,83,153305,1,4,0:0:0:0:
247,83,153563,1,12,0:0:0:0:
247,83,153821,1,12,0:0:0:0:
247,83,154078,1,0,0:0:0:0:
247,83,154250,1,8,0:0:0:0:
247,83,154336,1,0,0:0:0:0:
247,83,154508,1,8,0:0:0:0:
247,83,154766,1,8,0:0:0:0:
247,83,154937,1,0,0:0:0:0:
247,83,155023,1,8,0:0:0:0:
247,83,155195,1,8,0:0:0:0:
247,83,155453,1,8,0:0:0:0:
