osu file format v14

[General]
AudioFilename: audio.mp3
AudioLeadIn: 0
PreviewTime: 240115
Countdown: 0
SampleSet: Normal
StackLeniency: 0.7
Mode: 1
LetterboxInBreaks: 0
WidescreenStoryboard: 0

[Editor]
Bookmarks: 285143
DistanceSpacing: 1
BeatDivisor: 6
GridSize: 32
TimelineZoom: 3.999999

[Metadata]
Title:Nhelv
TitleUnicode:Nhelv
Artist:Silentroom
ArtistUnicode:Silentroom
Creator:Nifty
Version:Inner Oni
Source:BOFU2017 -LEGENDA EST A MYTH-
Tags:featured artist fa mappers' guild mpg mg bms electronic instrumental neuro dnb drum and bass katastrophe full version
BeatmapID:2037695
BeatmapSetID:971856

[Difficulty]
HPDrainRate:5
CircleSize:2
OverallDifficulty:6
ApproachRate:10
SliderMultiplier:1.4
SliderTickRate:1

[Events]
//Background and Video events
0,0,"spookey.png",0,0
//Break Periods
2,1530,11795
2,110689,119590
2,154267,161975
2,176184,186450
2,369942,374750
2,375400,380719
2,381369,386491
//Storyboard Layer 0 (Background)
//Storyboard Layer 1 (Fail)
//Storyboard Layer 2 (Pass)
//Storyboard Layer 3 (Foreground)
//Storyboard Layer 4 (Overlay)
//Storyboard Sound Samples

[TimingPoints]
1330,341.122292341805,4,1,0,50,1,0
1330,-125,4,1,0,50,0,0
20432,-125,4,1,0,50,0,0
20773,-128.191487316093,4,1,0,50,0,0
21115,-131.550214032198,4,1,0,50,0,0
21456,-135.089679283592,4,1,0,50,0,0
21797,-138.824875196437,4,1,0,50,0,0
22138,-142.772499161212,4,1,0,50,0,0
22650,-142.857142857143,4,1,0,80,0,0
22735,-136.363698347136,4,1,0,80,0,0
22820,-130.434725897945,4,1,0,80,0,0
22905,-125,4,1,0,80,0,0
22991,-120.000048000019,4,1,0,80,0,0
23076,-115.384571005934,4,1,0,80,0,0
23161,-111.111111111111,4,1,0,80,0,0
23502,-110.236810716782,4,1,0,80,0,0
23758,-109.590121984765,4,1,0,80,0,0
23929,-109.163274417914,4,1,0,80,0,0
24014,-108.950976418651,4,1,0,80,0,0
24099,-108.739620803194,4,1,0,80,0,0
24185,-108.528965838337,4,1,0,80,0,0
24355,-108.110328752699,4,1,0,80,0,0
24526,-107.694792956761,4,1,0,80,0,0
24867,-106.873231248023,4,1,0,80,0,0
25123,-106.26529556098,4,1,0,80,0,0
25294,-105.863795640529,4,1,0,80,0,0
25379,-105.664237093642,4,1,0,80,0,0
25549,-105.267257777408,4,1,0,80,0,0
25720,-104.873250189821,4,1,0,80,0,0
25805,-104.677405172739,4,1,0,80,0,0
25890,-104.482290251802,4,1,0,80,0,0
26231,-103.708835370521,4,1,0,80,0,0
26487,-103.1362708606,4,1,0,80,0,0
26658,-102.758025401784,4,1,0,80,0,0
26743,-102.569993763744,4,1,0,80,0,0
26828,-102.382544185747,4,1,0,80,0,0
26914,-102.19588293666,4,1,0,80,0,0
27084,-101.82449123393,4,1,0,80,0,0
27255,-101.455789118055,4,1,0,80,0,0
27596,-100.726439078635,4,1,0,80,0,0
27852,-100.186246231745,4,1,0,80,0,0
28022,-99.8292919108325,4,1,0,80,0,0
28108,-99.6518165529639,4,1,0,80,0,0
28278,-99.2986536095557,4,1,0,80,0,0
28449,-98.947985023233,4,1,0,80,0,0
28534,-98.773626651495,4,1,0,80,0,0
28619,-98.5997844608712,4,1,0,80,0,0
28960,-97.9107797810323,4,1,0,80,0,0
29216,-97.4002888892568,4,1,0,80,0,0
29387,-97.0628773319356,4,1,0,80,0,0
29472,-96.8949997335387,4,1,0,80,0,0
29557,-96.7277954091054,4,1,0,80,0,0
29643,-96.5611671541396,4,1,0,80,0,0
29813,-96.2295343837749,4,1,0,80,0,0
29984,-95.9001717572076,4,1,0,80,0,0
30325,-95.2482550519674,4,1,0,80,0,0
30581,-94.7649922956061,4,1,0,80,0,0
30751,-94.4456512499882,4,1,0,80,0,0
30837,-94.2866975612746,4,1,0,80,0,0
31007,-93.9704782345578,4,1,0,80,0,0
31178,-93.6564606099658,4,1,0,80,0,0
31263,-93.5001500677408,4,1,0,80,0,0
31348,-93.3444475455544,4,1,0,80,0,0
31689,-92.7266168972005,4,1,0,80,0,0
31945,-92.2686271904572,4,1,0,80,0,0
32116,-91.9657776948042,4,1,0,80,0,0
32201,-91.8151393983354,4,1,0,80,0,0
32286,-91.6649937805302,4,1,0,80,0,0
32372,-91.5152546778022,4,1,0,80,0,0
32542,-91.2173225344186,4,1,0,80,0,0
32713,-90.9214066268977,4,1,0,80,0,0
32883,-125.023285586941,4,1,0,80,0,0
34077,-100,4,1,0,80,0,0
34163,-99.6888710335044,4,1,0,80,0,0
34248,-99.379672086834,4,1,0,80,0,0
34333,-99.0723852568402,4,1,0,80,0,0
34418,-98.7669928611218,4,1,0,80,0,0
34589,-98.1618217263523,4,1,0,80,0,0
34674,-97.8620086960181,4,1,0,80,0,0
34759,-97.5641166983913,4,1,0,80,0,0
34930,-96.9735524030531,4,1,0,80,0,0
35015,-96.6809432192821,4,1,0,80,0,0
35101,-96.3900945683218,4,1,0,80,0,0
35271,-95.8136156896712,4,1,0,80,0,0
35442,-95.2439912946992,4,1,0,80,0,0
35527,-94.9617114379482,4,1,0,80,0,0
35612,-94.6810998535284,4,1,0,80,0,0
35698,-94.4021417957931,4,1,0,80,0,0
35783,-94.1248226923653,4,1,0,80,0,0
35953,-93.5750439100893,4,1,0,80,0,0
36039,-93.3025559302172,4,1,0,80,0,0
36124,-93.0317368467079,4,1,0,80,0,0
36295,-92.4946168133015,4,1,0,80,0,0
36380,-92.2283759044145,4,1,0,80,0,0
36465,-91.9636633173501,4,1,0,80,0,0
36636,-91.4387707703168,4,1,0,80,0,0
36806,-90.9198359806159,4,1,0,80,0,0
36891,-90.6625711361199,4,1,0,80,0,0
36977,-90.4067580859804,4,1,0,80,0,0
37062,-90.1523845756482,4,1,0,80,0,0
37147,-89.8994384881072,4,1,0,80,0,0
37318,-89.3977807894897,4,1,0,80,0,0
37403,-89.1490456148922,4,1,0,80,0,0
37488,-88.9017697675308,4,1,0,80,0,0
37659,-88.4111543048717,4,1,0,80,0,0
37744,-88.1678716275789,4,1,0,80,0,0
37830,-87.9259241674074,4,1,0,80,0,0
38000,-87.4459911697038,4,1,0,80,0,0
38171,-86.9712690412722,4,1,0,80,0,0
38256,-86.7358356043666,4,1,0,80,0,0
38341,-86.5016733748714,4,1,0,80,0,0
38427,-86.2687720848057,4,1,0,80,0,0
38512,-86.0371215764754,4,1,0,80,0,0
38682,-85.5775328168444,4,1,0,80,0,0
38768,-85.3496476339797,4,1,0,80,0,0
38853,-85.1229004436606,4,1,0,80,0,0
39024,-84.67300133614,4,1,0,80,0,0
39109,-84.4498304669653,4,1,0,80,0,0
39194,-84.2278329189324,4,1,0,80,0,0
39365,-83.7873209674419,4,1,0,80,0,0
39450,-83.5687883946352,4,1,0,80,0,0
39535,-83.3513928017737,4,1,0,80,0,0
39706,-82.1937174410137,4,1,0,80,0,0
39876,-81.0848504308849,4,1,0,80,0,0
40047,-80.0055683875598,4,1,0,80,0,0
40217,-78.9545782206954,4,1,0,80,0,0
40388,-77.9308426116496,4,1,0,80,0,0
40473,-77.4288661007133,4,1,0,80,0,0
40559,-76.9333149719155,4,1,0,80,0,0
40729,-75.9610593225489,4,1,0,80,0,0
40900,-75.0130147580605,4,1,0,80,0,0
41070,-74.0883429401218,4,1,0,80,0,0
41156,-73.6345033610469,4,1,0,80,0,0
41241,-73.1861900586807,4,1,0,80,0,0
41411,-72.3057433898089,4,1,0,80,0,0
41582,-71.4462798993751,4,1,0,80,0,0
41752,-70.6069585981977,4,1,0,80,0,0
41838,-70.194649763795,4,1,0,80,0,0
41923,-69.787128322478,4,1,0,80,0,0
42094,-68.9861179234903,4,1,0,80,0,0
42264,-68.2032867163869,4,1,0,80,0,0
42349,-67.818541996293,4,1,0,80,0,0
42435,-67.4380682500226,4,1,0,80,0,0
42520,-67.0618397342742,4,1,0,80,0,0
42605,-66.689785792408,4,1,0,80,0,0
42691,-66.3218373271238,4,1,0,80,0,0
42776,-65.9579267576798,4,1,0,80,0,0
42861,-65.5979879785127,4,1,0,80,0,0
42946,-65.2419563192054,4,1,0,80,0,0
43032,-64.8897685057509,4,1,0,80,0,0
43117,-64.541404278966,4,1,0,80,0,0
43202,-64.1967192908574,4,1,0,80,0,0
43288,-63.8556963431758,4,1,0,80,0,0
43373,-63.5182773843173,4,1,0,80,0,0
43458,-63.1844055832268,4,1,0,80,0,0
43543,-62.8540252974881,4,1,0,80,0,0
43629,-62.5270820424096,4,1,0,80,0,0
44140,-62.5,4,1,0,80,0,0
44197,-63.7755102040816,4,1,0,80,0,0
44254,-65.1041666666667,4,1,0,80,0,0
44311,-66.4893617021277,4,1,0,80,0,0
44908,-76.6871165644172,4,1,0,80,0,0
66825,-71.4285714285714,4,1,0,80,0,1
66910,-72.7272727272727,4,1,0,80,0,1
66967,-73.6196499680123,4,1,0,80,0,1
67024,-74.5341429728837,4,1,0,80,0,1
67081,-75.4716981132076,4,1,0,80,0,1
67166,-76.9230769230769,4,1,0,80,0,1
77123,-76.9230769230769,4,1,0,80,0,1
77208,-77.9081960980459,4,1,0,80,0,1
77293,-78.9189368356505,4,1,0,80,0,1
77379,-79.9561840111619,4,1,0,80,0,1
77464,-81.0210598040749,4,1,0,80,0,1
77549,-82.1147504368505,4,1,0,80,0,1
77635,-83.2383029374797,4,1,0,80,0,1
77720,-76.8420971745161,4,1,0,80,0,1
87463,-76.9230769230769,4,1,0,80,0,1
87548,-76.5051820785081,4,1,0,80,0,1
87633,-76.0918611384408,4,1,0,80,0,1
87719,-75.6829248725878,4,1,0,80,0,1
87804,-75.2784172261108,4,1,0,80,0,1
87889,-74.8781545230524,4,1,0,80,0,1
87975,-74.4821257794555,4,1,0,80,0,1
88060,-74.09031906255,4,1,0,80,0,1
88145,-73.7025585843213,4,1,0,80,0,1
88230,-73.3188895120995,4,1,0,80,0,1
88316,-72.9391410394995,4,1,0,80,0,1
88401,-72.5633060422739,4,1,0,80,0,1
88486,-72.1913764513174,4,1,0,80,0,1
88572,-71.8231885473616,4,1,0,80,0,1
88657,-71.4587882876188,4,1,0,80,0,0
88827,-100,4,1,0,80,0,0
89168,-100,4,1,0,80,0,0
91045,-104.327178377566,4,1,0,80,0,0
91386,-105.154461388333,4,1,0,80,0,0
91897,-106.4203390552,4,1,0,80,0,0
92068,-106.849136498703,4,1,0,80,0,0
92409,-107.717066045642,4,1,0,80,0,0
92750,-108.599211352527,4,1,0,80,0,0
92921,-109.045783962855,4,1,0,80,0,0
93262,-109.949917812436,4,1,0,80,0,0
93433,-110.407691441417,4,1,0,80,0,0
93774,-111.334646339929,4,1,0,80,0,0
94115,-112.277297979458,4,1,0,80,0,0
94626,-113.721654877522,4,1,0,80,0,0
95991,-117.761356610828,4,1,0,80,0,0
96161,-118.286501735854,4,1,0,80,0,0
96503,-119.351254322007,4,1,0,80,0,0
96673,-119.890707630924,4,1,0,80,0,0
96844,-120.435204655543,4,1,0,80,0,0
97355,-122.098631274343,4,1,0,80,0,0
97526,-122.663264805456,4,1,0,80,0,0
98208,-125,4,1,0,80,0,0
98294,-121.231224314134,4,1,0,80,0,0
98379,-117.682917500744,4,1,0,80,0,0
98464,-114.336545046884,4,1,0,80,0,0
98549,-111.175098556725,4,1,0,80,0,0
98635,-108.183895312608,4,1,0,80,0,0
98720,-105.349322551181,4,1,0,80,0,0
98805,-102.659602317233,4,1,0,80,0,0
98890,-100.103707440909,4,1,0,80,0,0
98976,-97.6720835604209,4,1,0,80,0,0
99061,-95.3557006021713,4,1,0,80,0,0
99146,-93.1467293854645,4,1,0,80,0,0
99232,-91.0377023540529,4,1,0,80,0,0
99317,-89.0221451488272,4,1,0,80,0,0
99402,-87.0938270508201,4,1,0,80,0,0
99487,-85.2473494467873,4,1,0,80,0,0
99573,-83.4775407850395,4,1,0,80,0,0
99829,-83.3333333333333,4,1,0,80,0,0
99914,-83.1062455174569,4,1,0,80,0,0
100084,-82.6558310382564,4,1,0,80,0,0
100255,-82.2102725023903,4,1,0,80,0,0
100340,-81.989256127877,4,1,0,80,0,0
100426,-81.7694249401652,4,1,0,80,0,0
100511,-81.5507694315096,4,1,0,80,0,0
100596,-81.3333463466687,4,1,0,80,0,0
100767,-80.9018288667434,4,1,0,80,0,0
100937,-80.4749308519157,4,1,0,80,0,0
101193,-79.8429329822373,4,1,0,80,0,0
101278,-79.634446038903,4,1,0,80,0,0
101449,-79.220784364986,4,1,0,80,0,0
101534,-79.0155297122096,4,1,0,80,0,0
101705,-78.6082565396174,4,1,0,80,0,0
101790,-78.4061595878972,4,1,0,80,0,0
101875,-78.2050991288734,4,1,0,80,0,0
101961,-78.0051280571185,4,1,0,80,0,0
102131,-77.6081178091228,4,1,0,80,0,0
102302,-77.2151879186028,4,1,0,80,0,0
102558,-76.6331677546022,4,1,0,80,0,0
102643,-76.4410864724503,4,1,0,80,0,0
102813,-76.0598560643284,4,1,0,80,0,0
102984,-75.6824093646386,4,1,0,80,0,0
103069,-75.4950588483984,4,1,0,80,0,0
103155,-75.3086336076827,4,1,0,80,0,0
103240,-75.1231268048331,4,1,0,80,0,0
103325,-74.9385878272756,4,1,0,80,0,0
103496,-74.572105260018,4,1,0,80,0,0
103666,-74.2092448393036,4,1,0,80,0,0
103922,-73.6715002537983,4,1,0,80,0,0
104007,-73.4939617361038,4,1,0,80,0,0
104178,-73.1414929495258,4,1,0,80,0,0
104263,-72.9664967033737,4,1,0,80,0,0
104434,-72.6190571286861,4,1,0,80,0,0
104519,-72.4465489361949,4,1,0,80,0,0
104604,-72.2748583954837,4,1,0,80,0,0
104690,-72.1040316969323,4,1,0,80,0,0
104860,-71.7646864636731,4,1,0,80,0,0
104945,-71.5962600977575,4,1,0,80,0,0
105031,-71.4285714285714,4,1,0,80,0,0
105201,-70.7070564228169,4,1,0,80,0,0
105287,-70.3517375823907,4,1,0,80,0,0
105372,-70.0000210000063,4,1,0,80,0,0
105542,-69.3069375551423,4,1,0,80,0,0
105713,-68.6274442522113,4,1,0,80,0,0
105883,-67.9611452540354,4,1,0,80,0,0
105969,-67.6328698452763,4,1,0,80,0,0
106054,-67.3077052514818,4,1,0,80,0,0
106225,-66.6666666666667,4,1,0,80,0,0
106395,-66.0377233891088,4,1,0,80,0,0
106566,-65.420579089882,4,1,0,80,0,0
106651,-65.1162911844263,4,1,0,80,0,0
106736,-64.8148208161871,4,1,0,80,0,0
106907,-64.2201775944791,4,1,0,80,0,0
107077,-63.6363462809965,4,1,0,80,0,0
107248,-63.0630744257792,4,1,0,80,0,0
107333,-62.7802746888139,4,1,0,80,0,0
107419,-62.5,4,1,0,80,0,0
107589,-61.9468916908156,4,1,0,80,0,0
107760,-61.4035249307522,4,1,0,80,0,0
107845,-61.1353818577086,4,1,0,80,0,0
107930,-60.8695705103974,4,1,0,80,0,0
108015,-60.6060606060606,4,1,0,80,0,0
108101,-60.344822384067,4,1,0,80,0,0
108186,-60.0858265947079,4,1,0,80,0,0
108271,-59.8290444882792,4,1,0,80,0,0
108357,-59.5744832956128,4,1,0,80,0,0
108442,-59.3220439528888,4,1,0,80,0,0
108527,-59.0717349427624,4,1,0,80,0,0
108612,-58.8235294117647,4,1,0,80,0,0
108698,-58.577400955866,4,1,0,80,0,0
108783,-58.3333236111127,4,1,0,80,0,0
108868,-58.0912718444966,4,1,0,80,0,0
108954,-57.8512540127076,4,1,0,80,0,0
109039,-57.6131782079306,4,1,0,80,0,0
109124,-57.1428571428571,4,1,0,80,0,0
109209,-58.1818181818182,4,1,0,80,0,0
109295,-59.2592592592593,4,1,0,80,0,0
109380,-60.377358490566,4,1,0,80,0,0
109465,-61.5384615384615,4,1,0,80,0,0
109551,-62.7450980392157,4,1,0,80,0,0
109636,-64,4,1,0,80,0,0
109721,-65.3061224489796,4,1,0,80,0,0
109806,-50,4,1,0,80,0,0
110489,-100,4,1,0,80,0,0
110915,-125,4,1,0,40,0,0
113175,-133.333333333333,4,1,0,40,0,0
114515,-142.857142857143,4,1,0,40,0,0
115910,-153.846153846154,4,1,0,40,0,0
117218,-166.666666666667,4,1,0,40,0,0
118559,-181.818181818182,4,1,0,40,0,0
120032,-200,4,1,0,40,0,0
120117,-183.908045977012,4,1,0,40,0,0
120203,-170.212765957447,4,1,0,40,0,0
120288,-158.415841584158,4,1,0,40,0,0
120373,-148.148148148148,4,1,0,50,0,0
120458,-139.130434782609,4,1,0,50,0,0
120544,-131.147540983607,4,1,0,50,0,0
120629,-124.031007751938,4,1,0,50,0,0
120714,-117.647058823529,4,1,0,60,0,0
120800,-111.888111888112,4,1,0,60,0,0
120885,-106.666666666667,4,1,0,60,0,0
120970,-101.910828025478,4,1,0,60,0,0
121055,-97.5609756097561,4,1,0,70,0,0
121141,-93.5672514619883,4,1,0,70,0,0
121226,-89.8876404494382,4,1,0,70,0,0
121311,-86.4864864864865,4,1,0,70,0,0
121397,-83.3333333333333,4,1,0,80,0,0
121575,-82.5958896981451,4,1,0,80,0,0
121660,-82.2320407278851,4,1,0,80,0,0
121746,-81.8713163024621,4,1,0,80,0,0
121916,-81.1594108800683,4,1,0,80,0,0
122002,-80.8080808080808,4,1,0,80,0,0
122087,-80.459779363193,4,1,0,80,0,0
122172,-80.1144675512372,4,1,0,80,0,0
122257,-79.772107044595,4,1,0,80,0,0
122428,-79.0960273229317,4,1,0,80,0,0
122598,-78.4313725490196,4,1,0,80,0,0
122684,-78.1032165247661,4,1,0,80,0,0
122769,-77.7777950617322,4,1,0,80,0,0
122940,-77.1349607267347,4,1,0,80,0,0
123025,-76.8175414392227,4,1,0,80,0,0
123110,-76.5027238794837,4,1,0,80,0,0
123281,-75.8807670331455,4,1,0,80,0,0
123366,-75.5735655759386,4,1,0,80,0,0
123451,-75.2688414845725,4,1,0,80,0,0
123537,-74.9665087122328,4,1,0,80,0,0
123622,-74.6666507377812,4,1,0,80,0,0
123792,-74.0740740740741,4,1,0,80,0,0
123963,-73.4908290794392,4,1,0,80,0,0
124048,-73.2026373446183,4,1,0,80,0,0
124134,-72.9166438802155,4,1,0,80,0,0
124304,-72.3514137104482,4,1,0,80,0,0
124389,-72.0720720720721,4,1,0,80,0,0
124475,-71.7948791584491,4,1,0,80,0,0
124645,-71.246841093183,4,1,0,80,0,0
124730,-70.9758972950376,4,1,0,80,0,0
124816,-70.7070564228169,4,1,0,80,0,0
124901,-70.4402444840006,4,1,0,80,0,0
124986,-70.1754385964912,4,1,0,80,0,0
125157,-69.6517551545781,4,1,0,80,0,0
125327,-69.1357819844597,4,1,0,80,0,0
125413,-68.8806752510356,4,1,0,80,0,0
125498,-68.6274442522113,4,1,0,80,0,0
125669,-68.1265273115842,4,1,0,80,0,0
125754,-67.8788010431614,4,1,0,80,0,0
125839,-67.6328698452763,4,1,0,80,0,0
126010,-67.1462700918427,4,1,0,80,0,0
126095,-66.9056088979107,4,1,0,80,0,0
126180,-66.6666666666667,4,1,0,80,0,0
126266,-66.4294250466833,4,1,0,80,0,0
126351,-66.1938659468304,4,1,0,80,0,0
126521,-65.7276810156767,4,1,0,80,0,0
126692,-65.2680591824653,4,1,0,80,0,0
126777,-65.0406504065041,4,1,0,80,0,0
126863,-64.8148208161871,4,1,0,80,0,0
127033,-64.3678338485978,4,1,0,80,0,0
127118,-64.1466032128468,4,1,0,80,0,0
127204,-63.926928963118,4,1,0,80,0,0
127374,-63.4920634920635,4,1,0,80,0,0
127459,-63.2768418781326,4,1,0,80,0,0
127545,-63.0630744257792,4,1,0,80,0,0
127715,-62.639804213028,4,1,0,80,0,0
127801,-62.4303121640469,4,1,0,80,0,0
127886,-62.2222166913585,4,1,0,80,0,0
128056,-61.8101599832371,4,1,0,80,0,0
128142,-61.6061714598322,4,1,0,80,0,0
128227,-61.4035249307522,4,1,0,80,0,0
128398,-61.0021680170513,4,1,0,80,0,0
128483,-60.8034692027388,4,1,0,80,0,0
128568,-60.6060606060606,4,1,0,80,0,0
128739,-60.2150641230218,4,1,0,80,0,0
128824,-60.0214516668257,4,1,0,80,0,0
128909,-59.8290444882792,4,1,0,80,0,0
129080,-59.4479779662014,4,1,0,80,0,0
129165,-59.2592592592593,4,1,0,80,0,0
129250,-59.0717349427624,4,1,0,80,0,0
129421,-58.7002244109579,4,1,0,80,0,0
129506,-58.5161817723264,4,1,0,80,0,0
129591,-58.3333236111127,4,1,0,80,0,0
129677,-58.1516047226081,4,1,0,80,0,0
129762,-57.9710144927536,4,1,0,80,0,0
129847,-57.7915424389302,4,1,0,80,0,0
129933,-57.6131782079306,4,1,0,80,0,0
130018,-57.435911573968,4,1,0,80,0,0
130103,-57.2596996499715,4,1,0,80,0,0
130188,-57.0845982328892,4,1,0,80,0,0
130274,-56.9105644788159,4,1,0,80,0,0
130359,-56.7375886524823,4,1,0,80,0,0
130444,-56.5656611366191,4,1,0,80,0,0
130530,-56.3947724301748,4,1,0,80,0,0
130615,-56.2249131465654,4,1,0,80,0,0
130700,-56.0560425891389,4,1,0,80,0,0
130785,-55.8882146286284,4,1,0,80,0,0
130871,-55.7213885992925,4,1,0,80,0,0
130956,-55.5555555555556,4,1,0,80,0,0
131638,-33.3333333333333,4,1,0,80,0,0
132320,-50,4,1,0,80,0,1
132406,-25,4,1,0,80,0,1
134538,-71.4285714285714,4,1,0,80,0,0
134708,-73.1707138608015,4,1,0,80,0,0
134879,-75.0000187500047,4,1,0,80,0,0
134964,-75.9493478609246,4,1,0,80,0,0
135049,-76.9230769230769,4,1,0,80,0,1
136755,-71.4285714285714,4,1,0,80,0,1
136812,-72.5490395232657,4,1,0,80,0,1
136869,-73.7051660687949,4,1,0,80,0,1
136926,-74.8987930059507,4,1,0,80,0,1
137011,-76.7634679585447,4,1,0,80,0,1
137181,-76.9230769230769,4,1,0,80,0,1
137267,-76.0966671181736,4,1,0,80,0,1
137352,-75.2878820389464,4,1,0,80,0,1
137437,-74.496052826641,4,1,0,80,0,1
137523,-73.7207061559001,4,1,0,80,0,1
137608,-72.9613859161178,4,1,0,80,0,1
137693,-72.2174959883181,4,1,0,80,0,1
137778,-71.488621870943,4,1,0,80,0,0
137949,-100.117738460429,4,1,0,80,0,0
139740,-100,4,1,0,80,0,0
139996,-88.7264996774792,4,1,0,80,0,0
140166,-82.524251814502,4,1,0,80,0,0
140337,-77.1324618907789,4,1,0,80,0,0
140507,-62.6381562834527,4,1,0,80,0,1
140678,-76.9230769230769,4,1,0,80,0,1
140763,-76.5305927217876,4,1,0,80,0,1
140849,-76.1421513051145,4,1,0,80,0,1
140934,-75.7575757575758,4,1,0,80,0,1
141019,-75.3768654831996,4,1,0,80,0,1
141104,-75.0000187500047,4,1,0,80,0,1
141190,-74.6268656716418,4,1,0,80,0,1
141275,-74.2574073620279,4,1,0,80,0,1
141445,-73.5294117647059,4,1,0,80,0,1
141531,-73.1707138608015,4,1,0,80,0,1
141616,-72.8155516542601,4,1,0,80,0,1
141701,-72.463768115942,4,1,0,80,0,1
141787,-72.1153672799598,4,1,0,80,0,1
141872,-71.7703520981704,4,1,0,80,0,1
141957,-71.4285714285714,4,1,0,80,0,1
142042,-71.0900305473861,4,1,0,80,0,1
142128,-70.7547336685693,4,1,0,80,0,1
142213,-70.4225352112676,4,1,0,80,0,1
142298,-70.0934415669529,4,1,0,80,0,1
142384,-69.7674580854554,4,1,0,80,0,1
142469,-69.4444444444444,4,1,0,80,0,1
142554,-69.1244080358507,4,1,0,80,0,1
142639,-68.8073552310448,4,1,0,80,0,1
142810,-68.1818026859539,4,1,0,80,0,1
142895,-67.8733185233752,4,1,0,80,0,1
142981,-67.5675675675676,4,1,0,80,0,1
143066,-67.2645589092917,4,1,0,80,0,1
143151,-66.9643006616743,4,1,0,80,0,1
143236,-66.6666666666667,4,1,0,80,0,1
143322,-67.2239532390181,4,1,0,80,0,1
143407,-67.7906354016256,4,1,0,80,0,1
143492,-68.3669995227984,4,1,0,80,0,1
143577,-68.9532007731033,4,1,0,80,0,1
143720,-69.9528657590515,4,1,0,80,0,1
143833,-70.7737624676829,4,1,0,80,0,1
144004,-72.0418015349226,4,1,0,80,0,1
144174,-73.3561617708764,4,1,0,80,0,1
144260,-74.0314648531919,4,1,0,80,0,1
144345,-74.7193168861173,4,1,0,80,0,1
144430,-75.4200709401187,4,1,0,80,0,1
144516,-76.1340934561224,4,1,0,80,0,1
144601,-76.8618239618273,4,1,0,80,0,1
148097,-76.9230769230769,4,1,0,80,0,1
148183,-75.2878820389464,4,1,0,80,0,1
148268,-73.7207061559001,4,1,0,80,0,1
148353,-72.2174959883181,4,1,0,80,0,1
148438,-70.7743635438422,4,1,0,80,0,1
148524,-69.3877777592744,4,1,0,80,0,1
148609,-68.0544326574167,4,1,0,80,0,1
148694,-66.7714087498589,4,1,0,80,0,0
148950,-83.4970571462209,4,1,0,80,0,0
150059,-66.7714087498589,4,1,0,80,0,0
150144,-83.4970571462209,4,1,0,80,0,0
151423,-66.7714087498589,4,1,0,80,0,0
152958,-66.0414304309666,4,1,0,80,0,0
153044,-65.4278128398157,4,1,0,80,0,0
153129,-64.8254509906625,4,1,0,80,0,0
153214,-64.2341205224803,4,1,0,80,0,0
153299,-63.6534806359747,4,1,0,80,0,0
153385,-63.0832440179737,4,1,0,80,0,0
153470,-62.523133559417,4,1,0,80,0,0
153555,-61.9728819063354,4,1,0,80,0,0
153641,-61.4321932951676,4,1,0,80,0,0
153726,-60.9008947559458,4,1,0,80,0,0
153811,-60.3787073281033,4,1,0,80,0,0
153896,-59.865398637703,4,1,0,80,0,0
153982,-59.3607441462886,4,1,0,80,0,0
154067,-58.8644921730828,4,1,0,80,0,0
155517,-71.4889796163472,4,1,0,50,0,0
156881,-76.9931406810967,4,1,0,50,0,0
158246,-83.4155671799783,4,1,0,50,0,0
159610,-91.0069647630133,4,1,0,50,0,0
160975,-100.118440114656,4,1,0,50,0,0
162339,-111.257352720298,4,1,0,50,0,0
163704,-125.185117492493,4,1,0,50,0,0
165068,-142.857142857143,4,1,0,50,0,0
165409,-144.795122141925,4,1,0,50,0,0
165921,-147.802618471189,4,1,0,50,0,0
166262,-149.878074186649,4,1,0,50,0,0
166433,-150.937928286372,4,1,0,50,0,0
166774,-153.103015363888,4,1,0,50,0,0
167285,-156.469546332197,4,1,0,50,0,0
167712,-159.390236710441,4,1,0,50,0,0
167797,-159.987456983373,4,1,0,50,0,0
168138,-162.422037422037,4,1,0,50,0,0
169162,-170.191618743543,4,1,0,50,0,0
169503,-172.949339679421,4,1,0,50,0,0
170014,-177.257507298578,4,1,0,50,0,0
170526,-181.78579089544,4,1,0,50,0,0
170867,-184.935522230174,4,1,0,50,0,0
171379,-189.870413442825,4,1,0,50,0,0
171720,-193.309182572791,4,1,0,50,0,0
171891,-195.075513731365,4,1,0,50,0,0
172232,-198.707210885976,4,1,0,50,0,0
172743,-204.415372035977,4,1,0,50,0,0
173170,-209.42890830993,4,1,0,50,0,0
173255,-210.461626531634,4,1,0,50,0,0
173596,-214.695014996447,4,1,0,50,0,0
174620,-228.482124700974,4,1,0,50,0,0
174961,-233.480114498648,4,1,0,50,0,0
175472,-241.40070344165,4,1,0,50,0,0
175984,-249.878184385112,4,1,0,50,0,0
188265,-166.612517598447,4,1,0,55,0,0
189629,-124.969538674948,4,1,0,60,0,0
190993,-99.9805038017586,4,1,0,65,0,0
192358,-83.31979386683,4,1,0,70,0,0
193722,-71.4186238345373,4,1,0,75,0,0
195087,-62.4923837407316,4,1,0,80,0,0
196451,-55.5495376889726,4,1,0,85,0,0
197475,-71.4285714285714,4,1,0,80,0,0
197560,-68.9655172413793,4,1,0,80,0,0
197645,-66.6666666666667,4,1,0,80,0,0
197731,-64.5161290322581,4,1,0,80,0,0
197816,-62.5,4,1,0,80,0,0
197987,-100,4,1,0,80,0,0
198328,-100,4,1,0,80,0,0
198839,-98.5804416403786,4,1,0,80,0,0
199010,-98.116169544741,4,1,0,80,0,0
199180,-97.65625,4,1,0,80,0,0
199351,-97.2006220839813,4,1,0,80,0,0
199522,-96.7492260061919,4,1,0,80,0,0
199692,-96.3020030816641,4,1,0,80,0,0
199863,-95.8588957055215,4,1,0,80,0,0
200204,-94.9848024316109,4,1,0,80,0,0
200545,-94.1265060240964,4,1,0,80,0,0
201057,-92.8677563150074,4,1,0,80,0,0
201227,-92.4556213017752,4,1,0,80,0,0
201568,-91.6422287390029,4,1,0,80,0,0
201909,-90.8430232558139,4,1,0,80,0,0
202080,-90.4486251808973,4,1,0,80,0,0
202251,-90.0576368876081,4,1,0,80,0,0
202421,-89.6700143472023,4,1,0,80,0,0
202592,-89.2857142857143,4,1,0,80,0,0
202762,-88.9046941678521,4,1,0,80,0,0
202933,-88.5269121813031,4,1,0,80,0,0
203274,-87.7808988764045,4,1,0,80,0,0
203786,-86.6851595006935,4,1,0,80,0,0
203956,-86.3259668508287,4,1,0,80,0,0
204127,-85.9697386519945,4,1,0,80,0,0
204297,-85.6164383561644,4,1,0,80,0,0
204468,-85.2660300136426,4,1,0,80,0,0
204638,-84.9184782608696,4,1,0,80,0,0
204980,-84.2318059299191,4,1,0,80,0,0
205150,-83.8926174496644,4,1,0,80,0,0
205321,-83.5561497326203,4,1,0,80,0,0
205491,-83.2223701731025,4,1,0,80,0,0
205662,-82.8912466843501,4,1,0,80,0,0
206003,-82.2368421052632,4,1,0,80,0,0
206515,-81.2743823146944,4,1,0,80,0,0
206685,-80.9585492227979,4,1,0,80,0,0
207026,-80.3341902313625,4,1,0,80,0,0
207367,-79.719387755102,4,1,0,80,0,0
207538,-79.415501905972,4,1,0,80,0,0
207708,-79.1139240506329,4,1,0,80,0,0
207879,-78.8146279949559,4,1,0,80,0,0
208050,-78.5175879396985,4,1,0,80,0,0
208220,-78.2227784730914,4,1,0,80,0,0
208391,-77.930174563591,4,1,0,80,0,0
208732,-77.3514851485149,4,1,0,80,0,0
209244,-76.499388004896,4,1,0,80,0,0
209585,-75.9416767922236,4,1,0,80,0,0
209755,-75.6658595641646,4,1,0,80,0,0
209926,-75.3920386007238,4,1,0,80,0,0
210096,-75.1201923076923,4,1,0,80,0,0
210437,-74.582338902148,4,1,0,80,0,0
210608,-74.3162901307967,4,1,0,80,0,0
210949,-73.7898465171192,4,1,0,80,0,0
211120,-73.5294117647059,4,1,0,80,0,0
211461,-73.0140186915888,4,1,0,80,0,0
211973,-72.2543352601156,4,1,0,80,0,0
212143,-72.0046082949309,4,1,0,80,0,0
212314,-71.7566016073479,4,1,0,80,0,0
212484,-71.5102974828375,4,1,0,80,0,0
212655,-71.2656784492588,4,1,0,80,0,0
212825,-71.0227272727273,4,1,0,80,0,0
213166,-70.5417607223476,4,1,0,80,0,0
213508,-70.067264573991,4,1,0,80,0,0
213678,-69.8324022346369,4,1,0,80,0,0
213849,-69.5991091314031,4,1,0,80,0,0
214190,-69.1371681415929,4,1,0,80,0,0
214701,-68.4556407447974,4,1,0,80,0,0
214872,-68.2314410480349,4,1,0,80,0,0
215043,-68.0087051142546,4,1,0,80,0,0
215384,-67.5675675675676,4,1,0,80,0,0
215554,-67.3491379310345,4,1,0,80,0,0
215895,-66.9164882226981,4,1,0,80,0,0
216066,-66.7022411953042,4,1,0,80,0,0
216407,-66.2778366914104,4,1,0,80,0,0
216578,-66.0676532769556,4,1,0,80,0,0
216919,-65.6512605042017,4,1,0,80,0,0
217430,-65.0364203954214,4,1,0,80,0,0
217601,-64.8340248962656,4,1,0,80,0,0
217686,-64.7332988089073,4,1,0,80,0,0
217772,-64.6328852119959,4,1,0,80,0,0
217942,-64.4329896907216,4,1,0,80,0,0
218113,-64.2343268242549,4,1,0,80,0,0
218283,-64.0368852459016,4,1,0,80,0,0
218369,-63.9386189258312,4,1,0,80,0,0
218454,-63.8406537282942,4,1,0,80,0,0
218539,-63.7429882712902,4,1,0,80,0,0
218624,-63.6456211812627,4,1,0,80,0,0
218710,-63.5485510930351,4,1,0,80,0,0
218795,-63.4517766497462,4,1,0,80,0,0
218880,-63.3552965027876,4,1,0,80,0,0
218966,-63.2591093117409,4,1,0,80,0,0
219051,-63.1632137443153,4,1,0,80,0,0
219136,-63.0676084762866,4,1,0,80,0,0
219221,-62.9722921914358,4,1,0,80,0,0
219307,-62.8772635814889,4,1,0,80,0,0
219392,-62.7825213460573,4,1,0,80,0,0
219477,-62.6880641925777,4,1,0,80,0,0
219562,-62.5938908362544,4,1,0,80,0,0
219648,-62.5,4,1,0,80,0,0
219733,-83.3333333333333,4,1,0,80,0,0
229370,-83.3333333333333,4,1,0,80,0,0
229455,-82.3586869060394,4,1,0,80,0,0
229540,-81.4065753719059,4,1,0,80,0,0
229626,-80.4761613514845,4,1,0,80,0,0
229711,-79.5668381332029,4,1,0,80,0,0
229796,-78.6778347230461,4,1,0,80,0,0
229967,-76.9581224680778,4,1,0,80,0,0
230052,-76.1261532160635,4,1,0,80,0,0
230137,-75.3119231577386,4,1,0,80,0,0
230223,-74.5149819822774,4,1,0,80,0,0
230308,-73.7347304590061,4,1,0,80,0,0
230393,-72.9706497452595,4,1,0,80,0,0
230478,-72.2222422839562,4,1,0,80,0,0
230564,-71.4285714285714,4,1,0,80,0,0
230820,-70.7970115165499,4,1,0,80,0,0
230905,-70.5889660975314,4,1,0,80,0,0
231075,-70.1765220234979,4,1,0,80,0,0
231246,-69.768869688496,4,1,0,80,0,0
231331,-69.5668144033915,4,1,0,80,0,0
231502,-69.1661467677968,4,1,0,80,0,0
231587,-68.9675624863358,4,1,0,80,0,0
231758,-68.5737953469937,4,1,0,80,0,0
231928,-68.1844990723499,4,1,0,80,0,0
232184,-67.608772373433,4,1,0,80,0,0
232269,-67.4190179611006,4,1,0,80,0,0
232440,-67.04268674908,4,1,0,80,0,0
232610,-66.670533557613,4,1,0,80,0,0
232696,-66.4860020371311,4,1,0,80,0,0
232781,-66.3024891943518,4,1,0,80,0,0
232866,-66.1199866173147,4,1,0,80,0,0
232952,-65.9384859864233,4,1,0,80,0,0
233122,-65.5784147336336,4,1,0,80,0,0
233293,-65.2222971553947,4,1,0,80,0,0
233549,-64.695314183089,4,1,0,80,0,0
233634,-64.5215405163014,4,1,0,80,0,0
233804,-64.1767787877777,4,1,0,80,0,0
233975,-63.8356818480685,4,1,0,80,0,0
234060,-63.6664894616043,4,1,0,80,0,0
234231,-63.3307811028549,4,1,0,80,0,0
234316,-63.1642510551588,4,1,0,80,0,0
234487,-62.8338045868677,4,1,0,80,0,0
234657,-62.5067585432675,4,1,0,80,0,0
234913,-62.0225811813565,4,1,0,80,0,0
234998,-61.8628512959339,4,1,0,80,0,0
235169,-61.5458470401064,4,1,0,80,0,0
235339,-61.2320750754226,4,1,0,80,0,0
235425,-61.0763857926554,4,1,0,80,0,0
235510,-60.9214862162091,4,1,0,80,0,0
235595,-60.7673703528153,4,1,0,80,0,0
235681,-60.6140322696985,4,1,0,80,0,0
235851,-60.3096660111006,4,1,0,80,0,0
236022,-60.0083411594212,4,1,0,80,0,0
236192,-59.7100123540016,4,1,0,80,0,0
236277,-59.561922063225,4,1,0,80,0,0
236363,-59.4145998307872,4,1,0,80,0,0
236533,-59.1221309507903,4,1,0,80,0,0
236704,-58.8325273277089,4,1,0,80,0,0
236874,-58.5457470612962,4,1,0,80,0,0
236960,-58.4034028158617,4,1,0,80,0,0
237045,-58.2617490643163,4,1,0,80,0,0
237216,-57.9804930429206,4,1,0,80,0,0
237386,-57.7019394775897,4,1,0,80,0,0
237557,-57.4260496046216,4,1,0,80,0,0
237642,-57.2890916413497,4,1,0,80,0,0
237727,-57.1527853981492,4,1,0,80,0,0
237898,-56.8820771969422,4,1,0,80,0,0
238068,-56.6139534146423,4,1,0,80,0,0
238239,-56.3483454717061,4,1,0,80,0,0
238324,-56.2164739003777,4,1,0,80,0,0
238409,-56.0852181238261,4,1,0,80,0,0
238580,-55.8245367819499,4,1,0,80,0,0
238751,-55.5555555555556,4,1,0,80,0,0
238836,-56.7375886524823,4,1,0,80,0,0
238921,-57.9710144927536,4,1,0,80,0,0
239006,-59.2592592592593,4,1,0,80,0,0
239092,-60.6060606060606,4,1,0,80,0,0
239177,-62.015503875969,4,1,0,80,0,0
239262,-63.4920634920635,4,1,0,80,0,0
239348,-65.0406504065041,4,1,0,80,0,0
239433,-66.6666666666667,4,1,0,80,0,0
239518,-68.3760683760684,4,1,0,80,0,0
239603,-70.1754385964912,4,1,0,80,0,0
239689,-72.0720720720721,4,1,0,80,0,0
239774,-74.0740740740741,4,1,0,80,0,0
239859,-76.1904761904762,4,1,0,80,0,0
239945,-78.4313725490196,4,1,0,80,0,0
240030,-80.8080808080808,4,1,0,80,0,0
240115,-83.3333333333333,4,1,0,80,0,0
240456,-142.857142857143,4,1,0,40,0,0
240542,-133.394694892984,4,1,0,40,0,0
240627,-125.107905568553,4,1,0,40,0,0
240712,-117.790347316618,4,1,0,40,0,0
240797,-111.281619281098,4,1,0,50,0,0
240883,-105.454530115705,4,1,0,50,0,0
240968,-100.207328963626,4,1,0,50,0,0
241053,-95.4575567065616,4,1,0,50,0,0
241138,-91.137680782982,4,1,0,60,0,0
241224,-87.1917879286457,4,1,0,60,0,0
241309,-83.573467764042,4,1,0,60,0,0
241394,-80.2434908486311,4,1,0,60,0,0
241480,-77.1687108658175,4,1,0,70,0,0
285143,-71.4285714285714,4,1,0,80,0,1
285207,-72.7272727272727,4,1,0,80,0,1
285264,-73.6196499680123,4,1,0,80,0,1
285321,-74.5341429728837,4,1,0,80,0,1
285378,-75.4716981132076,4,1,0,80,0,1
285463,-76.9230769230769,4,1,0,80,0,1
295441,-76.9230769230769,4,1,0,80,0,1
295526,-77.9081960980459,4,1,0,80,0,1
295611,-78.9189368356505,4,1,0,80,0,1
295697,-79.9561840111619,4,1,0,80,0,1
295782,-81.0210598040749,4,1,0,80,0,1
295867,-82.1147504368505,4,1,0,80,0,1
295953,-83.2383029374797,4,1,0,80,0,1
296038,-71.3587418026645,4,1,0,80,0,1
305781,-71.4285714285714,4,1,0,80,0,1
305866,-71.0681038532415,4,1,0,80,0,1
305951,-70.7113062428891,4,1,0,80,0,1
306037,-70.3580238401128,4,1,0,80,0,1
306122,-70.008302984734,4,1,0,80,0,1
306207,-69.6619930435534,4,1,0,80,0,1
306293,-69.3190924189868,4,1,0,80,0,1
306378,-68.9795985939199,4,1,0,80,0,1
306463,-68.6433668198558,4,1,0,80,0,1
306548,-68.3104436421762,4,1,0,80,0,1
306634,-67.9806880461398,4,1,0,80,0,1
306719,-67.6541008194941,4,1,0,80,0,1
306804,-67.330681851082,4,1,0,80,0,1
306890,-67.0102954617948,4,1,0,80,0,1
306975,-66.6929881659962,4,1,0,80,0,0
307465,-100,4,1,0,80,0,0
309342,-104.327178377566,4,1,0,80,0,0
309683,-105.154461388333,4,1,0,80,0,0
310194,-106.4203390552,4,1,0,80,0,0
310365,-106.849136498703,4,1,0,80,0,0
310706,-107.717066045642,4,1,0,80,0,0
311047,-108.599211352527,4,1,0,80,0,0
311218,-109.045783962855,4,1,0,80,0,0
311559,-109.949917812436,4,1,0,80,0,0
311730,-110.407691441417,4,1,0,80,0,0
312071,-111.334646339929,4,1,0,80,0,0
312412,-112.277297979458,4,1,0,80,0,0
312923,-113.721654877522,4,1,0,80,0,0
314288,-117.761356610828,4,1,0,80,0,0
314458,-118.286501735854,4,1,0,80,0,0
314800,-119.351254322007,4,1,0,80,0,0
314970,-119.890707630924,4,1,0,80,0,0
315141,-120.435204655543,4,1,0,80,0,0
315652,-122.098631274343,4,1,0,80,0,0
315823,-122.663264805456,4,1,0,80,0,0
316505,-124.975473563313,4,1,0,80,0,0
316591,-121.231224314134,4,1,0,80,0,0
316676,-117.682917500744,4,1,0,80,0,0
316761,-114.336545046884,4,1,0,80,0,0
316846,-111.175098556725,4,1,0,80,0,0
316932,-108.183895312608,4,1,0,80,0,0
317017,-105.349322551181,4,1,0,80,0,0
317102,-102.659602317233,4,1,0,80,0,0
317187,-100.103707440909,4,1,0,80,0,0
317273,-97.6720835604209,4,1,0,80,0,0
317358,-95.3557006021713,4,1,0,80,0,0
317443,-93.1467293854645,4,1,0,80,0,0
317529,-91.0377023540529,4,1,0,80,0,0
317614,-89.0221451488272,4,1,0,80,0,0
317699,-87.0938270508201,4,1,0,80,0,0
317784,-85.2473494467873,4,1,0,80,0,0
317870,-83.4775407850395,4,1,0,80,0,0
318403,-100,4,1,0,80,0,0
318573,-98.876368943328,4,1,0,80,0,0
318659,-98.3240662900855,4,1,0,80,0,0
318744,-97.7778038518588,4,1,0,80,0,0
318914,-96.7032882019087,4,1,0,80,0,0
319255,-94.6236721933199,4,1,0,80,0,0
319426,-93.6170053417863,4,1,0,80,0,0
319597,-92.6316179501549,4,1,0,80,0,0
319767,-91.6666743055562,4,1,0,80,0,0
319938,-90.7216270379479,4,1,0,80,0,0
320023,-90.4977375565611,4,1,0,80,0,0
320108,-89.7959476884727,4,1,0,80,0,0
320194,-89.2857142857143,4,1,0,80,0,0
320279,-88.8888888888889,4,1,0,80,0,0
320620,-87.1287335751446,4,1,0,80,0,0
320791,-86.2745030372939,4,1,0,80,0,0
320961,-85.4368600245204,4,1,0,80,0,0
321132,-84.6153976331381,4,1,0,80,0,0
321302,-83.8095110385507,4,1,0,80,0,0
321387,-83.6820083682008,4,1,0,80,0,0
321473,-83.0188992524148,4,1,0,80,0,0
321643,-82.2429968032147,4,1,0,80,0,0
321984,-80.733968655844,4,1,0,80,0,0
322155,-80,4,1,0,80,0,0
322240,-79.63799751848,4,1,0,80,0,0
322326,-79.2792564239981,4,1,0,80,0,0
322496,-78.5714454081669,4,1,0,80,0,0
322667,-77.876100681338,4,1,0,80,0,0
322752,-77.5193798449612,4,1,0,80,0,0
322837,-77.1929553708928,4,1,0,80,0,0
322923,-76.6283524904215,4,1,0,80,0,0
323008,-76.5217497769391,4,1,0,80,0,0
323349,-75.213700927761,4,1,0,80,0,0
323690,-73.9495649177348,4,1,0,80,0,0
323861,-73.3333528888941,4,1,0,80,0,0
323946,-73.0290553399576,4,1,0,80,0,0
324031,-72.7272727272727,4,1,0,80,0,0
324202,-72.1311286213433,4,1,0,80,0,0
324372,-71.5447294071017,4,1,0,80,0,0
324543,-70.9677373569202,4,1,0,80,0,0
324713,-70.3999774720072,4,1,0,80,0,0
324884,-69.8412787100037,4,1,0,80,0,0
325055,-69.2913298530608,4,1,0,80,0,0
325225,-68.7500214843817,4,1,0,80,0,0
325310,-68.48250306288,4,1,0,80,0,0
325396,-68.2170584940812,4,1,0,80,0,0
325566,-67.6922951952686,4,1,0,80,0,0
325737,-67.1755889283881,4,1,0,80,0,0
325907,-66.6666666666667,4,1,0,80,0,0
327442,-55.5555555555556,4,1,0,80,0,0
328807,-100,4,1,0,80,0,0
330171,-125,4,1,0,80,0,0
331536,-166.666666666667,4,1,0,80,0,0
341087,-166.666666666667,4,1,0,80,0,0
341173,-160.03328692368,4,1,0,80,0,0
341258,-153.907480057438,4,1,0,80,0,0
341343,-148.233574608182,4,1,0,80,0,0
341428,-142.962935429361,4,1,0,80,0,0
341514,-138.054426577134,4,1,0,80,0,0
341599,-133.471609921212,4,1,0,80,0,0
341684,-129.183444366504,4,1,0,80,0,0
341770,-125.162084899945,4,1,0,80,0,0
341855,-121.383676808677,4,1,0,80,0,0
341940,-117.826571070042,4,1,0,80,0,0
342025,-114.472140342844,4,1,0,80,0,0
342111,-111.303294800133,4,1,0,80,0,0
342196,-108.305282265227,4,1,0,80,0,0
342281,-105.464428430257,4,1,0,80,0,0
342367,-102.768902541167,4,1,0,80,0,0
342452,-100.207730625587,4,1,0,80,0,0
342622,-125.324747752614,4,1,0,80,0,0
342793,-125,4,1,0,80,0,0
343219,-122.531300620744,4,1,0,80,0,0
343305,-122.049156518279,4,1,0,80,0,0
343475,-121.096309105595,4,1,0,80,0,0
343646,-120.158224349824,4,1,0,80,0,0
343816,-119.234419638386,4,1,0,80,0,0
344157,-117.429055236279,4,1,0,80,0,0
344584,-115.247736534454,4,1,0,80,0,0
344669,-114.821108712626,4,1,0,80,0,0
344840,-113.977389165537,4,1,0,80,0,0
345010,-113.145850658792,4,1,0,80,0,0
345095,-112.734741916355,4,1,0,80,0,0
345181,-112.326483664359,4,1,0,80,0,0
345522,-110.722843008295,4,1,0,80,0,0
345863,-109.164227755878,4,1,0,80,0,0
345948,-108.781376628321,4,1,0,80,0,0
346034,-108.40131902725,4,1,0,80,0,0
346119,-108.023791159765,4,1,0,80,0,0
346375,-106.906936442757,4,1,0,80,0,0
346545,-106.175146521702,4,1,0,80,0,0
346886,-104.741106170822,4,1,0,80,0,0
347142,-103.690769240341,4,1,0,80,0,0
347313,-103.002205277215,4,1,0,80,0,0
347398,-102.661288583962,4,1,0,80,0,0
347483,-102.322725877417,4,1,0,80,0,0
347569,-101.986284884409,4,1,0,80,0,0
347739,-101.320099577394,4,1,0,80,0,0
347824,-100.990208999238,4,1,0,80,0,0
347910,-100.662560976346,4,1,0,80,0,0
348251,-99.3726603949268,4,1,0,80,0,0
348677,-97.8061111214351,4,1,0,80,0,0
348763,-97.4986715805997,4,1,0,80,0,0
348933,-96.8896485037332,4,1,0,80,0,0
349104,-96.2881866912394,4,1,0,80,0,0
349274,-95.6940546240803,4,1,0,80,0,0
349615,-94.5276970878852,4,1,0,80,0,0
350042,-93.1090894024166,4,1,0,80,0,0
350127,-92.8304275862325,4,1,0,80,0,0
350298,-92.2781632954378,4,1,0,80,0,0
350468,-91.7323470271381,4,1,0,80,0,0
350553,-91.4619367430953,4,1,0,80,0,0
350639,-91.1930328522901,4,1,0,80,0,0
350980,-90.133207867908,4,1,0,80,0,0
351406,-88.8424538996507,4,1,0,80,0,0
351492,-88.5887894430511,4,1,0,80,0,0
351577,-88.3364913628996,4,1,0,80,0,0
351662,-88.08562627559,4,1,0,80,0,0
351833,-87.5882232378563,4,1,0,80,0,0
352003,-87.0964061409934,4,1,0,80,0,0
352344,-86.129083379843,4,1,0,80,0,0
352600,-85.4175938034661,4,1,0,80,0,0
352771,-84.9497861813882,4,1,0,80,0,0
353112,-84.0293766700839,4,1,0,80,0,0
353197,-83.8023471361386,4,1,0,80,0,0
353368,-83.3520180773857,4,1,0,80,0,0
353538,-166.741422404378,4,1,0,80,0,0
355585,-161.290322580645,4,1,0,80,0,0
356097,-181.818181818182,4,1,0,80,0,0
358314,-175.438596491228,4,1,0,80,0,0
358826,-200,4,1,0,80,0,0
360872,-192.307692307692,4,1,0,80,0,0
361555,-222.222222222223,4,1,0,80,0,0
363772,-212.765957446809,4,1,0,80,0,0
364284,-250,4,1,0,80,0,0
366501,-238.095238095238,4,1,0,80,0,0
367013,-285.714285714286,4,1,0,80,0,0
369742,1364.48916936722,4,1,0,80,1,0
369742,-71.4285714285714,4,1,0,80,0,0
375199,1492.53731343284,4,1,0,80,1,0
375199,-125,4,1,0,80,0,0
381169,1443.17498496693,4,1,0,80,1,0
381169,-166.666666666667,4,1,0,80,0,0
386941,1481.48148148148,4,1,0,80,1,0
386941,-250,4,1,0,80,0,0

[HitObjects]
342,112,1330,5,4,0:0:0:0:
313,129,12245,5,0,0:0:0:0:
313,129,12587,1,0,0:0:0:0:
310,128,13098,1,0,0:0:0:0:
310,128,13439,1,0,0:0:0:0:
310,128,13610,1,0,0:0:0:0:
309,127,13951,1,0,0:0:0:0:
318,118,14463,1,0,0:0:0:0:
309,125,14889,1,0,0:0:0:0:
309,125,14974,1,0,0:0:0:0:
310,125,15316,1,0,0:0:0:0:
302,132,16339,1,0,0:0:0:0:
302,132,16680,1,0,0:0:0:0:
280,142,17192,1,0,0:0:0:0:
280,141,17703,1,0,0:0:0:0:
280,141,18044,1,0,0:0:0:0:
280,141,18556,1,0,0:0:0:0:
279,142,18897,1,0,0:0:0:0:
279,142,19068,1,0,0:0:0:0:
279,142,19409,1,0,0:0:0:0:
284,131,19921,1,0,0:0:0:0:
279,133,20347,1,0,0:0:0:0:
279,133,20432,1,0,0:0:0:0:
277,128,20773,1,0,0:0:0:0:
277,128,21115,1,8,0:0:0:0:
277,128,21456,1,8,0:0:0:0:
273,129,21797,1,0,0:0:0:0:
272,128,22138,1,0,0:0:0:0:
250,134,22650,1,0,0:0:0:0:
250,134,22735,1,0,0:0:0:0:
253,149,22820,1,8,0:0:0:0:
253,149,22905,1,8,0:0:0:0:
253,149,22991,1,8,0:0:0:0:
253,149,23076,1,8,0:0:0:0:
253,149,23161,1,4,0:0:0:0:
249,132,23502,1,8,0:0:0:0:
249,132,23758,1,0,0:0:0:0:
249,132,23929,1,8,0:0:0:0:
249,132,24014,1,0,0:0:0:0:
254,119,24099,1,0,0:0:0:0:
249,132,24185,1,8,0:0:0:0:
249,132,24355,1,0,0:0:0:0:
249,132,24526,1,0,0:0:0:0:
247,127,24867,1,8,0:0:0:0:
247,127,25123,1,0,0:0:0:0:
254,119,25294,1,8,0:0:0:0:
254,119,25379,1,0,0:0:0:0:
254,119,25549,1,8,0:0:0:0:
256,109,25720,1,8,0:0:0:0:
256,109,25805,1,8,0:0:0:0:
248,110,25890,1,0,0:0:0:0:
248,110,26231,1,8,0:0:0:0:
247,108,26487,1,0,0:0:0:0:
247,108,26658,1,8,0:0:0:0:
252,113,26743,1,0,0:0:0:0:
260,104,26828,1,8,0:0:0:0:
259,104,26914,1,8,0:0:0:0:
260,104,27084,1,0,0:0:0:0:
259,104,27255,1,0,0:0:0:0:
269,108,27596,1,8,0:0:0:0:
269,108,27852,1,0,0:0:0:0:
269,108,28022,1,8,0:0:0:0:
270,98,28108,1,0,0:0:0:0:
270,99,28278,1,8,0:0:0:0:
270,99,28449,1,8,0:0:0:0:
270,99,28534,1,8,0:0:0:0:
270,99,28619,1,0,0:0:0:0:
275,101,28960,1,8,0:0:0:0:
275,103,29216,1,0,0:0:0:0:
275,103,29387,1,8,0:0:0:0:
275,103,29472,1,0,0:0:0:0:
275,103,29557,1,0,0:0:0:0:
275,103,29643,1,8,0:0:0:0:
255,99,29813,1,0,0:0:0:0:
275,103,29984,1,0,0:0:0:0:
255,99,30325,1,8,0:0:0:0:
255,99,30581,1,0,0:0:0:0:
255,99,30751,1,8,0:0:0:0:
255,99,30837,1,0,0:0:0:0:
255,99,31007,1,8,0:0:0:0:
255,99,31178,1,8,0:0:0:0:
255,99,31263,1,8,0:0:0:0:
255,99,31348,1,0,0:0:0:0:
257,99,31689,1,8,0:0:0:0:
257,99,31945,1,0,0:0:0:0:
257,99,32116,1,8,0:0:0:0:
257,99,32201,1,0,0:0:0:0:
257,99,32286,1,8,0:0:0:0:
257,99,32372,1,8,0:0:0:0:
257,99,32542,1,0,0:0:0:0:
257,99,32713,1,0,0:0:0:0:
252,98,33054,1,8,0:0:0:0:
252,98,33310,1,0,0:0:0:0:
252,98,33480,1,8,0:0:0:0:
252,98,33650,1,0,0:0:0:0:
255,90,33736,1,8,0:0:0:0:
260,93,34077,1,0,0:0:0:0:
260,93,34163,1,0,0:0:0:0:
260,93,34248,1,0,0:0:0:0:
260,93,34333,1,0,0:0:0:0:
267,93,34418,1,8,0:0:0:0:
260,93,34589,1,0,0:0:0:0:
260,93,34674,1,8,0:0:0:0:
260,93,34759,1,0,0:0:0:0:
260,93,34930,1,8,0:0:0:0:
260,93,35015,1,0,0:0:0:0:
260,93,35101,1,8,0:0:0:0:
268,94,35271,1,0,0:0:0:0:
268,94,35442,1,0,0:0:0:0:
268,94,35527,1,8,0:0:0:0:
268,94,35612,1,0,0:0:0:0:
268,94,35698,1,0,0:0:0:0:
268,94,35783,1,8,0:0:0:0:
268,94,35953,1,0,0:0:0:0:
256,92,36039,1,8,0:0:0:0:
268,94,36124,1,0,0:0:0:0:
256,92,36295,1,8,0:0:0:0:
256,92,36380,1,0,0:0:0:0:
256,92,36465,1,8,0:0:0:0:
266,88,36636,1,0,0:0:0:0:
266,88,36806,1,0,0:0:0:0:
266,88,36891,1,8,0:0:0:0:
266,88,36977,1,8,0:0:0:0:
266,88,37062,1,0,0:0:0:0:
266,88,37147,1,8,0:0:0:0:
266,88,37318,1,0,0:0:0:0:
266,88,37403,1,8,0:0:0:0:
266,88,37488,1,0,0:0:0:0:
266,88,37659,1,8,0:0:0:0:
272,94,37744,1,0,0:0:0:0:
266,88,37830,1,8,0:0:0:0:
266,88,38000,1,0,0:0:0:0:
266,88,38171,1,0,0:0:0:0:
266,88,38256,1,8,0:0:0:0:
266,88,38341,1,8,0:0:0:0:
266,88,38427,1,8,0:0:0:0:
266,88,38512,1,8,0:0:0:0:
266,88,38682,1,0,0:0:0:0:
266,88,38768,1,8,0:0:0:0:
266,88,38853,1,0,0:0:0:0:
266,88,39024,1,8,0:0:0:0:
253,76,39109,1,0,0:0:0:0:
264,78,39194,1,8,0:0:0:0:
259,78,39365,1,0,0:0:0:0:
264,78,39450,1,8,0:0:0:0:
266,83,39535,1,0,0:0:0:0:
264,78,39706,1,8,0:0:0:0:
264,78,39876,1,0,0:0:0:0:
264,78,40047,1,8,0:0:0:0:
270,76,40217,1,0,0:0:0:0:
270,76,40388,1,8,0:0:0:0:
270,76,40473,1,8,0:0:0:0:
270,76,40559,1,0,0:0:0:0:
270,76,40729,1,8,0:0:0:0:
270,76,40900,1,0,0:0:0:0:
270,76,41070,1,8,0:0:0:0:
270,76,41156,1,8,0:0:0:0:
270,76,41241,1,0,0:0:0:0:
270,76,41411,1,8,0:0:0:0:
270,76,41582,1,0,0:0:0:0:
270,76,41752,1,8,0:0:0:0:
270,76,41838,1,8,0:0:0:0:
270,76,41923,1,0,0:0:0:0:
270,76,42094,1,8,0:0:0:0:
270,76,42264,1,0,0:0:0:0:
272,76,42349,1,0,0:0:0:0:
270,76,42435,1,0,0:0:0:0:
272,76,42520,1,0,0:0:0:0:
272,76,42605,1,0,0:0:0:0:
272,76,42691,1,0,0:0:0:0:
270,76,42776,1,0,0:0:0:0:
272,76,42861,1,0,0:0:0:0:
278,74,42946,1,0,0:0:0:0:
270,76,43032,1,0,0:0:0:0:
272,76,43117,1,0,0:0:0:0:
278,74,43202,1,0,0:0:0:0:
272,76,43288,1,0,0:0:0:0:
278,74,43373,1,0,0:0:0:0:
278,74,43458,1,0,0:0:0:0:
278,74,43543,1,0,0:0:0:0:
278,74,43629,1,8,0:0:0:0:
277,102,44140,1,0,0:0:0:0:
277,102,44197,1,0,0:0:0:0:
277,102,44254,1,8,0:0:0:0:
277,102,44311,1,0,0:0:0:0:
294,91,44993,1,8,0:0:0:0:
294,91,45050,1,8,0:0:0:0:
286,94,45107,1,8,0:0:0:0:
286,94,45164,1,0,0:0:0:0:
276,95,45249,1,0,0:0:0:0:
275,95,45334,1,8,0:0:0:0:
265,75,45505,1,0,0:0:0:0:
295,85,45590,1,0,0:0:0:0:
281,68,45675,1,8,0:0:0:0:
281,73,45761,1,8,0:0:0:0:
281,68,45846,1,0,0:0:0:0:
281,73,45931,1,0,0:0:0:0:
281,68,46017,1,8,0:0:0:0:
274,72,46272,1,8,0:0:0:0:
274,72,46358,1,0,0:0:0:0:
263,74,46443,1,0,0:0:0:0:
282,60,46528,1,8,0:0:0:0:
276,65,46699,1,8,0:0:0:0:
278,63,46784,1,0,0:0:0:0:
279,57,46841,1,8,0:0:0:0:
279,57,46898,1,8,0:0:0:0:
278,63,46955,1,0,0:0:0:0:
300,48,47040,1,8,0:0:0:0:
275,56,47125,1,8,0:0:0:0:
331,64,47210,1,0,0:0:0:0:
274,55,47381,1,8,0:0:0:0:
280,46,47466,1,8,0:0:0:0:
297,43,47552,1,0,0:0:0:0:
297,43,47637,1,8,0:0:0:0:
304,63,47722,1,0,0:0:0:0:
292,65,47893,1,0,0:0:0:0:
292,65,47978,1,0,0:0:0:0:
307,62,48063,1,8,0:0:0:0:
307,62,48234,1,0,0:0:0:0:
268,67,48319,1,8,0:0:0:0:
297,67,48404,1,0,0:0:0:0:
295,59,48490,1,8,0:0:0:0:
294,59,48575,1,0,0:0:0:0:
295,59,48660,1,0,0:0:0:0:
295,59,48745,1,8,0:0:0:0:
290,58,49001,1,0,0:0:0:0:
290,58,49087,1,0,0:0:0:0:
295,66,49172,1,8,0:0:0:0:
286,66,49257,1,0,0:0:0:0:
295,65,49342,1,0,0:0:0:0:
296,65,49428,1,8,0:0:0:0:
318,65,49485,1,8,0:0:0:0:
318,61,49541,1,8,0:0:0:0:
318,61,49598,1,0,0:0:0:0:
301,56,49684,1,8,0:0:0:0:
308,59,49854,1,8,0:0:0:0:
305,59,49939,1,0,0:0:0:0:
308,59,50025,1,0,0:0:0:0:
305,59,50110,1,8,0:0:0:0:
308,59,50195,1,8,0:0:0:0:
305,59,50281,1,0,0:0:0:0:
308,59,50366,1,8,0:0:0:0:
305,59,50451,1,0,0:0:0:0:
305,59,50622,1,0,0:0:0:0:
305,59,50707,1,0,0:0:0:0:
305,59,50792,1,8,0:0:0:0:
305,59,50878,1,0,0:0:0:0:
312,52,50963,1,8,0:0:0:0:
312,52,51133,1,0,0:0:0:0:
313,53,51219,1,8,0:0:0:0:
316,53,51304,1,0,0:0:0:0:
312,52,51361,1,0,0:0:0:0:
313,53,51418,1,8,0:0:0:0:
316,53,51474,1,8,0:0:0:0:
321,58,51730,1,8,0:0:0:0:
321,58,51816,1,0,0:0:0:0:
321,58,51901,1,8,0:0:0:0:
305,68,52071,1,0,0:0:0:0:
305,68,52157,1,8,0:0:0:0:
305,68,52242,1,0,0:0:0:0:
305,68,52327,1,0,0:0:0:0:
305,68,52413,1,8,0:0:0:0:
305,68,52668,1,0,0:0:0:0:
296,82,52754,1,0,0:0:0:0:
299,76,52839,1,8,0:0:0:0:
304,63,52924,1,8,0:0:0:0:
299,76,53010,1,0,0:0:0:0:
299,75,53095,1,8,0:0:0:0:
283,96,53180,1,0,0:0:0:0:
292,82,53265,1,8,0:0:0:0:
274,85,53436,1,0,0:0:0:0:
281,89,53521,1,8,0:0:0:0:
274,85,53606,1,0,0:0:0:0:
281,89,53692,1,0,0:0:0:0:
291,85,53777,1,8,0:0:0:0:
298,86,53948,1,0,0:0:0:0:
290,89,54118,1,0,0:0:0:0:
289,89,54203,1,8,0:0:0:0:
280,76,54260,1,8,0:0:0:0:
283,77,54317,1,0,0:0:0:0:
262,87,54459,1,0,0:0:0:0:
273,84,54545,1,0,0:0:0:0:
286,79,54715,1,8,0:0:0:0:
286,79,54800,1,0,0:0:0:0:
286,79,54886,1,8,0:0:0:0:
286,79,55056,1,0,0:0:0:0:
286,79,55142,1,8,0:0:0:0:
289,71,55312,1,8,0:0:0:0:
288,72,55397,1,0,0:0:0:0:
289,71,55483,1,0,0:0:0:0:
280,75,55568,1,8,0:0:0:0:
290,81,55739,1,0,0:0:0:0:
282,71,55824,1,8,0:0:0:0:
282,71,55909,1,0,0:0:0:0:
282,71,55995,1,8,0:0:0:0:
282,71,56052,1,8,0:0:0:0:
282,71,56108,1,0,0:0:0:0:
284,70,56165,1,0,0:0:0:0:
282,71,56250,1,8,0:0:0:0:
289,62,56421,1,0,0:0:0:0:
264,53,56505,1,8,0:0:0:0:
286,53,56591,1,0,0:0:0:0:
300,64,56677,1,8,0:0:0:0:
300,64,56847,1,0,0:0:0:0:
300,64,56932,1,8,0:0:0:0:
300,64,57018,1,0,0:0:0:0:
283,50,57103,1,8,0:0:0:0:
283,50,57188,1,0,0:0:0:0:
300,64,57274,1,0,0:0:0:0:
283,57,57444,1,8,0:0:0:0:
283,57,57529,1,0,0:0:0:0:
283,57,57615,1,8,0:0:0:0:
300,49,57700,1,0,0:0:0:0:
292,46,57785,1,0,0:0:0:0:
300,49,57871,1,8,0:0:0:0:
283,57,58041,1,0,0:0:0:0:
292,46,58126,1,8,0:0:0:0:
292,46,58297,1,8,0:0:0:0:
292,46,58382,1,0,0:0:0:0:
292,46,58467,1,8,0:0:0:0:
273,53,58638,1,8,0:0:0:0:
265,77,58695,1,8,0:0:0:0:
265,77,58752,1,8,0:0:0:0:
265,77,58809,1,0,0:0:0:0:
282,73,58894,1,0,0:0:0:0:
265,77,58979,1,8,0:0:0:0:
265,77,59150,1,0,0:0:0:0:
270,69,59235,1,8,0:0:0:0:
270,69,59406,1,8,0:0:0:0:
270,69,59491,1,0,0:0:0:0:
270,69,59576,1,0,0:0:0:0:
270,69,59661,1,8,0:0:0:0:
270,69,59832,1,8,0:0:0:0:
270,69,59917,1,0,0:0:0:0:
263,65,60003,1,0,0:0:0:0:
261,50,60173,1,0,0:0:0:0:
261,50,60258,1,0,0:0:0:0:
263,59,60344,1,8,0:0:0:0:
264,67,60429,1,0,0:0:0:0:
272,59,60514,1,0,0:0:0:0:
272,59,60599,1,8,0:0:0:0:
272,59,60770,1,8,0:0:0:0:
272,59,60855,1,0,0:0:0:0:
272,59,60941,1,0,0:0:0:0:
272,59,61026,1,8,0:0:0:0:
272,59,61111,1,8,0:0:0:0:
272,59,61196,1,0,0:0:0:0:
272,59,61282,1,8,0:0:0:0:
272,59,61367,1,0,0:0:0:0:
259,58,61538,1,0,0:0:0:0:
281,64,61708,1,8,0:0:0:0:
277,72,61793,1,8,0:0:0:0:
281,64,61879,1,0,0:0:0:0:
298,54,61964,1,8,0:0:0:0:
291,56,62049,1,0,0:0:0:0:
288,54,62135,1,8,0:0:0:0:
283,61,62220,1,0,0:0:0:0:
283,61,62305,1,0,0:0:0:0:
285,62,62390,1,8,0:0:0:0:
274,56,62476,1,0,0:0:0:0:
271,59,62561,1,8,0:0:0:0:
274,56,62646,1,8,0:0:0:0:
309,57,62732,1,0,0:0:0:0:
309,56,62817,1,8,0:0:0:0:
309,57,62902,1,0,0:0:0:0:
326,70,62987,1,0,0:0:0:0:
326,70,63073,1,8,0:0:0:0:
309,57,63158,1,0,0:0:0:0:
291,104,63243,1,8,0:0:0:0:
316,59,63328,1,8,0:0:0:0:
328,54,63414,1,0,0:0:0:0:
316,59,63499,1,8,0:0:0:0:
314,57,63584,1,0,0:0:0:0:
316,59,63670,1,0,0:0:0:0:
316,59,63755,1,8,0:0:0:0:
314,82,63840,1,0,0:0:0:0:
316,59,64011,1,8,0:0:0:0:
316,59,64096,1,0,0:0:0:0:
296,57,64352,1,0,0:0:0:0:
311,67,64437,1,8,0:0:0:0:
308,69,64494,1,0,0:0:0:0:
308,68,64551,1,0,0:0:0:0:
311,67,64608,1,8,0:0:0:0:
308,68,64778,1,0,0:0:0:0:
300,73,64864,1,8,0:0:0:0:
301,73,64949,1,0,0:0:0:0:
301,73,65034,1,0,0:0:0:0:
300,73,65119,1,8,0:0:0:0:
301,73,65375,1,0,0:0:0:0:
301,73,65460,1,8,0:0:0:0:
282,80,65517,1,8,0:0:0:0:
298,83,65716,1,0,0:0:0:0:
290,84,65773,1,0,0:0:0:0:
288,72,65972,1,8,0:0:0:0:
289,72,66057,1,8,0:0:0:0:
288,72,66143,1,0,0:0:0:0:
302,73,66228,1,8,0:0:0:0:
304,72,66313,1,0,0:0:0:0:
302,73,66399,1,8,0:0:0:0:
304,72,66484,1,0,0:0:0:0:
304,72,66569,1,8,0:0:0:0:
304,72,66654,1,0,0:0:0:0:
298,84,66825,1,0,0:0:0:0:
309,82,66910,1,8,0:0:0:0:
302,79,66967,1,8,0:0:0:0:
298,84,67024,1,0,0:0:0:0:
302,78,67081,1,0,0:0:0:0:
310,75,67166,1,8,0:0:0:0:
305,82,67337,1,0,0:0:0:0:
305,82,67422,1,8,0:0:0:0:
305,82,67593,1,8,0:0:0:0:
305,82,67678,1,0,0:0:0:0:
305,82,67763,1,0,0:0:0:0:
305,82,67848,1,8,0:0:0:0:
305,82,68019,1,8,0:0:0:0:
305,82,68104,1,0,0:0:0:0:
305,82,68189,1,0,0:0:0:0:
305,82,68360,1,0,0:0:0:0:
305,82,68445,1,0,0:0:0:0:
305,82,68531,1,8,0:0:0:0:
305,82,68616,1,8,0:0:0:0:
300,74,68701,1,0,0:0:0:0:
301,74,68786,1,8,0:0:0:0:
301,74,68957,1,0,0:0:0:0:
301,74,69042,1,8,0:0:0:0:
301,74,69128,1,0,0:0:0:0:
301,74,69213,1,8,0:0:0:0:
301,74,69298,1,8,0:0:0:0:
301,74,69383,1,0,0:0:0:0:
301,74,69469,1,8,0:0:0:0:
311,75,69554,1,0,0:0:0:0:
301,74,69810,1,0,0:0:0:0:
301,74,69895,1,8,0:0:0:0:
304,81,69980,1,0,0:0:0:0:
285,76,70066,1,0,0:0:0:0:
304,81,70151,1,8,0:0:0:0:
299,69,70321,1,8,0:0:0:0:
298,69,70407,1,8,0:0:0:0:
299,69,70492,1,0,0:0:0:0:
299,69,70577,1,8,0:0:0:0:
299,69,70748,1,8,0:0:0:0:
299,69,70833,1,0,0:0:0:0:
297,67,70918,1,0,0:0:0:0:
297,67,71089,1,0,0:0:0:0:
297,67,71174,1,0,0:0:0:0:
297,67,71260,1,8,0:0:0:0:
297,67,71345,1,8,0:0:0:0:
297,67,71430,1,0,0:0:0:0:
297,67,71515,1,8,0:0:0:0:
297,67,71686,1,8,0:0:0:0:
297,67,71771,1,8,0:0:0:0:
297,67,71857,1,0,0:0:0:0:
297,67,71942,1,8,0:0:0:0:
297,67,72027,1,8,0:0:0:0:
297,67,72112,1,0,0:0:0:0:
297,67,72198,1,8,0:0:0:0:
295,75,72283,1,0,0:0:0:0:
311,60,72453,1,0,0:0:0:0:
311,60,72539,1,0,0:0:0:0:
293,58,72624,1,8,0:0:0:0:
291,57,72709,1,0,0:0:0:0:
293,58,72795,1,0,0:0:0:0:
291,57,72880,1,8,0:0:0:0:
291,57,73050,1,8,0:0:0:0:
291,57,73136,1,8,0:0:0:0:
291,57,73221,1,0,0:0:0:0:
291,57,73306,1,8,0:0:0:0:
291,57,73477,1,8,0:0:0:0:
297,60,73562,1,0,0:0:0:0:
297,60,73647,1,0,0:0:0:0:
299,51,73818,1,0,0:0:0:0:
299,51,73903,1,0,0:0:0:0:
299,51,73989,1,8,0:0:0:0:
299,51,74159,1,0,0:0:0:0:
299,51,74244,1,8,0:0:0:0:
299,51,74330,1,0,0:0:0:0:
290,58,74415,1,8,0:0:0:0:
309,62,74500,1,8,0:0:0:0:
290,58,74586,1,0,0:0:0:0:
292,60,74671,1,8,0:0:0:0:
304,59,74841,1,0,0:0:0:0:
304,59,74927,1,8,0:0:0:0:
309,54,75012,1,0,0:0:0:0:
304,59,75097,1,0,0:0:0:0:
290,53,75268,1,0,0:0:0:0:
294,59,75353,1,8,0:0:0:0:
297,51,75438,1,0,0:0:0:0:
297,50,75524,1,0,0:0:0:0:
297,50,75609,1,8,0:0:0:0:
297,50,75779,1,8,0:0:0:0:
297,50,75865,1,0,0:0:0:0:
297,50,75950,1,0,0:0:0:0:
302,53,76035,1,8,0:0:0:0:
302,53,76121,1,8,0:0:0:0:
302,53,76206,1,0,0:0:0:0:
302,53,76291,1,0,0:0:0:0:
302,53,76376,1,8,0:0:0:0:
302,53,76547,1,0,0:0:0:0:
302,53,76632,1,0,0:0:0:0:
302,53,76718,1,8,0:0:0:0:
286,62,76803,1,8,0:0:0:0:
302,53,76888,1,0,0:0:0:0:
304,53,76973,1,8,0:0:0:0:
296,62,77144,1,0,0:0:0:0:
296,62,77229,1,8,0:0:0:0:
296,62,77314,1,8,0:0:0:0:
296,53,77400,1,0,0:0:0:0:
296,53,77485,1,8,0:0:0:0:
296,53,77570,1,8,0:0:0:0:
296,53,77656,1,8,0:0:0:0:
296,53,77741,1,0,0:0:0:0:
305,70,77911,1,0,0:0:0:0:
305,70,77997,1,0,0:0:0:0:
305,70,78082,1,8,0:0:0:0:
305,70,78167,1,8,0:0:0:0:
305,70,78253,1,0,0:0:0:0:
295,58,78338,1,8,0:0:0:0:
293,57,78508,1,8,0:0:0:0:
293,57,78594,1,0,0:0:0:0:
293,57,78679,1,0,0:0:0:0:
293,57,78764,1,8,0:0:0:0:
293,57,78935,1,0,0:0:0:0:
293,57,79020,1,0,0:0:0:0:
293,57,79105,1,0,0:0:0:0:
293,57,79276,1,0,0:0:0:0:
293,57,79361,1,0,0:0:0:0:
293,57,79447,1,8,0:0:0:0:
293,57,79532,1,0,0:0:0:0:
293,57,79617,1,0,0:0:0:0:
293,57,79702,1,8,0:0:0:0:
293,57,79873,1,8,0:0:0:0:
289,39,79958,1,8,0:0:0:0:
293,42,80043,1,0,0:0:0:0:
289,39,80129,1,8,0:0:0:0:
290,54,80214,1,0,0:0:0:0:
288,61,80299,1,0,0:0:0:0:
290,58,80385,1,8,0:0:0:0:
288,61,80470,1,0,0:0:0:0:
284,47,80640,1,0,0:0:0:0:
284,47,80726,1,0,0:0:0:0:
284,47,80811,1,8,0:0:0:0:
284,47,80896,1,0,0:0:0:0:
284,47,80982,1,8,0:0:0:0:
284,47,81067,1,0,0:0:0:0:
284,47,81237,1,8,0:0:0:0:
284,47,81323,1,0,0:0:0:0:
284,47,81408,1,0,0:0:0:0:
284,47,81493,1,8,0:0:0:0:
284,47,81664,1,8,0:0:0:0:
284,47,81749,1,0,0:0:0:0:
268,40,81834,1,0,0:0:0:0:
269,37,82005,1,0,0:0:0:0:
269,37,82090,1,0,0:0:0:0:
269,37,82175,1,8,0:0:0:0:
261,36,82261,1,0,0:0:0:0:
261,36,82346,1,0,0:0:0:0:
261,36,82431,1,8,0:0:0:0:
261,36,82602,1,8,0:0:0:0:
261,36,82687,1,0,0:0:0:0:
261,36,82772,1,8,0:0:0:0:
261,36,82858,1,8,0:0:0:0:
261,36,82943,1,0,0:0:0:0:
261,36,83028,1,0,0:0:0:0:
261,36,83114,1,8,0:0:0:0:
261,36,83199,1,0,0:0:0:0:
261,36,83369,1,0,0:0:0:0:
261,36,83455,1,0,0:0:0:0:
261,36,83540,1,8,0:0:0:0:
261,36,83625,1,0,0:0:0:0:
261,36,83711,1,8,0:0:0:0:
261,36,83796,1,0,0:0:0:0:
261,36,83966,1,8,0:0:0:0:
261,36,84052,1,0,0:0:0:0:
261,36,84137,1,0,0:0:0:0:
265,43,84222,1,8,0:0:0:0:
265,43,84393,1,8,0:0:0:0:
265,43,84478,1,0,0:0:0:0:
265,43,84563,1,0,0:0:0:0:
249,49,84734,1,0,0:0:0:0:
249,49,84819,1,0,0:0:0:0:
258,44,84904,1,8,0:0:0:0:
265,44,84990,1,8,0:0:0:0:
265,44,85075,1,0,0:0:0:0:
265,44,85160,1,8,0:0:0:0:
265,44,85331,1,8,0:0:0:0:
265,44,85416,1,8,0:0:0:0:
265,44,85501,1,0,0:0:0:0:
265,44,85587,1,8,0:0:0:0:
265,44,85672,1,0,0:0:0:0:
265,44,85757,1,0,0:0:0:0:
265,44,85843,1,8,0:0:0:0:
265,44,85928,1,0,0:0:0:0:
265,44,86013,1,8,0:0:0:0:
265,44,86184,1,0,0:0:0:0:
265,44,86269,1,8,0:0:0:0:
265,44,86354,1,0,0:0:0:0:
265,44,86440,1,0,0:0:0:0:
265,44,86525,1,8,0:0:0:0:
265,44,86695,1,8,0:0:0:0:
265,44,86781,1,8,0:0:0:0:
265,44,86866,1,0,0:0:0:0:
265,44,86951,1,8,0:0:0:0:
265,44,87122,1,8,0:0:0:0:
265,44,87207,1,0,0:0:0:0:
265,44,87292,1,0,0:0:0:0:
265,44,87463,1,0,0:0:0:0:
265,44,87548,1,0,0:0:0:0:
265,44,87633,1,8,0:0:0:0:
265,44,87719,1,8,0:0:0:0:
265,44,87804,1,0,0:0:0:0:
265,44,87889,1,8,0:0:0:0:
265,44,87975,1,0,0:0:0:0:
265,44,88060,1,0,0:0:0:0:
265,44,88145,1,0,0:0:0:0:
265,44,88230,1,0,0:0:0:0:
265,44,88316,1,8,0:0:0:0:
265,44,88401,1,8,0:0:0:0:
265,44,88486,1,8,0:0:0:0:
265,44,88572,1,8,0:0:0:0:
263,109,88657,5,4,0:0:0:0:
263,109,89168,1,0,0:0:0:0:
269,114,91045,1,0,0:0:0:0:
268,114,91386,1,0,0:0:0:0:
269,114,91897,1,0,0:0:0:0:
269,114,92068,1,8,0:0:0:0:
254,99,92409,1,8,0:0:0:0:
269,114,92750,1,0,0:0:0:0:
269,114,92921,1,8,0:0:0:0:
268,117,93262,1,0,0:0:0:0:
258,111,93433,1,8,0:0:0:0:
263,105,93774,1,8,0:0:0:0:
268,110,94115,1,0,0:0:0:0:
268,110,94626,1,0,0:0:0:0:
291,85,94797,1,0,0:0:0:0:
270,108,95991,1,8,0:0:0:0:
270,108,96161,1,0,0:0:0:0:
274,109,96503,1,0,0:0:0:0:
268,99,96673,1,8,0:0:0:0:
274,110,96844,1,0,0:0:0:0:
267,108,97355,1,0,0:0:0:0:
267,108,97526,1,8,0:0:0:0:
256,104,98208,1,0,0:0:0:0:
256,104,98294,1,0,0:0:0:0:
256,104,98379,1,0,0:0:0:0:
261,99,98464,1,0,0:0:0:0:
256,104,98549,1,0,0:0:0:0:
261,99,98635,1,0,0:0:0:0:
269,106,98720,1,0,0:0:0:0:
261,99,98805,1,0,0:0:0:0:
264,105,98890,1,8,0:0:0:0:
264,105,98976,1,8,0:0:0:0:
264,105,99061,1,8,0:0:0:0:
264,105,99146,1,8,0:0:0:0:
264,105,99232,1,8,0:0:0:0:
264,105,99317,1,8,0:0:0:0:
264,105,99402,1,8,0:0:0:0:
264,105,99487,1,8,0:0:0:0:
245,118,99573,5,4,0:0:0:0:
275,100,99829,1,0,0:0:0:0:
275,100,99914,1,8,0:0:0:0:
260,120,100084,1,0,0:0:0:0:
260,120,100255,1,0,0:0:0:0:
256,98,100340,1,8,0:0:0:0:
256,98,100426,1,0,0:0:0:0:
256,98,100511,1,0,0:0:0:0:
256,98,100596,1,8,0:0:0:0:
256,98,100767,1,0,0:0:0:0:
256,98,100937,1,0,0:0:0:0:
256,99,101193,1,0,0:0:0:0:
256,99,101278,1,8,0:0:0:0:
256,99,101449,1,0,0:0:0:0:
255,106,101534,1,8,0:0:0:0:
268,107,101705,1,8,0:0:0:0:
256,106,101790,1,0,0:0:0:0:
268,107,101875,1,0,0:0:0:0:
267,106,101961,1,8,0:0:0:0:
262,100,102131,1,0,0:0:0:0:
255,96,102302,1,0,0:0:0:0:
251,85,102558,1,0,0:0:0:0:
251,85,102643,1,8,0:0:0:0:
267,93,102813,1,0,0:0:0:0:
267,93,102984,1,0,0:0:0:0:
267,93,103069,1,8,0:0:0:0:
256,95,103155,1,8,0:0:0:0:
267,93,103240,1,0,0:0:0:0:
267,93,103325,1,8,0:0:0:0:
257,96,103496,1,0,0:0:0:0:
257,96,103666,1,0,0:0:0:0:
258,96,103922,1,0,0:0:0:0:
258,96,104007,1,8,0:0:0:0:
258,96,104178,1,0,0:0:0:0:
258,96,104263,1,8,0:0:0:0:
258,96,104434,1,8,0:0:0:0:
258,96,104519,1,8,0:0:0:0:
258,96,104604,1,0,0:0:0:0:
258,96,104690,1,8,0:0:0:0:
258,96,104860,1,0,0:0:0:0:
258,96,104945,1,8,0:0:0:0:
258,96,105031,1,4,0:0:0:0:
249,89,105201,1,8,0:0:0:0:
263,84,105287,1,8,0:0:0:0:
249,89,105372,1,0,0:0:0:0:
249,89,105542,1,8,0:0:0:0:
249,89,105713,1,0,0:0:0:0:
250,90,105883,1,8,0:0:0:0:
263,83,105969,1,8,0:0:0:0:
259,85,106054,1,0,0:0:0:0:
259,88,106225,1,8,0:0:0:0:
259,88,106395,1,0,0:0:0:0:
259,88,106566,1,8,0:0:0:0:
259,88,106651,1,8,0:0:0:0:
259,88,106736,1,0,0:0:0:0:
259,88,106907,1,8,0:0:0:0:
259,88,107077,1,0,0:0:0:0:
259,88,107248,1,8,0:0:0:0:
259,88,107333,1,8,0:0:0:0:
259,88,107419,1,0,0:0:0:0:
259,88,107589,1,8,0:0:0:0:
284,102,107760,1,0,0:0:0:0:
284,102,107845,1,0,0:0:0:0:
284,102,107930,1,0,0:0:0:0:
283,93,108015,1,0,0:0:0:0:
284,102,108101,1,0,0:0:0:0:
284,102,108186,1,0,0:0:0:0:
284,102,108271,1,0,0:0:0:0:
283,93,108357,1,0,0:0:0:0:
280,94,108442,1,8,0:0:0:0:
283,93,108527,1,8,0:0:0:0:
283,93,108612,1,8,0:0:0:0:
280,94,108698,1,8,0:0:0:0:
283,93,108783,1,8,0:0:0:0:
280,94,108868,1,8,0:0:0:0:
283,93,108954,1,8,0:0:0:0:
283,93,109039,1,8,0:0:0:0:
283,93,109124,1,0,0:0:0:0:
283,93,109209,1,0,0:0:0:0:
283,93,109295,1,0,0:0:0:0:
283,93,109380,1,0,0:0:0:0:
283,93,109465,1,0,0:0:0:0:
283,93,109551,1,0,0:0:0:0:
283,93,109636,1,0,0:0:0:0:
283,93,109721,1,0,0:0:0:0:
233,174,109806,1,12,0:0:0:0:
262,76,110489,5,4,0:0:0:0:
283,78,120040,5,8,0:0:0:0:
283,78,120125,1,8,0:0:0:0:
283,78,120211,1,8,0:0:0:0:
283,78,120296,1,8,0:0:0:0:
283,78,120381,1,8,0:0:0:0:
283,78,120466,1,8,0:0:0:0:
283,78,120552,1,8,0:0:0:0:
283,78,120637,1,8,0:0:0:0:
283,78,120722,1,8,0:0:0:0:
283,78,120808,1,8,0:0:0:0:
283,78,120893,1,8,0:0:0:0:
283,78,120978,1,8,0:0:0:0:
283,78,121063,1,8,0:0:0:0:
283,78,121149,1,8,0:0:0:0:
283,78,121234,1,8,0:0:0:0:
283,78,121319,1,8,0:0:0:0:
283,78,121405,1,4,0:0:0:0:
273,78,121575,1,8,0:0:0:0:
283,78,121660,1,0,0:0:0:0:
283,78,121746,1,8,0:0:0:0:
283,78,121916,1,0,0:0:0:0:
277,71,122002,1,8,0:0:0:0:
274,69,122087,1,0,0:0:0:0:
277,71,122172,1,0,0:0:0:0:
274,69,122257,1,8,0:0:0:0:
274,69,122428,1,8,0:0:0:0:
274,69,122598,1,0,0:0:0:0:
269,75,122684,1,8,0:0:0:0:
274,69,122769,1,0,0:0:0:0:
272,79,122940,1,8,0:0:0:0:
279,79,123025,1,0,0:0:0:0:
279,79,123110,1,8,0:0:0:0:
279,79,123281,1,0,0:0:0:0:
279,79,123366,1,8,0:0:0:0:
279,79,123451,1,8,0:0:0:0:
279,79,123537,1,0,0:0:0:0:
279,79,123622,1,8,0:0:0:0:
279,79,123792,1,8,0:0:0:0:
286,80,123963,1,0,0:0:0:0:
279,74,124048,1,8,0:0:0:0:
286,80,124134,1,0,0:0:0:0:
284,65,124304,1,8,0:0:0:0:
279,74,124389,1,0,0:0:0:0:
279,74,124475,1,8,0:0:0:0:
279,74,124645,1,0,0:0:0:0:
279,74,124730,1,0,0:0:0:0:
279,74,124816,1,8,0:0:0:0:
279,74,124901,1,8,0:0:0:0:
279,74,124986,1,0,0:0:0:0:
279,74,125157,1,8,0:0:0:0:
279,74,125327,1,0,0:0:0:0:
279,74,125413,1,8,0:0:0:0:
279,74,125498,1,0,0:0:0:0:
279,74,125669,1,8,0:0:0:0:
282,64,125754,1,0,0:0:0:0:
279,74,125839,1,8,0:0:0:0:
284,78,126010,1,0,0:0:0:0:
284,78,126095,1,8,0:0:0:0:
284,78,126180,1,0,0:0:0:0:
284,78,126266,1,8,0:0:0:0:
284,78,126351,1,0,0:0:0:0:
284,78,126521,1,8,0:0:0:0:
284,78,126692,1,0,0:0:0:0:
284,78,126777,1,8,0:0:0:0:
284,78,126863,1,4,0:0:0:0:
288,86,127033,1,8,0:0:0:0:
284,78,127118,1,8,0:0:0:0:
286,77,127204,1,0,0:0:0:0:
288,86,127374,1,8,0:0:0:0:
277,77,127459,1,8,0:0:0:0:
286,77,127545,1,0,0:0:0:0:
288,86,127715,1,8,0:0:0:0:
286,77,127801,1,8,0:0:0:0:
285,76,127886,1,0,0:0:0:0:
288,86,128056,1,8,0:0:0:0:
277,77,128142,1,8,0:0:0:0:
285,76,128227,1,0,0:0:0:0:
285,76,128398,1,8,0:0:0:0:
276,77,128483,1,8,0:0:0:0:
277,77,128568,1,0,0:0:0:0:
288,86,128739,1,8,0:0:0:0:
277,77,128824,1,8,0:0:0:0:
285,76,128909,1,0,0:0:0:0:
288,86,129080,1,8,0:0:0:0:
277,80,129165,1,8,0:0:0:0:
285,76,129250,1,0,0:0:0:0:
288,86,129421,1,8,0:0:0:0:
277,77,129506,1,8,0:0:0:0:
285,76,129591,1,0,0:0:0:0:
278,62,129677,1,0,0:0:0:0:
278,62,129762,1,0,0:0:0:0:
278,62,129847,1,0,0:0:0:0:
278,62,129933,1,0,0:0:0:0:
278,62,130018,1,0,0:0:0:0:
278,62,130103,1,0,0:0:0:0:
278,62,130188,1,0,0:0:0:0:
278,62,130274,1,8,0:0:0:0:
278,62,130359,1,8,0:0:0:0:
277,54,130444,1,8,0:0:0:0:
278,62,130530,1,8,0:0:0:0:
278,62,130615,1,8,0:0:0:0:
278,62,130700,1,8,0:0:0:0:
277,54,130785,1,8,0:0:0:0:
278,62,130871,1,8,0:0:0:0:
277,54,130956,1,0,0:0:0:0:
249,209,131638,2,4,L|341:141,4,105.000004005432
238,142,132320,1,12,0:0:0:0:
256,192,132406,12,0,134367,0:0:0:0:
308,84,134538,5,0,0:0:0:0:
308,84,134708,1,8,0:0:0:0:
308,84,134879,1,0,0:0:0:0:
308,84,134964,1,8,0:0:0:0:
308,84,135049,1,0,0:0:0:0:
301,94,135135,1,0,0:0:0:0:
302,94,135220,1,8,0:0:0:0:
301,94,135305,1,0,0:0:0:0:
302,94,135391,1,8,0:0:0:0:
302,94,135561,1,0,0:0:0:0:
302,94,135646,1,8,0:0:0:0:
302,94,135817,1,8,0:0:0:0:
304,87,135902,1,0,0:0:0:0:
304,87,135988,1,0,0:0:0:0:
304,87,136073,1,8,0:0:0:0:
296,72,136158,1,8,0:0:0:0:
296,73,136243,1,0,0:0:0:0:
296,78,136329,1,8,0:0:0:0:
296,78,136414,1,0,0:0:0:0:
296,78,136584,1,0,0:0:0:0:
296,78,136670,1,0,0:0:0:0:
296,78,136755,1,8,0:0:0:0:
295,65,136812,1,8,0:0:0:0:
300,66,136869,1,0,0:0:0:0:
300,66,136926,1,0,0:0:0:0:
292,66,137011,1,8,0:0:0:0:
286,61,137181,1,8,0:0:0:0:
286,61,137267,1,0,0:0:0:0:
286,61,137352,1,0,0:0:0:0:
286,61,137437,1,8,0:0:0:0:
286,61,137523,1,8,0:0:0:0:
286,61,137608,1,0,0:0:0:0:
286,61,137693,1,8,0:0:0:0:
286,61,137778,1,4,0:0:0:0:
297,54,138375,1,0,0:0:0:0:
297,54,138461,1,8,0:0:0:0:
299,57,138972,1,0,0:0:0:0:
324,59,139655,5,8,0:0:0:0:
324,59,139740,1,0,0:0:0:0:
298,46,139996,1,0,0:0:0:0:
298,46,140166,1,8,0:0:0:0:
321,59,140337,1,0,0:0:0:0:
301,57,140507,1,12,0:0:0:0:
293,49,140678,1,0,0:0:0:0:
293,49,140763,1,0,0:0:0:0:
293,49,140849,1,8,0:0:0:0:
293,49,140934,1,0,0:0:0:0:
293,49,141019,1,0,0:0:0:0:
293,49,141104,1,8,0:0:0:0:
293,49,141190,1,0,0:0:0:0:
298,44,141275,1,8,0:0:0:0:
293,49,141445,1,0,0:0:0:0:
293,49,141531,1,8,0:0:0:0:
293,49,141616,1,0,0:0:0:0:
293,49,141701,1,0,0:0:0:0:
293,49,141787,1,8,0:0:0:0:
293,49,141872,1,0,0:0:0:0:
293,49,141957,1,8,0:0:0:0:
293,49,142042,1,0,0:0:0:0:
293,49,142128,1,0,0:0:0:0:
293,49,142213,1,8,0:0:0:0:
293,49,142298,1,8,0:0:0:0:
293,49,142384,1,0,0:0:0:0:
293,49,142469,1,8,0:0:0:0:
293,49,142554,1,0,0:0:0:0:
293,49,142639,1,8,0:0:0:0:
293,49,142810,1,0,0:0:0:0:
293,49,142895,1,8,0:0:0:0:
293,49,142981,1,8,0:0:0:0:
293,49,143066,1,0,0:0:0:0:
293,49,143151,1,8,0:0:0:0:
293,49,143236,1,0,0:0:0:0:
289,62,143322,1,0,0:0:0:0:
289,62,143407,1,0,0:0:0:0:
286,44,143492,1,0,0:0:0:0:
286,44,143577,1,8,0:0:0:0:
279,58,143748,1,8,0:0:0:0:
274,58,143833,1,0,0:0:0:0:
288,44,144004,1,8,0:0:0:0:
288,44,144174,1,0,0:0:0:0:
288,44,144260,1,8,0:0:0:0:
288,44,144345,1,0,0:0:0:0:
295,39,144430,1,8,0:0:0:0:
295,39,144516,1,0,0:0:0:0:
295,39,144601,1,0,0:0:0:0:
300,50,144771,1,0,0:0:0:0:
300,50,144857,1,0,0:0:0:0:
300,50,144942,1,8,0:0:0:0:
300,50,145027,1,8,0:0:0:0:
300,50,145113,1,0,0:0:0:0:
296,61,145198,1,8,0:0:0:0:
300,50,145283,1,8,0:0:0:0:
300,55,145368,1,0,0:0:0:0:
300,50,145454,1,8,0:0:0:0:
300,50,145624,1,8,0:0:0:0:
300,55,145710,1,0,0:0:0:0:
300,50,145795,1,0,0:0:0:0:
291,47,145880,1,8,0:0:0:0:
297,57,145965,1,0,0:0:0:0:
327,47,146022,1,0,0:0:0:0:
324,47,146079,1,8,0:0:0:0:
321,48,146136,1,8,0:0:0:0:
297,57,146221,1,0,0:0:0:0:
289,55,146306,1,8,0:0:0:0:
289,55,146477,1,0,0:0:0:0:
289,55,146562,1,8,0:0:0:0:
299,50,146648,1,0,0:0:0:0:
289,55,146733,1,8,0:0:0:0:
302,46,146903,1,0,0:0:0:0:
318,54,146989,1,8,0:0:0:0:
318,54,147074,1,8,0:0:0:0:
318,54,147159,1,0,0:0:0:0:
318,54,147245,1,0,0:0:0:0:
318,54,147330,1,0,0:0:0:0:
307,64,147500,1,0,0:0:0:0:
307,64,147586,1,0,0:0:0:0:
310,56,147671,1,8,0:0:0:0:
313,55,147756,1,0,0:0:0:0:
310,56,147842,1,8,0:0:0:0:
313,55,147927,1,0,0:0:0:0:
313,55,148097,1,8,0:0:0:0:
313,55,148183,1,8,0:0:0:0:
313,55,148268,1,0,0:0:0:0:
313,55,148353,1,8,0:0:0:0:
313,55,148438,1,0,0:0:0:0:
313,55,148524,1,0,0:0:0:0:
313,55,148609,1,8,0:0:0:0:
313,55,148694,1,4,0:0:0:0:
309,59,149035,1,0,0:0:0:0:
309,59,149377,1,8,0:0:0:0:
309,59,149718,1,0,0:0:0:0:
310,59,150059,1,4,0:0:0:0:
310,59,150400,1,0,0:0:0:0:
310,59,150741,1,8,0:0:0:0:
310,59,151082,1,0,0:0:0:0:
310,59,151423,1,4,0:0:0:0:
310,59,151679,1,12,0:0:0:0:
311,59,151935,1,4,0:0:0:0:
311,59,152191,1,12,0:0:0:0:
311,74,152447,5,12,0:0:0:0:
311,74,152703,1,4,0:0:0:0:
311,74,152873,1,8,0:0:0:0:
311,74,152958,1,0,0:0:0:0:
311,74,153044,1,0,0:0:0:0:
311,74,153129,1,8,0:0:0:0:
311,74,153214,1,8,0:0:0:0:
311,74,153299,1,0,0:0:0:0:
311,74,153385,1,8,0:0:0:0:
311,74,153470,1,0,0:0:0:0:
311,74,153555,1,8,0:0:0:0:
311,74,153641,1,0,0:0:0:0:
311,74,153726,1,0,0:0:0:0:
312,65,153811,1,8,0:0:0:0:
312,65,153896,1,8,0:0:0:0:
312,65,153982,1,8,0:0:0:0:
312,65,154067,1,8,0:0:0:0:
212,205,162425,6,0,L|253:199,27,31.458594429957
253,134,165068,5,0,0:0:0:0:
253,134,165409,1,0,0:0:0:0:
248,135,165921,1,0,0:0:0:0:
248,135,166262,1,0,0:0:0:0:
248,135,166433,1,0,0:0:0:0:
248,135,166774,1,0,0:0:0:0:
247,139,167285,1,0,0:0:0:0:
247,138,167712,1,0,0:0:0:0:
247,138,167797,1,0,0:0:0:0:
243,131,168138,1,0,0:0:0:0:
223,107,169162,1,0,0:0:0:0:
233,113,169503,1,0,0:0:0:0:
230,113,170014,1,0,0:0:0:0:
227,108,170526,1,0,0:0:0:0:
227,108,170867,1,0,0:0:0:0:
227,108,171379,1,0,0:0:0:0:
226,108,171720,1,0,0:0:0:0:
226,108,171891,1,0,0:0:0:0:
226,108,172232,1,0,0:0:0:0:
226,108,172743,1,0,0:0:0:0:
226,108,173170,1,0,0:0:0:0:
226,108,173255,1,0,0:0:0:0:
226,108,173596,1,0,0:0:0:0:
226,108,174620,1,0,0:0:0:0:
227,108,174961,1,0,0:0:0:0:
227,108,175472,1,0,0:0:0:0:
245,98,175984,1,4,0:0:0:0:
299,81,186900,5,4,0:0:0:0:
212,219,187241,2,0,L|225:201,118,14.0068247364423
282,82,197475,5,8,0:0:0:0:
282,82,197560,1,8,0:0:0:0:
282,82,197645,1,8,0:0:0:0:
282,82,197731,1,8,0:0:0:0:
282,82,197816,1,4,0:0:0:0:
281,78,198328,1,0,0:0:0:0:
287,78,198839,1,8,0:0:0:0:
287,78,199010,1,8,0:0:0:0:
287,78,199180,1,0,0:0:0:0:
287,78,199351,1,8,0:0:0:0:
287,78,199522,1,0,0:0:0:0:
287,78,199692,1,8,0:0:0:0:
287,78,199863,1,8,0:0:0:0:
286,76,200204,1,0,0:0:0:0:
286,76,200545,1,0,0:0:0:0:
286,76,201057,1,0,0:0:0:0:
286,76,201227,1,8,0:0:0:0:
284,76,201568,1,0,0:0:0:0:
284,75,201909,1,8,0:0:0:0:
284,75,202080,1,8,0:0:0:0:
284,75,202251,1,0,0:0:0:0:
294,76,202421,1,8,0:0:0:0:
294,76,202592,1,8,0:0:0:0:
301,88,202762,1,0,0:0:0:0:
301,88,202933,1,8,0:0:0:0:
304,82,203274,1,0,0:0:0:0:
301,86,203786,1,0,0:0:0:0:
301,86,203956,1,0,0:0:0:0:
301,86,204127,1,0,0:0:0:0:
302,86,204297,1,8,0:0:0:0:
298,79,204468,1,0,0:0:0:0:
298,79,204638,1,0,0:0:0:0:
299,79,204980,1,0,0:0:0:0:
282,73,205150,1,0,0:0:0:0:
300,78,205321,1,8,0:0:0:0:
300,78,205491,1,0,0:0:0:0:
300,78,205662,1,0,0:0:0:0:
297,73,206003,1,0,0:0:0:0:
297,73,206515,1,0,0:0:0:0:
297,73,206685,1,8,0:0:0:0:
296,77,207026,1,8,0:0:0:0:
297,77,207367,1,0,0:0:0:0:
297,77,207538,1,8,0:0:0:0:
297,77,207708,1,0,0:0:0:0:
297,77,207879,1,8,0:0:0:0:
303,74,208050,1,8,0:0:0:0:
303,74,208220,1,0,0:0:0:0:
303,74,208391,1,8,0:0:0:0:
307,75,208732,1,0,0:0:0:0:
301,75,209244,1,0,0:0:0:0:
299,74,209585,1,0,0:0:0:0:
302,58,209755,1,8,0:0:0:0:
302,58,209926,1,0,0:0:0:0:
302,58,210096,1,0,0:0:0:0:
303,59,210437,1,0,0:0:0:0:
303,59,210608,1,8,0:0:0:0:
301,59,210949,1,0,0:0:0:0:
301,59,211120,1,0,0:0:0:0:
300,59,211461,1,0,0:0:0:0:
307,60,211973,1,0,0:0:0:0:
307,60,212143,1,8,0:0:0:0:
307,60,212314,1,0,0:0:0:0:
307,60,212484,1,8,0:0:0:0:
307,60,212655,5,0,0:0:0:0:
291,57,212825,1,0,0:0:0:0:
287,55,213166,1,0,0:0:0:0:
297,57,213508,1,8,0:0:0:0:
297,57,213678,1,0,0:0:0:0:
304,59,213849,1,8,0:0:0:0:
304,59,214190,1,0,0:0:0:0:
302,56,214701,1,0,0:0:0:0:
302,56,214872,1,8,0:0:0:0:
302,56,215043,1,0,0:0:0:0:
313,57,215384,1,0,0:0:0:0:
313,57,215554,1,0,0:0:0:0:
313,57,215895,1,0,0:0:0:0:
313,57,216066,1,8,0:0:0:0:
313,57,216407,1,0,0:0:0:0:
313,57,216578,1,0,0:0:0:0:
300,59,216919,1,0,0:0:0:0:
310,65,217430,1,0,0:0:0:0:
310,65,217601,1,8,0:0:0:0:
310,65,217686,1,8,0:0:0:0:
310,65,217772,1,8,0:0:0:0:
310,65,217942,1,0,0:0:0:0:
310,65,218113,1,0,0:0:0:0:
310,65,218283,1,8,0:0:0:0:
310,65,218369,1,8,0:0:0:0:
310,65,218454,1,8,0:0:0:0:
310,65,218539,1,8,0:0:0:0:
310,65,218624,1,8,0:0:0:0:
310,65,218710,1,8,0:0:0:0:
310,65,218795,1,8,0:0:0:0:
310,65,218880,1,8,0:0:0:0:
310,65,218966,1,8,0:0:0:0:
310,65,219051,1,8,0:0:0:0:
310,65,219136,1,8,0:0:0:0:
310,65,219221,1,8,0:0:0:0:
310,65,219307,1,8,0:0:0:0:
310,65,219392,1,8,0:0:0:0:
310,65,219477,1,8,0:0:0:0:
310,65,219562,1,8,0:0:0:0:
310,65,219648,1,0,0:0:0:0:
299,63,219989,1,8,0:0:0:0:
299,63,220159,1,0,0:0:0:0:
310,61,220415,1,0,0:0:0:0:
310,61,220501,1,8,0:0:0:0:
308,52,220671,1,8,0:0:0:0:
315,58,220842,1,0,0:0:0:0:
308,53,221012,1,0,0:0:0:0:
308,52,221353,1,8,0:0:0:0:
308,52,221524,1,0,0:0:0:0:
308,52,221695,1,8,0:0:0:0:
308,52,221780,1,0,0:0:0:0:
308,52,221865,1,0,0:0:0:0:
308,52,222036,1,8,0:0:0:0:
308,52,222206,1,0,0:0:0:0:
308,52,222291,1,8,0:0:0:0:
308,52,222377,1,0,0:0:0:0:
301,49,222718,1,8,0:0:0:0:
301,49,222888,1,0,0:0:0:0:
306,52,223059,1,0,0:0:0:0:
301,49,223230,1,0,0:0:0:0:
301,49,223400,1,8,0:0:0:0:
301,49,223571,1,0,0:0:0:0:
301,49,223656,1,0,0:0:0:0:
278,122,223741,5,0,0:0:0:0:
300,51,224082,1,8,0:0:0:0:
300,51,224253,1,0,0:0:0:0:
300,51,224338,1,8,0:0:0:0:
300,51,224423,1,0,0:0:0:0:
300,51,224509,1,8,0:0:0:0:
300,51,224594,1,0,0:0:0:0:
307,51,224765,1,8,0:0:0:0:
307,51,224935,1,8,0:0:0:0:
307,51,225106,1,0,0:0:0:0:
300,54,225447,1,8,0:0:0:0:
300,54,225617,1,0,0:0:0:0:
300,54,225788,1,0,0:0:0:0:
300,54,225959,1,0,0:0:0:0:
300,54,226129,1,8,0:0:0:0:
300,54,226300,1,0,0:0:0:0:
300,54,226385,1,0,0:0:0:0:
300,54,226470,1,0,0:0:0:0:
298,55,226811,1,8,0:0:0:0:
298,55,226982,1,0,0:0:0:0:
298,55,227152,1,0,0:0:0:0:
298,55,227238,1,0,0:0:0:0:
298,55,227323,1,0,0:0:0:0:
298,55,227494,1,8,0:0:0:0:
298,55,227664,1,0,0:0:0:0:
298,55,227749,1,8,0:0:0:0:
298,55,227835,1,0,0:0:0:0:
283,57,228176,1,8,0:0:0:0:
291,58,228346,1,0,0:0:0:0:
291,58,228517,1,0,0:0:0:0:
291,58,228602,1,8,0:0:0:0:
291,58,228688,1,8,0:0:0:0:
291,58,228773,1,0,0:0:0:0:
291,58,228858,1,8,0:0:0:0:
291,58,229029,1,0,0:0:0:0:
291,58,229199,1,0,0:0:0:0:
291,58,229370,1,0,0:0:0:0:
291,58,229455,1,0,0:0:0:0:
291,58,229540,1,8,0:0:0:0:
291,58,229626,1,8,0:0:0:0:
291,58,229711,1,0,0:0:0:0:
291,58,229796,1,8,0:0:0:0:
291,58,229967,1,8,0:0:0:0:
291,58,230052,1,0,0:0:0:0:
291,58,230137,1,0,0:0:0:0:
291,58,230223,1,8,0:0:0:0:
291,58,230308,1,8,0:0:0:0:
291,58,230393,1,8,0:0:0:0:
291,58,230478,1,8,0:0:0:0:
291,58,230564,1,0,0:0:0:0:
293,55,230820,1,0,0:0:0:0:
293,55,230905,1,8,0:0:0:0:
293,55,231075,1,0,0:0:0:0:
293,55,231246,1,8,0:0:0:0:
293,55,231331,1,0,0:0:0:0:
293,55,231502,1,0,0:0:0:0:
293,55,231587,1,8,0:0:0:0:
293,55,231758,1,0,0:0:0:0:
293,55,231928,1,0,0:0:0:0:
293,58,232184,1,0,0:0:0:0:
293,58,232269,1,8,0:0:0:0:
293,58,232440,1,0,0:0:0:0:
293,56,232610,1,8,0:0:0:0:
277,49,232696,1,0,0:0:0:0:
276,49,232781,1,0,0:0:0:0:
276,49,232866,1,0,0:0:0:0:
277,49,232952,1,8,0:0:0:0:
285,52,233122,1,0,0:0:0:0:
285,52,233293,1,0,0:0:0:0:
285,52,233549,1,0,0:0:0:0:
285,52,233634,1,8,0:0:0:0:
285,52,233804,1,0,0:0:0:0:
285,52,233975,1,8,0:0:0:0:
285,52,234060,1,0,0:0:0:0:
285,52,234231,1,0,0:0:0:0:
285,52,234316,1,8,0:0:0:0:
285,52,234487,1,0,0:0:0:0:
285,52,234657,1,0,0:0:0:0:
285,52,234913,1,0,0:0:0:0:
285,52,234998,1,8,0:0:0:0:
285,52,235169,1,0,0:0:0:0:
285,52,235339,1,8,0:0:0:0:
285,52,235425,1,8,0:0:0:0:
285,52,235510,1,0,0:0:0:0:
285,52,235595,1,0,0:0:0:0:
285,52,235681,1,8,0:0:0:0:
282,58,235851,1,0,0:0:0:0:
282,58,236022,1,0,0:0:0:0:
282,58,236192,1,8,0:0:0:0:
282,58,236277,1,8,0:0:0:0:
282,58,236363,1,0,0:0:0:0:
282,58,236533,1,8,0:0:0:0:
282,57,236704,1,0,0:0:0:0:
282,57,236874,1,8,0:0:0:0:
291,60,236960,1,8,0:0:0:0:
282,57,237045,1,0,0:0:0:0:
282,57,237216,1,8,0:0:0:0:
282,57,237386,1,0,0:0:0:0:
282,57,237557,1,8,0:0:0:0:
291,60,237642,1,8,0:0:0:0:
282,57,237727,1,0,0:0:0:0:
282,57,237898,1,8,0:0:0:0:
283,57,238068,1,0,0:0:0:0:
283,57,238239,1,8,0:0:0:0:
291,60,238324,1,8,0:0:0:0:
283,57,238409,1,0,0:0:0:0:
283,57,238580,1,8,0:0:0:0:
284,57,238751,1,0,0:0:0:0:
290,60,238836,1,0,0:0:0:0:
290,61,238921,1,0,0:0:0:0:
290,60,239006,1,0,0:0:0:0:
290,60,239092,1,0,0:0:0:0:
290,60,239177,1,0,0:0:0:0:
290,60,239262,1,0,0:0:0:0:
290,60,239348,1,0,0:0:0:0:
292,48,239433,1,8,0:0:0:0:
291,47,239518,1,8,0:0:0:0:
292,48,239603,1,8,0:0:0:0:
292,48,239689,1,8,0:0:0:0:
292,48,239774,1,8,0:0:0:0:
292,48,239859,1,8,0:0:0:0:
292,48,239945,1,8,0:0:0:0:
294,49,240030,1,8,0:0:0:0:
292,48,240115,1,0,0:0:0:0:
309,57,240456,1,8,0:0:0:0:
309,57,240542,1,8,0:0:0:0:
309,57,240627,1,8,0:0:0:0:
306,63,240712,1,8,0:0:0:0:
309,57,240797,1,8,0:0:0:0:
309,57,240883,1,8,0:0:0:0:
309,57,240968,1,8,0:0:0:0:
309,57,241053,1,8,0:0:0:0:
309,57,241138,1,8,0:0:0:0:
306,63,241224,1,8,0:0:0:0:
309,57,241309,1,8,0:0:0:0:
309,57,241394,1,8,0:0:0:0:
322,88,241480,1,0,0:0:0:0:
327,76,241650,1,8,0:0:0:0:
324,77,241707,1,0,0:0:0:0:
327,76,241764,1,0,0:0:0:0:
327,76,241821,1,8,0:0:0:0:
324,68,241906,1,0,0:0:0:0:
327,76,241991,1,8,0:0:0:0:
324,68,242077,1,0,0:0:0:0:
327,76,242162,1,8,0:0:0:0:
367,113,242332,1,0,0:0:0:0:
326,109,242389,1,0,0:0:0:0:
326,109,242446,1,0,0:0:0:0:
321,70,242503,1,8,0:0:0:0:
321,70,242588,1,0,0:0:0:0:
324,68,242674,1,0,0:0:0:0:
321,70,242759,1,0,0:0:0:0:
324,68,242844,1,8,0:0:0:0:
324,68,243015,1,8,0:0:0:0:
324,68,243071,1,8,0:0:0:0:
324,68,243128,1,0,0:0:0:0:
323,80,243185,1,8,0:0:0:0:
239,31,243270,1,8,0:0:0:0:
328,76,243356,1,0,0:0:0:0:
323,80,243441,1,8,0:0:0:0:
321,73,243612,1,0,0:0:0:0:
323,80,243697,1,8,0:0:0:0:
321,73,243782,1,0,0:0:0:0:
330,71,243867,1,8,0:0:0:0:
331,67,243953,1,0,0:0:0:0:
330,78,244038,1,0,0:0:0:0:
330,79,244123,1,8,0:0:0:0:
330,78,244209,1,0,0:0:0:0:
330,78,244379,1,8,0:0:0:0:
330,78,244436,1,0,0:0:0:0:
330,78,244493,1,0,0:0:0:0:
340,71,244550,1,8,0:0:0:0:
338,79,244635,1,8,0:0:0:0:
353,78,244720,1,0,0:0:0:0:
353,78,244806,1,8,0:0:0:0:
353,78,244976,1,8,0:0:0:0:
357,83,245061,1,0,0:0:0:0:
353,78,245147,1,0,0:0:0:0:
357,83,245232,1,8,0:0:0:0:
353,78,245317,1,0,0:0:0:0:
357,83,245403,1,8,0:0:0:0:
353,78,245488,1,8,0:0:0:0:
353,78,245573,1,0,0:0:0:0:
344,86,245658,1,8,0:0:0:0:
337,74,245715,1,0,0:0:0:0:
337,74,245772,1,8,0:0:0:0:
332,80,245914,1,8,0:0:0:0:
332,80,246085,1,0,0:0:0:0:
332,80,246170,1,8,0:0:0:0:
332,80,246255,1,0,0:0:0:0:
317,98,246312,1,0,0:0:0:0:
317,98,246369,1,0,0:0:0:0:
332,80,246426,1,8,0:0:0:0:
344,71,246511,1,0,0:0:0:0:
341,73,246596,1,8,0:0:0:0:
330,67,246767,1,0,0:0:0:0:
330,67,246852,1,8,0:0:0:0:
330,67,246938,1,0,0:0:0:0:
345,68,247023,1,8,0:0:0:0:
334,80,247108,1,0,0:0:0:0:
336,73,247279,1,8,0:0:0:0:
337,73,247364,1,0,0:0:0:0:
336,73,247449,1,0,0:0:0:0:
337,73,247535,1,8,0:0:0:0:
336,73,247620,1,8,0:0:0:0:
316,66,247705,1,0,0:0:0:0:
319,90,247790,1,0,0:0:0:0:
316,66,247876,1,0,0:0:0:0:
328,63,247961,1,8,0:0:0:0:
327,63,248046,1,0,0:0:0:0:
328,63,248131,1,8,0:0:0:0:
327,63,248217,1,0,0:0:0:0:
328,63,248302,1,0,0:0:0:0:
327,63,248387,1,8,0:0:0:0:
327,63,248558,1,0,0:0:0:0:
328,63,248643,1,8,0:0:0:0:
327,63,248728,1,8,0:0:0:0:
328,63,248814,1,0,0:0:0:0:
327,63,248899,1,8,0:0:0:0:
299,78,249070,1,8,0:0:0:0:
289,101,249112,1,8,0:0:0:0:
299,78,249155,1,0,0:0:0:0:
309,70,249240,1,0,0:0:0:0:
305,70,249325,1,8,0:0:0:0:
305,70,249496,1,0,0:0:0:0:
305,70,249581,1,8,0:0:0:0:
305,70,249667,1,0,0:0:0:0:
314,70,249752,1,0,0:0:0:0:
314,70,249837,1,8,0:0:0:0:
314,70,249922,1,0,0:0:0:0:
314,70,250008,1,8,0:0:0:0:
314,70,250178,1,0,0:0:0:0:
314,70,250263,1,8,0:0:0:0:
323,72,250434,1,0,0:0:0:0:
314,70,250519,1,8,0:0:0:0:
313,74,250605,1,0,0:0:0:0:
314,70,250690,1,8,0:0:0:0:
319,79,250775,1,8,0:0:0:0:
319,79,250860,1,0,0:0:0:0:
319,79,250946,1,0,0:0:0:0:
319,79,251031,1,8,0:0:0:0:
339,81,251116,1,0,0:0:0:0:
303,76,251287,1,0,0:0:0:0:
303,76,251372,1,8,0:0:0:0:
297,69,251457,1,8,0:0:0:0:
297,69,251543,1,0,0:0:0:0:
297,69,251628,1,8,0:0:0:0:
307,83,251799,1,0,0:0:0:0:
309,74,251884,1,0,0:0:0:0:
309,74,251969,1,8,0:0:0:0:
310,81,252054,1,8,0:0:0:0:
310,81,252140,1,0,0:0:0:0:
309,75,252225,1,8,0:0:0:0:
260,99,252396,1,8,0:0:0:0:
273,99,252452,1,8,0:0:0:0:
274,99,252509,1,8,0:0:0:0:
274,99,252566,1,0,0:0:0:0:
305,69,252651,1,0,0:0:0:0:
315,62,252737,1,8,0:0:0:0:
321,63,252822,1,0,0:0:0:0:
321,63,252907,1,0,0:0:0:0:
321,63,252992,1,8,0:0:0:0:
321,63,253163,1,8,0:0:0:0:
325,52,253248,1,0,0:0:0:0:
325,52,253334,1,0,0:0:0:0:
316,45,253419,1,8,0:0:0:0:
305,49,253504,1,8,0:0:0:0:
305,49,253589,1,0,0:0:0:0:
316,49,253760,1,0,0:0:0:0:
315,51,253817,1,0,0:0:0:0:
309,55,253874,1,8,0:0:0:0:
309,55,253931,1,8,0:0:0:0:
319,44,254016,1,0,0:0:0:0:
318,44,254101,1,8,0:0:0:0:
325,40,254186,1,0,0:0:0:0:
288,32,254272,1,0,0:0:0:0:
314,37,254357,1,8,0:0:0:0:
329,40,254528,1,0,0:0:0:0:
329,40,254613,1,8,0:0:0:0:
315,55,254698,1,0,0:0:0:0:
314,48,254783,1,8,0:0:0:0:
326,49,254869,1,0,0:0:0:0:
326,49,254954,1,0,0:0:0:0:
327,41,255039,1,8,0:0:0:0:
327,41,255124,1,0,0:0:0:0:
327,41,255210,1,8,0:0:0:0:
327,41,255380,1,0,0:0:0:0:
327,41,255466,1,8,0:0:0:0:
327,41,255551,1,8,0:0:0:0:
327,41,255636,1,0,0:0:0:0:
327,41,255721,1,8,0:0:0:0:
317,35,255892,1,0,0:0:0:0:
354,81,255977,1,8,0:0:0:0:
333,81,256034,1,0,0:0:0:0:
333,81,256091,1,0,0:0:0:0:
319,27,256148,1,8,0:0:0:0:
319,27,256233,1,0,0:0:0:0:
317,35,256318,1,8,0:0:0:0:
317,35,256489,1,8,0:0:0:0:
301,33,256546,1,8,0:0:0:0:
302,33,256603,1,0,0:0:0:0:
302,33,256660,1,8,0:0:0:0:
322,48,256745,1,0,0:0:0:0:
322,47,256830,1,8,0:0:0:0:
322,48,256915,1,0,0:0:0:0:
322,47,257001,1,0,0:0:0:0:
322,48,257086,1,8,0:0:0:0:
322,48,257256,1,0,0:0:0:0:
322,48,257342,1,8,0:0:0:0:
322,48,257427,1,0,0:0:0:0:
322,48,257512,1,8,0:0:0:0:
322,48,257598,1,8,0:0:0:0:
342,50,257683,1,0,0:0:0:0:
301,59,257853,1,0,0:0:0:0:
341,59,257910,1,0,0:0:0:0:
281,92,257967,1,8,0:0:0:0:
302,73,258024,1,8,0:0:0:0:
341,59,258109,1,0,0:0:0:0:
333,51,258195,1,8,0:0:0:0:
312,47,258280,1,0,0:0:0:0:
301,38,258365,1,0,0:0:0:0:
321,51,258450,1,8,0:0:0:0:
307,54,258621,1,8,0:0:0:0:
286,62,258706,1,0,0:0:0:0:
286,62,258763,1,0,0:0:0:0:
286,62,258820,1,0,0:0:0:0:
307,54,258877,1,8,0:0:0:0:
317,58,258962,1,0,0:0:0:0:
324,57,259047,1,8,0:0:0:0:
304,69,259133,1,0,0:0:0:0:
296,58,259218,1,0,0:0:0:0:
323,68,259389,1,0,0:0:0:0:
323,68,259474,1,0,0:0:0:0:
323,68,259559,1,8,0:0:0:0:
317,62,259730,1,0,0:0:0:0:
317,62,259815,1,8,0:0:0:0:
317,62,259900,1,8,0:0:0:0:
311,78,259985,1,0,0:0:0:0:
317,62,260071,1,0,0:0:0:0:
317,62,260241,1,8,0:0:0:0:
317,52,260327,1,0,0:0:0:0:
317,52,260412,1,0,0:0:0:0:
317,52,260497,1,8,0:0:0:0:
317,52,260582,1,0,0:0:0:0:
301,68,260646,1,0,0:0:0:0:
304,56,260710,1,8,0:0:0:0:
304,56,260838,1,0,0:0:0:0:
304,56,260924,1,8,0:0:0:0:
321,69,261009,1,8,0:0:0:0:
316,67,261094,1,0,0:0:0:0:
312,61,261179,1,8,0:0:0:0:
305,67,261350,1,8,0:0:0:0:
305,67,261435,1,0,0:0:0:0:
305,67,261521,1,0,0:0:0:0:
305,67,261606,1,8,0:0:0:0:
305,67,261776,1,0,0:0:0:0:
305,67,261862,1,8,0:0:0:0:
305,67,261947,1,0,0:0:0:0:
305,67,262117,1,0,0:0:0:0:
313,69,262203,1,0,0:0:0:0:
313,69,262288,1,8,0:0:0:0:
311,59,262373,1,0,0:0:0:0:
311,59,262459,1,0,0:0:0:0:
296,72,262629,1,0,0:0:0:0:
296,72,262885,1,8,0:0:0:0:
305,69,263056,1,8,0:0:0:0:
291,80,263141,1,0,0:0:0:0:
334,71,263311,1,0,0:0:0:0:
334,71,263397,1,8,0:0:0:0:
334,71,263454,1,8,0:0:0:0:
334,71,263510,1,0,0:0:0:0:
334,71,263567,1,0,0:0:0:0:
319,69,263653,1,8,0:0:0:0:
311,79,263823,1,0,0:0:0:0:
287,82,263908,1,0,0:0:0:0:
305,70,263994,1,8,0:0:0:0:
305,79,264079,1,8,0:0:0:0:
308,83,264164,1,0,0:0:0:0:
305,79,264250,1,0,0:0:0:0:
308,83,264335,1,8,0:0:0:0:
315,87,264392,1,8,0:0:0:0:
314,87,264448,1,8,0:0:0:0:
308,83,264505,1,0,0:0:0:0:
309,81,264591,1,0,0:0:0:0:
309,81,264676,1,8,0:0:0:0:
322,76,264846,1,0,0:0:0:0:
322,76,264932,1,0,0:0:0:0:
316,101,265017,1,8,0:0:0:0:
328,85,265188,1,0,0:0:0:0:
320,86,265273,1,8,0:0:0:0:
328,85,265358,1,8,0:0:0:0:
324,76,265443,1,0,0:0:0:0:
325,77,265529,1,0,0:0:0:0:
302,85,265699,1,8,0:0:0:0:
319,75,265870,1,0,0:0:0:0:
319,75,265955,1,8,0:0:0:0:
319,75,266040,1,0,0:0:0:0:
319,75,266126,1,8,0:0:0:0:
325,70,266296,1,0,0:0:0:0:
316,70,266382,1,8,0:0:0:0:
324,62,266467,1,8,0:0:0:0:
316,70,266552,1,0,0:0:0:0:
324,62,266637,1,8,0:0:0:0:
320,56,266723,1,8,0:0:0:0:
318,57,266808,1,0,0:0:0:0:
325,81,266978,1,0,0:0:0:0:
319,56,267064,1,8,0:0:0:0:
324,50,267149,1,0,0:0:0:0:
324,50,267234,1,8,0:0:0:0:
324,50,267320,1,0,0:0:0:0:
165,261,267405,1,0,0:0:0:0:
313,83,267490,1,8,0:0:0:0:
305,62,267661,1,0,0:0:0:0:
302,62,267746,1,8,0:0:0:0:
295,56,267803,1,8,0:0:0:0:
280,80,267860,1,0,0:0:0:0:
295,56,267917,1,0,0:0:0:0:
295,56,268002,1,8,0:0:0:0:
295,56,268172,1,8,0:0:0:0:
295,56,268258,1,0,0:0:0:0:
295,56,268343,1,0,0:0:0:0:
295,56,268428,1,8,0:0:0:0:
289,79,268514,1,8,0:0:0:0:
288,79,268599,1,0,0:0:0:0:
289,79,268684,1,8,0:0:0:0:
323,84,268769,1,0,0:0:0:0:
323,77,268855,1,8,0:0:0:0:
323,77,268940,1,0,0:0:0:0:
323,77,269110,1,8,0:0:0:0:
279,81,269167,1,8,0:0:0:0:
293,77,269224,1,8,0:0:0:0:
292,77,269281,1,0,0:0:0:0:
327,84,269366,1,0,0:0:0:0:
328,80,269452,1,8,0:0:0:0:
327,84,269537,1,0,0:0:0:0:
346,80,269622,1,0,0:0:0:0:
327,84,269707,1,0,0:0:0:0:
324,73,269793,1,8,0:0:0:0:
324,73,270049,1,0,0:0:0:0:
324,73,270134,1,0,0:0:0:0:
335,73,270219,1,8,0:0:0:0:
336,71,270304,1,0,0:0:0:0:
335,73,270390,1,0,0:0:0:0:
336,71,270475,1,8,0:0:0:0:
336,71,270646,1,0,0:0:0:0:
336,71,270731,1,8,0:0:0:0:
336,71,270816,1,8,0:0:0:0:
331,65,270901,1,0,0:0:0:0:
331,65,270987,1,8,0:0:0:0:
331,65,271157,1,8,0:0:0:0:
331,65,271243,1,0,0:0:0:0:
331,65,271328,1,0,0:0:0:0:
331,65,271413,1,8,0:0:0:0:
331,65,271498,1,0,0:0:0:0:
331,65,271555,1,0,0:0:0:0:
329,90,271612,1,0,0:0:0:0:
331,65,271669,1,8,0:0:0:0:
331,65,271754,1,0,0:0:0:0:
331,65,271839,1,8,0:0:0:0:
331,65,272010,1,0,0:0:0:0:
331,65,272095,1,8,0:0:0:0:
331,65,272181,1,8,0:0:0:0:
331,65,272266,1,0,0:0:0:0:
301,63,272436,1,0,0:0:0:0:
311,66,272522,1,8,0:0:0:0:
289,52,272778,1,0,0:0:0:0:
289,52,272863,1,0,0:0:0:0:
308,46,272948,1,8,0:0:0:0:
308,46,273005,1,8,0:0:0:0:
325,56,273062,1,0,0:0:0:0:
276,84,273119,1,0,0:0:0:0:
309,60,273204,1,8,0:0:0:0:
330,66,273375,1,0,0:0:0:0:
330,66,273460,1,8,0:0:0:0:
323,70,273545,1,0,0:0:0:0:
322,70,273630,1,8,0:0:0:0:
322,70,273801,1,0,0:0:0:0:
322,70,273886,1,8,0:0:0:0:
313,72,273971,1,8,0:0:0:0:
313,72,274057,1,0,0:0:0:0:
313,72,274227,1,0,0:0:0:0:
313,72,274313,1,8,0:0:0:0:
313,72,274369,1,8,0:0:0:0:
313,72,274426,1,0,0:0:0:0:
313,72,274483,1,0,0:0:0:0:
305,73,274568,1,8,0:0:0:0:
304,66,274654,1,0,0:0:0:0:
297,70,274711,1,0,0:0:0:0:
298,70,274767,1,8,0:0:0:0:
330,72,274824,1,8,0:0:0:0:
305,87,274910,1,0,0:0:0:0:
317,84,274995,1,8,0:0:0:0:
312,67,275165,1,0,0:0:0:0:
319,78,275251,1,8,0:0:0:0:
317,81,275336,1,0,0:0:0:0:
319,78,275421,1,8,0:0:0:0:
316,81,275507,1,0,0:0:0:0:
319,78,275592,1,0,0:0:0:0:
316,81,275762,1,0,0:0:0:0:
319,78,275848,1,0,0:0:0:0:
316,81,275933,1,8,0:0:0:0:
319,78,276018,1,8,0:0:0:0:
316,81,276104,1,0,0:0:0:0:
319,78,276189,1,8,0:0:0:0:
319,78,276359,1,8,0:0:0:0:
319,78,276445,1,0,0:0:0:0:
319,78,276530,1,0,0:0:0:0:
319,78,276615,1,8,0:0:0:0:
319,78,276700,1,8,0:0:0:0:
319,78,276786,1,0,0:0:0:0:
319,78,276956,1,0,0:0:0:0:
293,82,277042,1,8,0:0:0:0:
293,82,277098,1,8,0:0:0:0:
287,69,277155,1,0,0:0:0:0:
290,59,277212,1,0,0:0:0:0:
269,70,277297,1,8,0:0:0:0:
269,70,277468,1,0,0:0:0:0:
279,70,277553,1,8,0:0:0:0:
280,70,277639,1,8,0:0:0:0:
279,70,277724,1,0,0:0:0:0:
280,70,277809,1,8,0:0:0:0:
279,70,277894,1,0,0:0:0:0:
280,75,277980,1,8,0:0:0:0:
272,80,278150,1,8,0:0:0:0:
282,76,278236,1,0,0:0:0:0:
282,76,278321,1,0,0:0:0:0:
299,78,278491,1,8,0:0:0:0:
299,78,278577,1,0,0:0:0:0:
299,78,278662,1,8,0:0:0:0:
299,78,278747,1,0,0:0:0:0:
299,78,278832,1,0,0:0:0:0:
299,78,278918,1,8,0:0:0:0:
299,78,279003,1,0,0:0:0:0:
299,78,279088,1,8,0:0:0:0:
299,78,279259,1,0,0:0:0:0:
299,78,279344,1,8,0:0:0:0:
322,75,279429,1,8,0:0:0:0:
324,74,279515,1,0,0:0:0:0:
322,75,279600,1,8,0:0:0:0:
324,74,279685,1,0,0:0:0:0:
324,74,279856,1,0,0:0:0:0:
281,64,280026,1,8,0:0:0:0:
277,72,280083,1,8,0:0:0:0:
280,101,280140,1,0,0:0:0:0:
281,64,280197,1,0,0:0:0:0:
298,54,280282,1,8,0:0:0:0:
291,56,280367,1,0,0:0:0:0:
288,54,280453,1,8,0:0:0:0:
283,61,280538,1,0,0:0:0:0:
283,61,280623,1,0,0:0:0:0:
285,62,280708,1,8,0:0:0:0:
274,56,280794,1,0,0:0:0:0:
271,59,280879,1,8,0:0:0:0:
274,56,280964,1,8,0:0:0:0:
309,57,281050,1,0,0:0:0:0:
309,56,281107,1,0,0:0:0:0:
277,94,281163,1,8,0:0:0:0:
309,57,281220,1,0,0:0:0:0:
326,70,281305,1,0,0:0:0:0:
326,70,281391,1,8,0:0:0:0:
309,57,281476,1,0,0:0:0:0:
291,104,281561,1,8,0:0:0:0:
316,59,281646,1,8,0:0:0:0:
328,54,281732,1,0,0:0:0:0:
316,59,281817,1,8,0:0:0:0:
314,57,281902,1,0,0:0:0:0:
316,59,281988,1,0,0:0:0:0:
316,59,282073,1,8,0:0:0:0:
314,82,282158,1,0,0:0:0:0:
316,59,282329,1,8,0:0:0:0:
316,59,282414,1,0,0:0:0:0:
296,57,282670,1,0,0:0:0:0:
311,67,282755,1,8,0:0:0:0:
308,69,282812,1,0,0:0:0:0:
308,68,282869,1,0,0:0:0:0:
311,67,282926,1,8,0:0:0:0:
308,68,283096,1,0,0:0:0:0:
300,73,283182,1,8,0:0:0:0:
301,73,283267,1,0,0:0:0:0:
301,73,283352,1,0,0:0:0:0:
300,73,283437,1,8,0:0:0:0:
301,73,283693,1,0,0:0:0:0:
301,73,283778,1,8,0:0:0:0:
282,80,283835,1,8,0:0:0:0:
298,83,284034,1,0,0:0:0:0:
290,84,284091,1,0,0:0:0:0:
288,72,284290,1,8,0:0:0:0:
289,72,284375,1,8,0:0:0:0:
359,113,285143,5,0,0:0:0:0:
309,82,285228,1,8,0:0:0:0:
302,79,285285,1,8,0:0:0:0:
298,84,285342,1,0,0:0:0:0:
302,78,285399,1,0,0:0:0:0:
310,75,285484,1,8,0:0:0:0:
302,78,285655,1,0,0:0:0:0:
302,78,285740,1,8,0:0:0:0:
309,77,285825,1,0,0:0:0:0:
302,78,285911,1,8,0:0:0:0:
302,78,285996,1,0,0:0:0:0:
302,78,286081,1,0,0:0:0:0:
302,78,286166,1,8,0:0:0:0:
302,78,286252,1,0,0:0:0:0:
302,78,286337,1,8,0:0:0:0:
302,78,286422,1,0,0:0:0:0:
302,78,286507,1,0,0:0:0:0:
309,77,286678,1,0,0:0:0:0:
302,78,286763,1,0,0:0:0:0:
302,78,286849,1,8,0:0:0:0:
302,78,286934,1,8,0:0:0:0:
297,70,287019,1,0,0:0:0:0:
298,70,287104,1,8,0:0:0:0:
298,78,287190,1,8,0:0:0:0:
298,70,287275,1,0,0:0:0:0:
298,70,287360,1,8,0:0:0:0:
298,70,287446,1,0,0:0:0:0:
298,70,287531,1,8,0:0:0:0:
298,70,287616,1,8,0:0:0:0:
298,70,287701,1,0,0:0:0:0:
298,70,287787,1,8,0:0:0:0:
308,71,287872,1,0,0:0:0:0:
298,70,287958,1,8,0:0:0:0:
298,70,288128,1,0,0:0:0:0:
298,70,288213,1,8,0:0:0:0:
301,77,288298,1,0,0:0:0:0:
282,72,288384,1,0,0:0:0:0:
301,77,288469,1,8,0:0:0:0:
298,75,288554,1,0,0:0:0:0:
296,65,288639,1,8,0:0:0:0:
295,65,288725,1,0,0:0:0:0:
296,65,288810,1,0,0:0:0:0:
296,65,288895,1,8,0:0:0:0:
287,57,288981,1,0,0:0:0:0:
296,65,289066,1,8,0:0:0:0:
296,65,289151,1,0,0:0:0:0:
294,63,289236,1,0,0:0:0:0:
303,68,289407,1,0,0:0:0:0:
294,63,289492,1,0,0:0:0:0:
294,63,289578,1,8,0:0:0:0:
294,63,289663,1,8,0:0:0:0:
294,63,289748,1,0,0:0:0:0:
294,63,289833,1,8,0:0:0:0:
294,63,289919,1,0,0:0:0:0:
294,63,290004,1,8,0:0:0:0:
294,63,290089,1,8,0:0:0:0:
294,63,290175,1,0,0:0:0:0:
294,63,290260,1,8,0:0:0:0:
294,63,290345,1,8,0:0:0:0:
294,63,290430,1,0,0:0:0:0:
294,63,290516,1,8,0:0:0:0:
292,71,290601,1,0,0:0:0:0:
308,56,290686,1,8,0:0:0:0:
308,56,290857,1,0,0:0:0:0:
290,54,290942,1,8,0:0:0:0:
288,53,291027,1,0,0:0:0:0:
290,54,291113,1,0,0:0:0:0:
288,53,291198,1,8,0:0:0:0:
290,54,291283,1,0,0:0:0:0:
288,53,291368,1,8,0:0:0:0:
288,53,291454,1,8,0:0:0:0:
288,53,291539,1,0,0:0:0:0:
288,53,291624,1,8,0:0:0:0:
294,56,291710,1,0,0:0:0:0:
288,53,291795,1,8,0:0:0:0:
294,56,291880,1,0,0:0:0:0:
294,56,291965,1,0,0:0:0:0:
296,47,292136,1,0,0:0:0:0:
296,47,292221,1,0,0:0:0:0:
296,47,292307,1,8,0:0:0:0:
316,62,292392,1,8,0:0:0:0:
296,47,292477,1,0,0:0:0:0:
296,47,292562,1,8,0:0:0:0:
296,47,292648,1,0,0:0:0:0:
287,54,292733,1,8,0:0:0:0:
306,58,292818,1,8,0:0:0:0:
287,54,292904,1,0,0:0:0:0:
289,56,292989,1,8,0:0:0:0:
301,55,293074,1,0,0:0:0:0:
301,55,293159,1,0,0:0:0:0:
301,55,293245,1,8,0:0:0:0:
306,50,293330,1,0,0:0:0:0:
306,50,293415,1,8,0:0:0:0:
287,49,293586,1,0,0:0:0:0:
291,55,293671,1,8,0:0:0:0:
294,47,293756,1,0,0:0:0:0:
294,46,293842,1,0,0:0:0:0:
294,46,293927,1,8,0:0:0:0:
294,46,294012,1,0,0:0:0:0:
294,46,294097,1,8,0:0:0:0:
294,46,294183,1,0,0:0:0:0:
294,46,294268,1,0,0:0:0:0:
299,49,294353,1,8,0:0:0:0:
299,49,294439,1,8,0:0:0:0:
299,49,294524,1,0,0:0:0:0:
299,49,294609,1,0,0:0:0:0:
299,49,294694,1,8,0:0:0:0:
299,49,294865,1,0,0:0:0:0:
299,49,294950,1,0,0:0:0:0:
299,49,295036,1,8,0:0:0:0:
283,58,295121,1,8,0:0:0:0:
299,49,295206,1,0,0:0:0:0:
301,49,295291,1,8,0:0:0:0:
299,60,295377,1,0,0:0:0:0:
293,58,295462,1,8,0:0:0:0:
293,58,295547,1,8,0:0:0:0:
293,58,295632,1,8,0:0:0:0:
293,49,295718,1,0,0:0:0:0:
293,49,295803,1,8,0:0:0:0:
293,49,295888,1,8,0:0:0:0:
293,49,295974,1,8,0:0:0:0:
293,49,296059,1,0,0:0:0:0:
302,66,296229,1,0,0:0:0:0:
302,66,296315,1,0,0:0:0:0:
302,66,296400,1,8,0:0:0:0:
302,66,296485,1,8,0:0:0:0:
302,66,296571,1,0,0:0:0:0:
292,54,296656,1,8,0:0:0:0:
284,70,296741,1,0,0:0:0:0:
290,53,296826,1,8,0:0:0:0:
290,53,296912,1,0,0:0:0:0:
290,53,296997,1,0,0:0:0:0:
290,53,297082,1,8,0:0:0:0:
306,66,297168,1,0,0:0:0:0:
306,68,297253,1,8,0:0:0:0:
306,66,297338,1,0,0:0:0:0:
290,53,297423,1,0,0:0:0:0:
292,66,297594,1,0,0:0:0:0:
290,53,297679,1,0,0:0:0:0:
290,53,297765,1,8,0:0:0:0:
306,70,297850,1,8,0:0:0:0:
306,69,297935,1,0,0:0:0:0:
290,53,298020,1,8,0:0:0:0:
306,69,298106,1,0,0:0:0:0:
290,53,298191,1,8,0:0:0:0:
286,35,298276,1,8,0:0:0:0:
290,38,298361,1,0,0:0:0:0:
286,35,298447,1,8,0:0:0:0:
287,50,298532,1,0,0:0:0:0:
285,57,298617,1,0,0:0:0:0:
287,54,298703,1,8,0:0:0:0:
285,57,298788,1,0,0:0:0:0:
314,56,298873,1,8,0:0:0:0:
281,43,299044,1,0,0:0:0:0:
281,43,299129,1,8,0:0:0:0:
281,43,299214,1,0,0:0:0:0:
281,43,299300,1,8,0:0:0:0:
291,43,299385,1,8,0:0:0:0:
318,61,299470,1,0,0:0:0:0:
281,43,299555,1,8,0:0:0:0:
281,43,299641,1,0,0:0:0:0:
281,43,299726,1,0,0:0:0:0:
281,43,299811,1,8,0:0:0:0:
281,43,299897,1,0,0:0:0:0:
281,43,299982,1,8,0:0:0:0:
281,43,300067,1,0,0:0:0:0:
265,36,300152,1,0,0:0:0:0:
302,79,300323,1,0,0:0:0:0:
266,33,300408,1,0,0:0:0:0:
266,33,300493,1,8,0:0:0:0:
295,45,300579,1,8,0:0:0:0:
258,32,300664,1,0,0:0:0:0:
258,32,300749,1,8,0:0:0:0:
298,47,300835,1,0,0:0:0:0:
258,32,300920,1,8,0:0:0:0:
258,32,301005,1,0,0:0:0:0:
258,32,301090,1,8,0:0:0:0:
258,32,301176,1,8,0:0:0:0:
258,32,301261,1,0,0:0:0:0:
258,32,301346,1,0,0:0:0:0:
258,32,301432,1,8,0:0:0:0:
258,32,301517,1,0,0:0:0:0:
269,69,301602,1,8,0:0:0:0:
258,32,301773,1,0,0:0:0:0:
258,32,301858,1,8,0:0:0:0:
258,32,301943,1,0,0:0:0:0:
258,32,302029,1,8,0:0:0:0:
258,32,302114,1,0,0:0:0:0:
290,54,302199,1,8,0:0:0:0:
290,54,302285,1,8,0:0:0:0:
258,32,302370,1,0,0:0:0:0:
258,32,302455,1,0,0:0:0:0:
262,39,302540,1,8,0:0:0:0:
271,47,302626,1,0,0:0:0:0:
262,39,302711,1,8,0:0:0:0:
271,47,302796,1,8,0:0:0:0:
262,39,302881,1,0,0:0:0:0:
296,61,303052,1,0,0:0:0:0:
246,45,303137,1,0,0:0:0:0:
255,40,303222,1,8,0:0:0:0:
262,40,303308,1,8,0:0:0:0:
262,40,303393,1,0,0:0:0:0:
262,40,303478,1,8,0:0:0:0:
273,46,303564,1,0,0:0:0:0:
262,40,303649,1,8,0:0:0:0:
262,40,303734,1,8,0:0:0:0:
262,40,303819,1,0,0:0:0:0:
262,40,303905,1,8,0:0:0:0:
262,40,303990,1,0,0:0:0:0:
262,40,304075,1,0,0:0:0:0:
262,40,304161,1,8,0:0:0:0:
262,40,304246,1,0,0:0:0:0:
272,50,304331,1,8,0:0:0:0:
262,40,304502,1,0,0:0:0:0:
262,40,304587,1,8,0:0:0:0:
262,40,304672,1,0,0:0:0:0:
262,40,304758,1,0,0:0:0:0:
262,40,304843,1,8,0:0:0:0:
262,40,304928,1,0,0:0:0:0:
262,40,305013,1,8,0:0:0:0:
262,40,305099,1,8,0:0:0:0:
262,40,305184,1,0,0:0:0:0:
262,40,305269,1,8,0:0:0:0:
262,40,305354,1,0,0:0:0:0:
262,40,305440,1,8,0:0:0:0:
262,40,305525,1,0,0:0:0:0:
262,40,305610,1,0,0:0:0:0:
274,36,305696,1,8,0:0:0:0:
262,40,305781,1,0,0:0:0:0:
262,40,305866,1,0,0:0:0:0:
262,40,305951,1,8,0:0:0:0:
262,40,306037,1,8,0:0:0:0:
262,40,306122,1,0,0:0:0:0:
262,40,306207,1,8,0:0:0:0:
262,40,306293,1,0,0:0:0:0:
262,40,306378,1,0,0:0:0:0:
262,40,306463,1,0,0:0:0:0:
262,40,306548,1,0,0:0:0:0:
262,40,306634,1,8,0:0:0:0:
262,40,306719,1,8,0:0:0:0:
262,40,306804,1,8,0:0:0:0:
262,40,306890,1,8,0:0:0:0:
260,105,306975,5,4,0:0:0:0:
276,68,307487,1,0,0:0:0:0:
269,114,309363,1,0,0:0:0:0:
268,114,309704,1,0,0:0:0:0:
269,114,310215,1,0,0:0:0:0:
269,114,310386,1,8,0:0:0:0:
254,99,310727,1,8,0:0:0:0:
269,114,311068,1,0,0:0:0:0:
269,114,311239,1,8,0:0:0:0:
268,117,311580,1,0,0:0:0:0:
258,111,311751,1,8,0:0:0:0:
263,105,312092,1,8,0:0:0:0:
268,110,312433,1,0,0:0:0:0:
268,110,312944,1,0,0:0:0:0:
291,85,313115,1,0,0:0:0:0:
270,108,314309,1,8,0:0:0:0:
270,108,314479,1,0,0:0:0:0:
274,109,314821,1,0,0:0:0:0:
268,99,314991,1,8,0:0:0:0:
274,110,315162,1,0,0:0:0:0:
267,108,315673,1,0,0:0:0:0:
267,108,315844,1,8,0:0:0:0:
256,104,316526,1,0,0:0:0:0:
256,104,316612,1,0,0:0:0:0:
256,104,316697,1,0,0:0:0:0:
261,99,316782,1,0,0:0:0:0:
256,104,316867,1,0,0:0:0:0:
261,99,316953,1,0,0:0:0:0:
269,106,317038,1,0,0:0:0:0:
261,99,317123,1,0,0:0:0:0:
264,105,317208,1,8,0:0:0:0:
264,105,317294,1,8,0:0:0:0:
264,105,317379,1,8,0:0:0:0:
264,105,317464,1,8,0:0:0:0:
264,105,317550,1,8,0:0:0:0:
264,105,317635,1,8,0:0:0:0:
264,105,317720,1,8,0:0:0:0:
264,105,317805,1,8,0:0:0:0:
245,118,317891,5,4,0:0:0:0:
323,82,318403,1,0,0:0:0:0:
323,82,318573,1,8,0:0:0:0:
307,85,318659,1,8,0:0:0:0:
307,85,318744,1,0,0:0:0:0:
307,85,318914,1,8,0:0:0:0:
306,84,319255,1,0,0:0:0:0:
306,84,319426,1,8,0:0:0:0:
306,84,319597,1,0,0:0:0:0:
306,84,319767,1,0,0:0:0:0:
306,100,319938,1,8,0:0:0:0:
299,90,320023,1,0,0:0:0:0:
307,93,320108,1,8,0:0:0:0:
304,78,320194,1,8,0:0:0:0:
307,93,320279,1,0,0:0:0:0:
303,90,320620,1,0,0:0:0:0:
304,97,320791,1,8,0:0:0:0:
304,97,320961,1,8,0:0:0:0:
298,91,321132,1,0,0:0:0:0:
298,91,321302,1,8,0:0:0:0:
312,84,321387,1,0,0:0:0:0:
298,91,321473,1,8,0:0:0:0:
298,91,321643,1,0,0:0:0:0:
291,89,321984,1,0,0:0:0:0:
291,89,322155,1,8,0:0:0:0:
291,89,322240,1,8,0:0:0:0:
291,89,322326,1,0,0:0:0:0:
291,89,322496,1,0,0:0:0:0:
291,89,322667,1,8,0:0:0:0:
299,80,322752,1,8,0:0:0:0:
291,89,322837,1,0,0:0:0:0:
299,80,322923,1,0,0:0:0:0:
291,89,323008,1,8,0:0:0:0:
291,88,323349,1,4,0:0:0:0:
291,88,323690,1,8,0:0:0:0:
291,88,323861,1,0,0:0:0:0:
291,88,323946,1,0,0:0:0:0:
291,88,324031,1,0,0:0:0:0:
291,88,324202,1,0,0:0:0:0:
291,88,324372,1,8,0:0:0:0:
256,76,324543,1,0,0:0:0:0:
290,90,324713,1,0,0:0:0:0:
290,90,324884,1,0,0:0:0:0:
278,82,325055,1,8,0:0:0:0:
278,82,325225,1,0,0:0:0:0:
278,82,325310,1,8,0:0:0:0:
278,82,325396,1,0,0:0:0:0:
278,82,325566,1,0,0:0:0:0:
278,82,325737,1,8,0:0:0:0:
278,82,325907,1,0,0:0:0:0:
214,202,326078,2,0,L|274:186,24,52.5000020027161
291,108,328807,1,12,0:0:0:0:
295,98,330171,1,0,0:0:0:0:
295,98,331536,1,12,0:0:0:0:
296,94,332048,1,0,0:0:0:0:
314,100,332559,1,8,0:0:0:0:
317,98,333071,1,8,0:0:0:0:
317,98,333412,1,0,0:0:0:0:
317,98,333583,1,8,0:0:0:0:
309,87,333924,1,0,0:0:0:0:
309,87,334265,1,0,0:0:0:0:
309,88,334777,1,0,0:0:0:0:
306,88,335288,1,8,0:0:0:0:
322,86,335800,1,8,0:0:0:0:
322,71,336141,1,8,0:0:0:0:
319,80,336312,1,0,0:0:0:0:
322,71,336482,1,0,0:0:0:0:
322,71,336653,1,8,0:0:0:0:
322,71,336994,1,0,0:0:0:0:
309,69,337506,1,0,0:0:0:0:
308,70,338017,1,8,0:0:0:0:
298,66,338529,1,8,0:0:0:0:
298,66,338870,1,0,0:0:0:0:
298,66,339041,1,8,0:0:0:0:
298,66,339382,1,0,0:0:0:0:
298,66,339723,1,0,0:0:0:0:
298,66,340234,1,0,0:0:0:0:
300,61,340746,1,8,0:0:0:0:
300,61,341087,1,8,0:0:0:0:
272,70,341173,1,8,0:0:0:0:
300,61,341258,1,8,0:0:0:0:
300,61,341343,1,8,0:0:0:0:
300,61,341428,1,8,0:0:0:0:
300,61,341514,1,8,0:0:0:0:
300,61,341599,1,8,0:0:0:0:
300,61,341684,1,8,0:0:0:0:
300,61,341770,1,8,0:0:0:0:
300,61,341855,1,8,0:0:0:0:
300,61,341940,1,8,0:0:0:0:
300,61,342025,1,8,0:0:0:0:
300,61,342111,1,8,0:0:0:0:
300,61,342196,1,8,0:0:0:0:
300,61,342281,1,8,0:0:0:0:
300,61,342367,1,8,0:0:0:0:
284,118,342452,5,4,0:0:0:0:
284,94,342793,1,8,0:0:0:0:
284,64,343219,1,8,0:0:0:0:
305,90,343305,1,0,0:0:0:0:
293,81,343475,1,8,0:0:0:0:
293,81,343646,1,0,0:0:0:0:
293,81,343816,1,0,0:0:0:0:
295,79,344157,1,8,0:0:0:0:
284,64,344584,1,8,0:0:0:0:
305,90,344669,1,0,0:0:0:0:
305,90,344840,1,8,0:0:0:0:
305,90,345010,1,8,0:0:0:0:
296,82,345095,1,8,0:0:0:0:
291,64,345181,1,0,0:0:0:0:
300,87,345522,1,8,0:0:0:0:
300,60,345863,1,8,0:0:0:0:
289,74,345948,1,8,0:0:0:0:
300,87,346034,1,0,0:0:0:0:
297,79,346119,1,8,0:0:0:0:
290,59,346375,1,0,0:0:0:0:
301,71,346545,1,0,0:0:0:0:
293,70,346886,1,8,0:0:0:0:
293,70,347142,1,0,0:0:0:0:
293,70,347313,1,8,0:0:0:0:
293,70,347398,1,0,0:0:0:0:
293,70,347483,1,0,0:0:0:0:
293,70,347569,1,8,0:0:0:0:
293,70,347739,1,8,0:0:0:0:
294,59,347824,1,8,0:0:0:0:
293,70,347910,1,0,0:0:0:0:
296,64,348251,1,8,0:0:0:0:
304,64,348677,1,8,0:0:0:0:
304,64,348763,1,0,0:0:0:0:
304,64,348933,1,8,0:0:0:0:
304,64,349104,1,0,0:0:0:0:
304,64,349274,1,0,0:0:0:0:
304,64,349615,1,8,0:0:0:0:
303,64,350042,1,8,0:0:0:0:
303,64,350127,1,0,0:0:0:0:
294,57,350298,1,8,0:0:0:0:
294,57,350468,1,8,0:0:0:0:
294,57,350553,1,8,0:0:0:0:
294,57,350639,1,0,0:0:0:0:
293,57,350980,1,8,0:0:0:0:
302,53,351406,1,8,0:0:0:0:
302,53,351492,1,0,0:0:0:0:
302,53,351577,1,0,0:0:0:0:
302,53,351662,1,8,0:0:0:0:
302,53,351833,1,0,0:0:0:0:
302,53,352003,1,0,0:0:0:0:
297,48,352344,1,8,0:0:0:0:
297,48,352600,1,0,0:0:0:0:
297,48,352771,1,8,0:0:0:0:
293,42,353197,1,0,0:0:0:0:
293,42,353368,1,12,0:0:0:0:
268,97,354221,1,0,0:0:0:0:
267,97,354562,1,0,0:0:0:0:
267,97,354732,1,0,0:0:0:0:
266,95,355073,1,0,0:0:0:0:
249,226,355585,2,0,L|275:206,6,21.6999991390992
286,135,357461,1,0,0:0:0:0:
288,141,357802,1,0,0:0:0:0:
210,202,358314,2,0,L|242:184,6,19.9499997564697
289,129,359678,1,0,0:0:0:0:
289,129,360020,1,0,0:0:0:0:
289,129,360190,1,0,0:0:0:0:
289,129,360531,1,0,0:0:0:0:
265,203,361043,2,0,L|291:182,6,18.199999888916
290,156,361896,1,0,0:0:0:0:
291,153,362919,1,0,0:0:0:0:
291,153,363090,1,0,0:0:0:0:
237,215,363772,2,0,L|270:201,3,32.8999994979859
265,114,364966,1,8,0:0:0:0:
246,172,366501,2,0,L|267:169,6,14.6999995513916
303,123,368548,5,8,0:0:0:0:
316,146,369742,5,4,0:0:0:0:
290,103,375200,5,4,0:0:0:0:
311,164,381169,5,0,0:0:0:0:
291,152,386941,5,8,0:0:0:0:
258,136,388422,1,8,0:0:0:0:
