osu file format v14

[General]
AudioFilename: audio.mp3
AudioLeadIn: 0
PreviewTime: 67286
Countdown: 0
SampleSet: Soft
StackLeniency: 0.7
Mode: 3
LetterboxInBreaks: 0
SpecialStyle: 0
WidescreenStoryboard: 1

[Editor]
Bookmarks: 1346,12343,23341,32963,33994,34338,39836,42586,43960,44648,45335,62174,64236,64924,65955,66642,67329,89324,98946,100321,105819,108569,109943,110631,111318,120941,122315,127814,130563,131938,132625,133312,135546,136062,138811,141560,149808,152558,153932,155307
DistanceSpacing: 1
BeatDivisor: 2
GridSize: 8
TimelineZoom: 1.8

[Metadata]
Title:Nhelv
TitleUnicode:Nhelv
Artist:Silentroom
ArtistUnicode:Silentroom
Creator:Leniane
Version:Another
Source:Arcaea
Tags:Memory Waves SLRM-0002 2 Minutes Works Chunithm Sound Voltex Vivid Wave SDVX5 SDVX 5 THE BMS OF FIGHTERS ULTIMATE 2017 -LEGENDA EST A MYTH- BOFU2017 BOFU AMAZON SEGA BEMANI KONAMI lowiro Rainbow Frontier Neurofunk Neurostep DnB Drum and n & Bass Electronic Instrumental
BeatmapID:2410391
BeatmapSetID:1140163

[Difficulty]
HPDrainRate:8.4
CircleSize:4
OverallDifficulty:8
ApproachRate:5
SliderMultiplier:1.4
SliderTickRate:1

[Events]
//Background and Video events
0,0,"Background.jpg",0,0
//Break Periods
//Storyboard Layer 0 (Background)
//Storyboard Layer 1 (Fail)
//Storyboard Layer 2 (Pass)
//Storyboard Layer 3 (Foreground)
//Storyboard Layer 4 (Overlay)
//Storyboard Sound Samples
Sample,92760,0,"p4_synth_main_018.ogg",80
Sample,93448,0,"p4_synth_main_019.ogg",80
Sample,95510,0,"p4_synth_main_022.ogg",80
Sample,98259,0,"p4_synth_main_024.ogg",80
Sample,109943,0,"p4_synth_main_035.ogg",80

[TimingPoints]
-28,343.662294518586,4,2,1,5,1,0
831,-100,4,2,1,7,0,0
1002,-100,4,2,1,10,0,0
1088,-100,4,2,1,12,0,0
1174,-100,4,2,1,15,0,0
1260,-100,4,2,1,17,0,0
1346,-100,4,2,1,20,0,0
12343,-100,4,2,1,30,0,0
23341,-100,4,2,1,40,0,0
34338,-100,4,2,1,50,0,0
45335,-100,4,2,1,60,0,0
67329,-100,4,2,1,60,0,1
89324,-100,4,2,1,40,0,0
100321,-100,4,2,1,50,0,0
111318,-100,4,2,1,40,0,0
122315,-100,4,2,1,50,0,0
136062,-100,4,2,1,60,0,1
138811,-100,4,2,1,50,0,0
141560,-100,4,2,1,60,0,1
149808,-100,4,2,1,50,0,0

[HitObjects]
320,192,659,5,0,0:0:0:0:
448,192,745,1,0,0:0:0:0:
192,192,831,1,0,0:0:0:0:
448,192,917,1,0,0:0:0:0:
192,192,1002,1,0,0:0:0:0:
320,192,1088,1,0,0:0:0:0:
64,192,1174,1,0,0:0:0:0:
320,192,1260,1,0,0:0:0:0:
64,192,1346,128,2,6931:0:0:0:0:
192,192,1346,1,0,0:0:0:0:
320,192,4181,128,0,9336:0:0:0:0:
192,192,6931,128,0,9680:0:0:0:0:
448,192,9336,128,0,12000:0:0:0:0:
64,192,9680,128,0,12343:0:0:0:0:
320,192,12343,1,2,0:0:0:0:
448,192,12343,1,0,0:0:0:0:
64,192,12687,1,2,0:0:0:0:
192,192,12687,1,0,0:0:0:0:
448,192,13031,1,0,0:0:0:0:
64,192,13202,1,2,0:0:0:0:
192,192,13202,1,0,0:0:0:0:
320,192,13546,1,2,0:0:0:0:
448,192,13546,1,0,0:0:0:0:
64,192,13718,1,2,0:0:0:0:
192,192,13718,1,0,0:0:0:0:
320,192,14062,1,2,0:0:0:0:
448,192,14062,1,0,0:0:0:0:
64,192,14405,1,0,0:0:0:0:
320,192,14577,1,2,0:0:0:0:
448,192,14577,1,0,0:0:0:0:
64,192,15007,1,2,0:0:0:0:
192,192,15007,1,0,0:0:0:0:
320,192,15093,1,2,0:0:0:0:
448,192,15093,1,0,0:0:0:0:
64,192,15436,1,2,0:0:0:0:
192,192,15436,1,0,0:0:0:0:
448,192,15780,1,0,0:0:0:0:
64,192,16467,1,2,0:0:0:0:
192,192,16467,1,0,0:0:0:0:
320,192,16811,1,2,0:0:0:0:
448,192,16811,1,0,0:0:0:0:
64,192,17155,1,0,0:0:0:0:
320,192,17326,1,2,0:0:0:0:
448,192,17326,1,0,0:0:0:0:
64,192,17842,1,2,0:0:0:0:
192,192,17842,1,0,0:0:0:0:
320,192,18186,1,2,0:0:0:0:
448,192,18186,1,0,0:0:0:0:
64,192,18529,1,0,0:0:0:0:
320,192,18701,1,2,0:0:0:0:
448,192,18701,1,0,0:0:0:0:
64,192,19045,1,2,0:0:0:0:
192,192,19045,1,0,0:0:0:0:
320,192,19217,1,2,0:0:0:0:
448,192,19217,1,0,0:0:0:0:
64,192,19560,1,2,0:0:0:0:
192,192,19560,1,0,0:0:0:0:
448,192,19904,1,0,0:0:0:0:
64,192,20076,1,2,0:0:0:0:
192,192,20076,1,0,0:0:0:0:
320,192,20505,1,2,0:0:0:0:
448,192,20505,1,0,0:0:0:0:
64,192,20591,1,2,0:0:0:0:
192,192,20591,1,0,0:0:0:0:
320,192,20935,1,2,0:0:0:0:
448,192,20935,1,0,0:0:0:0:
64,192,21279,1,0,0:0:0:0:
320,192,21966,1,2,0:0:0:0:
448,192,21966,1,0,0:0:0:0:
64,192,22310,1,2,0:0:0:0:
192,192,22310,1,0,0:0:0:0:
448,192,22653,128,0,22997:0:0:0:0:
64,192,22825,128,0,22997:0:0:0:0:
192,192,22997,1,0,0:0:0:0:
320,192,23083,1,0,0:0:0:0:
192,192,23169,1,0,0:0:0:0:
64,192,23255,1,0,0:0:0:0:
320,192,23341,1,2,0:0:0:0:
448,192,23341,1,0,0:0:0:0:
192,192,23426,1,0,0:0:0:0:
64,192,23512,1,0,0:0:0:0:
320,192,23598,1,0,0:0:0:0:
64,192,23684,1,8,0:0:0:0:
192,192,23684,1,0,0:0:0:0:
448,192,23770,1,0,0:0:0:0:
64,192,23856,1,0,0:0:0:0:
192,192,23942,1,2,0:0:0:0:
448,192,23942,1,0,0:0:0:0:
320,192,24028,1,8,0:0:0:0:
64,192,24114,1,8,0:0:0:0:
192,192,24114,1,0,0:0:0:0:
320,192,24200,1,2,0:0:0:0:
448,192,24200,1,0,0:0:0:0:
64,192,24286,1,0,0:0:0:0:
192,192,24372,1,8,0:0:0:0:
448,192,24372,1,0,0:0:0:0:
320,192,24457,1,0,0:0:0:0:
64,192,24543,1,2,0:0:0:0:
192,192,24543,1,0,0:0:0:0:
320,192,24629,1,0,0:0:0:0:
64,192,24715,1,2,0:0:0:0:
448,192,24715,1,0,0:0:0:0:
192,192,24801,1,0,0:0:0:0:
320,192,24887,1,0,0:0:0:0:
192,192,24973,1,0,0:0:0:0:
64,192,25059,1,8,0:0:0:0:
448,192,25059,1,0,0:0:0:0:
320,192,25145,1,0,0:0:0:0:
64,192,25231,1,0,0:0:0:0:
320,192,25317,1,2,0:0:0:0:
448,192,25317,1,0,0:0:0:0:
192,192,25403,1,0,0:0:0:0:
320,192,25488,1,8,0:0:0:0:
448,192,25488,1,0,0:0:0:0:
64,192,25574,1,2,0:0:0:0:
192,192,25574,1,0,0:0:0:0:
448,192,25660,1,0,0:0:0:0:
64,192,25746,1,8,0:0:0:0:
192,192,25746,1,0,0:0:0:0:
320,192,25832,1,0,0:0:0:0:
64,192,25918,1,0,0:0:0:0:
192,192,26004,1,0,0:0:0:0:
320,192,26090,1,2,0:0:0:0:
448,192,26090,1,0,0:0:0:0:
64,192,26176,1,0,0:0:0:0:
320,192,26262,1,0,0:0:0:0:
192,192,26348,1,0,0:0:0:0:
64,192,26433,1,8,0:0:0:0:
448,192,26433,1,0,0:0:0:0:
320,192,26519,1,0,0:0:0:0:
192,192,26605,1,0,0:0:0:0:
64,192,26691,1,2,0:0:0:0:
448,192,26691,1,0,0:0:0:0:
192,192,26777,1,8,0:0:0:0:
320,192,26863,1,8,0:0:0:0:
448,192,26863,1,0,0:0:0:0:
64,192,26949,1,2,0:0:0:0:
192,192,26949,1,0,0:0:0:0:
448,192,27035,1,0,0:0:0:0:
64,192,27121,1,8,0:0:0:0:
192,192,27121,1,0,0:0:0:0:
320,192,27207,1,0,0:0:0:0:
64,192,27293,1,2,0:0:0:0:
192,192,27293,1,0,0:0:0:0:
320,192,27379,1,0,0:0:0:0:
64,192,27464,1,2,0:0:0:0:
448,192,27464,1,0,0:0:0:0:
192,192,27550,1,0,0:0:0:0:
320,192,27636,1,0,0:0:0:0:
64,192,27722,1,0,0:0:0:0:
320,192,27808,1,8,0:0:0:0:
448,192,27808,1,0,0:0:0:0:
192,192,27894,1,0,0:0:0:0:
64,192,27980,1,0,0:0:0:0:
320,192,28066,1,2,0:0:0:0:
448,192,28066,1,0,0:0:0:0:
192,192,28152,1,0,0:0:0:0:
320,192,28238,1,8,0:0:0:0:
448,192,28238,1,0,0:0:0:0:
64,192,28324,1,2,0:0:0:0:
192,192,28324,1,0,0:0:0:0:
448,192,28410,1,0,0:0:0:0:
64,192,28495,1,8,0:0:0:0:
192,192,28495,1,0,0:0:0:0:
320,192,28581,1,0,0:0:0:0:
64,192,28667,1,2,0:0:0:0:
448,192,28667,1,0,0:0:0:0:
192,192,28753,1,0,0:0:0:0:
320,192,28839,1,2,0:0:0:0:
448,192,28839,1,0,0:0:0:0:
64,192,28925,1,0,0:0:0:0:
320,192,29011,1,0,0:0:0:0:
192,192,29097,1,0,0:0:0:0:
64,192,29183,1,8,0:0:0:0:
448,192,29183,1,0,0:0:0:0:
320,192,29269,1,0,0:0:0:0:
64,192,29355,1,0,0:0:0:0:
320,192,29441,1,2,0:0:0:0:
448,192,29441,1,0,0:0:0:0:
192,192,29526,1,8,0:0:0:0:
320,192,29612,1,8,0:0:0:0:
448,192,29612,1,0,0:0:0:0:
64,192,29698,1,2,0:0:0:0:
192,192,29698,1,0,0:0:0:0:
448,192,29784,1,0,0:0:0:0:
64,192,29870,1,8,0:0:0:0:
192,192,29870,1,0,0:0:0:0:
320,192,29956,1,0,0:0:0:0:
64,192,30042,1,2,0:0:0:0:
448,192,30042,1,0,0:0:0:0:
192,192,30128,1,0,0:0:0:0:
320,192,30214,1,2,0:0:0:0:
448,192,30214,1,0,0:0:0:0:
192,192,30300,1,0,0:0:0:0:
64,192,30386,1,0,0:0:0:0:
448,192,30472,1,0,0:0:0:0:
64,192,30557,1,8,0:0:0:0:
192,192,30557,1,0,0:0:0:0:
320,192,30643,1,0,0:0:0:0:
64,192,30729,1,0,0:0:0:0:
192,192,30815,1,2,0:0:0:0:
320,192,30815,1,0,0:0:0:0:
448,192,30901,1,0,0:0:0:0:
64,192,30987,1,8,0:0:0:0:
192,192,30987,1,0,0:0:0:0:
320,192,31073,1,2,0:0:0:0:
448,192,31073,1,0,0:0:0:0:
64,192,31159,1,0,0:0:0:0:
192,192,31245,1,8,0:0:0:0:
320,192,31245,1,0,0:0:0:0:
448,192,31331,1,0,0:0:0:0:
192,192,31417,1,0,0:0:0:0:
320,192,31503,1,0,0:0:0:0:
64,192,31588,1,2,0:0:0:0:
448,192,31588,1,0,0:0:0:0:
320,192,31674,1,0,0:0:0:0:
192,192,31760,1,0,0:0:0:0:
448,192,31846,1,0,0:0:0:0:
64,192,31932,1,8,0:0:0:0:
192,192,31932,1,0,0:0:0:0:
448,192,32018,1,0,0:0:0:0:
192,192,32104,1,0,0:0:0:0:
320,192,32190,1,2,0:0:0:0:
448,192,32190,1,0,0:0:0:0:
64,192,32276,1,0,0:0:0:0:
192,192,32362,1,8,0:0:0:0:
320,192,32362,1,0,0:0:0:0:
64,192,32448,1,2,0:0:0:0:
448,192,32448,1,0,0:0:0:0:
320,192,32534,1,0,0:0:0:0:
64,192,32619,1,8,0:0:0:0:
192,192,32619,1,0,0:0:0:0:
448,192,32705,1,0,0:0:0:0:
64,192,32791,1,2,0:0:0:0:
192,192,32791,1,0,0:0:0:0:
448,192,32877,1,0,0:0:0:0:
192,192,32963,128,2,33092:0:0:0:0:
320,192,32963,1,0,0:0:0:0:
64,192,33092,128,0,33307:0:0:0:0:
448,192,33307,128,0,33522:0:0:0:0:
192,192,33564,128,0,33693:0:0:0:0:
320,192,33736,128,0,33822:0:0:0:0:
64,192,33822,1,0,0:0:0:0:
192,192,33908,128,0,33994:0:0:0:0:
448,192,33994,128,0,34080:0:0:0:0:
320,192,34080,128,0,34166:0:0:0:0:
192,192,34166,128,0,34252:0:0:0:0:
64,192,34252,128,0,34338:0:0:0:0:
320,192,34338,1,2,0:0:0:0:
448,192,34338,1,0,0:0:0:0:
192,192,34424,1,0,0:0:0:0:
320,192,34510,1,0,0:0:0:0:
64,192,34595,1,2,0:0:0:0:
192,192,34681,1,8,0:0:0:0:
320,192,34681,1,0,0:0:0:0:
448,192,34681,1,0,0:0:0:0:
64,192,34767,1,0,0:0:0:0:
320,192,34853,1,2,0:0:0:0:
448,192,34853,1,0,0:0:0:0:
64,192,34939,1,0,0:0:0:0:
192,192,35025,1,2,0:0:0:0:
448,192,35025,1,0,0:0:0:0:
320,192,35111,1,8,0:0:0:0:
64,192,35197,1,0,0:0:0:0:
448,192,35283,1,2,0:0:0:0:
64,192,35369,1,8,0:0:0:0:
192,192,35369,1,0,0:0:0:0:
320,192,35369,1,0,0:0:0:0:
448,192,35455,1,0,0:0:0:0:
64,192,35541,1,2,0:0:0:0:
192,192,35541,1,0,0:0:0:0:
448,192,35626,1,0,0:0:0:0:
192,192,35712,1,2,0:0:0:0:
320,192,35712,1,0,0:0:0:0:
64,192,35798,1,0,0:0:0:0:
448,192,35884,1,0,0:0:0:0:
192,192,35970,1,2,0:0:0:0:
64,192,36056,1,8,0:0:0:0:
320,192,36056,1,0,0:0:0:0:
448,192,36056,1,0,0:0:0:0:
192,192,36142,1,0,0:0:0:0:
320,192,36228,1,2,0:0:0:0:
448,192,36228,1,0,0:0:0:0:
192,192,36314,1,0,0:0:0:0:
64,192,36400,1,2,0:0:0:0:
320,192,36400,1,0,0:0:0:0:
448,192,36486,1,8,0:0:0:0:
64,192,36572,1,0,0:0:0:0:
320,192,36657,1,2,0:0:0:0:
64,192,36743,1,8,0:0:0:0:
192,192,36743,1,0,0:0:0:0:
448,192,36743,1,0,0:0:0:0:
320,192,36829,1,0,0:0:0:0:
64,192,36915,1,2,0:0:0:0:
192,192,36915,1,0,0:0:0:0:
320,192,37001,1,0,0:0:0:0:
192,192,37087,1,2,0:0:0:0:
448,192,37087,1,0,0:0:0:0:
64,192,37173,1,0,0:0:0:0:
320,192,37259,1,0,0:0:0:0:
192,192,37345,1,2,0:0:0:0:
64,192,37431,1,8,0:0:0:0:
320,192,37431,1,0,0:0:0:0:
448,192,37431,1,0,0:0:0:0:
192,192,37517,1,0,0:0:0:0:
320,192,37603,1,2,0:0:0:0:
448,192,37603,1,0,0:0:0:0:
192,192,37688,1,0,0:0:0:0:
64,192,37774,1,2,0:0:0:0:
448,192,37774,1,0,0:0:0:0:
320,192,37860,1,8,0:0:0:0:
64,192,37946,1,0,0:0:0:0:
320,192,38032,1,2,0:0:0:0:
64,192,38118,1,8,0:0:0:0:
192,192,38118,1,0,0:0:0:0:
448,192,38118,1,0,0:0:0:0:
320,192,38204,1,0,0:0:0:0:
192,192,38290,1,2,0:0:0:0:
448,192,38290,1,0,0:0:0:0:
64,192,38376,1,0,0:0:0:0:
320,192,38462,1,2,0:0:0:0:
448,192,38462,1,0,0:0:0:0:
192,192,38548,1,0,0:0:0:0:
320,192,38634,1,0,0:0:0:0:
64,192,38719,1,2,0:0:0:0:
192,192,38805,1,8,0:0:0:0:
320,192,38805,1,0,0:0:0:0:
448,192,38805,1,0,0:0:0:0:
64,192,38891,1,0,0:0:0:0:
192,192,38977,1,2,0:0:0:0:
448,192,38977,1,0,0:0:0:0:
320,192,39063,1,0,0:0:0:0:
64,192,39149,1,2,0:0:0:0:
192,192,39149,1,0,0:0:0:0:
448,192,39235,1,8,0:0:0:0:
64,192,39321,1,0,0:0:0:0:
320,192,39407,1,2,0:0:0:0:
64,192,39493,1,8,0:0:0:0:
192,192,39493,1,0,0:0:0:0:
448,192,39493,1,0,0:0:0:0:
320,192,39579,1,0,0:0:0:0:
192,192,39664,1,2,0:0:0:0:
320,192,39750,1,8,0:0:0:0:
448,192,39750,1,0,0:0:0:0:
64,192,39836,1,2,0:0:0:0:
192,192,39836,1,0,0:0:0:0:
192,192,40008,1,2,0:0:0:0:
320,192,40008,1,0,0:0:0:0:
320,192,40180,1,2,0:0:0:0:
448,192,40180,1,0,0:0:0:0:
64,192,40352,1,2,0:0:0:0:
448,192,40352,1,0,0:0:0:0:
64,192,40524,1,2,0:0:0:0:
192,192,40524,1,0,0:0:0:0:
192,192,40695,1,2,0:0:0:0:
320,192,40695,1,0,0:0:0:0:
64,192,40867,1,2,0:0:0:0:
320,192,40867,1,0,0:0:0:0:
64,192,41039,1,2,0:0:0:0:
448,192,41039,1,0,0:0:0:0:
320,192,41211,1,2,0:0:0:0:
448,192,41211,1,0,0:0:0:0:
192,192,41383,1,2,0:0:0:0:
320,192,41383,1,0,0:0:0:0:
64,192,41555,1,2,0:0:0:0:
192,192,41555,1,0,0:0:0:0:
64,192,41726,1,2,0:0:0:0:
448,192,41726,1,0,0:0:0:0:
320,192,41898,1,2,0:0:0:0:
448,192,41898,1,0,0:0:0:0:
192,192,42070,1,2,0:0:0:0:
320,192,42070,1,0,0:0:0:0:
64,192,42242,1,2,0:0:0:0:
192,192,42242,1,0,0:0:0:0:
64,192,42414,1,2,0:0:0:0:
320,192,42414,1,0,0:0:0:0:
320,192,42586,1,2,0:0:0:0:
448,192,42586,1,0,0:0:0:0:
448,192,42672,1,2,0:0:0:0:
64,192,42757,1,2,0:0:0:0:
192,192,42757,1,0,0:0:0:0:
64,192,42843,1,2,0:0:0:0:
320,192,42929,1,2,0:0:0:0:
448,192,42929,1,0,0:0:0:0:
448,192,43015,1,2,0:0:0:0:
64,192,43101,1,2,0:0:0:0:
192,192,43101,1,0,0:0:0:0:
64,192,43187,1,2,0:0:0:0:
320,192,43273,1,2,0:0:0:0:
448,192,43273,1,0,0:0:0:0:
320,192,43359,1,2,0:0:0:0:
64,192,43445,1,2,0:0:0:0:
192,192,43445,1,0,0:0:0:0:
192,192,43531,1,2,0:0:0:0:
320,192,43617,1,2,0:0:0:0:
448,192,43617,1,0,0:0:0:0:
320,192,43703,1,2,0:0:0:0:
64,192,43788,1,2,0:0:0:0:
192,192,43788,1,0,0:0:0:0:
192,192,43874,1,2,0:0:0:0:
320,192,43960,128,2,44132:0:0:0:0:
448,192,43960,128,0,44046:0:0:0:0:
64,192,44175,128,0,44261:0:0:0:0:
192,192,44304,128,0,44390:0:0:0:0:
448,192,44433,128,0,44519:0:0:0:0:
64,192,44519,1,0,0:0:0:0:
320,192,44562,128,0,44648:0:0:0:0:
192,192,44648,128,2,44819:0:0:0:0:
448,192,44648,1,0,0:0:0:0:
64,192,44734,128,0,44905:0:0:0:0:
448,192,44819,128,0,44991:0:0:0:0:
320,192,44905,128,0,45077:0:0:0:0:
192,192,44991,128,0,45163:0:0:0:0:
64,192,45077,128,0,45249:0:0:0:0:
448,192,45163,128,0,45335:0:0:0:0:
64,192,45335,1,2,0:0:0:0:
192,192,45335,1,0,0:0:0:0:
320,192,45421,1,0,0:0:0:0:
448,192,45507,1,0,0:0:0:0:
64,192,45593,1,0,0:0:0:0:
192,192,45679,1,8,0:0:0:0:
320,192,45679,1,0,0:0:0:0:
448,192,45679,1,0,0:0:0:0:
64,192,45765,1,0,0:0:0:0:
320,192,45850,1,0,0:0:0:0:
64,192,45936,1,2,0:0:0:0:
192,192,45936,1,0,0:0:0:0:
448,192,46022,1,0,0:0:0:0:
192,192,46108,1,2,0:0:0:0:
320,192,46108,1,0,0:0:0:0:
64,192,46194,1,0,0:0:0:0:
448,192,46280,1,0,0:0:0:0:
64,192,46366,1,8,0:0:0:0:
192,192,46366,1,0,0:0:0:0:
320,192,46366,128,0,46452:0:0:0:0:
448,192,46452,128,0,46538:0:0:0:0:
192,192,46538,128,0,46624:0:0:0:0:
320,192,46624,1,2,0:0:0:0:
448,192,46624,1,0,0:0:0:0:
64,192,46710,1,2,0:0:0:0:
192,192,46710,1,0,0:0:0:0:
320,192,46795,1,0,0:0:0:0:
64,192,46881,128,0,46967:0:0:0:0:
192,192,46967,1,0,0:0:0:0:
64,192,47053,1,8,0:0:0:0:
320,192,47053,1,0,0:0:0:0:
448,192,47053,1,0,0:0:0:0:
192,192,47139,1,0,0:0:0:0:
320,192,47225,1,2,0:0:0:0:
448,192,47225,1,0,0:0:0:0:
64,192,47311,1,8,0:0:0:0:
448,192,47397,128,0,47483:0:0:0:0:
320,192,47483,1,0,0:0:0:0:
64,192,47569,1,2,0:0:0:0:
192,192,47569,1,0,0:0:0:0:
448,192,47655,1,0,0:0:0:0:
64,192,47741,1,8,0:0:0:0:
192,192,47741,1,0,0:0:0:0:
320,192,47741,1,0,0:0:0:0:
448,192,47848,1,0,0:0:0:0:
64,192,47912,1,2,0:0:0:0:
320,192,47912,1,0,0:0:0:0:
192,192,47998,128,0,48084:0:0:0:0:
320,192,48084,1,2,0:0:0:0:
448,192,48084,1,0,0:0:0:0:
192,192,48170,1,0,0:0:0:0:
64,192,48256,1,0,0:0:0:0:
448,192,48342,1,2,0:0:0:0:
64,192,48428,1,8,0:0:0:0:
192,192,48428,1,0,0:0:0:0:
320,192,48428,128,0,48514:0:0:0:0:
192,192,48514,128,0,48600:0:0:0:0:
64,192,48600,128,2,48686:0:0:0:0:
320,192,48600,1,0,0:0:0:0:
448,192,48686,128,0,48772:0:0:0:0:
192,192,48772,128,0,48857:0:0:0:0:
320,192,48857,1,2,0:0:0:0:
448,192,48857,1,0,0:0:0:0:
64,192,48943,1,0,0:0:0:0:
320,192,49029,1,0,0:0:0:0:
64,192,49115,1,8,0:0:0:0:
192,192,49115,1,0,0:0:0:0:
448,192,49115,128,0,49201:0:0:0:0:
320,192,49201,128,0,49287:0:0:0:0:
64,192,49287,128,0,49373:0:0:0:0:
192,192,49373,128,2,49459:0:0:0:0:
448,192,49373,1,0,0:0:0:0:
64,192,49459,1,2,0:0:0:0:
320,192,49459,1,0,0:0:0:0:
448,192,49545,1,0,0:0:0:0:
192,192,49631,1,2,0:0:0:0:
320,192,49631,1,0,0:0:0:0:
64,192,49717,1,2,0:0:0:0:
192,192,49803,1,8,0:0:0:0:
320,192,49803,1,0,0:0:0:0:
448,192,49803,128,0,49974:0:0:0:0:
64,192,49974,128,2,50146:0:0:0:0:
192,192,49974,1,0,0:0:0:0:
320,192,50060,1,0,0:0:0:0:
448,192,50146,128,0,50232:0:0:0:0:
64,192,50232,1,2,0:0:0:0:
192,192,50232,1,0,0:0:0:0:
320,192,50318,1,0,0:0:0:0:
64,192,50404,1,2,0:0:0:0:
192,192,50490,1,8,0:0:0:0:
320,192,50490,1,0,0:0:0:0:
448,192,50490,1,0,0:0:0:0:
64,192,50576,1,0,0:0:0:0:
320,192,50662,1,2,0:0:0:0:
448,192,50662,1,0,0:0:0:0:
192,192,50748,1,8,0:0:0:0:
64,192,50834,1,2,0:0:0:0:
448,192,50834,1,0,0:0:0:0:
320,192,50919,1,0,0:0:0:0:
192,192,51005,1,0,0:0:0:0:
64,192,51091,1,0,0:0:0:0:
192,192,51177,1,8,0:0:0:0:
320,192,51177,1,0,0:0:0:0:
448,192,51177,1,0,0:0:0:0:
64,192,51263,1,0,0:0:0:0:
320,192,51349,128,0,51435:0:0:0:0:
192,192,51435,1,2,0:0:0:0:
448,192,51435,1,0,0:0:0:0:
64,192,51521,1,0,0:0:0:0:
192,192,51607,1,2,0:0:0:0:
448,192,51607,1,0,0:0:0:0:
320,192,51693,128,0,51779:0:0:0:0:
448,192,51779,128,0,51865:0:0:0:0:
64,192,51865,128,8,52122:0:0:0:0:
192,192,51865,1,0,0:0:0:0:
320,192,51865,1,0,0:0:0:0:
320,192,52122,1,2,0:0:0:0:
448,192,52122,1,0,0:0:0:0:
64,192,52208,1,2,0:0:0:0:
192,192,52208,1,0,0:0:0:0:
448,192,52323,128,0,52466:0:0:0:0:
192,192,52466,1,2,0:0:0:0:
64,192,52552,128,8,52638:0:0:0:0:
320,192,52552,1,0,0:0:0:0:
448,192,52552,1,0,0:0:0:0:
192,192,52638,1,0,0:0:0:0:
320,192,52724,1,2,0:0:0:0:
448,192,52724,1,0,0:0:0:0:
192,192,52810,128,0,52895:0:0:0:0:
64,192,52895,128,0,52981:0:0:0:0:
448,192,52981,128,0,53067:0:0:0:0:
64,192,53067,1,2,0:0:0:0:
192,192,53067,1,0,0:0:0:0:
320,192,53153,1,0,0:0:0:0:
64,192,53239,1,8,0:0:0:0:
192,192,53239,1,0,0:0:0:0:
448,192,53239,1,0,0:0:0:0:
320,192,53325,1,0,0:0:0:0:
192,192,53411,1,2,0:0:0:0:
320,192,53497,1,8,0:0:0:0:
448,192,53497,1,0,0:0:0:0:
64,192,53583,1,2,0:0:0:0:
192,192,53583,1,0,0:0:0:0:
448,192,53669,1,0,0:0:0:0:
320,192,53755,1,0,0:0:0:0:
64,192,53841,1,2,0:0:0:0:
192,192,53926,128,8,54012:0:0:0:0:
320,192,53926,1,0,0:0:0:0:
448,192,53926,1,0,0:0:0:0:
64,192,54012,1,0,0:0:0:0:
320,192,54098,1,2,0:0:0:0:
448,192,54098,1,0,0:0:0:0:
64,192,54184,128,0,54270:0:0:0:0:
192,192,54270,1,0,0:0:0:0:
320,192,54356,1,2,0:0:0:0:
448,192,54356,128,0,54442:0:0:0:0:
192,192,54442,1,0,0:0:0:0:
448,192,54528,1,0,0:0:0:0:
64,192,54614,1,8,0:0:0:0:
192,192,54614,128,0,54700:0:0:0:0:
320,192,54614,128,0,54786:0:0:0:0:
64,192,54872,1,2,0:0:0:0:
192,192,54872,1,0,0:0:0:0:
320,192,54957,1,2,0:0:0:0:
448,192,54957,1,0,0:0:0:0:
64,192,55043,1,0,0:0:0:0:
320,192,55129,128,0,55215:0:0:0:0:
192,192,55215,128,2,55301:0:0:0:0:
64,192,55301,1,8,0:0:0:0:
320,192,55301,1,0,0:0:0:0:
448,192,55301,1,0,0:0:0:0:
192,192,55387,1,0,0:0:0:0:
320,192,55473,128,2,55559:0:0:0:0:
448,192,55473,1,0,0:0:0:0:
64,192,55559,128,0,55645:0:0:0:0:
192,192,55645,1,0,0:0:0:0:
64,192,55731,1,2,0:0:0:0:
320,192,55731,1,0,0:0:0:0:
448,192,55817,128,0,55903:0:0:0:0:
192,192,55903,128,2,55988:0:0:0:0:
64,192,55988,1,8,0:0:0:0:
320,192,55988,1,0,0:0:0:0:
448,192,55988,1,0,0:0:0:0:
192,192,56074,1,0,0:0:0:0:
64,192,56160,1,2,0:0:0:0:
448,192,56160,1,0,0:0:0:0:
320,192,56246,1,0,0:0:0:0:
64,192,56332,128,2,56418:0:0:0:0:
192,192,56332,1,0,0:0:0:0:
448,192,56418,128,0,56504:0:0:0:0:
320,192,56504,128,0,56676:0:0:0:0:
64,192,56676,1,8,0:0:0:0:
192,192,56676,1,0,0:0:0:0:
448,192,56676,128,0,56762:0:0:0:0:
320,192,56762,128,0,56848:0:0:0:0:
192,192,56848,128,0,56934:0:0:0:0:
64,192,56934,1,2,0:0:0:0:
448,192,56934,1,0,0:0:0:0:
320,192,57019,1,0,0:0:0:0:
64,192,57105,1,2,0:0:0:0:
192,192,57105,1,0,0:0:0:0:
448,192,57191,1,0,0:0:0:0:
192,192,57277,1,0,0:0:0:0:
64,192,57363,1,8,0:0:0:0:
320,192,57363,1,0,0:0:0:0:
448,192,57363,1,0,0:0:0:0:
192,192,57449,1,0,0:0:0:0:
320,192,57535,1,0,0:0:0:0:
64,192,57621,1,2,0:0:0:0:
448,192,57621,1,0,0:0:0:0:
192,192,57707,1,2,0:0:0:0:
320,192,57707,1,0,0:0:0:0:
64,192,57793,1,0,0:0:0:0:
192,192,57879,1,2,0:0:0:0:
448,192,57879,1,0,0:0:0:0:
320,192,57965,1,2,0:0:0:0:
64,192,58050,1,8,0:0:0:0:
192,192,58050,1,0,0:0:0:0:
448,192,58050,1,0,0:0:0:0:
320,192,58136,1,0,0:0:0:0:
64,192,58222,1,2,0:0:0:0:
192,192,58222,1,0,0:0:0:0:
448,192,58308,1,0,0:0:0:0:
320,192,58394,1,0,0:0:0:0:
192,192,58480,1,0,0:0:0:0:
320,192,58566,1,2,0:0:0:0:
448,192,58566,1,0,0:0:0:0:
64,192,58652,1,0,0:0:0:0:
192,192,58738,1,8,0:0:0:0:
320,192,58738,1,0,0:0:0:0:
448,192,58738,1,0,0:0:0:0:
64,192,58824,1,0,0:0:0:0:
320,192,58910,1,2,0:0:0:0:
448,192,58910,1,0,0:0:0:0:
192,192,58995,1,8,0:0:0:0:
64,192,59081,1,2,0:0:0:0:
448,192,59081,1,0,0:0:0:0:
320,192,59167,1,0,0:0:0:0:
64,192,59253,1,0,0:0:0:0:
192,192,59339,1,2,0:0:0:0:
64,192,59425,1,8,0:0:0:0:
320,192,59425,1,0,0:0:0:0:
448,192,59425,1,0,0:0:0:0:
192,192,59511,1,0,0:0:0:0:
320,192,59597,1,2,0:0:0:0:
448,192,59597,1,0,0:0:0:0:
192,192,59683,1,0,0:0:0:0:
64,192,59769,1,0,0:0:0:0:
320,192,59855,1,2,0:0:0:0:
448,192,59855,1,0,0:0:0:0:
192,192,59941,1,0,0:0:0:0:
448,192,60026,1,0,0:0:0:0:
64,192,60112,1,8,0:0:0:0:
192,192,60112,1,0,0:0:0:0:
320,192,60112,1,0,0:0:0:0:
448,192,60198,1,0,0:0:0:0:
64,192,60284,1,0,0:0:0:0:
192,192,60370,1,2,0:0:0:0:
448,192,60370,1,0,0:0:0:0:
64,192,60456,1,2,0:0:0:0:
320,192,60456,1,0,0:0:0:0:
448,192,60542,1,0,0:0:0:0:
64,192,60628,1,2,0:0:0:0:
192,192,60628,1,0,0:0:0:0:
320,192,60714,1,2,0:0:0:0:
64,192,60800,1,8,0:0:0:0:
192,192,60800,1,0,0:0:0:0:
448,192,60800,1,0,0:0:0:0:
320,192,60886,1,0,0:0:0:0:
192,192,60972,1,2,0:0:0:0:
448,192,60972,1,0,0:0:0:0:
64,192,61057,1,0,0:0:0:0:
320,192,61143,1,0,0:0:0:0:
64,192,61229,1,2,0:0:0:0:
192,192,61229,1,0,0:0:0:0:
448,192,61315,1,0,0:0:0:0:
64,192,61401,1,2,0:0:0:0:
192,192,61487,1,8,0:0:0:0:
320,192,61487,1,0,0:0:0:0:
448,192,61487,1,0,0:0:0:0:
64,192,61573,1,0,0:0:0:0:
192,192,61659,1,2,0:0:0:0:
448,192,61659,1,0,0:0:0:0:
320,192,61745,1,8,0:0:0:0:
64,192,61831,1,2,0:0:0:0:
192,192,61831,1,0,0:0:0:0:
448,192,61917,1,0,0:0:0:0:
64,192,62003,1,0,0:0:0:0:
192,192,62088,1,0,0:0:0:0:
64,192,62174,1,8,0:0:0:0:
320,192,62174,1,0,0:0:0:0:
448,192,62174,128,0,62432:0:0:0:0:
64,192,62432,1,2,0:0:0:0:
192,192,62432,128,0,62604:0:0:0:0:
320,192,62604,128,2,62862:0:0:0:0:
448,192,62604,1,0,0:0:0:0:
64,192,62862,128,8,63119:0:0:0:0:
192,192,62862,1,0,0:0:0:0:
448,192,62862,1,0,0:0:0:0:
320,192,63119,1,2,0:0:0:0:
448,192,63119,1,0,0:0:0:0:
64,192,63205,1,2,0:0:0:0:
192,192,63205,1,0,0:0:0:0:
320,192,63291,1,0,0:0:0:0:
448,192,63377,1,0,0:0:0:0:
64,192,63463,1,2,0:0:0:0:
192,192,63549,1,8,0:0:0:0:
320,192,63549,128,0,63721:0:0:0:0:
448,192,63549,1,0,0:0:0:0:
64,192,63721,1,2,0:0:0:0:
192,192,63721,128,0,64065:0:0:0:0:
448,192,63807,1,0,0:0:0:0:
448,192,63979,1,0,0:0:0:0:
64,192,64065,128,2,64236:0:0:0:0:
320,192,64065,1,0,0:0:0:0:
192,192,64236,1,8,0:0:0:0:
320,192,64236,128,0,64322:0:0:0:0:
448,192,64236,1,0,0:0:0:0:
64,192,64322,128,0,64408:0:0:0:0:
320,192,64408,1,2,0:0:0:0:
448,192,64408,1,0,0:0:0:0:
64,192,64494,1,2,0:0:0:0:
192,192,64494,1,0,0:0:0:0:
320,192,64580,1,2,0:0:0:0:
448,192,64580,1,0,0:0:0:0:
64,192,64695,1,2,0:0:0:0:
192,192,64695,1,0,0:0:0:0:
320,192,64838,1,2,0:0:0:0:
448,192,64838,1,0,0:0:0:0:
64,192,64924,1,8,0:0:0:0:
192,192,64924,128,0,65010:0:0:0:0:
320,192,65010,128,0,65096:0:0:0:0:
64,192,65096,1,2,0:0:0:0:
448,192,65096,128,0,65353:0:0:0:0:
192,192,65353,1,2,0:0:0:0:
320,192,65353,128,0,65611:0:0:0:0:
64,192,65611,1,8,0:0:0:0:
192,192,65611,128,0,65783:0:0:0:0:
448,192,65611,1,0,0:0:0:0:
64,192,65783,128,0,65869:0:0:0:0:
320,192,65869,1,2,0:0:0:0:
448,192,65869,1,0,0:0:0:0:
64,192,65955,1,2,0:0:0:0:
192,192,65955,128,0,66212:0:0:0:0:
320,192,66212,128,2,66470:0:0:0:0:
448,192,66212,1,0,0:0:0:0:
64,192,66298,1,8,0:0:0:0:
192,192,66298,1,0,0:0:0:0:
64,192,66470,1,2,0:0:0:0:
192,192,66470,1,0,0:0:0:0:
448,192,66556,1,0,0:0:0:0:
64,192,66642,128,0,66728:0:0:0:0:
192,192,66728,1,0,0:0:0:0:
448,192,66814,128,0,66900:0:0:0:0:
320,192,66900,1,0,0:0:0:0:
64,192,66986,128,0,67072:0:0:0:0:
192,192,67072,1,0,0:0:0:0:
448,192,67157,128,0,67243:0:0:0:0:
320,192,67243,1,0,0:0:0:0:
64,192,67329,1,2,0:0:0:0:
192,192,67329,1,0,0:0:0:80:p4_synth_main_001.ogg
448,192,67329,1,0,0:0:0:0:
320,192,67415,1,0,0:0:0:0:
64,192,67501,1,0,0:0:0:0:
448,192,67587,1,0,0:0:0:0:
64,192,67673,1,8,0:0:0:0:
192,192,67673,1,0,0:0:0:0:
320,192,67673,1,0,0:0:0:0:
448,192,67759,1,0,0:0:0:0:
192,192,67845,1,0,0:0:0:0:
320,192,67931,1,2,0:0:0:0:
448,192,67931,1,0,0:0:0:0:
64,192,68017,1,0,0:0:0:0:
192,192,68103,1,2,0:0:0:0:
320,192,68103,1,0,0:0:0:0:
448,192,68188,1,0,0:0:0:0:
64,192,68274,1,0,0:0:0:0:
192,192,68360,1,8,0:0:0:0:
320,192,68360,1,0,0:0:0:0:
448,192,68360,1,0,0:0:0:0:
64,192,68446,1,0,0:0:0:0:
320,192,68532,1,0,0:0:0:0:
64,192,68618,1,2,0:0:0:0:
192,192,68618,1,0,0:0:0:0:
320,192,68704,1,2,0:0:0:0:
448,192,68704,1,0,0:0:0:0:
192,192,68790,1,0,0:0:0:0:
64,192,68876,1,2,0:0:0:0:
448,192,68876,1,0,0:0:0:0:
320,192,68962,1,2,0:0:0:0:
64,192,69048,1,8,0:0:0:0:
192,192,69048,1,0,0:0:0:0:
448,192,69048,1,0,0:0:0:0:
320,192,69134,1,0,0:0:0:0:
64,192,69219,1,2,0:0:0:0:
192,192,69219,1,0,0:0:0:0:
448,192,69305,1,8,0:0:0:0:
192,192,69391,1,0,0:0:0:0:
320,192,69477,1,0,0:0:0:0:
64,192,69563,1,2,0:0:0:0:
448,192,69563,1,0,0:0:0:0:
192,192,69649,1,0,0:0:0:0:
64,192,69735,1,8,0:0:0:0:
320,192,69735,1,0,0:0:0:0:
448,192,69735,1,0,0:0:0:0:
192,192,69821,1,0,0:0:0:0:
320,192,69907,1,2,0:0:0:0:
448,192,69907,1,0,0:0:0:0:
64,192,69993,1,8,0:0:0:0:
192,192,69993,1,0,0:0:0:0:
320,192,70079,1,2,0:0:0:0:
448,192,70079,1,0,0:0:0:0:
64,192,70165,1,0,0:0:0:0:
192,192,70250,1,0,0:0:0:0:
448,192,70336,1,2,0:0:0:0:
64,192,70422,1,8,0:0:0:0:
192,192,70422,1,0,0:0:0:0:
320,192,70422,1,0,0:0:0:0:
448,192,70508,1,0,0:0:0:0:
64,192,70594,1,2,0:0:0:0:
320,192,70594,1,0,0:0:0:0:
192,192,70680,1,8,0:0:0:0:
320,192,70766,1,0,0:0:0:80:p4_synth_main_002.ogg
64,192,70852,1,2,0:0:0:0:
448,192,70852,1,0,0:0:0:0:
192,192,70938,1,0,0:0:0:0:
320,192,71024,1,0,0:0:0:0:
64,192,71110,1,8,0:0:0:0:
192,192,71110,1,0,0:0:0:0:
448,192,71110,1,0,0:0:0:0:
320,192,71196,1,0,0:0:0:0:
64,192,71281,1,0,0:0:0:0:
192,192,71367,1,2,0:0:0:0:
320,192,71367,1,0,0:0:0:0:
64,192,71453,1,2,0:0:0:0:
448,192,71453,1,0,0:0:0:80:p4_synth_main_003.ogg
320,192,71539,1,0,0:0:0:0:
192,192,71625,1,2,0:0:0:0:
448,192,71625,1,0,0:0:0:0:
64,192,71711,1,2,0:0:0:0:
192,192,71797,1,8,0:0:0:0:
320,192,71797,1,0,0:0:0:0:
448,192,71797,1,0,0:0:0:0:
64,192,71883,1,0,0:0:0:0:
320,192,71969,1,2,0:0:0:0:
448,192,71969,1,0,0:0:0:0:
192,192,72055,1,8,0:0:0:0:
64,192,72141,1,0,0:0:0:80:p4_synth_main_004.ogg
320,192,72226,1,2,0:0:0:0:
448,192,72226,1,0,0:0:0:0:
64,192,72312,1,0,0:0:0:0:
192,192,72398,1,2,0:0:0:0:
64,192,72484,1,8,0:0:0:0:
320,192,72484,1,0,0:0:0:0:
448,192,72484,1,0,0:0:0:0:
192,192,72570,1,0,0:0:0:0:
320,192,72656,1,2,0:0:0:0:
448,192,72656,1,0,0:0:0:0:
64,192,72742,1,8,0:0:0:0:
192,192,72742,1,0,0:0:0:0:
320,192,72828,1,2,0:0:0:0:
448,192,72828,1,0,0:0:0:80:p4_synth_main_005.ogg
64,192,72914,1,0,0:0:0:0:
192,192,73000,1,0,0:0:0:0:
448,192,73086,1,0,0:0:0:0:
64,192,73172,1,8,0:0:0:0:
192,192,73172,1,0,0:0:0:0:
320,192,73172,1,0,0:0:0:0:
448,192,73257,1,0,0:0:0:0:
64,192,73343,1,0,0:0:0:0:
320,192,73429,1,2,0:0:0:0:
448,192,73429,1,0,0:0:0:0:
192,192,73515,1,0,0:0:0:80:p4_synth_main_006.ogg
64,192,73601,1,2,0:0:0:0:
448,192,73601,1,0,0:0:0:0:
320,192,73687,1,0,0:0:0:0:
192,192,73773,1,0,0:0:0:0:
64,192,73859,1,8,0:0:0:0:
320,192,73859,1,0,0:0:0:0:
448,192,73859,1,0,0:0:0:0:
192,192,73945,1,0,0:0:0:0:
448,192,74031,1,0,0:0:0:0:
192,192,74117,1,2,0:0:0:0:
320,192,74117,1,0,0:0:0:0:
64,192,74203,1,2,0:0:0:0:
448,192,74203,1,0,0:0:0:0:
192,192,74288,1,0,0:0:0:0:
320,192,74374,1,2,0:0:0:0:
448,192,74374,1,0,0:0:0:0:
64,192,74460,1,2,0:0:0:0:
192,192,74546,1,8,0:0:0:0:
320,192,74546,1,0,0:0:0:0:
448,192,74546,1,0,0:0:0:0:
64,192,74632,1,0,0:0:0:0:
192,192,74718,1,2,0:0:0:0:
320,192,74718,1,0,0:0:0:0:
448,192,74804,1,8,0:0:0:0:
192,192,74890,1,0,0:0:0:0:
320,192,74976,1,0,0:0:0:0:
64,192,75062,1,2,0:0:0:0:
448,192,75062,1,0,0:0:0:0:
320,192,75148,1,0,0:0:0:0:
64,192,75234,1,8,0:0:0:0:
192,192,75234,1,0,0:0:0:0:
448,192,75234,1,0,0:0:0:0:
320,192,75319,1,0,0:0:0:0:
64,192,75405,1,2,0:0:0:0:
192,192,75405,1,0,0:0:0:0:
320,192,75491,1,8,0:0:0:0:
448,192,75491,1,0,0:0:0:0:
64,192,75577,1,2,0:0:0:0:
192,192,75577,1,0,0:0:0:80:p4_synth_main_007.ogg
448,192,75663,1,0,0:0:0:0:
320,192,75749,1,0,0:0:0:0:
192,192,75835,1,2,0:0:0:0:
64,192,75921,1,8,0:0:0:0:
320,192,75921,1,0,0:0:0:0:
448,192,75921,1,0,0:0:0:0:
192,192,76007,1,0,0:0:0:0:
64,192,76093,1,2,0:0:0:0:
448,192,76093,1,0,0:0:0:0:
320,192,76179,1,8,0:0:0:0:
192,192,76265,1,0,0:0:0:80:p4_synth_main_008.ogg
320,192,76350,1,2,0:0:0:0:
448,192,76350,1,0,0:0:0:0:
64,192,76436,1,0,0:0:0:0:
320,192,76522,1,0,0:0:0:0:
64,192,76608,1,8,0:0:0:0:
192,192,76608,1,0,0:0:0:0:
448,192,76608,1,0,0:0:0:0:
320,192,76694,1,0,0:0:0:0:
192,192,76780,1,0,0:0:0:0:
64,192,76866,1,2,0:0:0:0:
448,192,76866,1,0,0:0:0:0:
192,192,76952,1,2,0:0:0:0:
320,192,76952,1,0,0:0:0:0:
64,192,77038,1,0,0:0:0:0:
320,192,77124,1,2,0:0:0:0:
448,192,77124,1,0,0:0:0:0:
64,192,77210,1,2,0:0:0:0:
192,192,77296,1,8,0:0:0:0:
320,192,77296,1,0,0:0:0:0:
448,192,77296,1,0,0:0:0:0:
64,192,77381,1,0,0:0:0:0:
192,192,77467,1,2,0:0:0:0:
448,192,77467,1,0,0:0:0:0:
320,192,77553,1,8,0:0:0:0:
64,192,77639,1,0,0:0:0:0:
320,192,77725,1,2,0:0:0:0:
448,192,77725,1,0,0:0:0:0:
192,192,77811,1,0,0:0:0:0:
448,192,77897,1,0,0:0:0:0:
64,192,77983,1,8,0:0:0:0:
192,192,77983,1,0,0:0:0:0:
320,192,77983,1,0,0:0:0:0:
448,192,78069,1,0,0:0:0:0:
64,192,78155,1,2,0:0:0:0:
192,192,78241,1,0,0:0:0:0:
320,192,78327,1,2,0:0:0:0:
448,192,78327,1,0,0:0:0:80:p4_synth_main_009.ogg
64,192,78412,1,0,0:0:0:0:
448,192,78498,1,0,0:0:0:0:
192,192,78584,1,0,0:0:0:0:
64,192,78670,1,8,0:0:0:0:
320,192,78670,1,0,0:0:0:0:
448,192,78670,1,0,0:0:0:0:
192,192,78756,1,0,0:0:0:0:
320,192,78842,1,0,0:0:0:0:
64,192,78928,1,2,0:0:0:0:
448,192,78928,1,0,0:0:0:0:
192,192,79014,1,0,0:0:0:80:p4_synth_main_010.ogg
320,192,79100,1,2,0:0:0:0:
448,192,79100,1,0,0:0:0:0:
64,192,79186,1,0,0:0:0:0:
448,192,79272,1,0,0:0:0:0:
64,192,79357,1,8,0:0:0:0:
192,192,79357,1,0,0:0:0:0:
320,192,79357,1,0,0:0:0:0:
448,192,79443,1,0,0:0:0:0:
320,192,79529,1,0,0:0:0:0:
64,192,79615,1,2,0:0:0:0:
192,192,79615,1,0,0:0:0:0:
320,192,79701,1,2,0:0:0:0:
448,192,79701,1,0,0:0:0:0:
192,192,79787,1,0,0:0:0:0:
64,192,79873,1,2,0:0:0:0:
448,192,79873,1,0,0:0:0:0:
320,192,79959,1,2,0:0:0:0:
64,192,80045,1,8,0:0:0:0:
192,192,80045,1,0,0:0:0:0:
448,192,80045,1,0,0:0:0:0:
320,192,80131,1,0,0:0:0:0:
64,192,80217,1,2,0:0:0:0:
192,192,80217,1,0,0:0:0:0:
448,192,80303,1,8,0:0:0:0:
192,192,80388,1,0,0:0:0:0:
64,192,80474,1,0,0:0:0:0:
320,192,80560,1,2,0:0:0:0:
448,192,80560,1,0,0:0:0:0:
64,192,80646,1,0,0:0:0:0:
192,192,80732,1,8,0:0:0:0:
320,192,80732,1,0,0:0:0:0:
448,192,80732,1,0,0:0:0:0:
64,192,80818,1,0,0:0:0:0:
320,192,80904,1,2,0:0:0:0:
448,192,80904,1,0,0:0:0:0:
64,192,80990,1,8,0:0:0:0:
192,192,80990,1,0,0:0:0:0:
320,192,81076,1,2,0:0:0:0:
448,192,81076,1,0,0:0:0:80:p4_synth_main_011.ogg
192,192,81162,1,0,0:0:0:0:
64,192,81248,1,0,0:0:0:0:
320,192,81334,1,2,0:0:0:0:
64,192,81419,1,8,0:0:0:0:
192,192,81419,1,0,0:0:0:0:
448,192,81419,1,0,0:0:0:0:
320,192,81505,1,0,0:0:0:0:
64,192,81591,1,2,0:0:0:0:
448,192,81591,1,0,0:0:0:0:
192,192,81677,1,8,0:0:0:0:
320,192,81763,1,0,0:0:0:80:p4_synth_main_012.ogg
64,192,81849,1,2,0:0:0:0:
192,192,81849,1,0,0:0:0:0:
320,192,81935,1,0,0:0:0:0:
448,192,82021,1,0,0:0:0:0:
64,192,82107,1,8,0:0:0:0:
192,192,82107,1,0,0:0:0:0:
320,192,82107,1,0,0:0:0:0:
448,192,82193,1,0,0:0:0:0:
192,192,82279,1,0,0:0:0:0:
64,192,82365,1,2,0:0:0:0:
320,192,82365,1,0,0:0:0:0:
192,192,82450,1,2,0:0:0:0:
448,192,82450,1,0,0:0:0:0:
320,192,82536,1,0,0:0:0:0:
64,192,82622,1,2,0:0:0:0:
448,192,82622,1,0,0:0:0:0:
192,192,82708,1,2,0:0:0:0:
64,192,82794,1,8,0:0:0:0:
320,192,82794,1,0,0:0:0:0:
448,192,82794,1,0,0:0:0:0:
192,192,82880,1,0,0:0:0:0:
64,192,82966,1,2,0:0:0:0:
320,192,82966,1,0,0:0:0:0:
448,192,83052,1,8,0:0:0:0:
192,192,83138,1,0,0:0:0:0:
320,192,83224,1,2,0:0:0:0:
448,192,83224,1,0,0:0:0:0:
192,192,83310,1,0,0:0:0:0:
64,192,83396,1,2,0:0:0:0:
192,192,83481,1,8,0:0:0:0:
320,192,83481,1,0,0:0:0:0:
448,192,83481,1,0,0:0:0:0:
64,192,83567,1,0,0:0:0:0:
320,192,83653,1,2,0:0:0:0:
448,192,83653,1,0,0:0:0:0:
64,192,83739,1,8,0:0:0:0:
192,192,83739,1,0,0:0:0:0:
320,192,83825,1,2,0:0:0:0:
448,192,83825,1,0,0:0:0:80:p4_synth_main_013.ogg
192,192,83911,1,0,0:0:0:0:
64,192,83997,1,0,0:0:0:0:
448,192,84083,1,0,0:0:0:0:
64,192,84169,1,8,0:0:0:0:
192,192,84169,1,0,0:0:0:0:
320,192,84169,1,0,0:0:0:0:
448,192,84255,1,0,0:0:0:0:
192,192,84341,1,0,0:0:0:0:
320,192,84427,1,2,0:0:0:0:
448,192,84427,1,0,0:0:0:0:
64,192,84512,1,0,0:0:0:80:p4_synth_main_014.ogg
192,192,84598,1,2,0:0:0:0:
320,192,84598,1,0,0:0:0:0:
448,192,84684,1,0,0:0:0:0:
64,192,84770,1,0,0:0:0:0:
192,192,84856,1,8,0:0:0:0:
320,192,84856,1,0,0:0:0:0:
448,192,84856,1,0,0:0:0:0:
64,192,84942,1,0,0:0:0:0:
320,192,85028,1,0,0:0:0:0:
192,192,85114,1,2,0:0:0:0:
448,192,85114,1,0,0:0:0:0:
64,192,85200,1,2,0:0:0:0:
320,192,85200,1,0,0:0:0:0:
192,192,85286,1,0,0:0:0:0:
64,192,85372,1,2,0:0:0:0:
448,192,85372,1,0,0:0:0:0:
320,192,85457,1,2,0:0:0:0:
64,192,85543,1,8,0:0:0:0:
192,192,85543,1,0,0:0:0:0:
448,192,85543,1,0,0:0:0:0:
320,192,85629,1,0,0:0:0:0:
192,192,85715,1,2,0:0:0:0:
448,192,85715,1,0,0:0:0:0:
64,192,85801,1,8,0:0:0:0:
320,192,85887,1,0,0:0:0:0:
192,192,85973,1,0,0:0:0:0:
64,192,86059,1,2,0:0:0:0:
448,192,86059,1,0,0:0:0:0:
192,192,86145,1,0,0:0:0:0:
64,192,86231,1,8,0:0:0:0:
320,192,86231,1,0,0:0:0:0:
448,192,86231,1,0,0:0:0:0:
192,192,86317,1,0,0:0:0:0:
320,192,86403,1,2,0:0:0:0:
448,192,86403,1,0,0:0:0:0:
64,192,86488,1,8,0:0:0:0:
192,192,86488,1,0,0:0:0:0:
320,192,86574,1,2,0:0:0:0:
448,192,86574,1,0,0:0:0:80:p4_synth_main_015.ogg
192,192,86660,1,0,0:0:0:0:
320,192,86746,1,0,0:0:0:0:
64,192,86832,1,0,0:0:0:0:
192,192,86918,1,8,0:0:0:0:
320,192,86918,1,0,0:0:0:0:
448,192,86918,1,0,0:0:0:0:
64,192,87004,1,0,0:0:0:0:
192,192,87090,1,2,0:0:0:0:
448,192,87090,1,0,0:0:0:0:
320,192,87176,1,8,0:0:0:0:
64,192,87262,1,0,0:0:0:80:p4_synth_main_016.ogg
320,192,87348,1,2,0:0:0:0:
448,192,87348,1,0,0:0:0:0:
64,192,87434,1,0,0:0:0:0:
192,192,87519,1,0,0:0:0:0:
64,192,87605,1,8,0:0:0:0:
320,192,87605,1,0,0:0:0:0:
448,192,87605,1,0,0:0:0:0:
192,192,87691,1,0,0:0:0:0:
448,192,87777,1,0,0:0:0:0:
64,192,87863,1,2,0:0:0:0:
320,192,87863,1,0,0:0:0:0:
192,192,87949,1,2,0:0:0:0:
448,192,87949,1,0,0:0:0:0:
64,192,88035,1,0,0:0:0:0:
192,192,88121,1,2,0:0:0:0:
320,192,88121,1,0,0:0:0:0:
448,192,88207,1,2,0:0:0:0:
64,192,88293,1,8,0:0:0:0:
192,192,88293,1,0,0:0:0:0:
320,192,88293,1,0,0:0:0:0:
448,192,88379,1,0,0:0:0:0:
64,192,88465,1,2,0:0:0:0:
320,192,88465,1,0,0:0:0:0:
192,192,88550,1,8,0:0:0:0:
448,192,88636,1,0,0:0:0:0:
64,192,88722,1,8,0:0:0:0:
192,192,88808,1,0,0:0:0:0:
320,192,88894,1,0,0:0:0:0:
64,192,88980,1,8,0:0:0:0:
192,192,88980,1,0,0:0:0:0:
448,192,88980,1,0,0:0:0:0:
320,192,89066,1,0,0:0:0:0:
64,192,89152,1,2,0:0:0:0:
192,192,89238,1,0,0:0:0:0:
320,192,89324,1,6,0:0:0:0:
448,192,89324,1,0,0:0:0:80:p4_synth_main_017.ogg
320,192,89839,1,2,0:0:0:0:
448,192,89839,1,0,0:0:0:0:
192,192,90355,1,0,0:0:0:0:
64,192,90527,1,0,0:0:0:0:
192,192,90870,1,0,0:0:0:0:
320,192,91042,1,0,0:0:0:0:
64,192,91214,1,0,0:0:0:0:
448,192,91386,1,0,0:0:0:0:
64,192,91729,1,2,0:0:0:0:
192,192,91729,1,0,0:0:0:0:
64,192,92073,1,2,0:0:0:0:
192,192,92073,1,0,0:0:0:0:
64,192,92588,1,2,0:0:0:0:
192,192,92588,1,0,0:0:0:0:
448,192,92932,1,0,0:0:0:0:
320,192,93104,1,0,0:0:0:0:
192,192,93619,1,0,0:0:0:0:
64,192,93791,1,0,0:0:0:0:
320,192,93963,1,0,0:0:0:0:
192,192,94135,1,0,0:0:0:80:p4_synth_main_020.ogg
64,192,94307,1,0,0:0:0:0:
448,192,94479,1,0,0:0:0:0:
192,192,94822,1,2,0:0:0:0:
320,192,94822,1,0,0:0:0:80:p4_synth_main_021.ogg
192,192,95338,1,2,0:0:0:0:
320,192,95338,1,0,0:0:0:0:
448,192,95853,1,0,0:0:0:0:
64,192,96025,1,0,0:0:0:0:
320,192,96369,1,0,0:0:0:0:
192,192,96712,1,0,0:0:0:0:
448,192,96884,1,0,0:0:0:0:
64,192,97056,1,0,0:0:0:0:
192,192,97228,1,2,0:0:0:0:
320,192,97228,1,0,0:0:0:0:
64,192,97572,1,2,0:0:0:0:
192,192,97572,1,0,0:0:0:80:p4_synth_main_023.ogg
64,192,98087,1,2,0:0:0:0:
192,192,98087,1,0,0:0:0:0:
320,192,98603,1,0,0:0:0:0:
64,192,98946,128,0,99032:0:0:0:0:
192,192,99032,1,0,0:0:0:0:
448,192,99118,128,0,99204:0:0:0:0:
320,192,99204,1,0,0:0:0:0:
64,192,99290,128,0,99376:0:0:0:0:
192,192,99376,1,0,0:0:0:0:
448,192,99462,128,0,99548:0:0:0:0:
320,192,99548,1,0,0:0:0:0:
192,192,99634,128,0,99719:0:0:0:0:
64,192,99719,128,0,99805:0:0:0:0:
320,192,99805,128,0,99891:0:0:0:0:
448,192,99891,128,0,99977:0:0:0:0:
192,192,99977,128,0,100063:0:0:0:0:
64,192,100063,128,0,100149:0:0:0:0:
320,192,100149,128,0,100235:0:0:0:0:
448,192,100235,128,0,100321:0:0:0:0:
64,192,100321,1,6,0:0:0:0:
192,192,100321,1,0,0:0:0:80:p4_synth_main_025.ogg
320,192,100407,1,0,0:0:0:0:
192,192,100493,1,0,0:0:0:0:
448,192,100579,1,2,0:0:0:0:
64,192,100665,1,8,0:0:0:0:
192,192,100665,1,0,0:0:0:0:
320,192,100665,1,0,0:0:0:0:
448,192,100750,1,0,0:0:0:0:
64,192,100836,1,2,0:0:0:0:
192,192,100836,1,0,0:0:0:0:
448,192,100922,1,0,0:0:0:0:
64,192,101008,1,2,0:0:0:0:
320,192,101008,1,0,0:0:0:80:p4_synth_main_026.ogg
192,192,101094,1,8,0:0:0:0:
448,192,101180,1,0,0:0:0:0:
64,192,101266,1,2,0:0:0:0:
192,192,101352,1,8,0:0:0:0:
320,192,101352,1,0,0:0:0:0:
448,192,101352,1,0,0:0:0:0:
64,192,101438,1,0,0:0:0:0:
320,192,101524,1,2,0:0:0:0:
448,192,101524,1,0,0:0:0:0:
64,192,101610,1,0,0:0:0:0:
192,192,101696,1,2,0:0:0:0:
320,192,101696,1,0,0:0:0:0:
448,192,101781,1,0,0:0:0:0:
64,192,101867,1,0,0:0:0:0:
320,192,101953,1,2,0:0:0:0:
64,192,102039,1,8,0:0:0:0:
192,192,102039,1,0,0:0:0:0:
448,192,102039,1,0,0:0:0:0:
320,192,102125,1,0,0:0:0:0:
64,192,102211,1,2,0:0:0:0:
192,192,102211,1,0,0:0:0:0:
320,192,102297,1,0,0:0:0:0:
192,192,102383,1,2,0:0:0:0:
448,192,102383,1,0,0:0:0:0:
64,192,102469,1,8,0:0:0:0:
448,192,102555,1,0,0:0:0:0:
192,192,102641,1,2,0:0:0:0:
64,192,102727,1,8,0:0:0:0:
320,192,102727,1,0,0:0:0:0:
448,192,102727,1,0,0:0:0:0:
192,192,102812,1,0,0:0:0:0:
320,192,102898,1,2,0:0:0:0:
448,192,102898,1,0,0:0:0:0:
192,192,102984,1,0,0:0:0:0:
64,192,103070,1,2,0:0:0:0:
320,192,103070,1,0,0:0:0:80:p4_synth_main_027.ogg
448,192,103156,1,0,0:0:0:0:
192,192,103242,1,0,0:0:0:0:
320,192,103328,1,2,0:0:0:0:
64,192,103414,1,8,0:0:0:0:
192,192,103414,1,0,0:0:0:0:
448,192,103414,1,0,0:0:0:0:
320,192,103500,1,0,0:0:0:0:
64,192,103586,1,2,0:0:0:0:
192,192,103586,1,0,0:0:0:0:
320,192,103672,1,0,0:0:0:0:
64,192,103758,1,2,0:0:0:0:
448,192,103758,1,0,0:0:0:80:p4_synth_main_028.ogg
192,192,103843,1,8,0:0:0:0:
448,192,103929,1,0,0:0:0:0:
192,192,104015,1,2,0:0:0:0:
64,192,104101,1,8,0:0:0:0:
320,192,104101,1,0,0:0:0:0:
448,192,104101,1,0,0:0:0:0:
192,192,104187,1,0,0:0:0:0:
64,192,104273,1,2,0:0:0:0:
320,192,104273,1,0,0:0:0:0:
448,192,104359,1,0,0:0:0:0:
64,192,104445,1,2,0:0:0:0:
192,192,104445,1,0,0:0:0:0:
320,192,104531,1,0,0:0:0:0:
192,192,104617,1,0,0:0:0:0:
448,192,104703,1,2,0:0:0:0:
64,192,104788,1,8,0:0:0:0:
192,192,104788,1,0,0:0:0:0:
320,192,104788,1,0,0:0:0:0:
448,192,104874,1,0,0:0:0:0:
64,192,104960,1,2,0:0:0:0:
320,192,104960,1,0,0:0:0:0:
192,192,105046,1,0,0:0:0:0:
320,192,105132,1,2,0:0:0:0:
448,192,105132,1,0,0:0:0:0:
64,192,105218,1,8,0:0:0:0:
448,192,105304,1,0,0:0:0:0:
192,192,105390,1,2,0:0:0:0:
64,192,105476,1,8,0:0:0:0:
320,192,105476,1,0,0:0:0:0:
448,192,105476,1,0,0:0:0:0:
192,192,105562,1,0,0:0:0:0:
320,192,105648,1,2,0:0:0:0:
64,192,105734,1,0,0:0:0:0:
192,192,105734,1,0,0:0:0:0:
320,192,105819,1,6,0:0:0:0:
448,192,105819,1,0,0:0:0:80:p4_synth_main_029.ogg
192,192,105991,1,2,0:0:0:0:
320,192,105991,1,0,0:0:0:0:
64,192,106163,1,2,0:0:0:0:
192,192,106163,1,0,0:0:0:0:
64,192,106335,1,2,0:0:0:0:
448,192,106335,1,0,0:0:0:0:
192,192,106507,1,2,0:0:0:0:
448,192,106507,1,0,0:0:0:80:p4_synth_main_030.ogg
192,192,106679,1,2,0:0:0:0:
320,192,106679,1,0,0:0:0:0:
64,192,106850,1,2,0:0:0:0:
320,192,106850,1,0,0:0:0:0:
64,192,107022,1,2,0:0:0:0:
192,192,107022,1,0,0:0:0:0:
192,192,107194,1,2,0:0:0:0:
320,192,107194,1,0,0:0:0:80:p4_synth_main_031.ogg
320,192,107366,1,2,0:0:0:0:
448,192,107366,1,0,0:0:0:0:
64,192,107538,1,2,0:0:0:0:
448,192,107538,1,0,0:0:0:0:
64,192,107710,1,2,0:0:0:0:
320,192,107710,1,0,0:0:0:0:
192,192,107881,1,2,0:0:0:0:
320,192,107881,1,0,0:0:0:80:p4_synth_main_032.ogg
192,192,108053,1,2,0:0:0:0:
448,192,108053,1,0,0:0:0:0:
320,192,108225,1,2,0:0:0:0:
448,192,108225,1,0,0:0:0:0:
192,192,108397,1,2,0:0:0:0:
320,192,108397,1,0,0:0:0:0:
64,192,108569,1,6,0:0:0:0:
192,192,108569,1,0,0:0:0:80:p4_synth_main_033.ogg
64,192,108655,1,2,0:0:0:0:
320,192,108741,1,2,0:0:0:0:
448,192,108741,1,0,0:0:0:0:
448,192,108827,1,2,0:0:0:0:
64,192,108912,1,2,0:0:0:0:
192,192,108912,1,0,0:0:0:0:
64,192,108998,1,2,0:0:0:0:
320,192,109084,1,2,0:0:0:0:
448,192,109084,1,0,0:0:0:0:
448,192,109170,1,2,0:0:0:0:
64,192,109256,1,2,0:0:0:0:
192,192,109256,1,0,0:0:0:80:p4_synth_main_034.ogg
192,192,109342,1,2,0:0:0:0:
320,192,109428,1,2,0:0:0:0:
448,192,109428,1,0,0:0:0:0:
320,192,109514,1,2,0:0:0:0:
64,192,109600,1,2,0:0:0:0:
192,192,109600,1,0,0:0:0:0:
192,192,109686,1,2,0:0:0:0:
320,192,109772,1,2,0:0:0:0:
448,192,109772,1,0,0:0:0:0:
320,192,109858,1,2,0:0:0:0:
192,192,109943,1,2,0:0:0:0:
64,192,109986,1,0,0:0:0:0:
448,192,110029,1,0,0:0:0:0:
320,192,110072,1,0,0:0:0:0:
64,192,110115,1,0,0:0:0:0:
192,192,110158,1,0,0:0:0:0:
320,192,110201,1,0,0:0:0:0:
448,192,110244,1,0,0:0:0:0:
64,192,110287,1,0,0:0:0:0:
192,192,110330,1,0,0:0:0:0:
448,192,110373,1,0,0:0:0:0:
320,192,110416,1,0,0:0:0:0:
192,192,110459,1,0,0:0:0:0:
64,192,110502,1,0,0:0:0:0:
448,192,110545,1,0,0:0:0:0:
320,192,110588,1,0,0:0:0:0:
64,192,110631,128,0,110889:0:0:0:0:
192,192,110717,128,0,110803:0:0:0:0:
448,192,110803,128,0,111060:0:0:0:0:
320,192,110889,128,0,110974:0:0:0:0:
64,192,110974,128,0,111318:0:0:0:0:
192,192,111060,128,0,111232:0:0:0:0:
320,192,111318,1,2,0:0:0:0:
448,192,111318,128,0,113380:0:0:0:80:p4_synth_main_036.ogg
448,192,113552,128,0,113810:0:0:0:80:p4_synth_main_037.ogg
320,192,113810,128,0,114067:0:0:0:80:p4_synth_main_038.ogg
192,192,114067,128,0,115442:0:0:0:80:p4_synth_main_039.ogg
64,192,115442,128,0,116731:0:0:0:80:p4_synth_main_040.ogg
320,192,116817,128,0,117504:0:0:0:80:p4_synth_main_041.ogg
64,192,117504,128,0,118879:0:0:0:80:p4_synth_main_042.ogg
192,192,118879,128,0,119566:0:0:0:80:p4_synth_main_043.ogg
448,192,119566,128,0,120941:0:0:0:80:p4_synth_main_044.ogg
64,192,120941,1,0,0:0:0:0:
320,192,121027,128,0,121112:0:0:0:0:
448,192,121112,1,0,0:0:0:0:
192,192,121198,128,0,121284:0:0:0:0:
64,192,121284,1,0,0:0:0:0:
320,192,121370,128,0,121456:0:0:0:0:
448,192,121456,1,0,0:0:0:0:
192,192,121542,128,0,121628:0:0:0:0:
320,192,121628,1,0,0:0:0:0:
448,192,121714,128,0,121800:0:0:0:0:
192,192,121800,1,0,0:0:0:0:
64,192,121886,128,0,121972:0:0:0:0:
320,192,121972,1,0,0:0:0:0:
448,192,122058,128,0,122143:0:0:0:0:
192,192,122143,1,0,0:0:0:0:
64,192,122229,128,0,122315:0:0:0:0:
320,192,122315,1,6,0:0:0:0:
448,192,122315,1,0,0:0:0:80:p4_synth_main_045.ogg
192,192,122401,1,0,0:0:0:0:
320,192,122487,1,0,0:0:0:0:
64,192,122573,1,2,0:0:0:0:
192,192,122659,1,8,0:0:0:0:
320,192,122659,1,0,0:0:0:0:
448,192,122659,1,0,0:0:0:0:
64,192,122745,1,0,0:0:0:0:
320,192,122831,1,2,0:0:0:0:
448,192,122831,1,0,0:0:0:0:
64,192,122917,1,0,0:0:0:0:
192,192,123003,1,2,0:0:0:0:
448,192,123003,1,0,0:0:0:80:p4_synth_main_046.ogg
320,192,123089,1,8,0:0:0:0:
64,192,123174,1,0,0:0:0:0:
448,192,123260,1,2,0:0:0:0:
64,192,123346,1,8,0:0:0:0:
192,192,123346,1,0,0:0:0:0:
320,192,123346,1,0,0:0:0:0:
448,192,123432,1,0,0:0:0:0:
64,192,123518,1,2,0:0:0:0:
192,192,123518,1,0,0:0:0:0:
448,192,123604,1,0,0:0:0:0:
192,192,123690,1,2,0:0:0:0:
320,192,123690,1,0,0:0:0:0:
64,192,123776,1,0,0:0:0:0:
448,192,123862,1,0,0:0:0:0:
192,192,123948,1,2,0:0:0:0:
64,192,124034,1,8,0:0:0:0:
320,192,124034,1,0,0:0:0:0:
448,192,124034,1,0,0:0:0:0:
192,192,124120,1,0,0:0:0:0:
320,192,124205,1,2,0:0:0:0:
448,192,124205,1,0,0:0:0:0:
192,192,124291,1,0,0:0:0:0:
64,192,124377,1,2,0:0:0:0:
320,192,124377,1,0,0:0:0:80:p4_synth_main_047.ogg
448,192,124463,1,8,0:0:0:0:
64,192,124549,1,0,0:0:0:0:
320,192,124635,1,2,0:0:0:0:
64,192,124721,1,8,0:0:0:0:
192,192,124721,1,0,0:0:0:0:
448,192,124721,1,0,0:0:0:0:
320,192,124807,1,0,0:0:0:0:
64,192,124893,1,2,0:0:0:0:
192,192,124893,1,0,0:0:0:0:
320,192,124979,1,0,0:0:0:0:
192,192,125065,1,2,0:0:0:0:
448,192,125065,1,0,0:0:0:80:p4_synth_main_048.ogg
64,192,125150,1,0,0:0:0:0:
320,192,125236,1,0,0:0:0:0:
192,192,125322,1,2,0:0:0:0:
64,192,125408,1,8,0:0:0:0:
320,192,125408,1,0,0:0:0:0:
448,192,125408,1,0,0:0:0:0:
192,192,125494,1,0,0:0:0:0:
320,192,125580,1,2,0:0:0:0:
448,192,125580,1,0,0:0:0:0:
192,192,125666,1,0,0:0:0:0:
64,192,125752,1,2,0:0:0:0:
448,192,125752,1,0,0:0:0:80:p4_synth_main_049.ogg
320,192,125838,1,8,0:0:0:0:
64,192,125924,1,0,0:0:0:0:
320,192,126010,1,2,0:0:0:0:
64,192,126096,1,8,0:0:0:0:
192,192,126096,1,0,0:0:0:0:
448,192,126096,1,0,0:0:0:0:
320,192,126181,1,0,0:0:0:0:
192,192,126267,1,2,0:0:0:0:
448,192,126267,1,0,0:0:0:0:
64,192,126353,1,0,0:0:0:0:
320,192,126439,1,2,0:0:0:0:
448,192,126439,1,0,0:0:0:0:
192,192,126525,1,0,0:0:0:0:
320,192,126611,1,0,0:0:0:0:
64,192,126697,1,2,0:0:0:0:
192,192,126783,1,8,0:0:0:0:
320,192,126783,1,0,0:0:0:0:
448,192,126783,1,0,0:0:0:0:
64,192,126869,1,0,0:0:0:0:
192,192,126955,1,2,0:0:0:0:
448,192,126955,1,0,0:0:0:0:
320,192,127041,1,0,0:0:0:0:
64,192,127127,1,2,0:0:0:0:
192,192,127127,1,0,0:0:0:0:
448,192,127212,1,8,0:0:0:0:
64,192,127298,1,0,0:0:0:0:
320,192,127384,1,2,0:0:0:0:
64,192,127470,1,8,0:0:0:0:
192,192,127470,1,0,0:0:0:0:
448,192,127470,1,0,0:0:0:0:
320,192,127556,1,0,0:0:0:0:
192,192,127642,1,2,0:0:0:0:
320,192,127728,1,0,0:0:0:0:
448,192,127728,1,0,0:0:0:0:
64,192,127814,1,6,0:0:0:0:
192,192,127814,1,0,0:0:0:80:p4_synth_main_050.ogg
192,192,127986,1,2,0:0:0:0:
320,192,127986,1,0,0:0:0:0:
320,192,128158,1,2,0:0:0:0:
448,192,128158,1,0,0:0:0:0:
64,192,128329,1,2,0:0:0:0:
448,192,128329,1,0,0:0:0:0:
64,192,128501,1,2,0:0:0:0:
320,192,128501,1,0,0:0:0:80:p4_synth_main_051.ogg
192,192,128673,1,2,0:0:0:0:
320,192,128673,1,0,0:0:0:0:
192,192,128845,1,2,0:0:0:0:
448,192,128845,1,0,0:0:0:0:
320,192,129017,1,2,0:0:0:0:
448,192,129017,1,0,0:0:0:0:
192,192,129189,1,2,0:0:0:0:
320,192,129189,1,0,0:0:0:80:p4_synth_main_052.ogg
64,192,129360,1,2,0:0:0:0:
192,192,129360,1,0,0:0:0:0:
64,192,129532,1,2,0:0:0:0:
448,192,129532,1,0,0:0:0:0:
192,192,129704,1,2,0:0:0:0:
448,192,129704,1,0,0:0:0:0:
192,192,129876,1,2,0:0:0:0:
320,192,129876,1,0,0:0:0:80:p4_synth_main_053.ogg
64,192,130048,1,2,0:0:0:0:
320,192,130048,1,0,0:0:0:0:
64,192,130220,1,2,0:0:0:0:
192,192,130220,1,0,0:0:0:0:
192,192,130391,1,2,0:0:0:0:
320,192,130391,1,0,0:0:0:0:
320,192,130563,1,6,0:0:0:0:
448,192,130563,1,0,0:0:0:80:p4_synth_main_054.ogg
448,192,130649,1,2,0:0:0:0:
64,192,130735,1,2,0:0:0:0:
192,192,130735,1,0,0:0:0:0:
64,192,130821,1,2,0:0:0:0:
320,192,130907,1,2,0:0:0:0:
448,192,130907,1,0,0:0:0:0:
448,192,130993,1,2,0:0:0:0:
64,192,131079,1,2,0:0:0:0:
192,192,131079,1,0,0:0:0:0:
64,192,131165,1,2,0:0:0:0:
320,192,131250,1,2,0:0:0:0:
448,192,131250,1,0,0:0:0:80:p4_synth_main_055.ogg
320,192,131336,1,2,0:0:0:0:
64,192,131422,1,2,0:0:0:0:
192,192,131422,1,0,0:0:0:0:
192,192,131508,1,2,0:0:0:0:
320,192,131594,1,2,0:0:0:0:
448,192,131594,1,0,0:0:0:0:
320,192,131680,1,2,0:0:0:0:
64,192,131766,1,2,0:0:0:0:
192,192,131766,1,0,0:0:0:0:
192,192,131852,1,2,0:0:0:0:
320,192,131938,128,2,132110:0:0:0:0:
448,192,131938,128,0,132024:0:0:0:80:p4_synth_main_055_002.ogg
192,192,132153,128,0,132239:0:0:0:0:
320,192,132281,128,0,132367:0:0:0:0:
448,192,132410,128,0,132496:0:0:0:0:
320,192,132496,1,0,0:0:0:0:
64,192,132539,1,0,0:0:0:0:
192,192,132625,1,2,0:0:0:0:
448,192,132625,128,0,132797:0:0:0:0:
320,192,132711,128,0,132883:0:0:0:0:
192,192,132797,128,0,132969:0:0:0:0:
64,192,132883,128,0,133055:0:0:0:0:
448,192,132969,128,0,133141:0:0:0:0:
320,192,133055,128,0,133227:0:0:0:0:
192,192,133141,128,0,133312:0:0:0:0:
64,192,133312,1,2,0:0:0:0:
448,192,133312,128,0,135546:0:0:0:80:p4_synth_main_056.ogg
64,192,135546,1,2,0:0:0:0:
192,192,135546,1,0,0:0:0:80:p4_synth_main_057.ogg
64,192,135718,1,8,0:0:0:0:
320,192,135718,1,0,0:0:0:0:
448,192,135718,1,0,0:0:0:0:
192,192,135804,1,0,0:0:0:80:p4_synth_main_058.ogg
320,192,135890,1,2,0:0:0:0:
448,192,135890,1,0,0:0:0:0:
64,192,135976,1,8,0:0:0:0:
192,192,135976,1,0,0:0:0:0:
320,192,136062,1,2,0:0:0:0:
448,192,136062,1,0,0:0:0:80:p4_synth_main_059.ogg
64,192,136148,1,0,0:0:0:0:
192,192,136234,1,0,0:0:0:0:
320,192,136320,1,2,0:0:0:0:
64,192,136405,1,8,0:0:0:0:
192,192,136405,1,0,0:0:0:0:
448,192,136405,1,0,0:0:0:0:
320,192,136491,1,0,0:0:0:0:
64,192,136577,1,2,0:0:0:0:
448,192,136577,1,0,0:0:0:0:
192,192,136663,1,0,0:0:0:0:
320,192,136749,1,0,0:0:0:0:
192,192,136835,1,2,0:0:0:0:
448,192,136835,1,0,0:0:0:0:
64,192,136921,1,0,0:0:0:0:
448,192,137007,1,0,0:0:0:0:
64,192,137093,1,8,0:0:0:0:
192,192,137093,1,0,0:0:0:0:
320,192,137093,128,0,137179:0:0:0:0:
448,192,137179,128,0,137265:0:0:0:0:
64,192,137265,128,0,137351:0:0:0:0:
320,192,137351,1,2,0:0:0:0:
448,192,137351,1,0,0:0:0:0:
64,192,137436,1,2,0:0:0:0:
192,192,137436,1,0,0:0:0:80:p4_synth_main_060.ogg
320,192,137522,1,0,0:0:0:0:
192,192,137608,1,2,0:0:0:0:
448,192,137608,1,0,0:0:0:0:
64,192,137694,1,2,0:0:0:0:
192,192,137780,1,8,0:0:0:0:
320,192,137780,1,0,0:0:0:0:
448,192,137780,128,0,137952:0:0:0:0:
64,192,137952,128,2,138124:0:0:0:0:
192,192,137952,1,0,0:0:0:0:
320,192,138038,1,0,0:0:0:0:
448,192,138124,128,0,138210:0:0:0:0:
64,192,138210,1,2,0:0:0:0:
320,192,138210,1,0,0:0:0:0:
192,192,138296,1,0,0:0:0:0:
448,192,138381,1,2,0:0:0:0:
64,192,138467,1,8,0:0:0:0:
192,192,138467,1,0,0:0:0:0:
320,192,138467,1,0,0:0:0:0:
448,192,138553,1,0,0:0:0:0:
192,192,138639,1,2,0:0:0:0:
320,192,138639,1,0,0:0:0:0:
64,192,138725,1,8,0:0:0:0:
320,192,138811,128,2,139498:0:0:0:0:
448,192,138811,1,0,0:0:0:80:p4_synth_main_061.ogg
64,192,139498,128,2,140873:0:0:0:0:
192,192,139498,1,0,0:0:0:80:p4_synth_main_062.ogg
320,192,140014,1,2,0:0:0:0:
448,192,140014,1,0,0:0:0:0:
320,192,140787,1,2,0:0:0:0:
448,192,140787,1,0,0:0:0:0:
192,192,140873,128,0,141560:0:0:0:80:p4_synth_main_063.ogg
320,192,141045,1,2,0:0:0:0:
448,192,141045,1,0,0:0:0:0:
64,192,141217,1,4,0:0:0:0:
448,192,141217,1,8,0:0:0:0:
320,192,141389,1,2,0:0:0:0:
64,192,141560,1,2,0:0:0:0:
448,192,141560,1,0,0:0:0:80:p4_synth_main_064.ogg
320,192,141646,1,0,0:0:0:0:
192,192,141732,1,0,0:0:0:0:
448,192,141818,1,2,0:0:0:0:
64,192,141904,1,8,0:0:0:0:
192,192,141904,1,0,0:0:0:0:
320,192,141904,1,0,0:0:0:0:
448,192,141990,1,0,0:0:0:0:
64,192,142076,1,2,0:0:0:0:
192,192,142076,1,0,0:0:0:0:
320,192,142162,1,8,0:0:0:0:
448,192,142248,1,0,0:0:0:0:
64,192,142334,1,2,0:0:0:0:
192,192,142334,1,0,0:0:0:0:
320,192,142420,1,0,0:0:0:0:
64,192,142505,1,0,0:0:0:0:
192,192,142591,1,8,0:0:0:0:
320,192,142591,1,0,0:0:0:0:
448,192,142591,1,0,0:0:0:0:
64,192,142677,1,0,0:0:0:0:
448,192,142763,1,0,0:0:0:0:
192,192,142849,1,2,0:0:0:0:
320,192,142849,1,0,0:0:0:0:
64,192,142935,1,2,0:0:0:0:
448,192,142935,1,0,0:0:0:0:
192,192,143021,1,0,0:0:0:0:
64,192,143107,1,2,0:0:0:0:
320,192,143107,1,0,0:0:0:0:
448,192,143193,1,2,0:0:0:0:
64,192,143279,1,8,0:0:0:0:
192,192,143279,1,0,0:0:0:0:
320,192,143279,1,0,0:0:0:0:
448,192,143365,1,0,0:0:0:0:
192,192,143451,1,2,0:0:0:0:
320,192,143451,1,0,0:0:0:0:
64,192,143536,1,8,0:0:0:0:
448,192,143622,1,0,0:0:0:0:
64,192,143708,1,2,0:0:0:0:
192,192,143708,1,0,0:0:0:0:
320,192,143794,1,0,0:0:0:0:
64,192,143880,1,2,0:0:0:0:
192,192,143966,1,8,0:0:0:0:
320,192,143966,1,0,0:0:0:0:
448,192,143966,1,0,0:0:0:0:
64,192,144052,1,0,0:0:0:0:
192,192,144138,1,2,0:0:0:0:
448,192,144138,1,0,0:0:0:0:
320,192,144224,1,8,0:0:0:0:
64,192,144310,1,2,0:0:0:0:
192,192,144310,1,0,0:0:0:80:p4_synth_main_065.ogg
448,192,144396,1,0,0:0:0:0:
192,192,144481,1,0,0:0:0:0:
320,192,144567,1,0,0:0:0:0:
64,192,144653,1,4,0:0:0:0:
192,192,144653,1,8,0:0:0:0:
448,192,144653,1,0,0:0:0:0:
320,192,144739,1,0,0:0:0:0:
64,192,144825,1,0,0:0:0:0:
192,192,144911,1,2,0:0:0:0:
448,192,144911,1,0,0:0:0:0:
320,192,144997,1,0,0:0:0:80:p4_synth_main_066.ogg
64,192,145083,1,2,0:0:0:0:
192,192,145083,1,0,0:0:0:0:
448,192,145169,1,0,0:0:0:0:
192,192,145255,1,0,0:0:0:0:
64,192,145341,1,8,0:0:0:0:
320,192,145341,1,0,0:0:0:0:
448,192,145341,1,0,0:0:0:0:
192,192,145427,1,0,0:0:0:0:
320,192,145512,1,0,0:0:0:0:
64,192,145598,1,2,0:0:0:0:
448,192,145598,1,0,0:0:0:0:
192,192,145684,1,2,0:0:0:0:
320,192,145684,1,0,0:0:0:0:
64,192,145770,1,0,0:0:0:0:
192,192,145856,1,2,0:0:0:0:
448,192,145856,1,0,0:0:0:0:
320,192,145942,1,2,0:0:0:0:
64,192,146028,1,8,0:0:0:0:
192,192,146028,1,0,0:0:0:0:
448,192,146028,1,0,0:0:0:0:
320,192,146114,1,0,0:0:0:0:
64,192,146200,1,2,0:0:0:0:
448,192,146200,1,0,0:0:0:0:
192,192,146286,1,8,0:0:0:0:
320,192,146372,1,0,0:0:0:0:
64,192,146458,1,0,0:0:0:0:
320,192,146543,1,2,0:0:0:0:
448,192,146543,1,0,0:0:0:80:p4_synth_main_067.ogg
192,192,146629,1,0,0:0:0:0:
64,192,146715,1,8,0:0:0:0:
320,192,146715,1,0,0:0:0:0:
448,192,146715,1,0,0:0:0:0:
192,192,146801,1,0,0:0:0:80:p4_synth_main_068.ogg
64,192,146887,1,2,0:0:0:0:
448,192,146887,1,0,0:0:0:0:
192,192,146973,1,8,0:0:0:0:
320,192,146973,1,0,0:0:0:0:
64,192,147059,1,2,0:0:0:0:
448,192,147059,1,0,0:0:0:80:p4_synth_main_069.ogg
320,192,147145,1,0,0:0:0:0:
192,192,147231,1,0,0:0:0:0:
64,192,147317,1,2,0:0:0:0:
192,192,147403,1,8,0:0:0:0:
320,192,147403,1,0,0:0:0:0:
448,192,147403,1,0,0:0:0:0:
64,192,147489,1,0,0:0:0:0:
320,192,147574,1,2,0:0:0:0:
448,192,147574,1,0,0:0:0:0:
192,192,147660,1,8,0:0:0:0:
448,192,147746,1,0,0:0:0:0:
64,192,147832,1,2,0:0:0:0:
192,192,147832,1,0,0:0:0:0:
320,192,147918,1,0,0:0:0:0:
192,192,148004,1,0,0:0:0:0:
64,192,148090,1,8,0:0:0:0:
320,192,148090,1,0,0:0:0:0:
448,192,148090,1,0,0:0:0:0:
192,192,148176,1,0,0:0:0:0:
448,192,148262,1,0,0:0:0:0:
64,192,148348,1,2,0:0:0:0:
320,192,148348,1,0,0:0:0:0:
192,192,148434,1,2,0:0:0:0:
448,192,148434,1,0,0:0:0:80:p4_synth_main_070.ogg
64,192,148520,1,0,0:0:0:0:
192,192,148605,1,2,0:0:0:0:
320,192,148605,1,0,0:0:0:0:
448,192,148691,1,2,0:0:0:0:
64,192,148777,1,8,0:0:0:0:
192,192,148777,1,0,0:0:0:0:
320,192,148777,1,0,0:0:0:0:
448,192,148863,1,0,0:0:0:0:
64,192,148949,1,2,0:0:0:0:
320,192,148949,1,0,0:0:0:0:
192,192,149035,1,8,0:0:0:0:
448,192,149121,1,0,0:0:0:0:
64,192,149207,1,2,0:0:0:0:
192,192,149207,1,0,0:0:0:0:
448,192,149293,1,0,0:0:0:0:
320,192,149379,1,2,0:0:0:0:
64,192,149465,1,8,0:0:0:0:
192,192,149465,1,0,0:0:0:0:
448,192,149465,1,0,0:0:0:0:
320,192,149551,1,0,0:0:0:0:
64,192,149636,1,2,0:0:0:0:
192,192,149636,1,0,0:0:0:0:
448,192,149722,1,8,0:0:0:0:
64,192,149808,1,2,0:0:0:0:
192,192,149808,1,4,0:0:0:0:
320,192,149808,1,0,0:0:0:0:
64,192,150152,1,2,0:0:0:0:
448,192,150152,1,0,0:0:0:0:
192,192,150496,1,8,0:0:0:0:
320,192,150496,1,0,0:0:0:0:
448,192,150496,1,0,0:0:0:0:
64,192,150839,1,2,0:0:0:0:
320,192,150839,1,0,0:0:0:0:
64,192,151183,1,4,0:0:0:0:
192,192,151183,1,2,0:0:0:0:
448,192,151183,1,0,0:0:0:0:
192,192,151527,1,2,0:0:0:0:
320,192,151527,1,0,0:0:0:0:
64,192,151870,1,8,0:0:0:0:
320,192,151870,1,0,0:0:0:0:
448,192,151870,1,0,0:0:0:0:
192,192,152214,1,2,0:0:0:0:
448,192,152214,1,0,0:0:0:0:
64,192,152558,1,4,0:0:0:0:
192,192,152558,1,2,0:0:0:0:
320,192,152558,1,0,0:0:0:0:
64,192,152815,1,8,0:0:0:0:
192,192,152815,1,4,0:0:0:0:
448,192,152815,1,0,0:0:0:0:
192,192,153073,1,2,0:0:0:0:
320,192,153073,1,4,0:0:0:0:
448,192,153073,1,0,0:0:0:0:
64,192,153331,1,8,0:0:0:0:
320,192,153331,1,4,0:0:0:0:
448,192,153331,1,0,0:0:0:0:
64,192,153589,1,8,0:0:0:0:
192,192,153589,1,4,0:0:0:0:
448,192,153589,1,0,0:0:0:0:
64,192,153846,1,2,0:0:0:0:
192,192,153846,1,4,0:0:0:0:
320,192,153846,1,0,0:0:0:0:
320,192,154018,1,8,0:0:0:0:
448,192,154018,1,0,0:0:0:0:
320,192,154104,1,2,0:0:0:0:
448,192,154190,1,2,0:0:0:0:
64,192,154276,1,8,0:0:0:0:
192,192,154276,1,0,0:0:0:0:
192,192,154362,1,2,0:0:0:0:
64,192,154448,1,2,0:0:0:0:
320,192,154534,1,8,0:0:0:0:
448,192,154534,1,0,0:0:0:0:
320,192,154620,1,2,0:0:0:0:
64,192,154705,1,8,0:0:0:0:
192,192,154705,1,0,0:0:0:0:
64,192,154791,1,2,0:0:0:0:
192,192,154877,1,2,0:0:0:0:
320,192,154963,1,8,0:0:0:0:
448,192,154963,1,0,0:0:0:0:
448,192,155049,1,2,0:0:0:0:
320,192,155135,1,2,0:0:0:0:
64,192,155221,1,8,0:0:0:0:
192,192,155221,1,0,0:0:0:0:
