osu file format v14

[General]
AudioFilename: nhelv_full_2020remas.mp3
AudioLeadIn: 0
PreviewTime: 66817
Countdown: 0
SampleSet: Soft
StackLeniency: 0.2
Mode: 0
LetterboxInBreaks: 0
WidescreenStoryboard: 1

[Editor]
Bookmarks: 45000,45029,45284,45512,45711,45853,46137,46478,46819,47161,47502,47843,48184,48525,48752,48951,49378,49605,49804,50145,50572,50998,51425,51766,52107,52448,52789,53045,53550,53891,54317,54743,55120,55575,55774,55973,56200,56371,56826,57195,57558,57906,58275,58645,58986,59327,59668,60031,60308,60379,60720,60884,61090,61431,61800,62085,62419,62795,63136,63449,63790,64131,64473,64807,65098,65439,65809,66832,67003,67202,67600,67962,68310,68680,69021,69390,69703,70073,70414,70812,71210,71579,71920,72318,72688,73079,73370,73740,74081,74365,74706,75076,75417,75786,76099,76469,76810,77172,77549,77862,78203,78544,78913,79226,79560,79880,80242,80591,80925,81273,81642,81955,82268,82552,82886,83227,83568,83917,84286,84627,84997,85338,85700,86041,86383,86702,87043,87385,87726,88010,88351,88664,132356,132434,132669,132953,133237,133521,133799,134090,134346,134651,134971,135199,135504,135852,136222,136591,136904,137274,137643,137785,140514,140685,140941,141111,141367,141623,141794,142049,142305,142561,142732,143073,143414,143584,143698,144039,144437,144800,145141,145489,145915,146143,146342,146711,146996,147024,147401,147422,147785,148104,148467,148701,151430,151459,151771,152049,152340,152624,152909,153221,153534,153875,154159,241487,241515,241913,242275,242617,242936,243306,243675,243960,244073,244358,244557,244727,244898,245125,245438,245772,246092,246454,246881,247222,247513,247826,248160,248480,248792,249077,249389,249730,250015,250356,250640,251010,251379,251749,252061,252424,252765,253028,253312,253682,254165,254506,254932,255302,255586,255899,256176,256468,256809,257093,257455,257804,258138,258429,258770,258990,259225,259587,259907,260184,260525,260845,261130,261471,261840,262181,262551,262636,263660,263688,263887,264313,264711,265052,265450,265735,266069,266360,266730,267014,267327,267725,268009,268371,268691,269061,269402,269736,270084,270425,270759,271079,271392,271783,272124,272443,272785,273154,273495,273836,274206,274490,274860,275236,275514,275833,276111,276388,276665,276942,277198,277518,277773,278051,278306,278562,278861,279159,279436,279692,279991,280289,280566,280865,281142,281398,281632,281910,282165,282443,282698,282976,283253,283509,283807,284127,285150,285179,285548,285918,286280,286657,286970,287339,287730,288107,288448,288760,289094,289443,289784,290125,290459,290757,290807,291120,291177,291482,291823,292172,292513,292882,293195,293565,293877,294247,294552,294901,295242,295576,295924,296066,296322,296684,296976,297317,297708,297999,298390,298710,299072,299392,299733,300010,300352,300700,301041,301354,301723,302093,302462,302775,303080,303400,303741,304083,304445,304822,305163,305504,305873,306158,306492,306812,307011
DistanceSpacing: 1.5
BeatDivisor: 4
GridSize: 32
TimelineZoom: 4.700003

[Metadata]
Title:Nhelv
TitleUnicode:Nhelv
Artist:Silentroom
ArtistUnicode:Silentroom
Creator:Fisky
Version:Frustrated
Source:Arcaea
Tags:Long Full Ver Version Rainbow Frontier 2020 Remaster dnb drum'n'bass neurostep neurofunk electronic instrumental memory waves slrm-0002 2 minutes works KATASTROPHE fa featured artist BOFU BOFU2017 SDVX VW 5 SOUND VOLTEX VIVID WAVE CHUNITHM THE BMS OF FIGHTERS ULTIMATE 2017 -LEGENDA EST A MYTH-
BeatmapID:2932798
BeatmapSetID:1424120

[Difficulty]
HPDrainRate:4.6
CircleSize:4
OverallDifficulty:8.7
ApproachRate:9.7
SliderMultiplier:3.00000000596047
SliderTickRate:1

[Events]
//Background and Video events
0,0,"nhelv bg.jpg",0,0
//Break Periods
2,110696,118824
//Storyboard Layer 0 (Background)
//Storyboard Layer 1 (Fail)
//Storyboard Layer 2 (Pass)
//Storyboard Layer 3 (Foreground)
//Storyboard Layer 4 (Overlay)
//Storyboard Sound Samples

[TimingPoints]
1337,341.122292341805,4,2,1,40,1,0
1337,-439.56043956044,4,2,1,40,0,0
9438,-439.56043956044,4,2,1,5,0,0
9523,-114.942528735632,4,2,1,40,0,0
12166,-114.942528735632,4,2,1,5,0,0
12252,-333.333333333333,4,2,2,40,0,0
22827,-333.333333333333,4,2,2,50,0,0
23168,-100,4,2,1,50,0,0
23423,-100,4,2,1,5,0,0
23509,-133.333333333333,4,2,2,50,0,0
24021,-133.333333333333,4,2,1,50,0,0
24192,-133.333333333333,4,2,2,50,0,0
24533,-200,4,2,1,50,0,0
24788,-200,4,2,1,5,0,0
24874,-133.333333333333,4,2,2,50,0,0
25386,-133.333333333333,4,2,1,50,0,0
25556,-133.333333333333,4,2,2,50,0,0
25897,-200,4,2,1,50,0,0
26152,-200,4,2,1,5,0,0
26238,-133.333333333333,4,2,2,50,0,0
26493,-133.333333333333,4,2,2,5,0,0
26580,-133.333333333333,4,2,2,50,0,0
26750,-133.333333333333,4,2,1,50,0,0
26921,-133.333333333333,4,2,2,50,0,0
27262,-200,4,2,1,50,0,0
27517,-200,4,2,1,5,0,0
27603,-133.333333333333,4,2,2,50,0,0
27859,-133.333333333333,4,2,1,50,0,0
28285,-133.333333333333,4,2,2,50,0,0
28456,-133.333333333333,4,2,1,50,0,0
28626,-200,4,2,1,50,0,0
28881,-200,4,2,1,5,0,0
28967,-133.333333333333,4,2,2,50,0,0
29479,-133.333333333333,4,2,1,50,0,0
29650,-133.333333333333,4,2,2,50,0,0
29820,-133.333333333333,4,2,1,50,0,0
29991,-200,4,2,1,50,0,0
30246,-200,4,2,1,5,0,0
30332,-133.333333333333,4,2,2,50,0,0
30844,-133.333333333333,4,2,1,50,0,0
31014,-133.333333333333,4,2,2,50,0,0
31355,-200,4,2,1,50,0,0
31610,-200,4,2,1,5,0,0
31696,-133.333333333333,4,2,2,50,0,0
31951,-133.333333333333,4,2,2,5,0,0
32038,-133.333333333333,4,2,2,50,0,0
32208,-133.333333333333,4,2,1,50,0,0
32379,-133.333333333333,4,2,2,50,0,0
32549,-133.333333333333,4,2,1,50,0,0
32720,-133.333333333333,4,2,9,50,0,0
33061,-33.3333333333333,4,2,30,70,0,0
33231,-33.3333333333333,4,2,1,5,0,0
33317,-50,4,2,30,70,0,0
33402,-50,4,2,1,5,0,0
33487,-100,4,2,30,70,0,0
33572,-100,4,2,1,5,0,0
33658,-100,4,2,30,70,0,0
33743,-66.6666666666667,4,2,30,70,0,0
33998,-66.6666666666667,4,2,1,5,0,0
34084,-66.6666666666667,4,2,5,70,0,0
34170,-133.333333333333,4,2,5,70,0,0
35534,-111.111111111111,4,2,5,70,0,0
36898,-95.2380952380952,4,2,5,70,0,0
38263,-83.3333333333333,4,2,5,70,0,0
39542,-50,4,2,1,70,0,0
39627,-50,4,2,1,5,0,0
39713,-133.333333333333,4,2,1,70,0,0
39798,-133.333333333333,4,2,1,5,0,0
39883,-50,4,2,1,70,0,0
39968,-50,4,2,1,5,0,0
40054,-133.333333333333,4,2,1,70,0,0
40139,-133.333333333333,4,2,1,5,0,0
40224,-45.4545454545455,4,2,1,70,0,0
40309,-45.4545454545455,4,2,1,5,0,0
40395,-133.333333333333,4,2,1,70,0,0
40480,-133.333333333333,4,2,1,5,0,0
40566,-45.4545454545455,4,2,1,70,0,0
40651,-45.4545454545455,4,2,1,5,0,0
40736,-133.333333333333,4,2,1,70,0,0
40821,-133.333333333333,4,2,1,5,0,0
40907,-41.6666666666667,4,2,1,70,0,0
40992,-41.6666666666667,4,2,1,5,0,0
41077,-133.333333333333,4,2,1,70,0,0
41162,-133.333333333333,4,2,1,5,0,0
41248,-41.6666666666667,4,2,1,70,0,0
41333,-41.6666666666667,4,2,1,5,0,0
41418,-133.333333333333,4,2,1,70,0,0
41503,-133.333333333333,4,2,1,5,0,0
41589,-38.4615384615385,4,2,1,70,0,0
41674,-38.4615384615385,4,2,1,5,0,0
41759,-133.333333333333,4,2,1,70,0,0
41844,-133.333333333333,4,2,1,5,0,0
41930,-38.4615384615385,4,2,1,70,0,0
42015,-38.4615384615385,4,2,1,5,0,0
42101,-133.333333333333,4,2,1,70,0,0
42186,-133.333333333333,4,2,1,5,0,0
42271,-133.333333333333,4,2,1,80,0,0
43636,-133.333333333333,4,2,9,80,0,0
43849,-133.333333333333,4,2,1,60,0,0
43977,-100,4,2,1,60,0,0
44105,-79.9999999999999,4,2,1,60,0,0
44318,-58.8235294117647,4,2,9,70,0,0
44914,-58.8235294117647,4,2,1,5,0,0
45000,-166.666666666667,4,2,1,80,0,0
45597,-166.666666666667,4,2,2,80,0,0
45768,-166.666666666667,4,2,5,80,0,0
46024,-55.5555555555556,4,2,1,80,0,0
46279,-55.5555555555556,4,2,2,80,0,0
46365,-250.000000000001,4,2,1,80,0,0
46535,-66.6666666666667,4,2,1,80,0,0
46706,-133.333333333333,4,2,1,80,0,0
47047,-100,4,2,2,80,0,0
47217,-100,4,2,5,80,0,0
47388,-100,4,2,1,80,0,0
47559,-100,4,2,2,80,0,0
47729,-100,4,2,1,80,0,0
48070,-40,4,2,1,80,0,0
48497,-40,4,2,5,80,0,0
48752,-40,4,2,1,80,0,0
49094,-166.666666666667,4,2,1,80,0,0
49264,-166.666666666667,4,2,2,80,0,0
49349,-166.666666666667,4,2,1,80,0,0
49435,-33.3333333333333,4,2,1,80,0,0
49691,-40,4,2,1,80,0,0
50117,-50,4,2,10,80,0,0
50159,-50,4,2,10,5,0,0
50202,-50,4,2,10,80,0,0
50244,-50,4,2,10,5,0,0
50288,-50,4,2,10,80,0,0
50330,-50,4,2,10,5,0,0
50373,-50,4,2,10,80,0,0
50415,-50,4,2,10,5,0,0
50458,-100,4,2,10,80,0,0
50713,-100,4,2,1,80,0,0
50970,-50,4,2,1,80,0,0
51226,-133.333333333333,4,2,5,80,0,0
51481,-66.6666666666667,4,2,1,80,0,0
51823,-50,4,2,1,80,0,0
52078,-50,4,2,2,80,0,0
52164,-133.333333333333,4,2,1,80,0,0
52334,-133.333333333333,4,2,2,80,0,0
52420,-40,4,2,2,80,0,0
52675,-133.333333333333,4,2,5,80,0,0
52846,-66.6666666666667,4,2,1,80,0,0
53187,-50,4,2,1,80,0,0
53528,-100,4,2,1,80,0,0
53955,-66.6666666666667,4,2,5,80,0,0
54210,-50,4,2,1,80,0,0
54552,-200,4,2,1,80,0,0
55319,-200,4,2,5,80,0,0
55490,-200,4,2,1,80,0,0
55916,-40,4,2,1,80,0,0
56513,-66.6666666666667,4,2,1,80,0,0
56684,-66.6666666666667,4,2,5,80,0,0
56939,-66.6666666666667,4,2,1,80,0,0
57195,-66.6666666666667,4,2,2,80,0,0
57281,-100,4,2,1,80,0,0
57451,-100,4,2,2,80,0,0
57536,-100,4,2,1,80,0,0
58133,-100,4,2,5,80,0,0
58304,-100,4,2,1,80,0,0
58645,-50,4,2,1,80,0,0
58986,-76.9230769230769,4,2,1,80,0,0
59413,-76.9230769230769,4,2,5,80,0,0
59668,-76.9230769230769,4,2,1,80,0,0
59924,-76.9230769230769,4,2,2,80,0,0
60010,-76.9230769230769,4,2,1,80,0,0
60180,-76.9230769230769,4,2,2,80,0,0
60265,-76.9230769230769,4,2,1,80,0,0
60777,-133.333333333333,4,2,5,80,0,0
60948,-133.333333333333,4,2,1,80,0,0
61033,-50,4,2,10,80,0,0
61075,-50,4,2,10,5,0,0
61118,-50,4,2,10,80,0,0
61160,-50,4,2,10,5,0,0
61203,-50,4,2,10,80,0,0
61245,-50,4,2,10,5,0,0
61289,-50,4,2,10,80,0,0
61331,-50,4,2,10,5,0,0
61374,-66.6666666666667,4,2,10,80,0,0
61629,-66.6666666666667,4,2,1,80,0,0
61715,-40,4,2,1,80,0,0
61971,-50,4,2,1,80,0,0
62142,-50,4,2,5,80,0,0
62397,-200,4,2,1,80,0,0
62739,-76.9230769230769,4,2,1,80,0,0
62994,-90.9090909090909,4,2,1,80,0,0
63250,-58.8235294117647,4,2,1,80,0,0
64103,-166.666666666667,4,2,1,80,0,0
64188,-166.666666666667,4,2,2,80,0,0
64444,-66.6666666666667,4,2,1,80,0,0
64615,-33.3333333333333,4,2,1,80,0,0
64871,-40,4,2,5,80,0,0
65126,-66.6666666666667,4,2,1,80,0,0
65467,-100,4,2,1,80,0,0
66150,-25,4,2,30,80,0,0
66192,-25,4,2,1,5,0,0
66235,-50,4,2,31,80,0,0
66277,-50,4,2,1,5,0,0
66320,-25,4,2,30,80,0,0
66362,-25,4,2,1,5,0,0
66406,-50,4,2,31,80,0,0
66448,-50,4,2,1,5,0,0
66491,-25,4,2,30,80,0,0
66533,-25,4,2,1,5,0,0
66576,-50,4,2,31,80,0,0
66618,-50,4,2,1,5,0,0
66661,-25,4,2,30,80,0,0
66703,-25,4,2,1,5,0,0
66747,-50,4,2,31,80,0,0
66789,-50,4,2,1,5,0,0
66832,-50,4,2,1,80,0,0
67173,-58.8235294117647,4,2,3,80,0,0
67429,-200,4,2,3,80,0,0
67600,-83.3333333333333,4,2,5,80,0,0
67855,-66.6666666666667,4,2,5,80,0,0
68111,-66.6666666666667,4,2,2,80,0,0
68196,-100,4,2,1,80,0,0
68367,-100,4,2,2,80,0,0
68452,-100,4,2,1,80,0,0
68538,-100,4,2,3,80,0,0
68708,-200,4,2,3,80,0,0
69049,-200,4,2,5,80,0,0
69220,-100,4,2,5,80,0,0
69390,-100,4,2,1,80,0,0
69561,-66.6666666666667,4,2,1,80,0,0
69817,-66.6666666666667,4,2,2,80,0,0
69902,-66.6666666666667,4,2,3,80,0,0
70243,-100,4,2,3,80,0,0
70328,-100,4,2,5,80,0,0
70584,-66.6666666666667,4,2,5,80,0,0
70840,-66.6666666666667,4,2,2,80,0,0
70925,-100,4,2,3,80,0,0
71096,-100,4,2,2,80,0,0
71181,-100,4,2,1,80,0,0
71267,-66.6666666666667,4,2,3,80,0,0
71608,-100,4,2,3,80,0,0
71693,-100,4,2,5,80,0,0
71864,-100,4,2,1,80,0,0
71949,-100,4,2,3,80,0,0
72119,-100,4,2,2,80,0,0
72290,-100,4,2,3,80,0,0
72631,-66.6666666666667,4,2,3,80,0,0
72887,-66.6666666666667,4,2,2,80,0,0
72972,-100,4,2,2,80,0,0
73057,-100,4,2,5,80,0,0
73313,-66.6666666666667,4,2,5,80,0,0
73654,-133.333333333333,4,2,1,80,0,0
73825,-133.333333333333,4,2,2,80,0,0
73910,-133.333333333333,4,2,1,80,0,0
73996,-66.6666666666667,4,2,3,80,0,0
74251,-100,4,2,3,80,0,0
74507,-200,4,2,5,80,0,0
74678,-66.6666666666667,4,2,5,80,0,0
74848,-66.6666666666667,4,2,1,80,0,0
75019,-100,4,2,1,80,0,0
75360,-66.6666666666667,4,2,3,80,0,0
75701,-100,4,2,3,80,0,0
75786,-100,4,2,5,80,0,0
76042,-66.6666666666667,4,2,5,80,0,0
76298,-66.6666666666667,4,2,2,80,0,0
76383,-66.6666666666667,4,2,1,80,0,0
76554,-66.6666666666667,4,2,2,80,0,0
76639,-66.6666666666667,4,2,1,80,0,0
76725,-66.6666666666667,4,2,3,80,0,0
77151,-66.6666666666667,4,2,5,80,0,0
77321,-66.6666666666667,4,2,1,80,0,0
77407,-40,4,2,3,80,0,0
77449,-40,4,2,3,5,0,0
77492,-37.037037037037,4,2,3,80,0,0
77534,-37.037037037037,4,2,3,5,0,0
77577,-34.4827586206897,4,2,3,80,0,0
77619,-34.4827586206897,4,2,3,5,0,0
77663,-32.258064516129,4,2,3,80,0,0
77705,-32.258064516129,4,2,3,5,0,0
77748,-66.6666666666667,4,2,1,80,0,0
78089,-66.6666666666667,4,2,3,80,0,0
78515,-66.6666666666667,4,2,5,80,0,0
79027,-66.6666666666667,4,2,2,80,0,0
79112,-66.6666666666667,4,2,1,80,0,0
79283,-66.6666666666667,4,2,2,80,0,0
79368,-66.6666666666667,4,2,1,80,0,0
79454,-66.6666666666667,4,2,3,80,0,0
79709,-100,4,2,3,80,0,0
79965,-200,4,2,5,80,0,0
80306,-200,4,2,1,80,0,0
80477,-66.6666666666667,4,2,1,80,0,0
80818,-66.6666666666667,4,2,3,80,0,0
81244,-66.6666666666667,4,2,5,80,0,0
81756,-66.6666666666667,4,2,2,80,0,0
81841,-66.6666666666667,4,2,1,80,0,0
82012,-66.6666666666667,4,2,2,80,0,0
82097,-66.6666666666667,4,2,1,80,0,0
82182,-66.6666666666667,4,2,3,80,0,0
82609,-66.6666666666667,4,2,5,80,0,0
82779,-66.6666666666667,4,2,1,80,0,0
82865,-66.6666666666667,4,2,3,80,0,0
83973,-66.6666666666667,4,2,5,80,0,0
84485,-66.6666666666667,4,2,2,80,0,0
84570,-66.6666666666667,4,2,1,80,0,0
84741,-66.6666666666667,4,2,2,80,0,0
84826,-66.6666666666667,4,2,1,80,0,0
84911,-66.6666666666667,4,2,3,80,0,0
85167,-100,4,2,3,80,0,0
85423,-200,4,2,5,80,0,0
85764,-200,4,2,1,80,0,0
85935,-66.6666666666667,4,2,1,80,0,0
86276,-66.6666666666667,4,2,3,80,0,0
86702,-66.6666666666667,4,2,5,80,0,0
87214,-200,4,2,2,80,0,0
87299,-200,4,2,1,80,0,0
87470,-200,4,2,2,80,0,0
87555,-200,4,2,1,80,0,0
87640,-200,4,2,3,80,0,0
87982,-50,4,2,3,80,0,0
88024,-50,4,2,3,5,0,0
88067,-50,4,2,3,80,0,0
88109,-50,4,2,3,5,0,0
88152,-50,4,2,3,80,0,0
88194,-50,4,2,3,5,0,0
88237,-50,4,2,3,80,0,0
88279,-50,4,2,3,5,0,0
88323,-28.5714285714286,4,2,3,80,0,0
88365,-28.5714285714286,4,2,3,5,0,0
88408,-28.5714285714286,4,2,3,80,0,0
88450,-28.5714285714286,4,2,3,5,0,0
88493,-28.5714285714286,4,2,3,80,0,0
88535,-28.5714285714286,4,2,3,5,0,0
88579,-28.5714285714286,4,2,3,80,0,0
88621,-28.5714285714286,4,2,3,5,0,0
88664,-200,4,2,3,70,0,0
90540,-333.333333333333,4,2,3,60,0,0
90625,-333.333333333333,4,2,3,5,0,0
90711,-153.846153846153,4,2,3,60,0,0
90966,-153.846153846153,4,2,3,5,0,0
91052,-153.846153846153,4,2,21,60,0,0
91393,-153.846153846153,4,2,20,60,0,0
92075,-333.333333333333,4,2,1,60,0,0
92757,-250,4,2,1,60,0,0
93440,-142.857142857143,4,2,1,60,0,0
94122,-250,4,2,21,60,0,0
94804,-238.095238095238,4,2,1,60,0,0
95998,-333.333333333333,4,2,1,60,0,0
96083,-333.333333333333,4,2,1,5,0,0
96168,-153.846153846153,4,2,1,60,0,0
96423,-153.846153846153,4,2,1,5,0,0
96510,-153.846153846153,4,2,20,60,0,0
96851,-333.333333333333,4,2,21,60,0,0
97533,-250,4,2,1,60,0,0
98215,-200,4,2,1,60,0,0
98386,-142.857142857143,4,2,1,60,0,0
98556,-111.111111111111,4,2,1,60,0,0
98727,-90.9090909090909,4,2,1,60,0,0
99580,-76.9230769230769,4,2,5,70,0,0
100603,-133.333333333333,4,2,5,70,0,0
101285,-111.111111111111,4,2,5,70,0,0
101968,-95.2380952380952,4,2,5,70,0,0
102309,-66.6666666666667,4,2,5,70,0,0
103332,-62.5,4,2,5,70,0,0
104014,-52.6315789473684,4,2,5,70,0,0
104697,-66.6666666666667,4,2,5,70,0,0
105038,-50,4,2,7,70,0,0
105123,-50,4,2,1,5,0,0
105208,-133.333333333333,4,2,1,70,0,0
105293,-133.333333333333,4,2,1,5,0,0
105379,-50,4,2,1,70,0,0
105464,-50,4,2,1,5,0,0
105549,-133.333333333333,4,2,1,70,0,0
105634,-133.333333333333,4,2,1,5,0,0
105720,-45.4545454545455,4,2,1,70,0,0
105805,-45.4545454545455,4,2,1,5,0,0
105890,-133.333333333333,4,2,1,70,0,0
105975,-133.333333333333,4,2,1,5,0,0
106061,-45.4545454545455,4,2,1,70,0,0
106146,-45.4545454545455,4,2,1,5,0,0
106232,-133.333333333333,4,2,1,70,0,0
106317,-133.333333333333,4,2,1,5,0,0
106402,-41.6666666666667,4,2,1,70,0,0
106487,-41.6666666666667,4,2,1,5,0,0
106573,-133.333333333333,4,2,1,70,0,0
106658,-133.333333333333,4,2,1,5,0,0
106743,-41.6666666666667,4,2,1,70,0,0
106828,-41.6666666666667,4,2,1,5,0,0
106914,-133.333333333333,4,2,1,70,0,0
106999,-133.333333333333,4,2,1,5,0,0
107084,-38.4615384615385,4,2,1,70,0,0
107169,-38.4615384615385,4,2,1,5,0,0
107255,-133.333333333333,4,2,1,70,0,0
107340,-133.333333333333,4,2,1,5,0,0
107426,-38.4615384615385,4,2,1,70,0,0
107511,-38.4615384615385,4,2,1,5,0,0
107596,-133.333333333333,4,2,1,70,0,0
107681,-133.333333333333,4,2,1,5,0,0
107767,-133.333333333333,4,2,1,80,0,0
109131,-399.999999999997,4,2,9,80,0,0
109173,-399.999999999997,4,2,3,70,0,0
109813,-86.9565217391304,4,2,80,60,0,0
110452,-86.9565217391304,4,2,1,5,0,0
110496,-86.9565217391304,4,2,3,60,0,0
120047,-166.666666666667,4,2,3,50,0,0
120729,-166.666666666667,4,2,3,60,0,0
121412,-76.9230769230769,4,2,5,70,0,0
122435,-133.333333333333,4,2,5,70,0,0
123117,-111.111111111111,4,2,5,70,0,0
123458,-83.3333333333333,4,2,5,70,0,0
123799,-95.2380952380952,4,2,5,70,0,0
124141,-66.6666666666667,4,2,5,70,0,0
125164,-62.5,4,2,5,70,0,0
125846,-52.6315789473684,4,2,5,70,0,0
126528,-66.6666666666667,4,2,5,70,0,0
126870,-50,4,2,1,70,0,0
126955,-50,4,2,1,5,0,0
127040,-133.333333333333,4,2,1,70,0,0
127125,-133.333333333333,4,2,1,5,0,0
127211,-50,4,2,1,70,0,0
127296,-50,4,2,1,5,0,0
127381,-133.333333333333,4,2,1,70,0,0
127466,-133.333333333333,4,2,1,5,0,0
127552,-45.4545454545455,4,2,1,70,0,0
127637,-45.4545454545455,4,2,1,5,0,0
127722,-133.333333333333,4,2,1,70,0,0
127807,-133.333333333333,4,2,1,5,0,0
127893,-45.4545454545455,4,2,1,70,0,0
127978,-45.4545454545455,4,2,1,5,0,0
128063,-133.333333333333,4,2,1,70,0,0
128148,-133.333333333333,4,2,1,5,0,0
128234,-41.6666666666667,4,2,1,70,0,0
128319,-41.6666666666667,4,2,1,5,0,0
128405,-133.333333333333,4,2,1,70,0,0
128490,-133.333333333333,4,2,1,5,0,0
128575,-41.6666666666667,4,2,1,70,0,0
128660,-41.6666666666667,4,2,1,5,0,0
128746,-133.333333333333,4,2,1,70,0,0
128831,-133.333333333333,4,2,1,5,0,0
128916,-38.4615384615385,4,2,1,70,0,0
129001,-38.4615384615385,4,2,1,5,0,0
129087,-133.333333333333,4,2,1,70,0,0
129172,-133.333333333333,4,2,1,5,0,0
129257,-38.4615384615385,4,2,1,70,0,0
129342,-38.4615384615385,4,2,1,5,0,0
129428,-133.333333333333,4,2,1,70,0,0
129513,-133.333333333333,4,2,1,5,0,0
129598,-133.333333333333,4,2,1,80,0,0
130963,-133.333333333333,4,2,9,80,0,0
131176,-133.333333333333,4,2,1,60,0,0
131261,-133.333333333333,4,2,1,5,0,0
131304,-100,4,2,1,60,0,0
131389,-100,4,2,1,5,0,0
131432,-79.9999999999999,4,2,1,60,0,0
131645,-47.6190476190476,4,2,9,60,0,0
132241,-47.6190476190476,4,2,1,5,0,0
132327,-53.475935828877,4,2,50,100,0,1
134545,-53.475935828877,4,2,50,80,0,0
134715,-53.475935828877,4,2,3,80,0,0
134886,-53.475935828877,4,2,2,80,0,0
135056,-76.9230769230769,4,2,1,80,0,0
135312,-76.9230769230769,4,2,2,80,0,0
135398,-27.027027027027,4,2,3,80,0,0
135568,-27.027027027027,4,2,2,80,0,0
135824,-76.9230769230769,4,2,5,80,0,0
136080,-62.5,4,2,5,80,0,0
136336,-62.5,4,2,2,80,0,0
136421,-166.666666666667,4,2,1,80,0,0
136591,-166.666666666667,4,2,2,80,0,0
136677,-166.666666666667,4,2,1,80,0,0
136762,-33.3333333333333,4,2,3,80,0,0
137018,-40,4,2,3,80,0,0
137188,-40,4,2,5,80,0,0
137274,-40,4,2,2,80,0,0
137359,-40,4,2,1,80,0,0
137444,-40,4,2,3,60,0,0
137615,-40,4,2,3,80,0,0
137785,-333.333333333333,4,2,9,60,0,0
138296,-333.333333333333,4,2,1,5,0,0
138382,-333.333333333333,4,2,2,60,0,0
138468,-500,4,2,2,60,0,0
138979,-500,4,2,1,60,0,0
139747,-500,4,2,2,60,0,0
140003,-500,4,2,5,60,0,0
140344,-500,4,2,2,60,0,0
140514,-66.6666666666667,4,2,1,80,0,0
140856,-133.333333333333,4,2,1,80,0,0
141197,-105.263157894737,4,2,1,80,0,0
141282,-105.263157894737,4,2,5,80,0,0
141794,-105.263157894737,4,2,2,80,0,0
141879,-105.263157894737,4,2,1,80,0,0
142049,-105.263157894737,4,2,2,80,0,0
142135,-105.263157894737,4,2,1,80,0,0
142391,-105.263157894737,4,2,2,80,0,0
142561,-50,4,2,2,80,0,0
142603,-50,4,2,2,5,0,0
142646,-50,4,2,5,80,0,0
142688,-50,4,2,5,5,0,0
142732,-50,4,2,5,80,0,0
142774,-50,4,2,5,5,0,0
142817,-50,4,2,2,80,0,0
142859,-50,4,2,2,5,0,0
142902,-28.5714285714286,4,2,2,80,0,0
142944,-28.5714285714286,4,2,2,5,0,0
142988,-28.5714285714286,4,2,2,80,0,0
143030,-28.5714285714286,4,2,2,5,0,0
143073,-28.5714285714286,4,2,2,80,0,0
143115,-28.5714285714286,4,2,2,5,0,0
143158,-28.5714285714286,4,2,2,80,0,0
143200,-28.5714285714286,4,2,2,5,0,0
143243,-133.333333333333,4,2,1,80,0,0
143584,-41.6666666666667,4,2,3,80,0,0
143839,-41.6666666666667,4,2,2,80,0,0
143926,-50,4,2,2,80,0,0
144011,-50,4,2,5,80,0,0
144523,-50,4,2,2,80,0,0
144608,-100,4,2,1,80,0,0
144778,-100,4,2,2,80,0,0
144864,-100,4,2,1,80,0,0
144949,-83.3333333333333,4,2,3,80,0,0
145120,-83.3333333333333,4,2,2,80,0,0
145205,-133.333333333333,4,2,2,80,0,0
145461,-50,4,2,5,80,0,0
145717,-55.5555555555556,4,2,5,80,0,0
145802,-55.5555555555556,4,2,2,80,0,0
145972,-62.5,4,2,1,80,0,0
146228,-62.5,4,2,2,80,0,0
146313,-50,4,2,3,80,0,0
146484,-50,4,2,2,80,0,0
146569,-66.6666666666667,4,2,2,80,0,0
146740,-133.333333333333,4,2,5,80,0,0
146996,-76.9230769230769,4,2,5,80,0,0
147252,-76.9230769230769,4,2,2,80,0,0
147337,-62.5,4,2,1,80,0,0
147678,-62.5,4,2,3,80,0,0
147849,-62.5,4,2,2,80,0,0
147934,-133.333333333333,4,2,2,80,0,0
148104,-133.333333333333,4,2,5,80,0,0
148275,-133.333333333333,4,2,2,80,0,0
148360,-133.333333333333,4,2,3,80,0,0
148701,-133.333333333333,4,2,8,80,0,0
149042,-399.999999999997,4,2,3,50,0,0
149297,-399.999999999997,4,2,3,5,0,0
149384,-200,4,2,2,50,0,0
149639,-200,4,2,2,5,0,0
149725,-399.999999999997,4,2,3,50,0,0
149980,-399.999999999997,4,2,3,5,0,0
150066,-100,4,2,8,50,0,0
150321,-100,4,2,1,5,0,0
150407,-399.999999999997,4,2,3,50,0,0
150662,-399.999999999997,4,2,3,5,0,0
150748,-200,4,2,2,50,0,0
151003,-200,4,2,2,5,0,0
151089,-399.999999999997,4,2,3,50,0,0
151430,-100,4,2,5,60,0,0
151600,-100,4,2,5,5,0,0
151686,-100,4,2,5,60,0,0
151856,-100,4,2,5,5,0,0
151942,-100,4,2,5,60,0,0
152112,-100,4,2,5,5,0,0
152198,-100,4,2,5,60,0,0
152368,-100,4,2,5,5,0,0
152454,-100,4,2,5,60,0,0
152624,-100,4,2,5,5,0,0
152710,-100,4,2,5,60,0,0
152880,-100,4,2,3,70,0,0
152922,-100,4,2,3,5,0,0
152965,-100,4,2,3,70,0,0
153007,-100,4,2,3,5,0,0
153051,-100,4,2,3,70,0,0
153093,-100,4,2,3,5,0,0
153136,-50,4,2,3,70,0,0
153178,-50,4,2,3,5,0,0
153221,-50,4,2,3,70,0,0
153263,-50,4,2,3,5,0,0
153306,-50,4,2,3,70,0,0
153348,-50,4,2,3,5,0,0
153392,-50,4,2,3,70,0,0
153434,-50,4,2,3,5,0,0
153477,-33.3333333333333,4,2,3,80,0,0
153519,-33.3333333333333,4,2,3,5,0,0
153562,-33.3333333333333,4,2,3,80,0,0
153604,-33.3333333333333,4,2,3,5,0,0
153648,-33.3333333333333,4,2,3,80,0,0
153690,-33.3333333333333,4,2,3,5,0,0
153733,-33.3333333333333,4,2,3,80,0,0
153775,-33.3333333333333,4,2,3,5,0,0
153818,-25,4,2,3,90,0,0
153860,-25,4,2,3,5,0,0
153903,-25,4,2,3,90,0,0
153945,-25,4,2,3,5,0,0
153989,-25,4,2,3,90,0,0
154031,-25,4,2,3,5,0,0
154074,-25,4,2,3,90,0,0
154116,-25,4,2,3,5,0,0
154159,-439.56043956044,4,2,3,40,0,0
162260,-439.56043956044,4,2,3,5,0,0
162346,-114.942528735632,4,2,3,40,0,0
164989,-114.942528735632,4,2,3,5,0,0
165075,-333.333333333333,4,2,2,40,0,0
175991,-418.410041841004,4,2,9,40,0,0
197738,-414.9377593361,4,2,3,5,0,0
197823,-83.3333333333333,4,2,21,50,0,0
198335,-250,4,2,21,50,0,0
200211,-250,4,2,20,50,0,0
200552,-250,4,2,21,50,0,0
201234,-333.333333333333,4,2,1,50,0,0
201916,-250,4,2,1,50,0,0
202940,-142.857142857143,4,2,20,50,0,0
203195,-142.857142857143,4,2,20,5,0,0
203281,-250,4,2,1,50,0,0
203707,-250,4,2,1,5,0,0
203793,-250,4,2,21,50,0,0
203963,-238.095238095238,4,2,1,50,0,0
205157,-333.333333333333,4,2,1,50,0,0
205242,-333.333333333333,4,2,1,5,0,0
205328,-153.846153846153,4,2,1,50,0,0
205583,-153.846153846153,4,2,1,5,0,0
205669,-153.846153846153,4,2,20,50,0,0
205924,-153.846153846153,4,2,20,5,0,0
206010,-333.333333333333,4,2,21,50,0,0
206436,-333.333333333333,4,2,21,5,0,0
206522,-333.333333333333,4,2,21,50,0,0
206692,-250,4,2,1,50,0,0
207288,-250,4,2,1,5,0,0
207374,-250,4,2,1,50,0,0
208739,-111.111111111111,4,2,1,50,0,0
209165,-111.111111111111,4,2,1,5,0,0
209251,-111.111111111111,4,2,21,50,0,0
209421,-142.857142857143,4,2,1,50,0,0
211127,-142.857142857143,4,2,20,50,0,0
211468,-142.857142857143,4,2,21,50,0,0
211894,-142.857142857143,4,2,21,5,0,0
211980,-142.857142857143,4,2,21,50,0,0
212150,-333.333333333333,4,2,1,50,0,0
212832,-250,4,2,1,50,0,0
213856,-142.857142857143,4,2,21,50,0,0
214111,-142.857142857143,4,2,21,5,0,0
214197,-250,4,2,1,50,0,0
214623,-250,4,2,1,5,0,0
214708,-250,4,2,21,50,0,0
214879,-156.25,4,2,1,50,0,0
215732,-166.666666666667,4,2,1,50,0,0
216073,-333.333333333333,4,2,1,50,0,0
216158,-333.333333333333,4,2,1,5,0,0
216244,-153.846153846153,4,2,1,50,0,0
216499,-153.846153846153,4,2,1,5,0,0
216585,-153.846153846154,4,2,20,50,0,0
216840,-153.846153846154,4,2,20,5,0,0
216926,-333.333333333333,4,2,21,50,0,0
217352,-333.333333333333,4,2,21,5,0,0
217437,-333.333333333333,4,2,21,50,0,0
217608,-250,4,2,1,50,0,0
218204,-250,4,2,1,5,0,0
218290,-250,4,2,1,50,0,0
219314,-40,4,2,21,60,0,0
219356,-25,4,2,21,5,0,0
219399,-40,4,2,21,60,0,0
219441,-25,4,2,21,5,0,0
219484,-40,4,2,21,60,0,0
219526,-25,4,2,21,5,0,0
219569,-40,4,2,21,60,0,0
219611,-25,4,2,21,5,0,0
219655,-100,4,2,1,60,0,0
219996,-100,4,2,4,60,0,0
220166,-100,4,2,21,60,0,0
220849,-100,4,2,1,60,0,0
221360,-100,4,2,4,60,0,0
221702,-83.3333333333334,4,2,4,60,0,0
221787,-83.3333333333334,4,2,4,5,0,0
221872,-83.3333333333334,4,2,1,60,0,0
222043,-83.3333333333334,4,2,20,60,0,0
222384,-142.857142857143,4,2,21,60,0,0
222639,-142.857142857143,4,2,21,5,0,0
222725,-142.857142857143,4,2,21,60,0,0
223066,-142.857142857143,4,2,4,60,0,0
223151,-142.857142857143,4,2,4,5,0,0
223237,-142.857142857143,4,2,1,60,0,0
223407,-142.857142857143,4,2,4,60,0,0
223578,-142.857142857143,4,2,1,60,0,0
223748,-125,4,2,1,60,0,0
224003,-125,4,2,1,5,0,0
224089,-125,4,2,4,60,0,0
224345,-125,4,2,1,60,0,0
224430,-111.111111111111,4,2,1,60,0,0
224772,-111.111111111111,4,2,20,60,0,0
224857,-111.111111111111,4,2,20,5,0,0
224942,-111.111111111111,4,2,1,60,0,0
225113,-111.111111111111,4,2,21,60,0,0
225368,-111.111111111111,4,2,21,5,0,0
225454,-111.111111111111,4,2,21,60,0,0
225795,-125,4,2,1,60,0,0
225880,-125,4,2,1,5,0,0
225966,-125,4,2,1,60,0,0
226136,-125,4,2,4,60,0,0
226307,-125,4,2,1,60,0,0
226818,-125,4,2,4,60,0,0
227330,-125,4,2,1,60,0,0
227501,-125,4,2,20,60,0,0
227842,-100,4,2,21,60,0,0
228097,-100,4,2,21,5,0,0
228183,-100,4,2,21,60,0,0
228524,-100,4,2,1,60,0,0
228609,-100,4,2,1,5,0,0
228695,-100,4,2,1,60,0,0
228865,-100,4,2,4,60,0,0
229036,-100,4,2,1,60,0,0
229547,-100,4,2,4,60,0,0
229888,-100,4,2,2,60,0,0
229974,-100,4,2,3,60,0,0
230230,-100,4,2,21,60,0,0
230400,-100,4,2,1,60,0,0
230571,-76.9230769230769,4,2,5,70,0,0
231082,-76.9230769230769,4,2,21,70,0,0
231253,-76.9230769230769,4,2,5,70,0,0
231594,-133.333333333333,4,2,5,70,0,0
232276,-111.111111111111,4,2,5,70,0,0
232959,-95.2380952380952,4,2,22,70,0,0
233044,-95.2380952380952,4,2,5,70,0,0
233300,-66.6666666666667,4,2,21,70,0,0
233641,-66.6666666666667,4,2,5,70,0,0
233811,-66.6666666666667,4,2,21,70,0,0
233982,-66.6666666666667,4,2,5,70,0,0
234323,-62.5,4,2,5,70,0,0
235005,-52.6315789473684,4,2,5,70,0,0
235688,-66.6666666666667,4,2,5,70,0,0
236029,-50,4,2,1,70,0,0
236114,-50,4,2,1,5,0,0
236199,-133.333333333333,4,2,1,70,0,0
236284,-133.333333333333,4,2,1,5,0,0
236370,-50,4,2,1,70,0,0
236455,-50,4,2,1,5,0,0
236540,-133.333333333333,4,2,1,70,0,0
236625,-133.333333333333,4,2,1,5,0,0
236711,-45.4545454545455,4,2,1,70,0,0
236796,-45.4545454545455,4,2,1,5,0,0
236881,-133.333333333333,4,2,1,70,0,0
236966,-133.333333333333,4,2,1,5,0,0
237052,-45.4545454545455,4,2,1,70,0,0
237137,-45.4545454545455,4,2,1,5,0,0
237223,-133.333333333333,4,2,1,70,0,0
237308,-133.333333333333,4,2,1,5,0,0
237393,-41.6666666666667,4,2,1,70,0,0
237478,-41.6666666666667,4,2,1,5,0,0
237564,-133.333333333333,4,2,1,70,0,0
237649,-133.333333333333,4,2,1,5,0,0
237734,-41.6666666666667,4,2,1,70,0,0
237819,-41.6666666666667,4,2,1,5,0,0
237905,-133.333333333333,4,2,1,70,0,0
237990,-133.333333333333,4,2,1,5,0,0
238075,-38.4615384615385,4,2,1,70,0,0
238160,-38.4615384615385,4,2,1,5,0,0
238246,-133.333333333333,4,2,1,70,0,0
238331,-133.333333333333,4,2,1,5,0,0
238416,-38.4615384615385,4,2,1,70,0,0
238501,-38.4615384615385,4,2,1,5,0,0
238587,-133.333333333333,4,2,1,70,0,0
238672,-133.333333333333,4,2,1,5,0,0
238758,-133.333333333333,4,2,1,80,0,0
239781,-25,4,2,1,90,0,0
239823,-25,4,2,1,5,0,0
239866,-25,4,2,1,90,0,0
239908,-25,4,2,1,5,0,0
239952,-25,4,2,1,90,0,0
239994,-25,4,2,1,5,0,0
240037,-25,4,2,1,90,0,0
240079,-25,4,2,1,5,0,0
240122,-250,4,2,9,80,0,0
240207,-250,4,2,1,10,0,0
240292,-250,4,2,1,18,0,0
240377,-250,4,2,1,26,0,0
240463,-250,4,2,1,34,0,0
240548,-250,4,2,1,40,0,0
240633,-250,4,2,1,43,0,0
240718,-250,4,2,1,47,0,0
240804,-250,4,2,1,50,0,0
240889,-250,4,2,1,52,0,0
240974,-250,4,2,1,55,0,0
241060,-250,4,2,1,57,0,0
241145,-250,4,2,1,60,0,0
241230,-250,4,2,1,62,0,0
241315,-250,4,2,1,65,0,0
241401,-250,4,2,1,67,0,0
241487,-250,4,2,1,80,0,1
241657,-43.4782608695652,4,2,1,80,0,1
241828,-200,4,2,1,80,0,1
242510,-33.3333333333333,4,2,1,80,0,1
242681,-100,4,2,1,80,0,1
243448,-33.3333333333333,4,2,1,80,0,1
243874,-500,4,2,1,80,0,1
244813,-133.333333333333,4,2,1,80,0,1
245239,-47.6190476190476,4,2,1,80,0,1
245665,-250,4,2,1,80,0,1
246177,-33.3333333333333,4,2,1,80,0,1
246603,-500,4,2,1,80,0,1
247286,-50,4,2,1,80,0,1
247328,-50,4,2,1,5,0,1
247371,-50,4,2,1,80,0,1
247413,-50,4,2,1,5,0,1
247456,-50,4,2,1,80,0,1
247498,-50,4,2,1,5,0,1
247542,-50,4,2,1,80,0,1
247584,-50,4,2,1,5,0,1
247627,-50,4,2,1,80,0,1
248309,-58.8235294117647,4,2,1,80,0,1
248650,-33.3333333333333,4,2,1,80,0,1
248692,-33.3333333333333,4,2,1,5,0,1
248735,-33.3333333333333,4,2,1,80,0,1
248863,-33.3333333333333,4,2,1,5,0,1
248906,-33.3333333333333,4,2,1,80,0,1
249077,-50,4,2,1,80,0,1
249332,-500,4,2,1,80,0,1
250526,-66.6666666666667,4,2,1,80,0,1
250697,-38.4615384615385,4,2,1,80,0,1
251038,-250,4,2,1,80,0,1
251379,-43.4782608695652,4,2,1,80,0,1
251720,-29.4117647058824,4,2,1,80,0,1
251805,-29.4117647058824,4,2,1,5,0,1
251848,-57.1428571428571,4,2,1,80,0,1
251933,-57.1428571428571,4,2,1,5,0,1
251976,-57.1428571428571,4,2,1,80,0,1
252061,-45.4545454545455,4,2,1,80,0,1
252403,-33.3333333333333,4,2,1,80,0,1
253170,-111.111111111111,4,2,1,80,0,1
253767,-66.6666666666667,4,2,1,80,0,1
254790,-43.4782608695652,4,2,1,80,0,1
256496,-500,4,2,1,80,0,1
256837,-33.3333333333333,4,2,1,80,0,1
257093,-66.6666666666667,4,2,1,80,0,1
257946,-33.3333333333333,4,2,1,80,0,1
259225,-500,4,2,1,80,0,1
259907,-66.6666666666667,4,2,1,80,0,1
259949,-66.6666666666667,4,2,1,5,0,1
259992,-66.6666666666667,4,2,1,80,0,1
260248,-500,4,2,1,80,0,1
260589,-66.6666666666667,4,2,1,80,0,1
260931,-133.333333333333,4,2,1,80,0,1
261357,-50,4,2,1,80,0,1
261613,-500,4,2,1,80,0,1
262636,-500,4,2,1,80,0,0
263318,-100,4,2,1,80,0,0
263573,-100,4,2,1,5,0,0
263660,-43.4782608695652,4,2,1,80,0,1
264086,-43.4782608695652,4,2,5,80,0,1
264342,-27.7777777777779,4,2,30,80,0,1
264598,-22.7272727272728,4,2,2,80,0,1
264683,-66.6666666666667,4,2,1,80,0,1
264853,-133.333333333333,4,2,1,80,0,1
265024,-66.6666666666667,4,2,1,80,0,1
265536,-250,4,2,5,80,0,1
265706,-76.9230769230769,4,2,1,80,0,1
265876,-76.9230769230769,4,2,2,80,0,1
266047,-50,4,2,1,80,0,1
266303,-50,4,2,2,80,0,1
266389,-50,4,2,1,80,0,1
266559,-250,4,2,1,80,0,1
266815,-66.6666666666667,4,2,5,80,0,1
267327,-66.6666666666667,4,2,2,80,0,1
267412,-100,4,2,1,80,0,1
267753,-50,4,2,1,80,0,1
267924,-40,4,2,1,80,0,1
267938,-40,4,2,30,80,0,1
268179,-40,4,2,5,80,0,1
268350,-40,4,2,1,80,0,1
268435,-50,4,2,10,80,0,1
268477,-50,4,2,10,5,0,1
268521,-50,4,2,10,80,0,1
268563,-50,4,2,10,5,0,1
268606,-50,4,2,10,80,0,1
268648,-50,4,2,10,5,0,1
268691,-50,4,2,10,80,0,1
268733,-50,4,2,10,5,0,1
268776,-500,4,2,10,80,0,1
269031,-500,4,2,1,80,0,1
269117,-29.4117647058824,4,2,1,80,0,1
269133,-29.4117647058824,4,2,30,80,0,1
269330,-29.4117647058824,4,2,3,5,0,1
269373,-200,4,2,3,80,0,1
269544,-200,4,2,30,80,0,1
269800,-133.333333333333,4,2,1,80,0,1
270056,-133.333333333333,4,2,2,80,0,1
270141,-133.333333333333,4,2,1,80,0,1
270397,-133.333333333333,4,2,2,80,0,1
270482,-133.333333333333,4,2,1,80,0,1
270738,-100,4,2,1,80,0,1
270994,-100,4,2,5,80,0,1
271164,-43.4782608695652,4,2,1,80,0,1
271846,-50,4,2,1,80,0,1
272273,-43.4782608695652,4,2,5,80,0,1
272529,-43.4782608695652,4,2,1,80,0,1
273637,-43.4782608695652,4,2,5,80,0,1
273723,-43.4782608695652,4,2,1,80,0,1
273893,-50,4,2,10,80,0,1
273935,-50,4,2,10,5,0,1
273978,-50,4,2,10,80,0,1
274020,-50,4,2,10,5,0,1
274064,-50,4,2,10,80,0,1
274106,-50,4,2,10,5,0,1
274149,-50,4,2,10,80,0,1
274191,-50,4,2,10,5,0,1
274234,-43.4782608695652,4,2,1,80,0,0
274575,-40,4,2,1,80,0,0
274831,-66.6666666666667,4,2,1,80,0,0
275599,-100,4,2,1,80,0,0
276963,-50,4,2,1,80,0,0
277304,-76.9230769230769,4,2,1,80,0,0
279095,-133.333333333333,4,2,1,80,0,0
279351,-50,4,2,10,80,0,0
279393,-50,4,2,10,5,0,0
279436,-50,4,2,10,80,0,0
279478,-50,4,2,10,5,0,0
279522,-50,4,2,10,80,0,0
279564,-50,4,2,10,5,0,0
279607,-50,4,2,10,80,0,0
279649,-50,4,2,10,5,0,0
279692,-66.6666666666667,4,2,10,80,0,0
279947,-66.6666666666667,4,2,1,80,0,0
280033,-40,4,2,1,80,0,0
280460,-50,4,2,1,80,0,0
280716,-200,4,2,1,80,0,0
281057,-100,4,2,1,80,0,0
281568,-58.8235294117647,4,2,1,80,0,0
282421,-166.666666666667,4,2,1,80,0,0
282762,-66.6666666666667,4,2,1,80,0,0
282933,-33.3333333333333,4,2,1,80,0,0
283445,-66.6666666666667,4,2,1,80,0,0
283786,-100,4,2,1,80,0,0
284297,-200,4,2,1,60,0,0
284468,-200,4,2,1,40,0,0
284809,-200,4,2,1,45,0,0
284894,-200,4,2,1,50,0,0
284980,-200,4,2,1,55,0,0
285065,-200,4,2,1,60,0,0
285150,-50,4,2,1,80,0,0
285491,-58.8235294117647,4,2,3,80,0,0
285747,-200,4,2,3,80,0,0
285918,-83.3333333333333,4,2,3,80,0,0
286174,-66.6666666666667,4,2,3,80,0,0
286515,-100,4,2,3,80,0,0
287026,-200,4,2,3,80,0,0
287538,-100,4,2,3,80,0,0
287879,-66.6666666666667,4,2,3,80,0,0
288561,-100,4,2,3,80,0,0
288903,-66.6666666666667,4,2,3,80,0,0
289244,-100,4,2,3,80,0,0
289585,-66.6666666666667,4,2,3,80,0,0
289926,-100,4,2,3,80,0,0
290949,-66.6666666666667,4,2,3,80,0,0
291290,-100,4,2,3,80,0,0
291632,-66.6666666666667,4,2,3,80,0,0
291973,-133.333333333333,4,2,3,80,0,0
292314,-66.6666666666667,4,2,3,80,0,0
292570,-100,4,2,3,80,0,0
292825,-200,4,2,3,80,0,0
292996,-66.6666666666667,4,2,3,80,0,0
293337,-100,4,2,3,80,0,0
293678,-66.6666666666667,4,2,3,80,0,0
294019,-100,4,2,3,80,0,0
294361,-66.6666666666667,4,2,3,80,0,0
295725,-40,4,2,3,80,0,0
295767,-40,4,2,3,5,0,0
295810,-37.037037037037,4,2,3,80,0,0
295852,-37.037037037037,4,2,3,5,0,0
295896,-34.4827586206897,4,2,3,80,0,0
295938,-34.4827586206897,4,2,3,5,0,0
295981,-32.258064516129,4,2,3,80,0,0
296023,-32.258064516129,4,2,3,5,0,0
296066,-66.6666666666667,4,2,1,80,0,0
298028,-100,4,2,1,80,0,0
298283,-200,4,2,1,80,0,0
298454,-200,4,2,3,80,0,0
298795,-66.6666666666667,4,2,3,80,0,0
303486,-100,4,2,3,80,0,0
303741,-200,4,2,3,80,0,0
304253,-66.6666666666667,4,2,3,80,0,0
305021,-200,4,2,3,80,0,0
305276,-66.6666666666667,4,2,3,80,0,0
305532,-200,4,2,3,80,0,0
306300,-50,4,2,3,80,0,0
306342,-50,4,2,3,5,0,0
306385,-50,4,2,3,80,0,0
306427,-50,4,2,3,5,0,0
306470,-50,4,2,3,80,0,0
306512,-50,4,2,3,5,0,0
306556,-50,4,2,3,80,0,0
306598,-50,4,2,3,5,0,0
306641,-28.5714285714286,4,2,3,80,0,0
306683,-28.5714285714286,4,2,3,5,0,0
306726,-28.5714285714286,4,2,3,80,0,0
306768,-28.5714285714286,4,2,3,5,0,0
306812,-28.5714285714286,4,2,3,80,0,0
306854,-28.5714285714286,4,2,3,5,0,0
306897,-28.5714285714286,4,2,3,80,0,0
306939,-28.5714285714286,4,2,3,5,0,0
306982,-188.679245283019,4,2,3,80,0,0
308858,-333.333333333333,4,2,3,80,0,0
308943,-333.333333333333,4,2,3,5,0,0
309029,-153.846153846153,4,2,3,80,0,0
309284,-153.846153846153,4,2,3,5,0,0
309370,-153.846153846153,4,2,20,80,0,0
309711,-153.846153846153,4,2,21,80,0,0
310393,-333.333333333333,4,2,1,80,0,0
311076,-250,4,2,1,80,0,0
311758,-142.857142857143,4,2,1,80,0,0
312440,-250,4,2,21,80,0,0
313122,-238.095238095238,4,2,1,80,0,0
314316,-333.333333333333,4,2,1,80,0,0
314401,-333.333333333333,4,2,1,5,0,0
314487,-153.846153846153,4,2,1,80,0,0
314742,-153.846153846153,4,2,1,5,0,0
314828,-153.846153846153,4,2,20,80,0,0
315169,-142.857142857143,4,2,21,80,0,0
315851,-166.666666666667,4,2,1,80,0,0
316533,-200,4,2,1,80,0,0
316704,-142.857142857143,4,2,1,80,0,0
316875,-111.111111111111,4,2,1,80,0,0
317045,-90.9090909090909,4,2,1,80,0,0
317557,-90.9090909090909,4,2,21,80,0,0
317898,-90.9090909090909,4,2,20,80,0,0
318324,-90.9090909090909,4,2,20,5,0,0
318410,-90.9090909090909,4,2,21,80,0,0
318580,-133.333333333333,4,2,1,80,0,0
320286,-133.333333333333,4,2,20,80,0,0
320456,-90.9090909090909,4,2,20,80,0,0
320627,-100,4,2,21,80,0,0
321053,-100,4,2,21,5,0,0
321139,-100,4,2,21,80,0,0
321309,-153.846153846153,4,2,1,80,0,0
322844,-133.333333333333,4,2,1,80,0,0
323015,-133.333333333333,4,2,20,80,0,0
323185,-90.9090909090909,4,2,20,80,0,0
323356,-90.9090909090909,4,2,21,80,0,0
323782,-90.9090909090909,4,2,21,5,0,0
323868,-90.9090909090909,4,2,21,80,0,0
324038,-181.818181818181,4,2,1,80,0,0
325573,-133.333333333333,4,2,1,80,0,0
325744,-133.333333333333,4,2,20,80,0,0
325914,-90.9090909090909,4,2,20,80,0,0
326597,-90.9090909090909,4,2,21,80,0,0
328132,-100,4,2,80,80,0,0
328728,-100,4,2,3,5,0,0
328814,-384.615384615385,4,2,3,80,0,0
330093,-384.615384615385,4,2,3,5,0,0
330178,-384.615384615385,4,2,3,80,0,0
331458,-384.615384615385,4,2,3,5,0,0
331543,-83.3333333333333,4,2,21,80,0,1
331969,-83.3333333333333,4,2,21,5,0,1
332055,-166.666666666667,4,2,21,80,0,1
333334,-166.666666666667,4,2,21,5,0,1
333419,-333.333333333333,4,2,21,80,0,1
333504,-333.333333333333,4,2,21,5,0,1
333590,-153.846153846153,4,2,21,80,0,1
333675,-153.846153846153,4,2,21,5,0,1
333760,-153.846153846153,4,2,1,80,0,1
333930,-153.846153846153,4,2,20,80,0,1
334016,-153.846153846153,4,2,1,80,0,1
334186,-153.846153846153,4,2,1,5,0,1
334272,-100,4,2,21,80,0,1
334698,-100,4,2,21,5,0,1
334784,-166.666666666667,4,2,21,80,0,1
335551,-166.666666666667,4,2,21,5,0,1
335636,-250.000000000001,4,2,1,80,0,1
336232,-250.000000000001,4,2,1,5,0,1
336319,-333.333333333333,4,2,1,80,0,1
336404,-333.333333333333,4,2,1,5,0,1
336489,-153.846153846153,4,2,1,80,0,1
336574,-153.846153846153,4,2,1,5,0,1
336660,-153.846153846153,4,2,20,80,0,1
336915,-153.846153846153,4,2,20,5,0,1
337001,-100,4,2,21,80,0,1
337597,-100,4,2,21,5,0,1
337683,-161.290322580645,4,2,1,80,0,1
339048,-153.846153846154,4,2,1,80,0,1
339303,-153.846153846154,4,2,1,5,0,1
339389,-153.846153846154,4,2,20,80,0,1
339644,-153.846153846154,4,2,20,5,0,1
339730,-100,4,2,21,80,0,1
340156,-100,4,2,21,5,0,1
340241,-166.666666666667,4,2,21,80,0,1
341349,-166.666666666667,4,2,21,5,0,1
341435,-166.666666666667,4,2,21,80,0,1
342459,-100,4,2,1,80,0,0
342714,-100,4,2,1,5,0,0
342800,-142.857142857143,4,2,2,80,0,0
343055,-142.857142857143,4,2,2,5,0,0
343141,-142.857142857143,4,2,2,80,0,0
343226,-142.857142857143,4,2,3,5,0,0
343312,-142.857142857143,4,2,2,80,0,0
344591,-142.857142857143,4,2,3,5,0,0
344676,-142.857142857143,4,2,2,80,0,0
345443,-142.857142857143,4,2,2,5,0,0
345529,-142.857142857143,4,2,2,80,0,0
345955,-142.857142857143,4,2,3,5,0,0
346041,-142.857142857143,4,2,2,80,0,0
348172,-142.857142857143,4,2,2,5,0,0
348258,-142.857142857143,4,2,2,80,0,0
348684,-142.857142857143,4,2,3,5,0,0
348770,-142.857142857143,4,2,2,80,0,0
349281,-125,4,2,2,80,0,0
349536,-125,4,2,2,5,0,0
349622,-125,4,2,2,80,0,0
350048,-125,4,2,3,5,0,0
350134,-125,4,2,2,80,0,0
350646,-111.111111111111,4,2,2,80,0,0
350901,-111.111111111111,4,2,2,5,0,0
350987,-111.111111111111,4,2,2,80,0,0
351413,-111.111111111111,4,2,3,5,0,0
351499,-111.111111111111,4,2,2,80,0,0
352010,-100,4,2,2,80,0,0
353375,-126.582278481013,4,2,3,80,0,0
355507,-126.582278481013,4,2,3,5,0,0
355592,-142.857142857143,4,2,3,80,0,0
355762,-142.857142857143,4,2,3,5,0,0
355848,-142.857142857143,4,2,3,80,0,0
356018,-142.857142857143,4,2,3,5,0,0
356104,-133.333333333333,4,2,3,80,0,0
357383,-133.333333333333,4,2,3,5,0,0
357468,-200,4,2,3,80,0,0
358150,-200,4,2,3,5,0,0
358236,-200,4,2,3,40,0,0
358833,-142.857142857143,4,2,3,80,0,0
359429,-142.857142857143,4,2,3,5,0,0
359515,-200,4,2,3,80,0,0
360794,-200,4,2,3,5,0,0
360879,-166.666666666667,4,2,3,80,0,0
361475,-166.666666666667,4,2,3,5,0,0
361562,-147.058823529412,4,2,3,80,0,0
364973,-133.333333333333,4,2,3,80,0,0
366422,-133.333333333333,4,2,3,5,0,0
366508,-133.333333333333,4,2,3,80,0,0
366678,-133.333333333333,4,2,3,5,0,0
366764,-133.333333333333,4,2,3,80,0,0
366934,-133.333333333333,4,2,3,5,0,0
367020,-153.846153846153,4,2,3,80,0,0
369663,-153.846153846153,4,2,3,5,0,0
369749,-260.416666666667,4,2,3,80,0,0
375206,-256.410256410256,4,2,3,60,0,0

[Colours]
Combo1 : 160,160,160
Combo2 : 126,126,126
Combo3 : 176,11,11
Combo4 : 185,57,2
Combo5 : 244,0,0
Combo6 : 255,77,0
Combo7 : 40,237,5
Combo8 : 255,237,9

[HitObjects]
481,50,1337,118,0,B|338:62|338:62|348:172|460:178|460:178|351:204|360:307|360:307|503:302|503:302|203:328|203:328|344:308|344:308|335:205|223:199|223:199|332:174|323:63|323:63|165:77,1,1620.93750322052,0|0,3:0|2:0,2:0:0:0:
168,77,9523,6,0,B|213:72|213:72|215:82|215:82|231:59|231:59|233:72|233:72|278:67|278:67|280:61|280:61|284:66|284:66|321:63|321:63|312:127|312:127|299:130|299:130|310:137|310:137|307:165|307:165|260:183|260:183|248:172|248:172|250:188|250:188|221:200|221:200|248:206|248:206|252:224|252:224|259:208|259:208|311:218|311:218|320:243|320:243|309:252|309:252|323:253|323:253|342:308|342:308|270:318|270:318|260:299|260:299|256:320|256:320|202:328|202:328|257:324|257:324|267:345|267:345|270:322|270:322|344:316|344:316|352:311|352:311|361:314|361:314|434:308|434:308|443:330|443:330|447:307|447:307|502:302|502:302|447:303|447:303|438:285|438:285|433:304|433:304|360:307|360:307|369:249|369:249|383:245|383:245|371:238|371:238|375:213|375:213|425:194|425:194|435:208|435:208|435:190|435:190|461:179|461:179|431:172|431:172|429:156|429:156|420:169|420:169|370:159|370:159|362:133|362:133|372:124|372:124|358:123|358:123|339:62|339:62|376:58|376:58|379:52|379:52|382:58|382:58|427:55|427:55|426:42|426:42|446:62|446:62|446:52|446:52|497:48,1,2022.75000401885,0|0,2:0|2:0,2:0:0:0:
486,9,12252,102,0,B|467:28|467:28|397:53,1,90.0000001788142,0|0,3:0|3:0,2:0:0:0:
256,28,13105,1,0,3:0:0:0:
256,28,13446,1,0,3:0:0:0:
326,74,13617,2,0,B|337:101|337:101|317:174,1,90.0000001788142,0|0,3:0|3:0,2:0:0:0:
275,276,14470,1,0,3:0:0:0:
306,198,14896,1,0,3:0:0:0:
314,189,14981,2,0,B|331:165|331:165|405:146,1,90.0000001788142,0|0,3:0|3:0,2:0:0:0:
419,141,16346,2,0,B|390:137|390:137|336:83,1,90.0000001788142,0|0,3:0|3:0,2:0:0:0:
256,0,17199,1,0,3:0:0:0:
89,79,17710,6,0,L|110:175,1,90.0000001788142,0|0,3:0|3:0,2:0:0:0:
83,63,18563,1,0,3:0:0:0:
83,63,18904,1,0,3:0:0:0:
108,166,19075,2,0,L|129:262,1,90.0000001788142,0|0,3:0|3:0,2:0:0:0:
102,150,19928,1,0,3:0:0:0:
124,236,20354,1,0,3:0:0:0:
127,253,20439,2,0,L|148:349,1,90.0000001788142,0|0,3:0|3:0,2:0:0:0:
121,237,21804,2,0,L|142:333,1,90.0000001788142,0|0,3:0|3:0,2:0:0:0:
0,193,22827,5,0,2:0:0:0:
15,187,22912,1,0,2:0:0:0:
41,210,22998,1,0,2:0:0:0:
74,177,23083,1,0,2:0:0:0:
121,237,23168,2,0,B|136:275|136:275|104:298|104:298|133:331|133:331|112:323|112:323|100:374|100:374|127:338,1,225.000000447035,0|0,3:0|2:0,2:0:0:0:
126,334,23509,6,0,B|147:310|147:310|258:297,1,112.500000223518,10|0,2:0|2:0,2:0:0:0:
301,252,23765,1,0,2:0:0:0:
309,259,23851,1,8,2:0:0:0:
365,326,23936,1,8,2:0:0:0:
389,317,24021,2,0,L|455:324,1,56.250000111759,0|0,3:0|2:0,2:0:0:0:
512,223,24192,2,0,L|438:249,1,56.250000111759,8|0,2:0|2:0,2:0:0:0:
405,152,24362,2,0,L|368:217,1,56.250000111759,0|0,2:0|2:0,2:0:0:0:
309,259,24533,2,0,B|291:241|291:241|279:182|279:182|296:151,1,112.500000223518,0|0,3:0|2:0,2:0:0:0:
291,82,24874,102,0,B|252:86|252:86|194:157|194:157|138:167,1,168.750000335277,10|0,2:0|2:0,2:0:0:0:
43,217,25300,1,8,2:0:0:0:
48,198,25386,1,0,3:0:0:0:
60,150,25471,1,0,2:0:0:0:
65,131,25556,1,8,2:0:0:0:
122,79,25641,5,0,2:0:0:0:
105,133,25727,1,0,2:0:0:0:
67,91,25812,1,0,2:0:0:0:
97,100,25897,2,0,B|133:113|133:113|152:148|152:148|200:163,1,112.500000223518,0|0,3:0|2:0,2:0:0:0:
257,168,26238,102,0,B|220:199|220:199|262:77,1,168.750000335277,10|0,2:0|2:0,2:0:0:0:
304,11,26580,1,8,2:0:0:0:
316,43,26665,1,8,2:0:0:0:
348,118,26750,1,0,3:0:0:0:
361,123,26835,1,0,2:0:0:0:
435,129,26921,2,0,L|500:111,1,56.250000111759,8|0,2:0|2:0,2:0:0:0:
436,13,27091,2,0,L|379:65,1,56.250000111759,0|0,3:0|2:0,2:0:0:0:
300,191,27262,2,0,B|332:161|332:161|425:157,1,112.500000223518,0|0,3:0|2:0,2:0:0:0:
477,139,27603,6,0,B|435:169|435:169|465:260,1,112.500000223518,10|0,2:0|2:0,2:0:0:0:
449,319,27859,2,0,L|383:295,1,56.250000111759,0|0,3:0|2:0,2:0:0:0:
286,186,28029,1,8,3:0:0:0:
267,191,28115,1,0,3:0:0:0:
212,204,28200,1,0,2:0:0:0:
193,209,28285,1,8,2:0:0:0:
141,266,28370,101,0,2:0:0:0:
195,249,28456,1,0,3:0:0:0:
153,211,28541,1,0,2:0:0:0:
162,241,28626,2,0,B|152:377,1,112.500000223518,0|0,3:0|2:0,2:0:0:0:
226,381,28967,6,0,B|206:364|206:364|114:386,1,112.500000223518,10|0,2:0|2:0,2:0:0:0:
0,384,29223,1,0,2:0:0:0:
5,373,29309,1,8,2:0:0:0:
55,306,29394,1,8,2:0:0:0:
40,285,29479,2,0,L|30:219,1,56.250000111759,0|0,3:0|2:0,2:0:0:0:
80,92,29650,2,0,L|46:137,1,56.250000111759,8|0,2:0|2:0,2:0:0:0:
166,202,29820,2,0,L|110:195,1,56.250000111759,0|0,3:0|2:0,2:0:0:0:
154,316,29991,2,0,B|261:281,1,112.500000223518,0|0,3:0|2:0,2:0:0:0:
320,328,30332,102,0,B|288:287|288:287|325:164,1,168.750000335277,10|0,2:0|2:0,2:0:0:0:
359,58,30758,5,8,2:0:0:0:
340,62,30844,1,8,3:0:0:0:
285,76,30929,1,0,2:0:0:0:
266,81,31014,1,8,2:0:0:0:
214,138,31099,101,0,2:0:0:0:
268,121,31185,1,0,2:0:0:0:
226,83,31270,1,0,2:0:0:0:
235,113,31355,2,0,B|272:235,1,112.500000223518,0|0,3:0|2:0,2:0:0:0:
276,296,31696,6,0,B|334:279|334:279|378:306|378:306|458:288,1,168.750000335277,10|0,2:0|2:0,2:0:0:0:
498,242,32038,1,0,2:0:0:0:
483,197,32123,1,8,2:0:0:0:
438,130,32208,1,0,3:0:0:0:
446,121,32293,1,0,2:0:0:0:
500,65,32379,2,0,L|427:85,1,56.250000111759,8|0,2:0|2:0,2:0:0:0:
305,17,32549,2,0,L|358:69,1,56.250000111759,0|0,3:0|2:0,2:0:0:0:
364,220,32720,101,0,3:0:0:0:
356,231,33061,38,0,B|387:214|387:214|241:244|241:244|210:273|210:273|57:295|57:295|179:239,1,450.000000894071,2|0,2:0|2:0,3:0:0:0:
144,254,33317,2,0,B|212:265|212:265|201:277|201:277|263:303|263:303|276:327,1,150.000000298023,2|0,2:0|2:0,3:0:0:0:
289,324,33487,2,0,L|387:308,1,75.0000001490117,2|0,2:0|2:0,3:0:0:0:
512,205,33658,1,2,2:0:0:0:
456,260,33743,2,0,B|395:281|435:173|545:192|589:301|562:430|461:430|425:388|468:312|518:343,1,337.500000670553,2|0,2:0|2:0,3:0:0:0:
508,338,34084,69,2,3:0:0:0:
493,326,34170,2,0,L|376:350,1,112.500000223518,0|0,2:0|3:0,2:0:0:0:
370,369,34425,2,0,B|345:363|345:363|306:314,1,56.250000111759,8|0,2:0|2:0,2:0:0:0:
214,363,34596,2,0,B|206:338|206:338|229:280,1,56.250000111759,0|0,3:0|2:0,2:0:0:0:
91,338,34766,5,2,3:0:0:0:
97,320,34852,2,0,L|210:282,1,112.500000223518,0|0,2:0|3:0,2:0:0:0:
226,295,35108,2,0,B|244:277|244:277|253:215,1,56.250000111759,8|0,2:0|2:0,2:0:0:0:
358,212,35278,2,0,B|351:187|351:187|302:147,1,56.250000111759,0|0,3:0|2:0,2:0:0:0:
102,59,35449,101,2,3:0:0:0:
129,55,35534,2,0,B|160:74|160:74|120:189,1,135.000000268221,0|0,2:0|3:0,2:0:0:0:
115,187,35790,2,0,L|150:281,1,67.5000001341106,8|0,2:0|2:0,2:0:0:0:
261,92,35960,2,0,L|197:169,1,67.5000001341106,0|0,3:0|2:0,2:0:0:0:
505,18,36131,5,2,3:0:0:0:
478,14,36216,2,0,B|447:33|447:33|487:148,1,135.000000268221,0|0,2:0|3:0,2:0:0:0:
493,144,36472,2,0,L|458:238,1,67.5000001341106,8|0,2:0|2:0,2:0:0:0:
346,51,36643,2,0,L|409:128,1,67.5000001341106,0|0,3:0|2:0,2:0:0:0:
164,5,36813,101,2,3:0:0:0:
164,5,36898,2,0,B|201:28|201:28|229:86,1,78.7500001564624,0|0,2:0|2:0,2:0:0:0:
129,157,37069,1,0,3:0:0:0:
71,100,37154,2,0,B|109:79|109:79|174:83,1,78.7500001564624,8|0,2:0|2:0,2:0:0:0:
224,74,37325,2,0,L|292:150,1,78.7500001564624,0|0,3:0|2:0,2:0:0:0:
204,309,37495,5,2,3:0:0:0:
204,309,37581,2,0,B|194:266|194:266|215:204,1,78.7500001564624,0|0,2:0|2:0,2:0:0:0:
336,226,37751,1,0,3:0:0:0:
336,307,37837,2,0,B|294:294|294:294|251:245,1,78.7500001564624,8|0,2:0|2:0,2:0:0:0:
210,217,38007,2,0,L|215:115,1,78.7500001564624,0|0,3:0|2:0,2:0:0:0:
482,311,38178,101,2,3:0:0:0:
463,336,38263,2,0,L|361:364,1,90.0000001788141,0|0,2:0|2:0,2:0:0:0:
275,168,38434,1,0,3:0:0:0:
316,247,38519,2,0,L|418:275,1,90.0000001788141,8|0,2:0|2:0,2:0:0:0:
511,168,38689,2,0,L|409:196,1,90.0000001788141,0|0,3:0|2:0,2:0:0:0:
187,177,38860,5,2,3:0:0:0:
206,202,38945,2,0,L|308:230,1,90.0000001788141,0|0,2:0|2:0,2:0:0:0:
395,29,39116,1,0,3:0:0:0:
353,113,39201,2,0,L|251:141,1,90.0000001788141,8|0,2:0|2:0,2:0:0:0:
174,45,39372,1,0,3:0:0:0:
102,0,39457,1,0,2:0:0:0:
17,0,39542,102,0,B|-17:27|-17:27|22:160,1,150.000000298023,2|0,3:0|2:0,2:0:0:0:
24,133,39713,2,0,L|1:186,1,56.250000111759,0|0,3:0|2:0,2:0:0:0:
86,76,39883,6,0,B|120:103|120:103|81:236,1,150.000000298023,2|0,3:0|2:0,2:0:0:0:
79,209,40054,2,0,L|102:262,1,56.250000111759,0|0,3:0|2:0,2:0:0:0:
0,384,40224,102,0,B|67:376|67:376|87:348|87:348|167:338,1,165.000000327826,2|0,3:0|2:0,2:0:0:0:
162,352,40395,2,0,L|232:362,1,56.250000111759,0|0,3:0|2:0,2:0:0:0:
283,242,40566,6,0,B|216:250|216:250|196:278|196:278|116:288,1,165.000000327826,2|0,3:0|2:0,2:0:0:0:
121,274,40736,2,0,L|51:264,1,56.250000111759,0|0,3:0|2:0,2:0:0:0:
279,169,40907,102,0,B|295:188|295:188|269:219|269:219|311:243|311:243|305:358,1,180.000000357628,2|0,3:0|2:0,2:0:0:0:
291,326,41077,2,0,L|283:381,1,56.250000111759,0|0,3:0|2:0,2:0:0:0:
478,150,41248,6,0,B|457:164|457:164|474:200|474:200|425:210|425:210|392:324,1,180.000000357628,2|0,3:0|2:0,2:0:0:0:
416,306,41418,2,0,L|399:359,1,56.250000111759,0|0,3:0|2:0,2:0:0:0:
213,125,41589,102,0,B|229:142|229:142|288:113|288:113|290:159|290:159|325:144|325:144|390:167,1,195.00000038743,2|0,3:0|2:0,2:0:0:0:
359,188,41759,2,0,L|441:208,1,56.250000111759,0|0,3:0|2:0,2:0:0:0:
0,107,41930,6,0,B|16:90|16:90|75:119|75:119|77:73|77:73|112:88|112:88|177:65,1,195.00000038743,2|0,3:0|2:0,2:0:0:0:
146,44,42101,2,0,L|228:24,1,56.250000111759,0|0,3:0|2:0,2:0:0:0:
499,179,42271,101,2,3:0:0:0:
457,226,42356,1,0,3:0:0:0:
401,190,42442,1,0,3:0:0:0:
415,126,42527,1,0,3:0:0:0:
482,124,42612,1,0,3:0:0:0:
497,187,42698,1,0,3:0:0:0:
438,214,42783,1,0,3:0:0:0:
396,164,42868,1,0,3:0:0:0:
432,109,42953,1,0,3:0:0:0:
496,127,43039,1,0,3:0:0:0:
495,192,43124,1,0,3:0:0:0:
432,211,43209,1,0,3:0:0:0:
401,151,43295,1,0,3:0:0:0:
342,108,43380,1,0,3:0:0:0:
263,99,43465,1,0,3:0:0:0:
191,142,43550,1,0,3:0:0:0:
174,292,43636,1,2,3:0:0:0:
186,288,43849,6,0,L|205:227,1,56.250000111759,2|0,2:0|2:0,2:0:0:0:
291,203,43977,102,0,L|268:129,1,75.0000001490117,2|0,2:0|2:0,2:0:0:0:
212,48,44105,6,0,L|168:119,3,46.8750000931324,2|0|0|0,2:0|2:0|2:0|2:0,2:0:0:0:
241,372,44318,102,0,B|257:344|257:344|237:339|237:339|220:296|220:296|195:284|195:284|288:203|288:203|246:190|246:190|225:156|225:156|196:149|196:149|181:162|181:162|234:100|234:100|274:85|274:85|286:93|286:93|346:70|346:70|240:78|240:78|209:60|209:60|182:88|182:88|104:120|104:120|97:135|97:135|41:160,1,892.500018796327,2|0,3:0|2:0,2:0:0:0:
21,161,45000,22,0,P|64:141|32:168,1,135.000000268221,6|0,3:1|2:0,2:0:0:0:
35,192,45341,2,0,L|89:209,1,45.000000089407,8|0,2:0|2:0,2:0:0:0:
146,310,45512,2,0,L|196:283,1,45.000000089407,0|0,2:0|3:0,2:0:0:0:
226,142,45682,5,0,2:0:0:0:
218,163,45768,1,0,3:0:0:0:
145,232,45853,1,0,2:0:0:0:
165,281,45938,1,0,2:0:0:0:
200,367,46024,2,0,L|163:38,1,270.000000536442,10|0,2:0|2:0,2:0:0:0:
133,13,46279,101,0,3:0:0:0:
184,108,46365,2,0,L|236:127,1,30.0000000596046,0|0,3:0|2:0,2:0:0:0:
100,128,46535,2,0,B|139:115|139:115|166:137|166:137|207:125,1,112.500000223518,2|0,2:0|2:0,2:0:0:0:
402,140,46706,6,0,B|390:154|390:154|374:118|374:118|367:123|367:123|385:80,1,112.500000223518,10|0,2:0|3:0,2:0:0:0:
441,31,46962,1,0,2:0:0:0:
373,89,47047,2,0,B|346:83|346:83|325:68|325:68|273:55,1,75.0000001490117,2|0,3:0|2:0,2:0:0:0:
168,99,47217,101,0,3:0:0:0:
158,81,47303,1,0,2:0:0:0:
249,146,47388,1,8,2:0:0:0:
252,160,47473,1,0,2:0:0:0:
283,80,47559,1,0,3:0:0:0:
245,62,47644,1,0,2:0:0:0:
158,117,47729,1,0,3:2:0:0:
337,175,47985,5,0,3:0:0:0:
284,254,48070,2,0,B|245:283|245:283|168:252|168:252|139:282|139:282|16:304|16:304|6:282|6:282|100:289|100:289|154:357|154:357|330:372,1,562.500001117588,10|0,2:0|2:0,2:0:0:0:
346,347,48411,101,0,2:0:0:0:
381,271,48497,1,0,3:0:0:0:
400,278,48582,1,0,2:0:0:0:
399,293,48667,1,0,2:0:0:0:
310,341,48752,2,0,B|280:299|280:299|303:279|303:279|316:200|316:200|361:166|361:166|392:83|392:83|364:126|364:126|306:132,1,375.000000745059,10|0,2:0|2:0,2:0:0:0:
339,127,49008,5,0,3:0:0:0:
426,161,49094,2,0,L|481:196,1,45.000000089407,0|0,3:0|2:0,2:0:0:0:
338,146,49264,101,0,3:0:0:0:
323,112,49349,1,0,3:0:0:0:
385,38,49435,2,0,B|422:40|422:40|361:27|361:27|325:82|325:82|30:118,1,450.000000894071,10|0,2:0|3:0,2:0:0:0:
28,97,49691,2,0,B|-8:89|-8:89|54:92|54:92|74:155|74:155|181:186|181:186|196:170|196:170|194:211|194:211|334:258,1,375.000000745059,2|0,2:0|3:0,2:0:0:0:
363,241,49946,5,0,2:0:0:0:
438,254,50032,1,0,3:0:0:0:
361,295,50117,2,0,L|347:213,1,75.0000001490117,10|0,2:0|2:0,2:0:0:0:
355,301,50202,2,0,L|341:219,1,75.0000001490117,2|0,2:0|2:0,2:0:0:0:
349,307,50288,2,0,L|335:225,1,75.0000001490117,2|0,3:2|2:0,2:0:0:0:
343,314,50373,2,0,L|329:232,1,75.0000001490117,2|0,2:0|2:0,2:0:0:0:
425,261,50458,2,0,B|464:229|464:229|446:268|446:268|473:290|473:290|432:422,1,225.000000447035,0|0,3:0|2:0,2:0:0:0:
360,384,50799,1,8,2:0:0:0:
257,147,50970,102,0,B|259:76|259:76|252:105|252:105|264:114|264:114|257:147,1,150.000000298023,2|0,2:0|3:0,2:0:0:0:
122,304,51226,6,0,L|197:291,1,56.250000111759,0|0,3:0|2:0,2:0:0:0:
255,273,51396,1,2,2:0:0:0:
169,308,51481,2,0,B|116:318|116:318|52:219|52:219|-3:228,1,225.000000447035,10|0,2:0|2:0,2:0:0:0:
0,250,51737,101,0,3:0:0:0:
71,202,51823,2,0,B|90:158|90:158|64:59|64:59|120:146|120:146|193:148,1,300.000000596047,2|0,3:0|2:0,2:0:0:0:
262,130,52078,5,0,3:0:0:0:
193,102,52164,2,0,L|134:132,1,56.250000111759,10|0,2:0|2:0,2:0:0:0:
269,151,52334,101,0,3:0:0:0:
342,83,52420,2,0,B|344:35|344:35|369:-2|369:-2|316:31|316:31|392:284,1,375.000000745059,2|0,2:0|2:0,2:0:0:0:
424,318,52675,6,0,L|394:398,1,56.250000111759,0|0,3:0|2:0,2:0:0:0:
416,303,52846,2,0,L|517:223,1,112.500000223518,8|0,2:0|2:0,2:0:0:0:
480,131,53017,101,0,3:0:0:0:
465,149,53102,1,0,2:0:0:0:
358,182,53187,2,0,B|316:198|316:198|275:186|275:186|311:208|311:208|379:179|379:179|397:41,1,300.000000596047,2|0,3:0|2:0,2:0:0:0:
355,0,53443,5,0,3:0:0:0:
378,80,53528,2,0,B|360:32|360:32|245:-1,1,150.000000298023,10|0,2:0|3:0,2:0:0:0:
94,95,53784,101,2,2:0:0:0:
78,91,53869,1,0,2:0:0:0:
37,19,53955,2,0,B|90:31|90:31|155:121|155:121|135:202,1,225.000000447035,2|0,3:0|2:0,2:0:0:0:
50,147,54210,2,0,B|45:122|45:122|15:106|15:106|151:123|151:123|179:147|179:147|287:142,1,300.000000596047,10|0,2:0|2:0,2:0:0:0:
337,140,54466,5,0,3:0:0:0:
247,182,54552,2,0,L|259:107,1,75.0000001490117,0|0,3:0|2:0,2:0:0:0:
311,40,54807,101,2,3:0:0:0:
338,127,54893,1,10,2:0:0:0:
448,43,55063,5,2,3:0:0:0:
497,56,55149,1,2,2:0:0:0:
479,112,55234,1,0,2:0:0:0:
428,125,55319,1,0,3:0:0:0:
424,164,55404,1,2,2:0:0:0:
470,176,55490,1,0,3:0:0:0:
492,129,55575,1,10,2:0:0:0:
338,169,55746,101,0,3:0:0:0:
349,209,55831,1,0,2:0:0:0:
456,297,55916,2,0,B|492:273|492:273|543:274|543:274|415:258|415:258|367:286|367:286|73:250,1,562.500001117588,6|0,3:2|2:0,2:0:0:0:
35,276,56257,6,0,B|59:313|59:313|25:403,1,93.7500001862647,10|0,2:0|2:0,2:0:0:0:
71,296,56342,2,0,B|73:340|73:340|-2:400,1,93.7500001862647,2|0,2:0|2:0,2:0:0:0:
92,331,56428,2,0,B|71:370|71:370|-22:385,1,93.7500001862647,2|0,2:0|2:0,2:0:0:0:
18,363,56513,2,0,B|55:319|55:319|127:277,1,112.500000223518,0|0,3:0|2:0,2:0:0:0:
220,300,56684,2,0,B|164:306|164:306|111:277,1,112.500000223518,0|0,3:0|2:0,2:0:0:0:
63,27,56939,101,8,2:0:0:0:
76,32,57195,5,0,3:0:0:0:
31,110,57281,2,0,B|58:118|58:118|127:108,1,75.0000001490117,0|0,3:0|2:0,2:0:0:0:
221,13,57451,1,0,3:0:0:0:
264,91,57536,1,0,3:0:0:0:
270,104,57622,2,0,B|243:112|243:112|174:102,1,75.0000001490117,8|0,2:0|2:0,2:0:0:0:
37,78,57792,1,0,3:0:0:0:
28,95,57878,2,0,B|54:105|54:105|151:97|151:97|224:125,1,150.000000298023,2|0,2:0|2:0,2:0:0:0:
268,181,58133,101,0,3:0:0:0:
292,95,58219,1,0,2:0:0:0:
297,82,58304,2,0,B|321:95|321:95|363:151,1,75.0000001490117,8|0,2:0|2:0,2:0:0:0:
478,171,58474,5,0,3:0:0:0:
402,155,58560,1,0,2:0:0:0:
328,188,58645,2,0,B|305:217|305:217|310:253|310:253|321:206|321:206|360:172|360:172|317:97|317:97|280:118|280:118|291:23|291:23|372:-8,1,450.00000089407,2|0,3:0|3:0,2:0:0:0:
361,22,58986,2,0,B|378:56|378:56|187:17,1,195.000000387431,10|0,2:0|3:0,2:0:0:0:
131,1,59242,102,0,P|180:10|189:83,1,97.5000001937153,0|0,2:0|2:0,2:0:0:0:
132,165,59413,2,0,B|104:304|104:304|130:314|130:314|121:278,1,195.000000387431,0|0,3:0|2:0,2:0:0:0:
118,287,59668,1,8,2:0:0:0:
118,307,59924,5,0,3:0:0:0:
93,384,60010,1,0,3:0:0:0:
222,241,60180,101,0,3:0:0:0:
307,260,60265,1,0,3:0:0:0:
353,335,60351,1,8,2:0:0:0:
482,363,60521,5,0,3:0:0:0:
500,351,60606,1,0,2:0:0:0:
454,198,60777,102,0,P|419:214|403:239,1,56.250000111759,0|0,3:0|2:0,2:0:0:0:
295,330,60948,1,0,3:0:0:0:
215,285,61033,6,0,L|201:367,1,75.0000001490117,10|0,2:0|2:0,2:0:0:0:
209,279,61118,2,0,L|195:361,1,75.0000001490117,2|0,2:0|2:0,2:0:0:0:
203,273,61203,2,0,L|189:355,1,75.0000001490117,2|0,3:2|2:0,2:0:0:0:
197,266,61289,2,0,L|183:348,1,75.0000001490117,2|0,2:0|2:0,2:0:0:0:
301,228,61374,2,0,B|323:256|323:256|311:298|311:298|317:225|317:225|261:119|261:119|288:108|288:108|288:155,1,337.500000670553,0|0,3:0|2:0,2:0:0:0:
276,152,61715,102,0,B|228:167|228:167|45:93|45:93|-3:106|-3:106|50:105|50:105|118:154,1,375.000000745059,10|0,2:0|2:0,2:0:0:0:
81,200,61971,2,0,B|89:240|89:240|56:178|56:178|96:110,1,150.000000298023,2|0,3:0|2:0,2:0:0:0:
181,39,62142,2,0,B|412:74|412:74|345:124,1,300.000000596047,2|0,3:0|2:0,2:0:0:0:
354,100,62397,2,0,B|381:93|381:93|440:120,1,75.0000001490117,8|0,2:0|2:0,2:0:0:0:
463,199,62653,5,0,3:0:0:0:
487,118,62739,2,0,B|448:144|448:144|450:159|450:159|432:265|432:265|406:272,1,194.999991461039,2|0,3:0|2:0,2:0:0:0:
319,300,62994,1,0,3:0:0:0:
291,205,63080,2,0,B|308:221|308:221|308:250|308:250|361:314,1,82.5000026816132,10|0,2:0|2:0,2:0:0:0:
470,374,63250,102,0,B|354:365|354:365|337:345|337:345|237:380|237:380|219:364|219:364|89:356,1,382.50000075996,2|0,3:0|2:0,2:0:0:0:
28,384,63591,1,0,2:0:0:0:
0,265,63762,5,8,2:0:0:0:
21,258,63847,1,0,2:0:0:0:
35,275,63932,1,0,3:0:0:0:
55,275,64018,1,0,2:0:0:0:
97,338,64103,2,0,B|93:272,3,45.000000089407,0|0|0|0,3:0|3:0|2:0|3:0,2:0:0:0:
87,242,64444,102,0,B|53:249|53:249|66:233|66:233|122:246,1,112.500000223518,10|0,2:0|2:0,2:0:0:0:
201,271,64615,2,0,B|231:297|231:297|197:236|197:236|273:82|273:82|142:106|142:106|169:134,1,450.000000894071,2|0,3:0|2:0,2:0:0:0:
174,141,64871,2,0,B|432:116|432:116|400:123|400:123|376:149|376:149|329:133,1,375.000000745059,2|0,3:0|2:0,2:0:0:0:
319,99,65126,2,0,B|270:53|270:53|248:76|248:76|165:97|165:97|138:145,1,225.000000447035,10|0,2:0|2:0,2:0:0:0:
121,132,65382,5,0,3:0:0:0:
41,60,65467,2,0,B|62:65|62:65|88:58|88:58|77:134|77:134|139:183,1,150.000000298023,2|0,3:0|2:0,2:0:0:0:
141,224,65723,1,0,3:0:0:0:
141,224,65809,1,10,2:0:0:0:
306,103,65979,69,0,3:0:0:0:
329,218,66150,86,0,B|313:211|313:211|419:196|419:196|457:287,1,150.000000298023,0|0,2:0|2:0,2:0:0:0:
349,238,66235,2,0,B|331:249|331:249|258:196,1,75.0000001490117,0|0,2:0|2:0,2:0:0:0:
337,205,66320,2,0,B|321:196|321:196|428:190|428:190|458:284,1,150.000000298023,0|0,2:0|2:0,2:0:0:0:
360,229,66406,2,0,B|341:237|341:237|272:178,1,75.0000001490117,0|0,2:0|2:0,2:0:0:0:
346,192,66491,2,0,B|331:182|331:182|438:185|438:185|460:282,1,150.000000298023,0|0,2:0|2:0,2:0:0:0:
373,223,66576,2,0,B|353:230|353:230|291:165,1,75.0000001490117,0|0,2:0|2:0,2:0:0:0:
356,180,66661,2,0,B|342:169|342:169|448:182|448:182|461:279,1,150.000000298023,0|0,2:0|2:0,2:0:0:0:
386,218,66747,2,0,B|366:223|366:223|309:152,1,75.0000001490117,0|0,2:0|2:0,2:0:0:0:
391,187,66832,54,0,B|397:139|397:139|446:119|446:119|441:69|441:69|418:55|418:55|465:-19|465:-19|324:-9|324:-9|360:81,1,450.00000089407,6|0,3:0|2:0,2:0:0:0:
316,37,67173,2,0,B|332:78|332:78|272:20|272:20|121:47,1,255.00000050664,8|0,2:0|2:0,2:0:0:0:
34,84,67429,2,0,L|49:118,1,37.5000000745059,0|0,3:0|2:0,2:0:0:0:
179,122,67600,2,0,L|-74:98,1,180.000000357628,0|0,3:0|2:0,2:0:0:0:
109,207,67855,6,0,B|171:181|171:181|192:158|192:158|334:205,1,225.000000447035,8|0,2:0|2:0,2:0:0:0:
437,147,68111,1,0,3:0:0:0:
360,175,68196,2,0,L|325:259,1,75.0000001490117,0|0,3:0|2:0,2:0:0:0:
457,351,68367,1,0,3:0:0:0:
440,269,68452,1,0,3:0:0:0:
371,223,68538,1,8,2:0:0:0:
201,345,68708,102,0,B|231:341|231:341|253:316|253:316|312:313,1,112.500000223518,0|0,3:0|2:0,2:0:0:0:
329,329,69049,1,0,3:0:0:0:
174,348,69220,2,0,B|164:311|164:311|183:279,1,75.0000001490117,8|0,2:0|2:0,2:0:0:0:
219,88,69390,5,0,3:0:0:0:
228,115,69476,1,0,2:0:0:0:
185,201,69561,2,0,B|302:170|302:170|316:208|316:208|441:243,1,225.000000447035,0|0,3:0|2:0,2:0:0:0:
471,215,69817,1,0,3:0:0:0:
386,207,69902,2,0,B|360:170|360:170|406:71,1,112.500000223518,8|0,2:0|2:0,2:0:0:0:
454,67,70073,1,0,3:0:0:0:
438,47,70158,1,0,2:0:0:0:
337,28,70243,2,0,P|327:29|340:26,1,75.0000001490117,2|0,2:0|3:0,2:0:0:0:
258,109,70414,102,0,L|275:197,1,75.0000001490117,0|0,2:0|2:0,2:0:0:0:
343,325,70584,2,0,B|380:297|380:297|325:207|325:207|343:206|343:206|277:197,1,225.000000447035,8|0,2:0|2:0,2:0:0:0:
198,234,70840,1,0,3:0:0:0:
152,150,70925,2,0,P|159:126|155:152,1,75.0000001490117,2|0,3:0|2:0,2:0:0:0:
151,313,71096,1,0,3:0:0:0:
209,231,71181,1,0,3:0:0:0:
159,337,71267,2,0,B|-9:280|-9:280|14:207,1,225.000000447035,8|0,2:0|3:0,2:0:0:0:
42,138,71522,1,0,2:0:0:0:
92,206,71608,2,0,P|106:228|86:208,1,75.0000001490117,2|0,2:0|3:0,2:0:0:0:
83,37,71864,5,0,3:0:0:0:
163,104,71949,1,8,2:0:0:0:
176,83,72034,1,0,2:0:0:0:
261,37,72119,1,0,3:0:0:0:
275,79,72205,1,0,2:0:0:0:
358,150,72290,2,0,P|367:131|354:150,1,75.0000001490117,2|0,3:0|2:0,2:0:0:0:
492,312,72631,102,0,B|431:271|431:271|431:189|431:189|361:143,1,225.000000447035,8|0,2:0|2:0,2:0:0:0:
259,166,72887,1,0,3:0:0:0:
313,248,72972,2,0,P|328:261|313:244,1,75.0000001490117,2|0,2:0|3:0,2:0:0:0:
14,54,73313,6,0,B|53:36|53:36|140:153|140:153|174:138,1,225.000000447035,8|0,2:0|2:0,2:0:0:0:
255,144,73569,1,0,2:0:0:0:
270,51,73654,2,0,L|196:74,1,56.250000111759,0|0,3:0|2:0,2:0:0:0:
144,166,73825,1,0,3:0:0:0:
193,232,73910,1,0,3:0:0:0:
301,208,73996,2,0,B|380:198|380:198|466:258,1,112.500000223518,8|0,2:0|2:0,2:0:0:0:
472,281,74166,101,0,3:0:0:0:
490,245,74251,2,0,B|470:169|470:169|410:219,1,150.000000298023,0|0,2:0|2:0,2:0:0:0:
353,289,74507,2,0,L|391:330,1,37.5000000745059,0|0,3:0|2:0,2:0:0:0:
453,363,74678,2,0,L|295:333,1,112.500000223518,8|0,2:0|2:0,2:0:0:0:
183,270,74848,5,0,3:0:0:0:
187,363,74934,1,0,2:0:0:0:
271,317,75019,2,0,P|274:294|267:318,1,75.0000001490117,2|0,3:0|2:0,2:0:0:0:
60,376,75275,1,0,3:0:0:0:
0,309,75360,2,0,B|5:266|5:266|106:225,1,112.500000223518,8|0,2:0|2:0,2:0:0:0:
241,204,75531,101,0,3:0:0:0:
267,183,75616,1,0,2:0:0:0:
272,90,75701,2,0,P|266:69|270:92,1,75.0000001490117,2|0,2:0|3:0,2:0:0:0:
48,219,76042,2,0,B|19:67|19:67|117:106,1,225.000000447035,8|0,2:0|2:0,2:0:0:0:
187,148,76298,5,0,3:0:0:0:
107,105,76383,1,0,3:0:0:0:
216,146,76554,101,0,3:0:0:0:
315,129,76639,1,0,3:0:0:0:
393,63,76725,2,0,B|361:58|361:58|318:89|318:89|312:153,1,112.500000223518,8|0,2:0|2:0,2:0:0:0:
332,253,76895,1,0,3:0:0:0:
346,277,76980,1,0,2:0:0:0:
130,171,77151,5,0,3:0:0:0:
135,149,77236,1,0,2:0:0:0:
150,165,77321,1,0,3:0:0:0:
101,222,77407,2,0,L|136:134,1,93.7500001862647,8|0,2:0|2:0,2:0:0:0:
77,130,77492,2,0,L|180:170,1,101.250000201166,0|0,2:0|2:0,2:0:0:0:
171,105,77577,2,0,L|127:208,1,108.750000216067,0|0,3:0|2:0,2:0:0:0:
195,195,77663,2,0,L|81:146,1,116.250000230968,0|0,2:0|2:0,2:0:0:0:
64,131,77748,2,0,P|40:107|68:129,1,112.500000223518,6|0,3:2|2:0,2:0:0:0:
479,9,78089,102,0,B|452:68|452:68|415:84|415:84|450:201,1,225.000000447035,8|0,2:0|2:0,2:0:0:0:
464,317,78345,1,0,3:0:0:0:
512,233,78430,2,0,P|500:204|504:241,1,112.500000223518,2|0,2:0|3:0,2:0:0:0:
286,297,78601,1,0,2:0:0:0:
304,308,78686,1,0,2:0:0:0:
388,341,78771,2,0,B|426:307|426:307|185:359,1,225.000000447035,8|0,2:0|2:0,2:0:0:0:
145,289,79027,5,0,3:0:0:0:
161,384,79112,1,0,3:0:0:0:
80,217,79283,101,0,3:0:0:0:
67,316,79368,1,0,3:0:0:0:
165,269,79454,2,0,B|174:193|174:193|113:143,1,112.500000223518,8|0,2:0|2:0,2:0:0:0:
0,108,79624,1,0,3:0:0:0:
12,127,79709,2,0,L|212:145,1,150.000000298023,0|0,2:0|2:0,2:0:0:0:
237,225,79965,2,0,L|209:201,1,37.5000000745059,0|0,3:0|2:0,2:0:0:0:
88,89,80136,5,8,2:0:0:0:
101,101,80221,1,0,2:0:0:0:
186,70,80306,1,0,3:0:0:0:
221,83,80392,1,0,2:0:0:0:
316,32,80477,2,0,P|324:-5|308:29,1,112.500000223518,2|0,3:0|2:0,2:0:0:0:
366,173,80733,101,0,3:0:0:0:
446,236,80818,2,0,B|510:217|510:217|509:156,1,112.500000223518,8|0,2:0|2:0,2:0:0:0:
405,37,80989,1,0,3:0:0:0:
383,53,81074,1,0,2:0:0:0:
352,158,81159,2,0,P|368:189|356:154,1,112.500000223518,2|0,2:0|3:0,2:0:0:0:
0,348,81500,6,0,B|32:372|32:372|107:275|107:275|123:312|123:312|168:336,1,225.000000447035,8|0,2:0|2:0,2:0:0:0:
225,295,81756,1,0,3:0:0:0:
274,384,81841,1,0,3:0:0:0:
371,234,82012,101,0,3:0:0:0:
312,318,82097,1,0,3:0:0:0:
274,227,82182,2,0,B|295:201|295:201|417:189,1,112.500000223518,8|0,2:0|2:0,2:0:0:0:
496,201,82353,1,0,3:0:0:0:
512,231,82438,1,0,2:0:0:0:
326,84,82609,1,0,3:0:0:0:
512,0,82779,5,0,3:0:0:0:
458,96,82865,1,8,2:0:0:0:
430,87,82950,1,0,2:0:0:0:
371,14,83035,1,0,3:0:0:0:
319,38,83121,1,0,2:0:0:0:
251,158,83206,2,0,P|277:188|262:151,1,112.500000223518,2|0,3:0|2:0,2:0:0:0:
25,68,83547,102,0,B|75:87|75:87|13:280,1,225.000000447035,8|0,2:0|2:0,2:0:0:0:
21,370,83803,1,0,3:0:0:0:
116,323,83888,2,0,P|99:287|105:326,1,112.500000223518,2|0,2:0|3:0,2:0:0:0:
343,30,84229,6,0,B|293:49|293:49|355:242,1,225.000000447035,8|0,2:0|2:0,2:0:0:0:
373,287,84485,1,0,3:0:0:0:
433,191,84570,1,0,3:0:0:0:
420,351,84741,101,0,3:0:0:0:
498,274,84826,1,0,3:0:0:0:
512,384,84911,2,0,L|367:356,1,112.500000223518,8|0,2:0|2:0,2:0:0:0:
237,358,85082,1,0,3:0:0:0:
215,337,85167,2,0,L|314:218,1,150.000000298023,0|0,2:0|2:0,2:0:0:0:
361,190,85423,2,0,L|324:195,1,37.5000000745059,0|0,3:0|2:0,2:0:0:0:
108,170,85594,5,8,2:0:0:0:
81,161,85679,1,0,2:0:0:0:
2,100,85764,1,0,3:0:0:0:
83,77,85850,1,0,2:0:0:0:
165,56,85935,2,0,P|193:83|158:65,1,112.500000223518,2|0,3:0|2:0,2:0:0:0:
0,188,86191,101,0,3:0:0:0:
38,254,86276,2,0,L|157:268,1,112.500000223518,8|0,2:0|2:0,2:0:0:0:
301,220,86447,1,0,3:0:0:0:
276,232,86532,1,0,2:0:0:0:
228,316,86617,2,0,P|237:354|239:315,1,112.500000223518,2|0,2:0|3:0,2:0:0:0:
512,361,86958,6,0,B|482:233|482:233|460:215|460:215|476:131,1,225.000000447035,8|0,2:0|2:0,2:0:0:0:
512,28,87214,2,0,L|462:46,1,37.5000000745059,0|0,3:0|3:0,2:0:0:0:
278,97,87385,101,0,2:0:0:0:
275,105,87470,1,0,3:0:0:0:
259,116,87555,1,0,3:0:0:0:
238,115,87640,1,8,2:0:0:0:
216,92,87726,1,0,2:0:0:0:
220,60,87811,1,0,3:0:0:0:
250,26,87896,1,0,2:0:0:0:
298,16,87982,6,0,L|286:91,1,75.0000001490117,0|0,2:0|2:0,2:0:0:0:
377,23,88067,2,0,L|327:79,1,75.0000001490117,0|0,2:0|2:0,2:0:0:0:
440,72,88152,2,0,L|368:92,1,75.0000001490117,0|0,2:0|2:0,2:0:0:0:
466,147,88237,2,0,L|395:124,1,75.0000001490117,0|0,2:0|2:0,2:0:0:0:
391,227,88323,102,0,B|423:213|423:213|287:191,1,131.25000026077,8|0,2:0|2:0,2:0:0:0:
311,216,88408,2,0,B|336:191|336:191|200:217,1,131.25000026077,0|0,2:0|2:0,2:0:0:0:
232,233,88493,2,0,B|247:201|247:201|129:272,1,131.25000026077,0|0,2:0|2:0,2:0:0:0:
163,275,88579,2,0,B|166:240|166:240|79:347,1,131.25000026077,0|0,2:0|2:0,2:0:0:0:
152,381,88664,54,0,B|140:325|91:224|43:188|43:188|62:187|62:187|40:186|40:186|20:169|16:184|6:151|7:123|7:123|8:163|-17:190|-17:190|149:58|149:58|111:117|116:180,1,750.000001490117,6|0,3:2|2:0,2:0:0:0:
293,105,90540,6,0,L|330:112,1,22.5000000447035,0|0,2:0|2:0,2:0:0:0:
225,144,90711,2,0,L|413:111,1,146.250000290574,0|0,2:0|2:0,2:0:0:0:
447,105,91052,101,2,3:2:0:0:
284,349,91393,1,2,3:2:0:0:
284,349,91904,1,2,3:2:0:0:
351,297,92075,6,0,P|397:307|364:366,1,135.000000268221,2|0,2:0|2:0,2:0:0:0:
297,175,92757,2,0,P|224:193|275:249,1,180.000000357628,2|0,2:0|2:0,2:0:0:0:
349,60,93440,2,0,P|472:70|370:134,1,315.000000625849,2|0,2:0|2:0,2:0:0:0:
57,81,94122,2,0,P|114:33|128:107,1,180.000000357628,0|2,3:2|3:2,2:0:0:0:
14,214,94804,102,0,B|-32:176|-8:127|-8:127|6:155|40:174|33:136|61:177|63:216|63:216|65:291|25:263|4:347|57:375,1,378.000000751019,2|0,2:0|2:0,2:0:0:0:
242,309,95998,6,0,L|235:272,1,22.5000000447035,0|0,2:0|2:0,2:0:0:0:
203,376,96168,2,0,L|235:188,1,146.250000290574,0|0,2:0|2:0,2:0:0:0:
255,60,96510,101,2,3:2:0:0:
504,134,96851,6,0,B|489:161|489:161|386:175,1,135.000000268221,0|2,3:2|3:2,2:0:0:0:
187,196,97533,2,0,B|201:223|201:223|363:243,1,180.000000357628,2|0,2:0|2:0,2:0:0:0:
504,328,98215,102,0,L|467:346,1,37.5000000745059,0|0,2:0|2:0,2:0:0:0:
478,223,98386,2,0,L|443:273,1,52.5000001043082,0|0,2:0|2:0,2:0:0:0:
390,140,98556,2,0,L|397:212,1,67.5000001341106,0|0,2:0|2:0,2:0:0:0:
252,130,98727,2,0,L|313:189,1,82.5000001639129,0|0,2:0|2:0,2:0:0:0:
39,43,98897,5,0,2:0:0:0:
78,10,98983,1,0,2:0:0:0:
128,12,99068,1,0,2:0:0:0:
171,37,99153,1,0,2:0:0:0:
189,84,99239,1,0,2:0:0:0:
118,107,99324,1,0,2:0:0:0:
66,159,99409,1,0,2:0:0:0:
63,233,99494,1,0,2:0:0:0:
117,294,99580,6,0,B|140:310|140:310|214:194|214:194|240:193|240:193|266:247|266:247|294:210|294:210|431:182,1,390.000000774861,6|8,3:1|2:0,2:0:0:0:
512,91,100091,2,0,B|534:104|534:104|523:112|523:112|447:88,1,97.5000001937153,0|0,3:0|2:0,2:0:0:0:
357,70,100262,2,0,B|404:132|404:132|380:181|380:181|390:203|390:203|395:297,1,195.000000387431,2|0,3:0|2:0,2:0:0:0:
453,329,100518,5,0,3:0:0:0:
472,320,100603,2,0,L|484:242,1,56.250000111759,8|0,2:0|2:0,2:0:0:0:
373,279,100774,2,0,L|366:204,1,56.250000111759,0|0,3:0|2:0,2:0:0:0:
293,136,100944,2,0,L|262:244,1,112.500000223518,0|0,3:0|2:0,2:0:0:0:
80,118,101200,101,0,3:0:0:0:
62,134,101285,2,0,L|80:226,1,67.5000001341106,8|0,2:0|2:0,2:0:0:0:
155,150,101456,2,0,L|193:231,1,67.5000001341106,0|0,3:0|2:0,2:0:0:0:
287,264,101626,2,0,L|276:129,1,135.000000268221,0|0,3:0|2:0,2:0:0:0:
238,15,101882,5,0,3:0:0:0:
226,43,101968,2,0,L|114:61,1,78.7500001564624,8|0,2:0|2:0,2:0:0:0:
369,116,102138,2,0,L|261:106,1,78.7500001564624,0|0,3:0|2:0,2:0:0:0:
450,302,102309,102,0,B|504:281|504:281|501:272|501:272|314:290|314:290|279:351|279:351|122:331,1,450.00000089407,2|8,3:0|2:0,2:0:0:0:
49,190,102820,6,0,B|75:162|75:162|89:170|89:170|75:212|75:212|13:255,1,112.500000223518,0|0,3:0|2:0,2:0:0:0:
0,299,102991,2,0,B|41:286|41:286|55:273|55:273|150:291|150:291|172:315|172:315|235:310,1,225.000000447035,2|0,3:0|2:0,2:0:0:0:
355,195,103247,101,0,3:0:0:0:
294,136,103332,2,0,B|262:170|262:170|288:175|288:175|367:243,1,120.000000238419,8|0,2:0|2:0,2:0:0:0:
439,211,103503,2,0,B|452:198|452:198|436:144|436:144|361:92,1,120.000000238419,0|0,3:0|2:0,2:0:0:0:
115,35,103673,2,0,B|100:70|100:70|134:151|134:151|112:201|112:201|139:309,1,240.000000476838,0|0,3:0|2:0,2:0:0:0:
120,370,103929,5,0,3:0:0:0:
189,315,104014,2,0,B|221:303|221:303|206:352|206:352|108:376,1,142.500000283122,8|0,2:0|2:0,2:0:0:0:
19,308,104185,2,0,B|56:262|56:262|83:273|83:273|176:256,1,142.500000283122,0|0,3:0|2:0,2:0:0:0:
431,56,104355,2,0,B|454:103|454:103|399:192|399:192|434:255|434:255|402:384,1,285.000000566245,0|0,3:0|2:0,2:0:0:0:
321,371,104611,101,0,3:0:0:0:
260,311,104697,2,0,B|293:259|293:259|316:257|316:257|336:210,1,112.500000223518,8|0,2:0|2:0,2:0:0:0:
400,91,104867,1,0,3:0:0:0:
351,29,104952,1,0,2:0:0:0:
273,22,105038,6,0,L|295:194,1,150.000000298023,6|0,3:2|2:0,2:0:0:0:
285,192,105208,2,0,L|218:215,1,56.250000111759,0|0,3:0|2:0,2:0:0:0:
132,148,105379,102,0,L|110:320,1,150.000000298023,0|0,3:0|2:0,2:0:0:0:
120,318,105549,2,0,L|187:341,1,56.250000111759,0|0,3:0|2:0,2:0:0:0:
296,178,105720,6,0,B|342:198|342:198|390:302,1,165.000000327826,2|0,3:0|2:0,2:0:0:0:
388,321,105890,2,0,L|330:350,1,56.250000111759,0|0,3:0|2:0,2:0:0:0:
499,155,106061,102,0,B|452:175|452:175|404:279,1,165.000000327826,0|0,3:0|2:0,2:0:0:0:
407,298,106232,2,0,L|465:327,1,56.250000111759,0|0,3:0|2:0,2:0:0:0:
448,70,106402,6,0,B|470:56|470:56|353:32|353:32|267:67,1,180.000000357628,2|0,3:0|2:0,2:0:0:0:
309,69,106573,2,0,L|283:-11,1,56.250000111759,0|0,3:0|2:0,2:0:0:0:
181,222,106743,102,0,B|159:208|159:208|276:184|276:184|362:219,1,180.000000357628,0|0,3:0|2:0,2:0:0:0:
320,221,106914,2,0,L|346:141,1,56.250000111759,0|0,3:0|2:0,2:0:0:0:
50,12,107084,6,0,B|87:33|87:33|74:102|74:102|31:115|31:115|59:209,1,195.00000038743,2|0,3:0|2:0,2:0:0:0:
56,191,107255,2,0,B|-23:196,1,56.250000111759,0|0,3:0|2:0,2:0:0:0:
194,384,107426,102,0,B|157:363|157:363|170:294|170:294|213:281|213:281|185:187,1,195.00000038743,0|0,3:0|2:0,2:0:0:0:
188,205,107596,2,0,B|267:200,1,56.250000111759,0|0,3:0|2:0,2:0:0:0:
418,348,107767,5,2,3:0:0:0:
444,308,107852,1,0,3:0:0:0:
479,352,107937,1,0,3:0:0:0:
431,384,108022,1,0,3:0:0:0:
387,350,108108,1,0,3:0:0:0:
382,287,108193,1,0,3:0:0:0:
422,244,108278,1,0,3:0:0:0:
392,187,108364,1,0,3:0:0:0:
428,149,108449,1,2,3:0:0:0:
432,201,108534,1,0,3:0:0:0:
370,237,108619,1,0,3:0:0:0:
299,224,108705,1,0,3:0:0:0:
263,161,108790,1,0,3:0:0:0:
277,79,108875,1,0,3:0:0:0:
355,27,108961,1,0,3:0:0:0:
457,40,109046,1,0,3:0:0:0:
504,179,109131,2,0,L|508:187,14,9.37500001862654,2|0|0|0|0|0|0|0|0|0|0|0|0|0|0,3:0|2:0|2:0|2:0|2:0|2:0|2:0|2:0|2:0|2:0|2:0|2:0|2:0|2:0|2:0,2:0:0:0:
484,47,109813,102,0,P|447:263|58:288,1,646.875001285227,8|0,2:0|2:0,2:0:0:0:
74,303,110496,1,6,3:2:0:0:
352,145,120047,86,0,L|391:196,3,45.000000089407,0|0|0|0,2:0|2:0|2:0|2:0,2:0:0:0:
286,194,120388,2,0,L|303:257,3,45.000000089407,0|0|0|0,2:0|2:0|2:0|2:0,2:0:0:0:
149,195,120729,5,0,2:0:0:0:
130,214,120815,1,0,2:0:0:0:
131,249,120900,1,0,2:0:0:0:
169,272,120985,1,0,2:0:0:0:
212,238,121070,1,0,2:0:0:0:
194,177,121156,1,0,2:0:0:0:
200,105,121241,1,0,2:0:0:0:
259,49,121326,1,0,2:0:0:0:
348,45,121412,6,0,B|396:131|396:131|394:159|394:159|480:146|480:146|460:167|460:167|466:269|466:269|423:329,1,390.000000774861,6|8,3:1|2:0,2:0:0:0:
309,368,121923,2,0,B|287:357|287:357|272:341|272:341|296:330|296:330|310:309,1,97.5000001937153,0|0,3:0|2:0,2:0:0:0:
386,253,122094,2,0,B|353:282|353:282|231:248|231:248|189:271|189:271|97:230,1,292.500000581146,2|0,3:0|3:0,2:0:0:0:
36,183,122435,6,0,L|114:171,1,56.250000111759,8|0,2:0|2:0,2:0:0:0:
144,241,122605,2,0,L|138:297,1,56.250000111759,0|0,3:0|2:0,2:0:0:0:
0,384,122776,2,0,L|68:249,1,112.500000223518,0|0,3:0|2:0,2:0:0:0:
246,120,123032,101,0,3:0:0:0:
267,135,123117,2,0,L|281:227,1,67.5000001341106,8|0,2:0|2:0,2:0:0:0:
176,260,123288,2,0,L|107:252,1,67.5000001341106,0|0,3:0|2:0,2:0:0:0:
65,92,123458,6,0,B|141:124|141:124|163:154|163:154|220:89|220:89|355:56,1,270.000000536442,2|0,3:0|3:0,2:0:0:0:
414,99,123799,102,0,L|421:177,1,78.7500001564624,8|0,2:0|2:0,2:0:0:0:
303,69,123970,2,0,B|328:37|328:37|373:23,1,78.7500001564624,0|0,3:0|2:0,2:0:0:0:
497,326,124141,6,0,B|521:284|521:284|363:324|363:324|338:360|338:360|236:323|236:323|225:303|225:303|205:341|205:341|156:371,1,450.00000089407,2|8,3:0|2:0,2:0:0:0:
26,310,124652,2,0,B|10:297|10:297|-8:339|-8:339|77:353,1,112.500000223518,0|0,3:0|2:0,2:0:0:0:
216,362,124823,2,0,B|249:372|249:372|258:386|258:386|171:157|171:157|100:126,1,337.500000670553,2|0,3:0|3:0,2:0:0:0:
46,173,125164,102,0,B|51:237|51:237|123:220,1,120.000000238419,8|0,2:0|2:0,2:0:0:0:
142,39,125334,2,0,B|87:26|87:26|82:90,1,120.000000238419,0|0,3:0|2:0,2:0:0:0:
216,194,125505,2,0,B|279:213|279:213|359:103|359:103|437:102,1,240.000000476838,0|0,3:0|2:0,2:0:0:0:
512,136,125761,5,0,3:0:0:0:
505,228,125846,2,0,B|429:232|429:232|450:145,1,142.500000283122,8|0,2:0|2:0,2:0:0:0:
423,0,126017,2,0,B|497:14|497:14|454:93,1,142.500000283122,0|0,3:0|2:0,2:0:0:0:
306,203,126187,2,0,B|229:225|229:225|132:92|132:92|38:91,1,285.000000566245,0|0,3:0|2:0,2:0:0:0:
0,163,126443,101,0,3:0:0:0:
40,266,126528,2,0,B|85:248|85:248|97:185,1,112.500000223518,8|0,2:0|2:0,2:0:0:0:
215,46,126699,1,0,3:0:0:0:
147,9,126784,1,0,2:0:0:0:
75,38,126870,6,0,B|65:80|65:80|151:230,1,150.000000298023,6|0,3:2|2:0,2:0:0:0:
137,183,127040,2,0,L|176:229,1,56.250000111759,0|0,3:0|2:0,2:0:0:0:
258,149,127211,102,0,B|277:188|277:188|234:354,1,150.000000298023,0|0,3:0|2:0,2:0:0:0:
235,305,127381,2,0,L|209:359,1,56.250000111759,0|0,3:0|2:0,2:0:0:0:
362,196,127552,6,0,B|394:212|394:212|421:300|421:300|460:323,1,165.000000327826,2|0,3:0|2:0,2:0:0:0:
454,338,127722,2,0,L|424:389,1,56.250000111759,0|0,3:0|2:0,2:0:0:0:
512,156,127893,102,0,B|477:147|477:147|399:192|399:192|355:190,1,165.000000327826,0|0,3:0|2:0,2:0:0:0:
350,205,128063,2,0,L|340:263,1,56.250000111759,0|0,3:0|2:0,2:0:0:0:
499,27,128234,6,0,B|492:4|492:4|468:14|468:14|372:-8|372:-8|328:67,1,180.000000357628,2|0,3:0|2:0,2:0:0:0:
352,41,128405,2,0,L|390:105,1,56.250000111759,0|0,3:0|2:0,2:0:0:0:
104,147,128575,102,0,B|111:124|111:124|121:133|121:133|231:112|231:112|275:187,1,180.000000357628,0|0,3:0|2:0,2:0:0:0:
251,161,128746,2,0,L|213:225,1,56.250000111759,0|0,3:0|2:0,2:0:0:0:
56,382,128916,6,0,B|31:328|31:328|50:312|50:312|-3:272|-3:272|-6:262|-6:262|36:233,1,195.00000038743,2|0,3:0|2:0,2:0:0:0:
18,219,129087,2,0,B|74:215,1,56.250000111759,0|0,3:0|2:0,2:0:0:0:
278,15,129257,102,0,B|253:69|253:69|272:85|272:85|219:125|219:125|216:135|216:135|258:164,1,195.00000038743,0|0,3:0|2:0,2:0:0:0:
237,196,129428,2,0,B|293:200,1,56.250000111759,0|0,3:0|2:0,2:0:0:0:
474,359,129598,5,2,3:0:0:0:
506,381,129684,1,0,3:0:0:0:
512,342,129769,1,0,3:0:0:0:
473,319,129854,1,0,3:0:0:0:
424,333,129940,1,0,3:0:0:0:
396,375,130025,1,0,3:0:0:0:
346,363,130110,1,0,3:0:0:0:
312,317,130195,1,0,3:0:0:0:
324,262,130281,1,2,3:0:0:0:
355,314,130366,1,0,3:0:0:0:
283,326,130451,1,0,3:0:0:0:
229,274,130537,1,0,3:0:0:0:
256,200,130622,1,0,3:0:0:0:
223,122,130707,1,0,3:0:0:0:
147,71,130792,1,0,3:0:0:0:
53,91,130878,1,0,3:0:0:0:
6,240,130963,1,2,3:0:0:0:
20,249,131176,102,0,L|95:236,1,56.250000111759,0|0,2:0|2:0,2:0:0:0:
135,139,131304,6,0,L|205:167,1,75.0000001490117,0|0,2:0|2:0,2:0:0:0:
300,240,131432,102,0,L|354:206,3,46.8750000931324,0|0|0|0,2:0|2:0|2:0|2:0,2:0:0:0:
9,225,131645,6,0,B|34:214|34:214|50:192|50:192|46:214|46:214|104:198|104:198|124:167|124:167|129:183|129:183|174:194|174:194|169:203|169:203|218:203|218:203|185:212|185:212|244:213|244:213|268:241|268:241|298:198|298:198|293:187|293:187|312:193|312:193|302:178|302:178|322:153|322:153|480:220|480:220|413:204|413:204|394:176|394:176|393:208|393:208|367:135|367:135|238:115|238:115|215:128|215:128|210:162,1,1102.50000219047,4|0,3:0|2:0,2:0:0:0:
28,44,132327,6,0,B|-7:51|-7:51|-2:71|-2:71|9:80|9:80|-9:79|-9:79|-1:92|-1:92|11:122|11:122|2:83|2:83|12:112|12:112|12:94|12:94|12:122|12:122|25:127|25:127|47:153|47:153|25:116|25:116|36:147|36:147|23:139|23:139|54:133|54:133|63:157|63:157|84:155|84:155|93:159|93:159|64:145|64:145|88:154|88:154|83:148|83:148|109:162|109:162|128:182|128:182|123:165|123:165|131:187|131:187|128:205|128:205|132:194|132:194|131:207|131:207|125:223|125:223|117:238|117:238|118:225|118:225|108:239|108:239|124:230|124:230|102:236|102:236|100:256|100:256|74:281|74:281|88:247|88:247|66:260|66:260|69:263|69:263|51:284|51:284|70:283|70:283|50:293|50:293|52:311|52:311|70:298|70:298|52:337|52:337|68:337|68:337|70:381|70:381|65:382|65:382|56:356|56:356|95:378|95:378|78:366|78:366|135:381|135:381|118:370|118:370|132:369|132:369|167:368|167:368|151:366|151:366|159:378|159:378|152:359|152:359|180:355|180:355|195:368|195:368|200:349|200:349|225:348|225:348|206:369|206:369|226:366|226:366|239:338|239:338|234:362|234:362|241:347|241:347|290:336|290:336|255:339|255:339|291:326|291:326|270:336|270:336|328:321|328:321|350:301|350:301|328:327|328:327|343:316|343:316|358:317|358:317|330:312|330:312|349:294|349:294|346:288|346:288|342:266|342:266|363:305|363:305|358:279|358:279|358:267|358:267|354:246|354:246|330:231|330:231|342:244|342:244|312:222|312:222|316:234|316:234|277:207|277:207|313:219|313:219|265:218|265:218|280:210|280:210|244:196|244:196|269:202|269:202|252:208|252:208|229:182|229:182|217:165|217:165|222:180|222:180|228:187|228:187|211:174|211:174|213:164|213:164|206:143|206:143|217:144|217:144|218:166|218:166|225:135|225:135|238:117|238:117|234:127|234:127|259:113|259:113|262:92|262:92|264:110|264:110|288:63|288:63|288:79|288:79|276:96|276:96|280:70|280:70|298:56|298:56|285:47|285:47|280:16|280:16|306:50|306:50|290:27|290:27|286:8|286:8|276:3|276:3|285:-4|285:-4|277:18|277:18|281:-14|281:-14|266:-9|266:-9|240:-7|240:-7|205:-14|205:-14|223:9|223:9|201:15|201:15|193:-2|193:-2|156:24|156:24|189:12|189:12|153:19|153:19|136:11|136:11|140:26|140:26|116:32|116:32|114:19|114:19|95:32|95:32|105:-1|105:-1|90:27|90:27|50:37|50:37|86:35|86:35|47:24|47:24|36:42,1,3646.49993491143,14|2,3:1|3:0,2:0:0:0:
156,323,134715,5,8,2:0:0:0:
190,262,134801,1,2,2:0:0:0:
260,288,134886,1,0,3:0:0:0:
325,279,134971,1,0,2:0:0:0:
421,302,135056,2,0,B|444:258|444:258|380:189|380:189|446:127,1,195.000000387431,2|0,3:0|2:0,2:0:0:0:
485,110,135312,101,0,3:0:0:0:
401,141,135398,2,0,B|341:123|341:123|321:150|321:150|176:117|176:117|151:155,1,277.500000551344,8|0,2:0|2:0,2:0:0:0:
156,160,135568,1,0,3:0:0:0:
491,94,135824,6,0,B|468:-2,2,97.5000001937153,0|0|0,3:0|2:0|2:0,2:0:0:0:
495,272,136080,2,0,B|524:271|524:271|487:258|487:258|424:286|424:286|394:268|394:268|312:259,1,240.000000476838,8|0,2:0|2:0,2:0:0:0:
121,147,136336,101,0,3:0:0:0:
186,193,136421,2,0,B|202:211|202:211|216:250,1,45.000000089407,2|0,3:0|2:0,2:0:0:0:
86,348,136591,5,0,3:0:0:0:
54,272,136677,1,0,3:0:0:0:
4,339,136762,2,0,B|9:358|9:358|64:293|64:293|76:328|76:328|239:348|239:348|264:335|264:335|254:325|254:325|266:312|266:312|380:296,1,450.000000894071,8|0,2:0|3:0,2:0:0:0:
462,282,137018,2,0,B|457:301|457:301|402:236|402:236|390:271|390:271|231:306|231:306|206:257|206:257,1,187.500000372529,0|0,2:0|2:0,2:0:0:0:
48,185,137188,101,0,3:0:0:0:
39,109,137274,1,0,3:0:0:0:
74,43,137359,1,0,3:0:0:0:
191,102,137444,1,8,2:0:0:0:
160,146,137530,1,0,2:0:0:0:
121,107,137615,1,0,3:0:0:0:
180,85,137700,1,0,2:0:0:0:
267,137,137785,86,0,L|416:158,1,135.000000268221,6|0,3:2|2:0,2:0:0:0:
418,180,138382,1,0,3:0:0:0:
418,180,138468,2,0,L|511:170,1,90.0000001788141,2|0,2:0|3:0,2:0:0:0:
423,243,139747,5,0,3:0:0:0:
423,243,139832,1,2,2:0:0:0:
328,231,140003,1,0,3:0:0:0:
192,277,140173,1,0,2:0:0:0:
154,356,140344,1,0,3:0:0:0:
435,251,140514,6,0,B|444:278|444:278|371:262|371:262|360:243|360:243|247:214|247:214|192:193,1,225.000000447035,6|0,3:1|2:0,2:0:0:0:
197,193,140770,1,0,3:0:0:0:
197,193,140856,2,0,L|216:141,1,56.250000111759,0|0,2:0|2:0,2:0:0:0:
289,90,141026,2,0,L|308:142,1,56.250000111759,0|0,3:0|2:0,2:0:0:0:
140,258,141197,2,0,B|109:235|109:235|97:159,1,71.2500001415611,0|0,2:0|3:0,2:0:0:0:
163,29,141367,2,0,B|158:67|158:67|131:92,1,71.2500001415611,0|0,2:0|2:0,2:0:0:0:
20,326,141538,5,2,2:0:0:0:
50,310,141623,1,0,2:0:0:0:
80,278,141708,1,0,2:0:0:0:
135,294,141794,1,0,3:0:0:0:
216,341,141879,101,2,3:0:0:0:
226,337,141964,1,0,2:0:0:0:
231,327,142049,1,0,3:0:0:0:
229,315,142135,1,0,3:0:0:0:
234,282,142220,1,0,2:0:0:0:
280,250,142305,1,0,2:0:0:0:
335,263,142391,1,0,3:0:0:0:
354,315,142476,1,0,2:0:0:0:
298,384,142561,6,0,L|313:294,1,75.0000001490117,2|0,2:0|2:0,2:0:0:0:
298,311,142646,2,0,L|348:236,1,75.0000001490117,0|0,3:0|2:0,2:0:0:0:
327,244,142732,2,0,L|403:195,1,75.0000001490117,0|0,2:0|2:0,2:0:0:0:
381,195,142817,2,0,L|470:183,1,75.0000001490117,0|0,3:0|2:0,2:0:0:0:
512,269,142902,102,0,B|516:242|516:242|444:285|444:285|454:223,1,131.25000026077,2|0,2:0|2:0,2:0:0:0:
415,286,142988,2,0,B|431:264|431:264|348:265|348:265|387:217,1,131.25000026077,0|0,2:0|2:0,2:0:0:0:
322,252,143073,2,0,B|347:241|347:241|274:201|274:201|332:178,1,131.25000026077,0|0,3:0|2:0,2:0:0:0:
258,176,143158,2,0,B|285:180|285:180|242:108|242:108|303:118,1,131.25000026077,0|0,2:0|2:0,2:0:0:0:
240,78,143243,2,0,B|264:77|264:77|332:104,3,56.250000111759,6|0|0|0,3:2|2:0|2:0|2:0,2:0:0:0:
321,99,143584,6,0,B|368:66|368:66|205:113|205:113|181:152|181:152|23:183|23:183|-1:122|-1:122|47:49,1,540.000001072884,8|0,2:0|3:0,2:0:0:0:
95,46,143926,102,0,P|142:61|93:50,1,150.000000298023,2|0,2:0|3:0,2:0:0:0:
8,176,144096,1,0,2:0:0:0:
20,250,144181,1,0,2:0:0:0:
79,288,144267,2,0,B|105:312|105:312|190:292|190:292|287:309|287:309|302:355|302:355|288:400,1,300.000000596047,8|0,2:0|2:0,2:0:0:0:
205,368,144523,1,0,3:0:0:0:
194,286,144608,2,0,B|216:255|216:255|252:251,1,75.0000001490117,0|0,3:0|2:0,2:0:0:0:
455,312,144778,1,0,3:0:0:0:
450,327,144864,1,0,3:0:0:0:
386,383,144949,2,0,B|336:375|336:375|312:326,1,90.0000001788141,8|0,2:0|2:0,2:0:0:0:
435,214,145120,5,0,3:0:0:0:
461,194,145205,2,0,B|474:159|474:159|458:122|458:122|472:78,1,112.500000223518,0|0,2:0|2:0,2:0:0:0:
503,2,145461,102,0,P|505:52|512:2,1,150.000000298023,2|0,3:0|2:0,2:0:0:0:
294,30,145631,1,8,2:0:0:0:
338,93,145717,2,0,P|373:124|344:88,1,135.000000268221,2|0,2:0|3:0,2:0:0:0:
202,198,145887,1,0,2:0:0:0:
278,226,145972,2,0,P|319:223|278:218,1,120.000000238419,2|0,3:0|2:0,2:0:0:0:
14,79,146228,5,0,3:0:0:0:
42,0,146313,2,0,B|85:8|85:8|157:111,1,150.000000298023,8|0,2:0|2:0,2:0:0:0:
160,255,146484,1,0,3:0:0:0:
205,190,146569,2,0,B|160:175|160:175|75:208|75:208,1,112.500000223518,0|0,2:0|2:0,2:0:0:0:
152,276,146740,2,0,B|209:289|209:289|234:378,1,112.500000223518,0|0,3:0|2:0,2:0:0:0:
304,384,146996,102,0,B|312:333|312:333|349:311|349:311|304:213,1,195.000000387431,8|0,2:0|2:0,2:0:0:0:
216,123,147252,1,0,3:0:0:0:
308,143,147337,2,0,P|345:158|305:149,1,120.000000238419,2|0,3:0|2:0,2:0:0:0:
201,104,147507,1,0,2:0:0:0:
212,82,147593,1,0,2:0:0:0:
294,39,147678,2,0,B|346:49|346:49|366:70|366:70|441:93,1,120.000000238419,8|0,2:0|2:0,2:0:0:0:
488,111,147849,1,0,3:0:0:0:
502,100,147934,2,0,L|518:16,1,56.250000111759,0|0,2:0|2:0,2:0:0:0:
299,125,148104,2,0,B|289:151|289:151|303:175,1,56.250000111759,0|0,3:0|2:0,2:0:0:0:
486,276,148275,5,0,3:0:0:0:
412,308,148360,1,8,2:0:0:0:
334,298,148445,1,0,2:0:0:0:
273,248,148531,1,0,3:0:0:0:
194,251,148616,1,0,2:0:0:0:
83,367,148701,1,6,3:2:0:0:
27,85,149042,38,0,L|86:54,1,56.2500001117592,8|0,2:0|2:0,2:0:0:0:
93,172,149384,2,0,L|205:230,1,112.500000223518,8|0,2:0|2:0,2:0:0:0:
141,105,149725,2,0,L|160:41,1,56.2500001117592,8|0,2:0|2:0,2:0:0:0:
371,21,150066,6,0,B|408:77|408:77|354:161|354:161|412:258,1,225.000000447035,6|0,3:2|2:0,2:0:0:0:
512,351,150407,102,0,L|453:382,1,56.2500001117592,8|0,2:0|2:0,2:0:0:0:
446,264,150748,2,0,L|333:205,1,112.500000223518,8|0,2:0|2:0,2:0:0:0:
398,331,151089,2,0,L|378:394,1,56.2500001117592,8|0,2:0|2:0,2:0:0:0:
163,336,151430,22,0,B|74:302|74:302|15:349,1,150.000000298023,6|0,3:2|2:0,2:0:0:0:
269,366,151686,2,0,B|254:271|254:271|183:243,1,150.000000298023,12|0,3:2|2:0,2:0:0:0:
139,187,151942,2,0,B|227:153|227:153|286:200,1,150.000000298023,4|0,3:2|2:0,2:0:0:0:
32,217,152198,2,0,B|46:122|46:122|117:95,1,150.000000298023,12|0,3:2|2:0,2:0:0:0:
166,39,152454,2,0,B|77:6|77:6|19:53,1,150.000000298023,12|0,3:2|2:0,2:0:0:0:
139,187,152710,1,12,3:2:0:0:
415,1,152880,22,0,L|371:23,1,37.5000000745059,10|0,3:2|2:0,2:0:0:0:
376,11,152965,2,0,L|361:58,1,37.5000000745059,0|0,3:2|2:0,2:0:0:0:
352,43,153051,2,0,L|374:86,1,37.5000000745059,0|0,3:2|2:0,2:0:0:0:
402,107,153136,6,0,B|430:142|430:142|393:197,1,75.0000001490117,10|0,3:2|2:0,2:0:0:0:
425,157,153221,2,0,B|420:201|420:201|354:214,1,75.0000001490117,0|0,3:2|2:0,2:0:0:0:
405,208,153306,2,0,B|370:236|370:236|315:199,1,75.0000001490117,0|0,3:2|2:0,2:0:0:0:
354,229,153392,2,0,B|309:224|309:224|296:158,1,75.0000001490117,10|0,3:2|2:0,2:0:0:0:
278,171,153477,102,0,B|319:158|319:158|341:180|341:180|432:175,1,112.500000223518,0|0,3:2|2:0,2:0:0:0:
352,156,153562,2,0,B|385:182|385:182|380:213|380:213|436:284,1,112.500000223518,10|0,3:2|2:0,2:0:0:0:
405,208,153648,2,0,B|402:250|402:250|373:264|373:264|348:351,1,112.500000223518,0|0,3:2|2:0,2:0:0:0:
393,282,153733,2,0,B|356:304|356:304|328:288|328:288|243:317,1,112.500000223518,0|0,3:2|2:0,2:0:0:0:
274,323,153818,6,0,B|275:339|275:339|223:268|223:268|244:259|244:259|261:289,1,150.000000298023,10|0,3:2|2:0,2:0:0:0:
224,253,153903,2,0,B|220:269|220:269|189:187|189:187|211:183|211:183|220:216,1,150.000000298023,0|0,3:2|2:0,2:0:0:0:
193,172,153989,2,0,B|185:187|185:187|176:99|176:99|199:102|199:102|198:136,1,150.000000298023,0|0,3:2|2:0,2:0:0:0:
184,85,154074,2,0,B|172:98|172:98|186:11|186:11|208:18|208:18|198:52,1,150.000000298023,10|0,3:2|2:0,2:0:0:0:
199,1,154159,38,0,B|342:13|342:13|332:123|220:129|220:129|329:155|320:258|320:258|177:253|177:253|477:279|477:279|336:259|336:259|345:156|457:150|457:150|348:125|357:14|357:14|515:28,1,1620.93750322052,2|0,3:0|2:0,2:0:0:0:
512,28,162346,6,0,B|467:23|467:23|465:33|465:33|449:10|449:10|447:23|447:23|402:18|402:18|400:12|400:12|396:17|396:17|359:14|359:14|368:78|368:78|381:81|381:81|370:88|370:88|373:116|373:116|420:134|420:134|432:123|432:123|430:139|430:139|459:151|459:151|432:157|432:157|428:175|428:175|421:159|421:159|369:169|369:169|360:194|360:194|371:203|371:203|357:204|357:204|338:259|338:259|410:269|410:269|420:250|420:250|424:271|424:271|478:279|478:279|423:275|423:275|413:296|413:296|410:273|410:273|336:267|336:267|328:262|328:262|319:265|319:265|246:259|246:259|237:281|237:281|233:258|233:258|178:253|178:253|233:254|233:254|242:236|242:236|247:255|247:255|320:258|320:258|311:200|311:200|297:196|297:196|309:189|309:189|305:164|305:164|255:145|255:145|245:159|245:159|245:141|245:141|219:130|219:130|249:123|249:123|251:107|251:107|260:120|260:120|310:110|310:110|318:84|318:84|308:75|308:75|322:74|322:74|341:13|341:13|304:9|304:9|301:3|301:3|298:9|298:9|253:6|253:6|254:-7|254:-7|234:13|234:13|234:3|234:3|183:-1,1,2022.75000401885,0|0,2:0|2:0,2:0:0:0:
164,21,165075,102,0,L|139:116,1,90.0000001788142,0|0,3:0|3:0,3:0:0:0:
64,44,165928,1,0,3:0:0:0:
64,44,166269,1,0,3:0:0:0:
142,107,166440,2,0,L|117:202,1,90.0000001788142,0|0,3:0|3:0,3:0:0:0:
42,131,167292,1,0,3:0:0:0:
124,178,167719,1,0,3:0:0:0:
121,194,167804,2,0,L|96:289,1,90.0000001788142,0|0,3:0|3:0,3:0:0:0:
99,281,169169,2,0,L|74:376,1,90.0000001788142,0|0,3:0|3:0,3:0:0:0:
0,305,170021,1,0,3:0:0:0:
331,358,170533,6,0,P|340:314|371:282,1,90.0000001788142,0|0,3:0|3:0,3:0:0:0:
334,372,171386,1,0,3:0:0:0:
334,372,171727,1,0,3:0:0:0:
370,282,171898,2,0,P|401:250|411:207,1,90.0000001788142,0|0,3:0|3:0,3:0:0:0:
356,286,172750,1,0,3:0:0:0:
414,221,173177,1,0,3:0:0:0:
411,207,173262,2,0,P|420:163|451:131,1,90.0000001788142,0|0,3:0|3:0,3:0:0:0:
450,131,174627,2,0,P|481:99|491:56,1,90.0000001788142,0|0,3:0|3:0,3:0:0:0:
436,133,175479,1,0,3:0:0:0:
95,280,175991,102,0,B|19:219|-7:143|-7:143|98:48|323:-31|471:134|434:174|521:238|521:238|422:265|436:326|233:349|139:300|139:300|101:225|120:114|197:69|197:69|285:53|355:100|355:100|397:170|374:257|324:315|324:315|284:319|246:318|246:318|242:289|260:257|260:257|271:252|271:252|246:243|211:208|225:161|250:139|250:139|215:141|168:209|228:268|271:252|271:252,1,2294.40004657029,2|0,3:0|2:0,2:0:0:0:
256,192,186928,12,0,197738,2:0:0:0:
143,241,197823,22,0,B|123:228|123:228|171:242|171:242|171:263|171:263|231:243|231:243|229:253|229:253|254:227|254:227|283:256|283:256|296:245|296:245|327:281|327:281|400:265,1,360.000000715257,6|0,3:2|2:0,2:0:0:0:
138,252,198335,2,0,B|119:215|119:215|-15:164|-15:164|40:147,1,240.000000476838,2|0,3:2|2:0,2:0:0:0:
111,125,199187,5,0,2:0:0:0:
202,112,199358,1,0,2:0:0:0:
119,136,199529,1,0,2:0:0:0:
222,92,199699,1,0,2:0:0:0:
401,156,199870,1,0,2:0:0:0:
10,56,200211,1,2,3:2:0:0:
493,221,200552,1,2,3:2:0:0:
0,67,201064,1,2,3:2:0:0:
21,215,201234,102,0,P|56:169|134:136,1,135.000000268221,2|0,2:0|2:0,2:0:0:0:
75,25,201916,2,0,B|133:15|161:83|127:93|150:146|205:152,1,180.000000357628,2|0,2:0|2:0,2:0:0:0:
265,0,202599,1,2,2:0:0:0:
299,74,202769,1,0,2:0:0:0:
239,216,202940,2,0,B|208:239|208:239|242:360,1,157.500000312924,2|0,2:0|2:0,2:0:0:0:
89,335,203281,6,0,B|132:313|132:313|152:344|152:344|211:370,1,150.000000298024,2|0,3:0|2:0,2:0:0:0:
230,374,203793,1,2,3:2:0:0:
299,292,203963,2,0,B|339:270|387:239|463:260|496:318|444:375|393:371|350:314|350:314|328:279|296:264,1,378.000000751019,2|0,2:0|2:0,2:0:0:0:
224,216,205157,102,0,L|253:212,1,22.5000000447035,0|0,2:0|2:0,2:0:0:0:
162,172,205328,2,0,L|331:195,1,146.250000290574,0|0,2:0|2:0,2:0:0:0:
476,152,205669,2,0,B|459:127|459:127|371:147|371:147|348:117,1,146.250000290574,2|0,3:2|2:0,2:0:0:0:
512,222,206010,6,0,B|482:196|497:161|497:161|522:105,1,112.500000223518,2|0,3:2|2:0,2:0:0:0:
512,75,206522,1,2,3:2:0:0:
352,111,206692,2,0,P|292:117|192:15,1,210.000000417233,2|0,2:0|2:0,2:0:0:0:
188,7,207374,101,0,2:0:0:0:
111,39,207545,1,0,2:0:0:0:
201,0,207715,1,0,2:0:0:0:
90,18,207886,1,0,2:0:0:0:
13,162,208057,1,0,2:0:0:0:
295,26,208398,1,2,2:0:0:0:
9,369,208739,6,0,B|-15:354|0:327|0:327|16:321|16:321|289:374,1,337.500000670553,2|0,3:0|2:0,2:0:0:0:
362,382,209251,1,2,3:2:0:0:
167,318,209421,2,0,B|187:261|156:221|156:221|148:155|206:121|206:121|176:175|210:225,1,315.000000625849,2|0,2:0|2:0,2:0:0:0:
313,283,210103,101,0,2:0:0:0:
352,199,210274,1,0,2:0:0:0:
330,281,210444,1,0,2:0:0:0:
375,188,210615,1,0,2:0:0:0:
305,39,210786,1,0,2:0:0:0:
28,346,211127,1,2,3:2:0:0:
476,107,211468,6,0,B|527:91|500:18|353:48|428:199|500:126|484:235,1,262.500000521541,2|0,3:0|2:0,2:0:0:0:
469,267,211980,1,2,3:2:0:0:
366,204,212150,2,0,P|329:229|299:263,1,90.0000001788142,2|0,2:0|2:0,2:0:0:0:
331,359,212662,101,0,2:0:0:0:
386,275,212832,2,0,L|375:217,1,60.0000001192094,0|0,2:0|2:0,2:0:0:0:
506,323,213173,2,0,L|475:271,1,60.0000001192094,0|0,2:0|2:0,2:0:0:0:
366,204,213515,1,0,2:0:0:0:
279,229,213685,1,0,2:0:0:0:
132,146,213856,2,0,B|104:108|104:108|33:135|33:135|-22:149,1,157.500000312924,2|0,2:0|2:0,2:0:0:0:
130,104,214197,6,0,B|165:77|218:104|193:129|244:152|289:132,1,150.000000298024,2|0,3:0|2:0,2:0:0:0:
281,131,214708,1,2,3:0:0:0:
455,87,214879,2,0,B|521:69|521:69|485:78|429:57|495:24|386:18|330:46|314:157|407:195,1,384.00000076294,2|0,2:0|2:0,2:0:0:0:
301,222,215732,102,0,P|275:303|292:336,1,90.0000001788139,0|0,2:0|2:0,2:0:0:0:
442,306,216073,2,0,L|413:302,1,22.5000000447035,0|0,2:0|2:0,2:0:0:0:
504,262,216244,2,0,L|335:285,1,146.250000290574,0|0,2:0|2:0,2:0:0:0:
504,381,216585,2,0,B|523:366|523:366|373:350,1,146.250000290573,2|0,3:2|2:0,2:0:0:0:
504,262,216926,6,0,B|522:218|482:220|515:142,1,112.500000223518,2|0,3:2|2:0,2:0:0:0:
512,123,217437,1,2,3:2:0:0:
379,169,217608,2,0,B|319:174|281:108|333:120|266:37|201:65,1,210.000000417233,2|0,2:0|2:0,2:0:0:0:
188,81,218290,101,0,2:0:0:0:
198,91,218376,1,0,2:0:0:0:
218,87,218461,1,0,2:0:0:0:
226,61,218546,1,0,2:0:0:0:
195,47,218631,1,0,2:0:0:0:
164,70,218717,1,0,2:0:0:0:
157,114,218802,1,0,2:0:0:0:
173,162,218887,1,0,2:0:0:0:
223,187,218973,1,0,2:0:0:0:
250,243,219058,1,0,2:0:0:0:
227,307,219143,1,0,2:0:0:0:
153,322,219228,1,0,2:0:0:0:
100,259,219314,6,0,P|135:220|181:218,1,93.7500001862647,2|0,0:0|3:0,3:0:0:0:
174,240,219399,2,0,P|216:271|261:264,1,93.7500001862647,0|0,0:0|3:0,3:0:0:0:
250,243,219484,2,0,P|300:228|340:250,1,93.7500001862647
325,263,219569,2,0,P|360:301|406:303,1,93.7500001862647
410,292,219655,102,0,B|379:270|379:270|420:251|420:251|407:239|407:239|433:204|433:204|452:138|452:138|410:113|410:113|425:159,1,300.000000596047,2|8,3:0|2:0,2:0:0:0:
447,367,220166,1,2,3:2:0:0:
512,52,220508,5,0,2:0:0:0:
219,118,220678,1,8,2:0:0:0:
287,26,220849,1,0,3:0:0:0:
469,135,221019,1,0,3:0:0:0:
30,171,221360,1,8,2:0:0:0:
40,159,221702,102,0,B|91:171|91:171|102:222,1,90.000000178814,0|0,2:0|2:0,2:0:0:0:
89,247,221872,1,0,3:0:0:0:
392,208,222043,1,10,3:2:0:0:
375,191,222298,5,0,2:0:0:0:
384,109,222384,2,0,B|400:75|400:75|431:61|431:61|427:111|427:111|461:168,1,157.500000312924,2|0,3:2|2:0,2:0:0:0:
470,143,222725,1,8,2:0:0:0:
414,354,222895,1,2,3:2:0:0:
512,241,223066,102,0,L|412:252,1,52.5000001043082,2|0,2:0|2:0,2:0:0:0:
411,250,223237,1,0,3:0:0:0:
280,384,223407,1,8,2:0:0:0:
364,352,223578,1,0,3:0:0:0:
287,145,223748,6,0,B|239:141|192:199|262:221|208:276|147:283,1,180.000000357628,2|0,3:0|2:0,2:0:0:0:
163,275,224089,1,8,2:0:0:0:
192,87,224345,1,0,3:0:0:0:
130,142,224430,2,0,L|151:208,1,67.5000001341106,2|0,3:0|3:0,2:0:0:0:
196,3,224601,1,0,3:0:0:0:
65,94,224772,2,0,B|39:110|39:110|54:166,1,67.5000001341106,10|0,3:2|2:0,2:0:0:0:
65,225,224942,1,0,3:0:0:0:
351,50,225113,102,0,B|399:60|399:60|425:164|425:164|514:190,1,202.500000402332,2|0,3:2|2:0,2:0:0:0:
492,185,225454,1,8,2:0:0:0:
280,112,225624,1,2,3:2:0:0:
508,51,225795,2,0,B|513:85|513:85|479:112,1,60.0000001192094,2|0,2:0|2:0,2:0:0:0:
236,22,225966,1,0,3:0:0:0:
155,108,226136,1,8,2:0:0:0:
412,110,226307,1,0,3:0:0:0:
470,213,226477,1,0,3:0:0:0:
56,120,226818,1,8,2:0:0:0:
70,105,227330,5,0,3:0:0:0:
328,44,227501,1,10,3:2:0:0:
304,35,227756,101,0,2:0:0:0:
372,102,227842,2,0,B|388:135|388:135|433:148|433:148|400:128|400:128|326:120|264:194,1,225.000000447035,2|0,3:2|2:0,2:0:0:0:
281,169,228183,1,8,2:0:0:0:
253,384,228353,1,2,3:2:0:0:
178,261,228524,2,0,P|142:271|115:297,1,75.0000001490117,2|0,2:0|2:0,2:0:0:0:
114,325,228695,5,0,3:0:0:0:
426,299,228865,1,8,2:0:0:0:
322,363,229036,1,0,3:0:0:0:
223,107,229206,1,0,3:0:0:0:
356,70,229377,101,0,2:0:0:0:
358,85,229462,1,0,2:0:0:0:
342,101,229547,1,8,2:0:0:0:
314,89,229633,1,0,2:0:0:0:
302,53,229718,1,0,2:0:0:0:
323,13,229803,1,0,2:0:0:0:
367,0,229888,1,0,3:0:0:0:
406,45,229974,1,0,3:0:0:0:
408,104,230059,1,0,3:0:0:0:
376,151,230144,1,0,2:0:0:0:
320,173,230230,1,10,3:2:0:0:
304,99,230315,1,0,2:0:0:0:
244,53,230400,1,0,3:0:0:0:
169,53,230485,1,0,2:0:0:0:
100,88,230571,6,0,B|59:212|59:212|123:180|123:180|208:410,1,390.000000774861,6|8,3:1|2:0,2:0:0:0:
12,291,231082,102,0,B|37:249|37:249|25:307,1,97.5000001937153,2|0,3:2|2:0,2:0:0:0:
12,379,231253,2,0,B|66:375|66:375|110:334|110:334|204:305,1,195.000000387431,2|0,3:0|2:0,2:0:0:0:
350,262,231509,5,0,3:0:0:0:
330,271,231594,2,0,L|318:349,1,56.250000111759,8|0,2:0|2:0,2:0:0:0:
285,208,231765,2,0,L|292:283,1,56.250000111759,0|0,3:0|2:0,2:0:0:0:
393,384,231935,2,0,L|432:244,1,112.500000223518,0|0,3:0|2:0,2:0:0:0:
434,125,232191,101,0,3:0:0:0:
457,135,232276,2,0,L|471:228,1,67.5000001341106,8|0,2:0|2:0,2:0:0:0:
512,43,232447,2,0,L|503:133,1,67.5000001341106,0|0,3:0|2:0,2:0:0:0:
380,299,232617,2,0,L|333:130,1,135.000000268221,0|0,3:0|2:0,2:0:0:0:
292,78,232873,5,0,3:0:0:0:
264,90,232959,2,0,L|246:202,1,78.7500001564624,10|0,3:2|2:0,2:0:0:0:
177,0,233129,2,0,L|187:108,1,78.7500001564624,0|0,3:0|2:0,2:0:0:0:
6,384,233300,102,0,B|74:352|74:352|-11:262|-11:262|23:219|23:219|73:1,1,450.00000089407,2|8,3:2|2:0,2:0:0:0:
96,149,233811,6,0,B|137:160|137:160|135:128|135:128|86:141,1,112.500000223518,2|0,3:2|2:0,2:0:0:0:
2,126,233982,2,0,B|48:133|48:133|163:82|163:82|181:104|181:104|237:137,1,225.000000447035,2|0,3:0|2:0,2:0:0:0:
433,119,234238,101,0,3:0:0:0:
366,83,234323,2,0,B|296:103|296:103|308:158,1,120.000000238419,8|0,2:0|2:0,2:0:0:0:
363,223,234494,2,0,B|425:185|425:185|399:135,1,120.000000238419,0|0,3:0|2:0,2:0:0:0:
283,62,234664,2,0,B|264:125|264:125|285:174|285:174|251:306,1,240.000000476838,0|0,3:0|2:0,2:0:0:0:
132,371,234920,5,0,3:0:0:0:
69,303,235005,2,0,B|26:226|26:226|83:190,1,142.500000283122,8|0,2:0|2:0,2:0:0:0:
204,223,235176,2,0,B|225:307|225:307|160:328,1,142.500000283122,0|0,3:0|2:0,2:0:0:0:
0,263,235346,2,0,B|37:193|37:193|96:169|96:169|179:28,1,285.000000566245,0|0,3:0|2:0,2:0:0:0:
392,11,235602,101,0,3:0:0:0:
471,54,235688,2,0,B|476:78|476:78|446:116|446:116|371:104,1,112.500000223518,8|0,2:0|2:0,2:0:0:0:
207,83,235858,1,0,3:0:0:0:
132,66,235943,1,0,2:0:0:0:
85,4,236029,6,0,L|63:176,1,150.000000298023,2|0,3:0|2:0,2:0:0:0:
74,181,236199,2,0,L|113:227,1,56.250000111759,0|0,3:0|2:0,2:0:0:0:
232,169,236370,102,0,L|165:328,1,150.000000298023,0|0,3:0|2:0,2:0:0:0:
153,327,236540,2,0,L|96:347,1,56.250000111759,0|0,3:0|2:0,2:0:0:0:
323,329,236711,6,0,B|256:216|256:216|173:187,1,165.000000327826,2|0,3:0|2:0,2:0:0:0:
194,200,236881,2,0,L|132:229,1,56.250000111759,0|0,3:0|2:0,2:0:0:0:
265,383,237052,102,0,B|337:270|337:270|418:239,1,165.000000327826,0|0,3:0|2:0,2:0:0:0:
384,267,237223,2,0,L|446:296,1,56.250000111759,0|0,3:0|2:0,2:0:0:0:
430,118,237393,6,0,B|345:136|345:136|309:130|309:130|312:224,1,180.000000357628,0|0,3:0|2:0,2:0:0:0:
327,197,237564,2,0,L|278:281,1,56.250000111759,0|0,3:0|2:0,2:0:0:0:
511,316,237734,102,0,B|438:268|438:268|416:238|416:238|352:307,1,180.000000357628,0|0,3:0|2:0,2:0:0:0:
382,299,237905,2,0,L|287:323,1,56.250000111759,0|0,3:0|2:0,2:0:0:0:
116,378,238075,6,0,B|68:358|68:358|66:315|66:315|24:288|24:288|102:241,1,195.00000038743,0|0,3:0|2:0,2:0:0:0:
75,252,238246,2,0,B|35:197,1,56.250000111759,0|0,3:0|2:0,2:0:0:0:
107,2,238416,102,0,B|154:23|154:23|155:66|155:66|197:94|197:94|118:140,1,195.00000038743,0|0,3:0|2:0,2:0:0:0:
145,129,238587,2,0,B|174:199,1,56.250000111759,0|0,3:0|2:0,2:0:0:0:
512,191,238758,5,0,3:0:0:0:
471,229,238843,1,0,3:0:0:0:
423,191,238928,1,0,3:0:0:0:
362,202,239013,1,0,3:0:0:0:
322,257,239099,1,0,3:0:0:0:
261,231,239184,1,0,3:0:0:0:
224,169,239269,1,0,3:0:0:0:
157,200,239355,1,0,3:0:0:0:
124,273,239440,1,0,3:0:0:0:
55,237,239525,1,0,3:0:0:0:
68,154,239610,1,0,3:0:0:0:
149,128,239696,1,0,3:0:0:0:
252,179,239781,102,0,B|296:163|296:163|162:300,1,150.000000298023,0|0,3:0|2:0,2:0:0:0:
177,229,239866,2,0,B|216:204|216:204|26:222,1,150.000000298023,0|0,3:0|2:0,2:0:0:0:
92,178,239952,2,0,B|107:222|107:222|-29:88,1,150.000000298023,0|0,3:0|2:0,2:0:0:0:
72,95,240037,2,0,B|47:55|47:55|65:246,1,150.000000298023,0|0,3:0|2:0,2:0:0:0:
40,212,240122,86,0,P|18:229|11:239,14,30.0000000596047,2|0|0|0|0|0|0|0|0|0|0|0|0|0|0,3:0|2:0|2:0|2:0|2:0|2:0|2:0|2:0|2:0|2:0|2:0|2:0|2:0|2:0|2:0,2:0:0:0:
156,114,241487,53,6,3:0:0:0:
76,60,241572,1,0,2:0:0:0:
261,46,241657,2,0,B|140:67|140:67|-1:27,1,172.500000342727,2|0,2:0|2:0,2:0:0:0:
220,38,241828,6,0,L|201:74,1,37.5000000745059,8|0,2:0|2:0,2:0:0:0:
296,119,241998,1,0,2:0:0:0:
330,148,242084,1,0,3:0:0:0:
418,110,242169,1,0,2:0:0:0:
427,134,242254,1,0,3:0:0:0:
509,149,242339,1,0,2:0:0:0:
506,167,242425,1,0,2:0:0:0:
442,227,242510,102,0,B|270:194|270:194|335:281,1,225.000000447035,10|0,2:0|2:0,2:0:0:0:
259,193,242681,2,0,L|288:270,1,75.0000001490117,0|0,2:0|3:0,2:0:0:0:
311,346,242851,5,0,3:0:0:0:
323,352,242936,1,0,2:0:0:0:
411,301,243022,101,0,2:0:0:0:
339,351,243107,1,0,2:0:0:0:
227,323,243192,5,8,2:0:0:0:
220,339,243277,1,0,2:0:0:0:
247,327,243363,1,0,3:0:0:0:
161,259,243448,2,0,B|-4:276|-4:276|92:257|92:257|150:272|150:272|297:261,1,450.000000894071,2|0,2:0|2:0,2:0:0:0:
358,282,243704,101,0,3:0:0:0:
368,300,243789,1,0,2:0:0:0:
261,242,243874,2,0,L|267:210,1,30.0000000596047,10|0,2:0|3:0,2:0:0:0:
331,138,244216,5,0,3:0:0:0:
350,137,244301,1,0,2:0:0:0:
354,152,244386,1,0,2:0:0:0:
371,152,244471,1,0,2:0:0:0:
440,119,244557,101,8,2:0:0:0:
323,144,244642,1,0,2:0:0:0:
206,168,244727,1,0,2:0:0:0:
124,163,244813,2,0,B|143:152|143:152|175:193,1,56.250000111759,0|0,3:0|2:0,2:0:0:0:
261,105,244983,2,0,B|239:99|239:99|246:47,1,56.250000111759,0|0,3:0|2:0,2:0:0:0:
266,91,245239,6,0,B|230:104|230:104|218:88|218:88|171:67|171:67|169:58|169:58|146:71|146:71|102:64|102:64|92:53|92:53|83:55|83:55|29:39|29:39|36:42|36:42|85:24,1,314.999991012813,10|0,2:0|2:0,2:0:0:0:
102,21,245495,101,0,3:0:0:0:
44,145,245580,1,0,3:0:0:0:
44,228,245665,2,0,B|60:236|60:236|78:211|78:211|115:200,1,60.0000001192094,0|0,2:0|3:0,2:0:0:0:
170,203,245921,1,8,2:0:0:0:
319,163,246092,5,0,3:0:0:0:
333,133,246177,2,0,B|357:79|357:79|313:129|313:129|313:132|313:132|280:178|280:178|299:246,1,225.000009030104,2|0,2:0|2:0,2:0:0:0:
306,231,246348,2,0,B|330:285|330:285|289:232|289:232|284:230|284:230|253:186|253:186|161:166,1,225.000009030104,2|0,3:0|2:0,2:0:0:0:
48,130,246518,1,0,2:0:0:0:
117,81,246603,2,0,P|127:66|131:52,1,30.0000000596047,8|0,2:0|3:0,2:0:0:0:
101,81,246859,101,0,2:0:0:0:
21,143,246945,1,0,3:0:0:0:
133,159,247030,1,2,2:0:0:0:
153,188,247115,1,2,2:0:0:0:
135,184,247286,6,0,L|72:272,1,75.0000001490117,8|0,2:0|2:0,2:0:0:0:
139,243,247371,2,0,L|76:155,1,75.0000001490117,0|0,3:0|2:0,2:0:0:0:
194,189,247456,2,0,L|110:257,1,75.0000001490117,0|0,2:0|2:0,2:0:0:0:
193,238,247542,2,0,L|109:169,1,75.0000001490117,0|0,3:0|2:0,2:0:0:0:
238,187,247627,1,0,2:0:0:0:
302,254,247712,101,0,3:0:0:0:
310,251,247797,1,0,2:0:0:0:
318,248,247883,1,0,2:0:0:0:
405,208,247968,5,8,2:0:0:0:
396,262,248053,1,0,2:0:0:0:
389,311,248138,1,0,2:0:0:0:
326,264,248224,1,0,3:0:0:0:
251,278,248309,2,0,B|237:323|237:323|212:334|212:334|231:390,2,127.50000268519,0|2|0,3:0|2:0|2:0,2:0:0:0:
328,164,248565,101,0,3:0:0:0:
238,96,248650,2,0,P|204:112|242:103,1,112.500000223518,10|0,2:0|2:0,2:0:0:0:
339,155,248735,5,0,3:0:0:0:
227,168,248821,2,0,P|198:173|230:159,1,112.500000223518,2|0,3:0|2:0,2:0:0:0:
353,128,248906,101,0,2:0:0:0:
439,283,249077,6,0,B|381:274|381:274|389:220|389:220|442:196,1,150.000000298024,2|0,2:0|3:0,2:0:0:0:
470,197,249247,1,0,2:0:0:0:
430,271,249332,2,0,L|402:262,1,30.0000000596047,8|0,2:0|3:0,2:0:0:0:
460,293,249588,101,0,2:0:0:0:
413,375,249674,1,0,3:0:0:0:
317,348,249759,1,0,2:0:0:0:
328,347,249844,1,0,2:0:0:0:
316,361,249929,1,0,3:0:0:0:
273,277,250015,2,0,L|281:234,1,30.0000000596047,8|0,2:0|3:0,2:0:0:0:
259,251,250270,6,0,L|265:243,1,7.50000001490117,0|0,2:0|2:0,2:0:0:0:
351,339,250441,101,0,3:0:0:0:
289,384,250526,2,0,L|77:371,1,112.500000223518,2|0,2:0|2:0,2:0:0:0:
0,253,250697,6,0,B|1:248|1:248|5:222|5:222|-24:258|-24:258|-23:308|-23:308|-13:324|-13:324|-6:350|-6:350|11:352|11:352|29:375|29:375|52:373|52:373|84:383|84:383|120:384|120:384|127:371|127:371|141:365|141:365|151:339|151:339|173:326|173:326|170:279|170:279|178:250|178:250|155:225|155:225|148:197|148:197|104:188,1,585.000001162291,10|0,2:0|2:0,2:0:0:0:
73,285,251038,102,0,L|101:263,1,30.0000000596047,0|0,3:0|2:0,2:0:0:0:
72,301,251209,5,0,2:0:0:0:
80,310,251294,1,0,3:0:0:0:
116,199,251379,2,0,B|55:180|55:180|113:182|113:182|148:216|148:216|277:192|277:192|251:210|231:258,1,345.000000685454,10|0,2:0|3:0,2:0:0:0:
185,326,251635,101,0,2:0:0:0:
198,352,251720,2,0,L|212:16,1,255.00000050664,0|0,2:0|3:0,2:0:0:0:
190,133,251848,2,0,L|197:-34,1,131.250000260771,0|0,2:0|2:0,2:0:0:0:
170,26,251976,5,0,2:0:0:0:
359,73,252061,2,0,B|385:71|385:71|404:103|404:103|429:102|429:102|340:64,1,165.000000327826,10|0,2:0|2:0,2:0:0:0:
217,156,252232,2,0,B|235:172|235:172|226:208|226:208|245:226|245:226|208:136,1,165.000000327826,2|0,3:0|2:0,2:0:0:0:
324,73,252403,102,0,B|285:82|285:82|260:126|260:126|249:132|249:132|247:128|247:128|-18:184,1,225.000009030104,2|0,3:0|2:0,2:0:0:0:
7,171,252573,2,0,B|46:180|46:180|71:224|71:224|83:229|83:229|84:226|84:226|349:282,1,225.000009030104,2|0,2:0|2:0,2:0:0:0:
285,263,252744,1,8,2:0:0:0:
248,382,252914,5,0,2:0:0:0:
269,325,252999,1,0,2:0:0:0:
252,316,253085,1,0,2:0:0:0:
295,255,253170,2,0,B|317:246|317:246|379:262,1,67.5000001341106,0|0,3:0|2:0,2:0:0:0:
467,348,253341,101,2,2:0:0:0:
352,380,253426,1,8,2:0:0:0:
460,336,253596,5,0,2:0:0:0:
472,320,253682,1,0,2:0:0:0:
401,249,253767,2,0,B|388:259|388:259|385:280|385:280|366:250|366:250|424:196|424:196|425:186|425:186|398:150|398:150|418:140,1,225.000000447035,2|0,3:0|2:0,2:0:0:0:
440,51,254023,101,2,2:0:0:0:
392,145,254108,1,8,2:0:0:0:
461,46,254279,5,0,3:0:0:0:
447,132,254364,1,0,2:0:0:0:
422,144,254449,1,0,2:0:0:0:
361,94,254535,1,0,3:0:0:0:
327,163,254620,1,0,3:0:0:0:
257,13,254790,102,0,B|306:60|306:60|264:81|264:81|231:191|231:191|170:210|170:210|226:318,1,345.000000685454,10|0,2:0|3:0,2:0:0:0:
203,268,255046,5,0,2:0:0:0:
146,138,255131,2,0,B|145:97|145:97|91:73|91:73|128:14|128:14|138:83|138:83|156:91|156:91|208:186,1,345.000000685454,2|0,3:0|2:0,2:0:0:0:
215,270,255387,101,0,3:0:0:0:
121,313,255473,1,8,2:0:0:0:
110,288,255558,1,0,2:0:0:0:
137,268,255643,1,0,3:0:0:0:
227,343,255728,1,0,2:0:0:0:
349,231,255899,5,0,3:0:0:0:
432,252,255984,1,0,2:0:0:0:
453,336,256070,1,0,2:0:0:0:
334,260,256155,2,0,B|307:219|307:219|356:140|356:140|326:95|326:95|281:74|281:74|340:92|340:92|331:173,1,345.000000685454,10|0,2:0|2:0,2:0:0:0:
324,148,256411,101,0,2:0:0:0:
328,174,256496,2,0,B|314:170|314:170|299:179|299:179|282:178,1,45.000000089407,2|0,3:0|3:0,2:0:0:0:
463,55,256837,6,0,B|517:58|517:58|468:47|468:47|452:49|452:49|406:35|406:35|464:40,1,225.000000447035,10|0,2:0|2:0,2:0:0:0:
506,92,257008,1,0,3:0:0:0:
511,108,257093,2,0,B|481:87|481:87|469:-62,1,112.500000223518,0|0,2:0|2:0,2:0:0:0:
370,113,257263,2,0,B|340:134|340:134|328:283,1,112.500000223518,0|0,3:0|2:0,2:0:0:0:
403,372,257434,101,0,3:0:0:0:
487,319,257519,1,8,2:0:0:0:
386,352,257605,1,0,2:0:0:0:
473,335,257690,1,0,3:0:0:0:
378,384,257775,1,0,2:0:0:0:
463,317,257860,1,0,3:0:0:0:
353,379,257946,6,0,B|325:360|325:360|301:375|301:375|265:362|265:362|262:330|262:330|214:335|214:335|360:362,1,225.000000447035,2|0,2:0|2:0,2:0:0:0:
418,289,258116,2,0,B|458:284|458:284|477:254|477:254|492:272|492:272|528:253|528:253|523:248|523:248|534:219|534:219|515:242|515:242|487:251,1,225.000000447035,2|8,2:0|2:0,2:0:0:0:
70,377,258372,101,0,2:0:0:0:
124,294,258457,1,0,2:0:0:0:
136,309,258543,1,0,2:0:0:0:
71,323,258628,1,0,3:0:0:0:
85,299,258713,1,0,2:0:0:0:
138,279,258799,1,0,2:0:0:0:
241,325,258884,6,0,B|248:303|248:303|232:280|232:280|221:276|221:276|222:265|222:265|204:237|204:237|199:286|199:286|207:297|207:297|210:332|210:332|299:374,1,225.000009030104,10|0,2:0|3:0,2:0:0:0:
298,193,259054,2,0,B|305:215|305:215|289:238|289:238|278:242|278:242|279:253|279:253|261:281|261:281|256:232|256:232|264:221|264:221|267:186|267:186|356:144,1,225.000009030104,2|0,2:0|3:0,2:0:0:0:
183,69,259225,102,0,L|158:119,1,45.000000089407,2|0,3:0|3:0,2:0:0:0:
81,25,259566,1,8,2:0:0:0:
255,22,259737,5,0,3:0:0:0:
307,119,259822,1,0,2:0:0:0:
305,145,259907,2,0,P|303:158|303:142,1,56.2500001117588,2|0,2:0|2:0,2:0:0:0:
384,63,259992,1,0,2:0:0:0:
370,70,260078,1,0,3:0:0:0:
374,58,260163,1,0,2:0:0:0:
451,0,260248,2,0,L|481:18,1,30.0000000596047,8|0,2:0|3:0,2:0:0:0:
430,4,260504,101,0,2:0:0:0:
346,73,260589,2,0,B|345:98|345:98|374:133|374:133|371:152|371:152|358:136|358:136|360:93|360:93|346:73,1,168.750000335276,2|0,3:0|2:0,2:0:0:0:
355,59,260845,5,0,3:0:0:0:
287,137,260931,2,0,B|271:144|271:144|216:134,1,56.250000111759,8|0,2:0|2:0,2:0:0:0:
345,42,261101,101,0,3:0:0:0:
438,112,261186,1,0,2:0:0:0:
146,204,261357,6,0,B|211:203|211:203|224:227|224:227|241:218|241:218|305:235|305:235|327:225|327:225|396:242|396:242|443:320,1,300.000000596047,2|0,3:0|2:0,2:0:0:0:
426,291,261613,2,0,L|422:331,1,30.0000000596047,8|0,2:0|2:0,2:0:0:0:
353,384,261869,101,0,3:0:0:0:
338,357,261954,1,0,3:0:0:0:
317,363,262039,1,0,2:0:0:0:
310,351,262124,1,0,2:0:0:0:
295,347,262210,1,0,3:0:0:0:
260,357,262295,1,8,2:0:0:0:
192,308,262466,85,0,3:0:0:0:
189,325,262551,1,0,2:0:0:0:
178,330,262636,1,0,3:0:0:0:
31,98,263318,6,0,B|14:135|14:135|76:69|76:69|211:54,1,225.000000447035,6|0,3:0|2:0,2:0:0:0:
300,134,263660,5,8,2:0:0:0:
347,64,263745,1,0,2:0:0:0:
326,41,263830,1,0,2:0:0:0:
300,49,263915,1,0,3:0:0:0:
281,162,264001,5,0,2:0:0:0:
314,155,264086,1,0,3:0:0:0:
387,96,264171,1,0,2:0:0:0:
420,103,264257,1,0,2:0:0:0:
480,182,264342,102,0,B|521:200|521:200|314:175|314:175|259:255|259:255|209:85|209:85|155:161|155:161|8:144|8:144|45:164,1,809.999976890089,10|0,2:0|2:0,3:0:0:0:
124,196,264683,6,0,B|151:220|151:220|161:317,1,112.500000223518,0|0,3:0|2:0,2:0:0:0:
69,321,264853,2,0,B|60:290|60:290|76:253,1,56.2500022575261
135,100,265024,2,0,B|139:135|139:135|55:240,1,112.500004515052,8|0,2:0|2:0,2:0:0:0:
8,169,265195,1,0,3:0:0:0:
3,78,265280,2,0,B|71:111|71:111|68:132|68:132|116:213|116:213|115:268,1,225.000009030104,0|0,3:0|2:0,2:0:0:0:
129,356,265536,102,0,P|126:370|119:383,1,30.0000000596047,0|0,3:0|2:0,2:0:0:0:
10,380,265706,2,0,B|80:323|80:323|105:328|105:328|225:323,1,195.000000387431,8|0,2:0|3:0,2:0:0:0:
332,284,265962,5,0,2:0:0:0:
305,363,266047,2,0,B|250:351|250:351|271:309|271:309|253:280|253:280|294:308|294:308|285:284|285:284|333:255|333:255|275:146,1,300.000000596047,2|0,3:0|2:0,2:0:0:0:
177,153,266303,1,2,3:0:0:0:
202,227,266389,2,0,B|187:250|187:250|218:294|218:294|194:304|194:304|233:349,1,150.000000298023,8|0,2:0|2:0,2:0:0:0:
175,359,266559,2,0,L|201:399,1,30.0000000596047,0|0,3:0|2:0,2:0:0:0:
491,247,266815,102,0,B|483:211|483:211|452:190|452:190|443:138,2,112.500000223518,2|0|0,3:0|2:0|2:0,2:0:0:0:
480,252,267071,2,0,B|433:180|433:180|367:144|367:144|336:29,1,225.000000447035,10|0,2:0|2:0,2:0:0:0:
392,0,267327,1,0,3:0:0:0:
344,74,267412,2,0,B|310:89|310:89|230:72,1,75.0000001490117,0|0,3:0|2:0,2:0:0:0:
149,3,267582,5,0,2:0:0:0:
205,76,267668,1,0,3:0:0:0:
147,181,267753,2,0,B|126:235|126:235|128:175|128:175|157:152,1,150.000000298023,10|0,2:0|2:0,2:0:0:0:
291,141,267924,2,0,B|328:181|328:181|316:196|316:196|335:233|335:233|305:344|305:344|348:298|348:298|270:260|270:260|235:244|235:244|282:152|282:152|228:148,1,562.500001117588,2|0,3:0|3:0,3:0:0:0:
90,234,268350,1,0,3:0:0:0:
28,186,268435,102,0,L|42:268,1,75.0000001490117,10|0,2:0|2:0,2:0:0:0:
34,180,268521,2,0,L|48:262,1,75.0000001490117,2|0,2:0|2:0,2:0:0:0:
40,174,268606,2,0,L|54:256,1,75.0000001490117,2|0,3:2|2:0,2:0:0:0:
46,167,268691,2,0,L|60:249,1,75.0000001490117,2|0,2:0|2:0,2:0:0:0:
88,318,268776,6,0,L|131:343,1,45.000000089407,0|0,3:0|2:0,2:0:0:0:
28,363,269117,2,0,B|-15:349|-15:349|511:383|511:383|412:354,1,637.500001266599,10|0,2:0|2:0,3:0:0:0:
501,337,269373,102,0,L|520:382,1,37.5000000745059,2|0,3:0|2:0,2:0:0:0:
439,301,269544,2,0,L|496:363,1,75.0000001490117,2|0,3:0|2:0,2:0:0:0:
366,307,269800,2,0,L|469:355,1,112.500000223518,10|0,2:0|2:0,2:0:0:0:
504,247,270056,5,0,3:0:0:0:
509,327,270141,1,0,3:0:0:0:
391,234,270226,1,0,2:0:0:0:
402,180,270311,1,0,2:0:0:0:
496,160,270397,1,0,3:0:0:0:
476,110,270482,2,0,B|456:88|456:88|406:83,1,56.250000111759,8|0,2:0|2:0,2:0:0:0:
286,103,270653,1,0,3:0:0:0:
299,113,270738,2,0,B|341:121|341:121|438:27,1,150.000000298023,0|0,2:0|2:0,2:0:0:0:
481,0,270994,2,0,B|457:14|457:14|367:23,1,75.0000001490117,0|0,3:0|2:0,2:0:0:0:
145,0,271164,102,0,B|133:28|133:28|109:37|109:37|146:236,1,172.500000342727,10|0,2:0|2:0,2:0:0:0:
236,310,271335,5,0,3:0:0:0:
142,360,271420,1,0,2:0:0:0:
97,346,271505,2,0,B|72:320|72:320|71:287|71:287|91:316|91:316|209:299|209:299|223:323|223:323|355:366|355:366|321:343,1,345.000000685454,2|0,3:0|2:0,2:0:0:0:
341,356,271761,101,0,3:0:0:0:
315,206,271846,2,0,B|323:237|323:237|340:259|340:259|315:289|315:289|329:298|329:298|356:388,1,150.000000298023,10|0,2:0|2:0,2:0:0:0:
386,134,272017,2,0,B|369:196|369:196|336:219|336:219|395:276|395:276|375:277|375:277|337:393,1,300.000000596047,2|0,3:0|2:0,2:0:0:0:
235,134,272273,2,0,B|289:168|289:168|271:191|271:191|294:227|294:227|251:274|251:274|298:302|298:302|294:323|294:323|359:435,1,345.000000685454,2|0,3:0|2:0,2:0:0:0:
339,370,272529,1,8,2:0:0:0:
17,260,272785,5,0,2:0:0:0:
87,329,272870,1,0,3:0:0:0:
176,301,272955,1,0,2:0:0:0:
153,260,273040,1,0,2:0:0:0:
132,252,273126,1,0,2:0:0:0:
65,335,273211,1,8,2:0:0:0:
44,107,273382,101,0,2:0:0:0:
97,96,273467,1,0,2:0:0:0:
134,127,273552,1,0,2:0:0:0:
188,206,273637,1,0,3:0:0:0:
199,200,273723,1,0,2:0:0:0:
272,157,273808,1,0,3:0:0:0:
354,132,273893,6,0,L|368:50,1,75.0000001490117,10|0,2:0|2:0,2:0:0:0:
360,138,273978,2,0,L|374:56,1,75.0000001490117,2|0,2:0|2:0,2:0:0:0:
366,144,274064,2,0,L|380:62,1,75.0000001490117,2|0,3:2|2:0,2:0:0:0:
372,151,274149,2,0,L|386:69,1,75.0000001490117,2|0,2:0|2:0,2:0:0:0:
282,164,274234,102,0,B|254:141|254:141|196:135|196:135|454:111|454:111|475:231|475:231|376:329,1,517.500001028181,6|0,3:2|2:0,2:0:0:0:
298,374,274575,6,0,B|271:338|271:338|308:247,1,93.7500001862647,10|0,2:0|2:0,2:0:0:0:
261,354,274661,2,0,B|259:310|259:310|334:250,1,93.7500001862647,2|0,2:0|2:0,2:0:0:0:
241,319,274746,2,0,B|262:280|262:280|355:265,1,93.7500001862647,2|0,2:0|2:0,2:0:0:0:
336,285,274831,2,0,B|305:331|305:331|227:371,1,112.500000223518,0|0,3:0|2:0,2:0:0:0:
153,253,275002,2,0,B|184:207|184:207|262:167,1,112.500000223518,0|0,3:0|2:0,2:0:0:0:
451,110,275258,101,8,2:0:0:0:
441,118,275514,5,0,3:0:0:0:
509,187,275599,2,0,B|470:198|470:198|413:185,1,75.0000001490117,0|0,3:0|2:0,2:0:0:0:
250,58,275769,1,0,3:0:0:0:
265,149,275855,1,0,3:0:0:0:
282,158,275940,2,0,B|311:129|311:129|328:73,1,75.0000001490117,8|0,2:0|2:0,2:0:0:0:
450,9,276111,1,0,3:0:0:0:
467,0,276196,2,0,B|477:26|477:26|438:90|438:90|458:198,1,150.000000298023,2|0,2:0|2:0,2:0:0:0:
461,290,276452,101,0,3:0:0:0:
504,212,276537,1,0,2:0:0:0:
510,199,276622,2,0,B|483:191|483:191|414:201,1,75.0000001490117,8|0,2:0|2:0,2:0:0:0:
289,319,276793,5,0,3:0:0:0:
223,276,276878,1,0,2:0:0:0:
194,200,276963,2,0,B|198:163|198:163|227:141|227:141|214:169|214:169|243:216|243:216|231:241|231:241|133:222|133:222|86:260|86:260|75:235|75:235|48:220|48:220|61:168,1,450.00000089407,2|0,3:0|3:0,2:0:0:0:
18,144,277304,2,0,B|1:178|1:178|192:139,1,195.000000387431,10|0,2:0|3:0,2:0:0:0:
135,37,277560,2,0,P|86:46|77:119,1,97.5000001937153,0|0,2:0|2:0,2:0:0:0:
83,280,277731,2,0,B|119:279|119:279|37:247|37:247|-3:269|-3:269|3:341,1,195.000000387431,0|0,3:0|2:0,2:0:0:0:
3,322,277987,1,8,2:0:0:0:
21,334,278243,101,0,3:0:0:0:
46,257,278328,1,0,3:0:0:0:
121,384,278498,5,0,3:0:0:0:
206,365,278584,1,0,3:0:0:0:
252,290,278669,1,8,2:0:0:0:
348,367,278839,101,0,3:0:0:0:
366,355,278925,1,0,2:0:0:0:
224,365,279095,6,0,P|240:330|265:314,1,56.250000111759,0|0,3:0|2:0,2:0:0:0:
410,226,279266,1,0,3:0:0:0:
482,265,279351,102,0,L|496:183,1,75.0000001490117,10|0,2:0|2:0,2:0:0:0:
488,271,279436,2,0,L|502:189,1,75.0000001490117,2|0,2:0|2:0,2:0:0:0:
494,277,279522,2,0,L|508:195,1,75.0000001490117,2|0,3:2|2:0,2:0:0:0:
500,284,279607,2,0,L|514:202,1,75.0000001490117,2|0,2:0|2:0,2:0:0:0:
401,327,279692,2,0,B|387:251|387:251|354:272|354:272|341:204|341:204|381:113|381:113|402:121|402:121|391:167,1,337.500000670553,0|0,3:0|2:0,2:0:0:0:
375,96,280033,6,0,B|340:124|340:124|162:85|162:85|103:97|103:97|51:55|51:55|58:10,1,375.000000745059,10|0,2:0|2:0,2:0:0:0:
120,0,280289,2,0,B|169:13|169:13|180:50|180:50|110:133,1,187.500000372529,2|0,3:0|2:0,2:0:0:0:
15,244,280460,2,0,B|-16:260|-16:260|212:211|212:211|179:159,1,300.000000596047,2|0,3:0|2:0,2:0:0:0:
146,137,280716,2,0,B|139:164|139:164|166:223,1,75.0000001490117,8|0,2:0|2:0,2:0:0:0:
260,351,280971,101,0,3:0:0:0:
297,256,281057,2,0,L|118:313,1,150.000000298023,2|0,3:0|2:0,2:0:0:0:
70,352,281313,1,0,3:0:0:0:
72,268,281398,2,0,L|31:391,1,75.0000001490117,10|0,2:0|2:0,2:0:0:0:
0,175,281568,6,0,B|-23:218|-23:218|133:146|133:146|197:177|197:177|224:167|224:167|323:174,1,382.50000075996,2|0,3:0|2:0,2:0:0:0:
372,190,281910,1,0,2:0:0:0:
255,275,282080,101,8,2:0:0:0:
235,269,282165,1,0,2:0:0:0:
221,286,282251,1,0,3:0:0:0:
201,286,282336,1,0,2:0:0:0:
159,350,282421,2,0,P|162:323|140:280,3,45.000000089407,0|0|0|0,3:0|3:0|2:0|3:0,2:0:0:0:
149,276,282762,6,0,B|136:263|136:263|202:287|202:287|212:310,1,112.500000223518,10|0,2:0|2:0,2:0:0:0:
264,371,282933,2,0,B|241:378|241:378|226:355|226:355|266:304|266:304|283:303|283:303|308:248|308:248|301:228|301:228|239:226|239:226|227:175|227:175|276:107|276:107|289:105|289:105|261:153,1,450.000000894071,2|0,3:0|2:0,2:0:0:0:
277,127,283189,2,0,B|257:149|257:149|141:117|141:117|112:147|112:147|134:85|134:85|108:98|108:98|3:76|3:76|151:53,1,450.000000894071,2|0,3:0|2:0,2:0:0:0:
209,41,283445,2,0,B|227:69|227:69|222:81|222:81|90:113|90:113|69:222,1,225.000000447035,10|0,2:0|2:0,2:0:0:0:
105,188,283700,101,0,3:0:0:0:
212,140,283786,2,0,B|173:125|173:125|147:206|147:206|69:227,1,150.000000298023,2|0,3:0|2:0,2:0:0:0:
46,232,284042,1,0,3:0:0:0:
46,232,284127,1,10,2:0:0:0:
290,210,284297,102,0,L|310:278,1,37.5000000745059,0|0,3:0|0:0,0:0:0:0:
275,279,284468,2,0,P|275:259|296:241,7,37.5000000745059
445,125,285150,22,0,B|500:138|500:138|529:185|529:185|517:115|517:115|294:68|294:68|242:192,1,450.00000089407,6|0,3:0|2:0,2:0:0:0:
321,198,285491,2,0,B|373:180|373:180|241:143|241:143|207:155|207:155|183:224,1,255.00000050664,8|0,2:0|2:0,2:0:0:0:
175,298,285747,2,0,L|190:332,1,37.5000000745059,0|0,3:0|2:0,2:0:0:0:
232,238,285918,2,0,B|193:212|193:212|16:242,1,180.000000357628,0|0,3:0|2:0,2:0:0:0:
245,252,286174,102,0,B|276:230|276:230|236:128|236:128|262:31,1,225.000000447035,8|0,2:0|2:0,2:0:0:0:
358,15,286429,1,0,3:0:0:0:
330,93,286515,2,0,L|246:128,1,75.0000001490117,0|0,3:0|2:0,2:0:0:0:
110,128,286685,1,0,3:0:0:0:
127,46,286771,1,0,3:0:0:0:
196,0,286856,1,8,2:0:0:0:
104,143,287026,6,0,B|79:114|79:114|4:105,1,112.500000223518,0|0,3:0|2:0,2:0:0:0:
0,115,287368,1,0,3:0:0:0:
118,222,287538,2,0,B|153:212|153:212|173:179,1,75.0000001490117,8|0,2:0|2:0,2:0:0:0:
214,27,287709,101,0,3:0:0:0:
245,33,287794,1,0,2:0:0:0:
302,107,287879,2,0,B|345:97|345:97|412:39|412:39|454:73|454:73|467:180,1,225.000000447035,0|0,3:0|2:0,2:0:0:0:
438,222,288135,1,0,3:0:0:0:
361,188,288220,2,0,B|335:151|335:151|381:52,1,112.500000223518,8|0,2:0|2:0,2:0:0:0:
512,270,288391,1,0,3:0:0:0:
500,296,288476,1,0,2:0:0:0:
405,327,288561,2,0,P|395:328|408:325,1,75.0000001490117,2|0,2:0|3:0,2:0:0:0:
448,159,288732,2,0,L|465:247,1,75.0000001490117,0|0,2:0|2:0,2:0:0:0:
296,346,288903,6,0,B|307:273|307:273|330:253|330:253|304:187|304:187|324:137,1,225.000000447035,8|0,2:0|2:0,2:0:0:0:
379,87,289158,1,0,3:0:0:0:
435,167,289244,2,0,P|428:191|432:165,1,75.0000001490117,2|0,3:0|2:0,2:0:0:0:
449,41,289414,101,0,3:0:0:0:
430,146,289500,1,0,3:0:0:0:
357,62,289585,2,0,B|311:7|311:7|319:-2|319:-2|375:22|375:22|430:142,1,225.000000447035,8|0,2:0|3:0,2:0:0:0:
336,211,289841,5,0,2:0:0:0:
245,170,289926,2,0,P|228:156|256:162,1,75.0000001490117,2|0,2:0|3:0,2:0:0:0:
462,222,290182,101,0,3:0:0:0:
421,312,290267,1,8,2:0:0:0:
397,306,290352,1,0,2:0:0:0:
331,236,290438,1,0,3:0:0:0:
291,250,290523,1,0,2:0:0:0:
253,353,290608,2,0,P|234:362|253:349,1,75.0000001490117,2|0,3:0|2:0,2:0:0:0:
107,102,290949,6,0,B|79:149|79:149|116:262|116:262|74:335,1,225.000000447035,8|0,2:0|2:0,2:0:0:0:
21,356,291205,1,0,3:0:0:0:
0,252,291290,2,0,P|26:239|15:266,1,75.0000001490117,2|0,2:0|3:0,2:0:0:0:
346,280,291632,102,0,B|318:233|318:233|355:120|355:120|313:47,1,225.000000447035,8|0,2:0|2:0,2:0:0:0:
232,46,291887,1,0,2:0:0:0:
207,147,291973,2,0,L|281:124,1,56.250000111759,0|0,3:0|2:0,2:0:0:0:
95,0,292143,1,0,3:0:0:0:
143,66,292229,1,0,3:0:0:0:
226,74,292314,2,0,B|256:90|256:90|298:63|298:63|342:79,1,112.500000223518,8|0,2:0|2:0,2:0:0:0:
460,73,292484,5,0,3:0:0:0:
478,109,292570,2,0,B|465:155|465:155|408:162|408:162|379:105,1,150.000000298023,0|0,2:0|2:0,2:0:0:0:
368,7,292825,2,0,L|406:48,1,37.5000000745059,0|0,3:0|2:0,2:0:0:0:
440,230,292996,2,0,B|423:246|423:246|282:200,1,112.500000223518,8|0,2:0|2:0,2:0:0:0:
181,98,293167,101,0,3:0:0:0:
249,160,293252,1,0,2:0:0:0:
276,69,293337,2,0,P|261:50|273:72,1,75.0000001490117,2|0,3:0|2:0,2:0:0:0:
169,276,293593,5,0,3:0:0:0:
129,208,293678,2,0,B|162:181|162:181|263:223,1,112.500000223518,8|0,2:0|2:0,2:0:0:0:
393,286,293849,1,0,3:0:0:0:
419,265,293934,1,0,2:0:0:0:
424,172,294019,2,0,P|418:151|422:174,1,75.0000001490117,2|0,2:0|3:0,2:0:0:0:
481,384,294361,2,0,B|501:365|501:365|470:341|470:341|271:356,1,225.000000447035,8|0,2:0|2:0,2:0:0:0:
157,375,294616,101,0,3:0:0:0:
130,288,294702,1,0,3:0:0:0:
172,384,294872,5,0,3:0:0:0:
229,301,294958,1,0,3:0:0:0:
238,200,295043,2,0,B|188:212|188:212|174:236|174:236|99:261,1,112.500000223518,8|0,2:0|2:0,2:0:0:0:
15,231,295213,1,0,3:0:0:0:
1,207,295299,1,0,2:0:0:0:
228,83,295469,101,0,3:0:0:0:
252,82,295554,1,0,2:0:0:0:
239,101,295640,1,0,3:0:0:0:
172,64,295725,2,0,L|266:80,1,93.7500001862647,8|0,2:0|2:0,2:0:0:0:
257,21,295810,2,0,L|240:130,1,101.250000201166,0|0,2:0|2:0,2:0:0:0:
302,109,295896,2,0,L|193:87,1,108.750000216067,0|0,3:0|2:0,2:0:0:0:
218,151,295981,2,0,L|242:30,1,116.250000230968,0|0,2:0|2:0,2:0:0:0:
254,10,296066,2,0,P|272:-17|257:13,1,112.500000223518,6|0,3:2|2:0,2:0:0:0:
467,348,296407,6,0,B|452:387|452:387|496:378|496:378|446:213,1,225.000000447035,8|0,2:0|2:0,2:0:0:0:
403,156,296663,1,0,3:0:0:0:
329,245,296748,2,0,P|348:270|334:236,1,112.500000223518,2|0,2:0|3:0,2:0:0:0:
319,42,296919,101,0,2:0:0:0:
298,55,297004,1,0,2:0:0:0:
258,139,297090,2,0,B|276:189|276:189|305:96|305:96|377:60,1,225.000000447035,8|0,2:0|2:0,2:0:0:0:
488,38,297345,5,0,3:0:0:0:
512,125,297431,1,0,3:0:0:0:
425,0,297601,101,0,3:0:0:0:
415,99,297686,1,0,3:0:0:0:
323,28,297772,2,0,B|360:22|360:22|456:76,1,112.500000223518,8|0,2:0|2:0,2:0:0:0:
475,201,297942,1,0,3:0:0:0:
453,197,298028,2,0,L|355:21,1,150.000000298023,0|0,2:0|2:0,2:0:0:0:
311,31,298283,2,0,L|297:66,1,37.5000000745059,0|0,3:0|2:0,2:0:0:0:
147,229,298454,5,8,2:0:0:0:
141,213,298539,1,0,2:0:0:0:
65,160,298625,1,0,3:0:0:0:
84,129,298710,1,0,2:0:0:0:
19,63,298795,2,0,P|10:25|26:60,1,112.500000223518,2|0,3:0|2:0,2:0:0:0:
230,220,299051,101,0,3:0:0:0:
210,124,299136,2,0,B|156:135|156:135|126:196,1,112.500000223518,8|0,2:0|2:0,2:0:0:0:
132,329,299307,1,0,3:0:0:0:
158,321,299392,1,0,2:0:0:0:
230,239,299477,2,0,P|222:201|221:239,1,112.500000223518,2|0,2:0|3:0,2:0:0:0:
29,380,299819,6,0,B|0:357|0:357|91:272|91:272|56:241|56:241|65:204,1,225.000000447035,8|0,2:0|2:0,2:0:0:0:
151,140,300074,1,0,3:0:0:0:
193,232,300160,1,0,3:0:0:0:
254,77,300330,101,0,3:0:0:0:
175,142,300415,1,0,3:0:0:0:
163,45,300501,2,0,B|190:25|190:25|310:45,1,112.500000223518,8|0,2:0|2:0,2:0:0:0:
356,135,300671,1,0,3:0:0:0:
372,165,300757,1,0,2:0:0:0:
150,161,300927,1,0,3:0:0:0:
492,91,301098,5,0,3:0:0:0:
410,151,301183,1,8,2:0:0:0:
404,182,301268,1,0,2:0:0:0:
483,234,301354,1,0,3:0:0:0:
453,269,301439,1,0,2:0:0:0:
347,292,301524,2,0,P|317:266|354:281,1,112.500000223518,2|0,3:0|2:0,2:0:0:0:
39,114,301865,102,0,B|63:89|63:89|24:98|24:98|7:146|7:146|72:256,1,225.000000447035,8|0,2:0|2:0,2:0:0:0:
139,320,302121,1,0,3:0:0:0:
167,221,302206,2,0,P|150:185|156:224,1,112.500000223518,2|0,2:0|3:0,2:0:0:0:
500,129,302547,6,0,B|476:104|476:104|515:113|515:113|532:161|532:161|467:271,1,225.000000447035,8|0,2:0|2:0,2:0:0:0:
412,325,302803,1,0,3:0:0:0:
375,226,302889,1,0,3:0:0:0:
427,353,303059,101,0,3:0:0:0:
500,265,303144,1,0,3:0:0:0:
512,373,303230,2,0,L|399:365,1,112.500000223518,8|0,2:0|2:0,2:0:0:0:
155,296,303400,1,0,3:0:0:0:
164,268,303486,2,0,L|318:253,1,150.000000298023,0|0,2:0|2:0,2:0:0:0:
402,255,303741,2,0,B|402:276|402:276|388:300,1,37.5000000745059,0|0,3:0|2:0,2:0:0:0:
253,381,303912,1,8,2:0:0:0:
108,202,304083,5,0,3:0:0:0:
58,273,304168,1,0,2:0:0:0:
70,355,304253,2,0,B|89:369|89:369|104:319|104:319|83:271,1,112.500000223518,0|0,3:0|2:0,2:0:0:0:
20,165,304424,1,0,2:0:0:0:
25,183,304509,1,0,3:0:0:0:
95,243,304594,2,0,B|119:251|119:251|167:201|167:201|225:184,1,112.500000223518,8|0,2:0|2:0,2:0:0:0:
280,190,304765,1,0,3:0:0:0:
297,200,304850,1,0,2:0:0:0:
451,98,305021,102,0,B|454:58|454:58|430:97,1,75.0000001490117,0|0,3:0|2:0,2:0:0:0:
415,180,305276,2,0,B|444:204|444:204|390:190|390:190|346:114|346:114|302:90,1,225.000000447035,8|0,2:0|2:0,2:0:0:0:
242,21,305532,2,0,L|192:39,1,37.5000000745059,0|0,3:0|3:0,2:0:0:0:
90,161,305703,5,0,2:0:0:0:
87,169,305788,1,0,3:0:0:0:
71,180,305873,1,0,3:0:0:0:
50,179,305959,1,8,2:0:0:0:
28,156,306044,1,0,2:0:0:0:
32,124,306129,1,0,3:0:0:0:
62,90,306215,1,0,2:0:0:0:
134,79,306300,102,0,L|209:91,1,75.0000001490117,0|0,2:0|2:0,2:0:0:0:
205,118,306385,2,0,L|249:177,1,75.0000001490117,0|0,2:0|2:0,2:0:0:0:
231,197,306470,2,0,L|219:272,1,75.0000001490117,0|0,2:0|2:0,2:0:0:0:
191,267,306556,2,0,L|129:308,1,75.0000001490117,0|0,2:0|2:0,2:0:0:0:
97,295,306641,6,0,B|72:248|72:248|83:232|83:232|141:245,1,131.25000026077,8|0,2:0|2:0,2:0:0:0:
155,229,306726,2,0,B|159:174|159:174|175:168|175:168|218:208,1,131.25000026077,0|0,2:0|2:0,2:0:0:0:
238,200,306812,2,0,B|268:153|268:153|285:155|285:155|303:214,1,131.25000026077,0|0,2:0|2:0,2:0:0:0:
322,216,306897,2,0,B|374:191|374:191|386:200|386:200|372:260,1,131.25000026077,0|0,2:0|2:0,2:0:0:0:
328,323,306982,38,0,B|294:334|288:368|288:368|254:314|320:267|374:256|374:256|381:259|381:259|377:249|377:249|384:253|384:253|490:240|537:329|537:329|507:279|446:283|446:283|401:285|361:236|357:166|420:141|420:141|395:163|400:198,1,795.000001579524,6|0,3:2|2:0,2:0:0:0:
447,80,308858,6,0,L|411:87,1,22.5000000447035,0|0,2:0|2:0,2:0:0:0:
512,113,309029,2,0,L|366:98,1,146.250000290574,0|0,2:0|2:0,2:0:0:0:
285,88,309370,101,2,3:2:0:0:
261,337,309711,1,2,3:2:0:0:
261,337,310223,1,2,3:2:0:0:
119,282,310393,6,0,B|110:252|50:281|105:341|178:287,1,135.000000268221,2|0,2:0|2:0,2:0:0:0:
328,218,311076,2,0,B|340:178|422:217|347:300|246:226,1,180.000000357628,2|0,2:0|2:0,2:0:0:0:
131,147,311758,2,0,B|112:74|-15:150|68:238|190:209|135:155|194:122|270:137,1,315.000000625849,2|0,2:0|2:0,2:0:0:0:
452,39,312440,2,0,B|494:37|470:-43|366:-1|450:118,1,180.000000357628,2|2,3:2|3:2,2:0:0:0:
485,236,313122,102,0,B|531:198|507:149|507:149|492:175|459:196|466:158|438:199|436:238|436:238|434:313|474:285|495:369|442:397,1,378.000000751019,2|0,2:0|2:0,2:0:0:0:
322,304,314316,6,0,L|285:311,1,22.5000000447035,0|0,2:0|2:0,2:0:0:0:
389,343,314487,2,0,L|201:311,1,146.250000290574,0|0,2:0|2:0,2:0:0:0:
153,304,314828,101,2,3:2:0:0:
512,208,315169,2,0,B|483:181|483:181|192:203,1,315.000000625849,2|2,3:2|1:2,2:0:0:0:
78,91,315851,2,0,B|104:67|104:67|366:87,1,270.000000536442,2|0,2:0|2:0,2:0:0:0:
432,272,316533,6,0,P|428:254|418:233,1,37.5000000745059,0|0,2:0|2:0,2:0:0:0:
339,327,316704,2,0,P|350:297|349:266,1,52.5000001043082,0|0,2:0|2:0,2:0:0:0:
218,324,316875,2,0,P|250:311|273:278,1,67.5000001341106,0|0,2:0|2:0,2:0:0:0:
119,242,317045,2,0,P|172:256|203:243,1,82.5000001639129,0|0,2:0|2:0,2:0:0:0:
0,65,317216,101,0,2:0:0:0:
49,36,317301,1,0,2:0:0:0:
108,42,317386,1,0,2:0:0:0:
149,81,317472,1,0,2:0:0:0:
161,139,317557,1,2,2:0:0:0:
89,159,317642,1,0,2:0:0:0:
39,213,317727,1,0,2:0:0:0:
33,287,317813,1,0,2:0:0:0:
70,350,317898,22,0,B|135:326|135:326|180:44|180:44|269:9,1,412.500013408066,6|0,3:2|2:0,2:0:0:0:
255,15,318410,1,2,3:2:0:0:
324,288,318580,2,0,B|198:278|198:278|135:275|150:327|85:320|85:320|0:311,1,337.500000670554,2|0,2:0|2:0,2:0:0:0:
91,232,319262,5,0,2:0:0:0:
109,218,319348,1,0,2:0:0:0:
124,201,319433,1,0,2:0:0:0:
135,181,319518,1,0,2:0:0:0:
143,159,319604,1,0,2:0:0:0:
142,136,319689,1,0,2:0:0:0:
135,114,319774,1,0,2:0:0:0:
124,93,319859,1,0,2:0:0:0:
108,76,319945,1,0,2:0:0:0:
88,65,320030,1,0,2:0:0:0:
65,62,320115,2,0,P|84:112|134:120,1,56.250000111759,0|0,2:0|2:0,2:0:0:0:
225,184,320286,1,2,3:2:0:0:
225,184,320371,1,0,2:0:0:0:
225,184,320456,2,0,L|336:162,1,82.5000001639129,0|0,2:0|2:0,2:0:0:0:
491,129,320627,102,0,B|527:77|527:77|366:92|366:92|447:245,1,375.000000745059,2|0,3:2|2:0,2:0:0:0:
470,295,321139,1,2,3:2:0:0:
279,269,321309,2,0,B|299:346|299:346|312:392|353:395|389:370|376:325|376:325|353:238,1,292.500000581148,2|0,2:0|2:0,2:0:0:0:
295,187,321991,5,0,2:0:0:0:
264,171,322077,1,0,2:0:0:0:
232,182,322162,1,0,2:0:0:0:
213,209,322247,1,0,2:0:0:0:
188,232,322333,1,0,2:0:0:0:
154,233,322418,1,0,2:0:0:0:
123,219,322503,1,0,2:0:0:0:
106,189,322588,1,0,2:0:0:0:
112,155,322674,1,0,2:0:0:0:
134,130,322759,1,0,2:0:0:0:
166,121,322844,2,0,L|237:146,1,56.250000111759,0|0,2:0|2:0,2:0:0:0:
345,97,323015,1,2,2:0:0:0:
345,97,323100,1,0,2:0:0:0:
345,97,323185,2,0,B|355:119|355:119|302:164,1,82.5000001639129,0|0,2:0|2:0,2:0:0:0:
8,264,323356,102,0,B|-5:297|-5:297|46:358|46:358|79:350|79:350|46:44,1,412.500013408066,6|0,3:2|2:0,2:0:0:0:
48,56,323868,1,2,3:2:0:0:
135,218,324038,2,0,P|272:155|251:58,1,247.50000804484,2|0,2:0|2:0,2:0:0:0:
193,86,324720,5,0,2:0:0:0:
182,130,324806,1,0,2:0:0:0:
188,174,324891,1,0,2:0:0:0:
224,200,324976,1,0,2:0:0:0:
269,202,325062,1,0,2:0:0:0:
308,180,325147,1,0,2:0:0:0:
330,141,325232,1,0,2:0:0:0:
371,123,325317,1,0,2:0:0:0:
414,135,325403,1,0,2:0:0:0:
434,175,325488,1,0,2:0:0:0:
420,217,325573,2,0,P|385:206|367:181,1,56.250000111759,0|0,2:0|2:0,2:0:0:0:
484,47,325744,1,2,3:2:0:0:
484,47,325829,1,0,2:0:0:0:
484,47,325914,2,0,B|503:72|503:72|486:147,1,82.5000001639129,0|0,2:0|2:0,2:0:0:0:
311,335,326085,101,6,3:2:0:0:
248,325,326170,1,0,2:0:0:0:
186,316,326255,1,0,2:0:0:0:
124,307,326341,1,0,2:0:0:0:
62,296,326426,2,0,B|35:289|35:289|21:227,1,82.5000001639129,0|0,2:0|2:0,2:0:0:0:
141,61,326597,5,2,3:2:0:0:
166,111,326682,1,0,2:0:0:0:
143,162,326767,1,0,2:0:0:0:
88,175,326852,1,0,2:0:0:0:
43,141,326938,1,0,2:0:0:0:
42,85,327023,1,0,2:0:0:0:
85,49,327108,1,0,2:0:0:0:
141,61,327194,1,0,2:0:0:0:
185,94,327279,1,0,2:0:0:0:
240,101,327364,1,0,2:0:0:0:
298,81,327449,1,0,2:0:0:0:
329,27,327535,1,0,2:0:0:0:
385,2,327620,1,0,2:0:0:0:
443,20,327705,1,0,2:0:0:0:
473,74,327791,1,0,2:0:0:0:
456,139,327876,1,0,2:0:0:0:
393,169,327961,1,0,2:0:0:0:
325,145,328046,1,0,2:0:0:0:
390,86,328132,102,0,B|436:105|431:166|431:166|364:177|341:253|359:299|359:299|406:315|420:361|420:361|487:365|506:301|474:262|441:254,1,525.000001043082,8|0,2:0|2:0,2:0:0:0:
340,380,328814,86,0,L|47:346,1,292.500000581145,4|0,3:2|2:0,2:0:0:0:
32,345,330178,1,2,2:0:0:0:
256,192,330264,12,0,331458,2:0:0:0:
112,275,331543,86,0,B|29:304|-62:117|204:74|248:219|159:268|306:306|375:294,1,450.000000894071,6|0,3:2|2:0,2:0:0:0:
426,104,332055,2,0,B|395:28|269:8|197:133|265:247|370:234|407:193|407:193|450:141|524:177|540:231|514:300|443:303|414:273|414:273|410:265,1,675.000001341104,2|0,3:2|2:0,2:0:0:0:
334,293,333419,2,0,P|307:304|296:313,1,22.5000000447035,0|0,2:0|2:0,2:0:0:0:
331,378,333590,2,0,P|358:369|383:349,1,48.7500000968579,0|0,2:0|2:0,2:0:0:0:
352,136,333760,6,0,P|315:188|313:227,1,97.5000001937158,2|2,2:0|3:2,2:0:0:0:
359,48,334016,2,0,P|302:59|266:95,1,97.5000001937158,2|0,2:0|2:0,2:0:0:0:
195,177,334272,102,0,P|252:87|108:147,1,375.000000745059,2|0,3:2|2:0,2:0:0:0:
110,216,334784,2,0,B|127:312|127:312|133:349|98:380|54:363|47:324|47:324|14:135,1,405.000000804663,2|0,3:2|2:0,2:0:0:0:
96,118,335636,6,0,B|162:105|221:162|171:186|233:232|282:221,1,210.000000417232,2|0,2:0|2:0,2:0:0:0:
338,247,336319,2,0,L|336:223,1,22.5000000447035,0|0,2:0|2:0,2:0:0:0:
385,165,336489,2,0,P|369:139|350:129,1,48.7500000968579,0|0,2:0|2:0,2:0:0:0:
363,50,336660,2,0,P|296:73|271:139,1,146.250000290574,2|0,2:0|2:0,2:0:0:0:
484,336,337001,102,0,B|517:367|472:408|427:359|473:327|473:327|510:301|581:231|475:80|328:155|319:268|386:321,1,525.000001043082,2|0,3:2|2:0,2:0:0:0:
434,257,337683,6,0,B|465:174|406:85|384:188|224:120|299:-177|529:-142|633:24|560:149|444:170|392:105,1,651.000001293423,2|0,2:0|2:0,2:0:0:0:
447,57,339048,102,0,P|380:53|317:121,1,146.24999359578,2|0,2:0|2:0,2:0:0:0:
350,251,339389,2,0,B|360:213|327:190|327:190|272:190|235:126,1,146.250000290573,2|0,3:2|2:0,2:0:0:0:
187,73,339730,6,0,B|103:51|141:-101|299:-60|330:38|319:127|244:174|216:211,1,375.000000745059,2|0,3:2|2:0,2:0:0:0:
30,312,340241,2,0,B|10:239|93:196|106:268|199:228|259:76|45:-59|-60:100|-6:296|31:211|160:192|147:351|71:383,1,585.00000116229,2|0,3:2|2:0,2:0:0:0:
114,384,341435,102,0,P|138:378|195:389,3,45.000000089407,0|0|0|0,2:0|2:0|2:0|2:0,2:0:0:0:
250,354,341777,1,0,2:0:0:0:
253,331,341862,1,0,2:0:0:0:
262,296,341947,1,0,2:0:0:0:
269,250,342032,1,0,2:0:0:0:
247,200,342118,1,2,2:0:0:0:
186,185,342203,1,0,2:0:0:0:
123,214,342288,1,0,2:0:0:0:
115,296,342374,1,0,2:0:0:0:
114,384,342459,6,0,B|146:388|184:367|187:325|187:325|198:180,1,225.000000447035,6|0,3:2|2:0,2:0:0:0:
263,79,342800,2,0,P|232:150|149:163,1,157.500000312924,8|0,2:0|2:0,2:0:0:0:
50,85,343141,102,0,P|82:112|91:139,1,52.5000001043082,2|8,2:0|2:0,2:0:0:0:
84,204,343312,1,0,3:0:0:0:
175,82,343482,1,8,2:0:0:0:
324,252,343653,1,0,3:0:0:0:
448,234,343823,1,0,3:0:0:0:
50,85,344164,1,8,2:0:0:0:
175,82,344506,6,0,P|199:89|221:105,1,52.5000001043082,2|8,2:0|2:0,2:0:0:0:
159,166,344676,1,0,3:0:0:0:
90,4,344847,1,8,2:0:0:0:
50,85,345017,1,0,2:0:0:0:
283,34,345188,102,0,B|316:57|315:104|315:104|329:62|371:48,1,157.500000312924,2|0,3:2|2:0,2:0:0:0:
383,43,345529,1,8,2:0:0:0:
512,128,345870,6,0,P|482:103|439:104,1,52.5000001043082,2|8,2:0|2:0,2:0:0:0:
392,122,346041,1,0,3:0:0:0:
459,21,346211,1,8,2:0:0:0:
326,226,346382,1,0,3:0:0:0:
357,327,346552,1,0,3:0:0:0:
459,21,346893,1,8,2:0:0:0:
283,34,347149,101,0,3:2:0:0:
512,128,347320,1,8,3:2:0:0:
512,128,347405,1,0,3:2:0:0:
309,111,347576,1,8,2:0:0:0:
193,277,347746,1,0,3:2:0:0:
156,105,347917,6,0,B|205:103|241:144|213:156|251:193|295:197,1,157.500000312924,2|0,3:2|2:0,2:0:0:0:
296,195,348258,1,8,2:0:0:0:
91,48,348599,102,0,P|72:81|63:106,1,52.5000001043082,2|8,2:0|2:0,2:0:0:0:
97,168,348770,1,0,3:0:0:0:
172,26,348940,1,8,2:0:0:0:
193,277,349111,1,0,3:0:0:0:
23,372,349281,6,0,P|9:295|93:255,1,180.000000357628,2|0,3:2|2:0,2:0:0:0:
109,261,349622,1,8,2:0:0:0:
172,26,349963,102,0,P|191:59|200:84,1,60.0000001192094,2|8,2:0|2:0,2:0:0:0:
179,180,350134,1,0,3:2:0:0:
279,35,350305,1,8,2:0:0:0:
423,16,350475,1,0,2:0:0:0:
474,326,350646,6,0,B|435:287|342:307|401:371|301:375|276:335,1,202.500000402332,2|0,3:2|2:0,2:0:0:0:
272,342,350987,1,8,2:0:0:0:
416,166,351328,102,0,P|356:199|342:218,1,67.5000001341106,2|8,2:0|2:0,2:0:0:0:
320,280,351499,1,0,3:2:0:0:
512,170,351669,1,8,2:0:0:0:
224,28,351840,1,0,3:2:0:0:
19,282,352010,6,0,B|-16:317|1:404|144:396|163:272|91:185|28:192,1,300.000000596047,2|8,3:2|2:0,2:0:0:0:
16,68,352607,1,0,3:0:0:0:
8,104,352692,1,0,2:0:0:0:
0,141,352778,1,0,3:0:0:0:
224,28,352948,1,0,2:0:0:0:
224,28,353034,1,0,2:0:0:0:
271,237,353204,101,0,3:0:0:0:
271,237,353289,1,0,2:0:0:0:
271,237,353375,2,0,B|223:257|173:151|291:49|416:117|354:256|334:280|334:280|287:339|199:331|139:263|160:171|160:171|172:113|132:40|38:-4|-16:122|78:148|78:148|160:171|160:171|456:260|456:260|517:276|540:342|512:391|484:407,1,1481.25000294298,6|0,2:0|2:0,2:0:0:0:
434,340,355592,6,0,P|444:285|505:249,1,105.000000208616,2|0,2:0|2:0,2:0:0:0:
506,253,355848,2,0,P|496:198|435:162,1,105.000000208616,2|0,2:0|2:0,2:0:0:0:
418,160,356104,2,0,B|381:151|347:109|346:16|445:-29|534:2|587:71|559:200|471:223|382:213|349:106|349:106|332:28|255:-46|143:30|179:141|272:151|295:102,1,843.750001676384,2|0,2:0|2:0,2:0:0:0:
271,119,357468,102,0,B|191:47|72:144|173:187|85:254|41:238,1,300.000000596047,2|0,2:0|2:0,2:0:0:0:
27,225,358236,2,0,L|11:193,12,18.7500000372529,0|0|0|0|0|0|0|0|0|0|0|0|0,2:0|2:0|2:0|2:0|2:0|2:0|2:0|2:0|2:0|2:0|2:0|2:0|2:0,2:0:0:0:
41,245,358833,6,0,B|72:307|149:322|228:229|174:106|85:174|51:88|104:29,1,367.500000730157,2|0,2:0|2:0,2:0:0:0:
113,30,359515,102,0,B|154:35|212:81|206:179|118:208|118:208|45:226|21:311|55:363|103:386|103:386|159:360|126:288,1,562.500001117588,2|0,2:0|2:0,2:0:0:0:
128,312,360879,6,0,P|51:213|190:186,1,314.999991012813,2|0,2:0|2:0,2:0:0:0:
253,254,361562,102,0,B|256:257|256:257|308:309|325:361|273:413|239:413|187:361|204:309|256:257|256:257|321:191|321:191|373:139|425:122|477:174|477:208|425:260|373:243|321:191|321:191|255:125|255:125|203:73|186:21|238:-30|272:-30|324:21|307:73|255:125|255:125|190:191|190:191|138:243|86:260|34:208|34:174|86:122|138:139|190:191|190:191|236:237|236:237|240:257|232:270,1,1632.00001320343,2|0,2:0|2:0,2:0:0:0:
430,166,364973,6,0,B|485:165|578:113|555:-54|393:-72|326:11|338:91|338:91|404:124|409:193|409:193|416:276|343:316|241:296|232:170|317:140|317:140|352:130|383:153,1,956.250038377944,2|0,2:0|2:0,2:0:0:0:
338,208,366508,102,0,P|276:204|240:151,1,112.500000223518,2|0,2:0|2:0,2:0:0:0:
273,52,366764,2,0,P|284:117|237:171,1,112.500004515052,2|0,2:0|2:0,2:0:0:0:
209,197,367020,2,0,B|215:159|268:180|306:243|206:362|28:318|-27:126|125:-42|390:-39|476:193|348:369|152:355|152:355|304:412|605:444|599:188|503:73|309:113|289:256|362:321|413:324,1,1511.24993382306,2|0,2:0|2:0,2:0:0:0:
423,253,369749,6,0,B|488:197|519:118|519:118|414:23|189:-56|41:109|78:149|-9:213|-9:213|90:240|76:301|279:324|373:275|373:275|411:200|392:89|315:44|315:44|230:27|157:75|157:75|111:144|143:259|206:300,1,1843.20007566212,2|0,3:2|3:0,2:0:0:0:
256,192,375228,12,0,381176,3:0:0:0:
256,192,381197,12,0,388425,2:0:0:0:
