osu file format v14

[General]
AudioFilename: audio.mp3
AudioLeadIn: 0
PreviewTime: 67565
Countdown: 1
SampleSet: Normal
StackLeniency: 0.2
Mode: 0
LetterboxInBreaks: 0
WidescreenStoryboard: 1

[Editor]
DistanceSpacing: 1
BeatDivisor: 4
GridSize: 4
TimelineZoom: 2.5

[Metadata]
Title:Nhelv
TitleUnicode:Nhelv
Artist:Silentroom
ArtistUnicode:Silentroom
Creator:BluOxy
Version:the blink of an eye
Source:BOFU2017
Tags:bofu 2017 neurofunk dnb neurostep
BeatmapID:1544351
BeatmapSetID:731866

[Difficulty]
HPDrainRate:7
CircleSize:4
OverallDifficulty:7
ApproachRate:9.3
SliderMultiplier:1.7
SliderTickRate:1

[Events]
//Background and Video events
0,0,"fantasyworld.jpg",0,0
//Break Periods
//Storyboard Layer 0 (Background)
//Storyboard Layer 1 (Fail)
//Storyboard Layer 2 (Pass)
//Storyboard Layer 3 (Foreground)
//Storyboard Sound Samples

[TimingPoints]
891,343.681979608203,4,1,1,35,1,0
1579,343.681979608203,4,1,1,35,1,0
1579,-200,4,1,1,35,0,0
23230,-100,4,1,1,35,0,0
23574,-100,4,2,1,45,0,0
33197,-50,4,2,1,45,0,0
33971,-100,4,1,1,35,0,0
34572,-100,4,2,1,45,0,0
41102,-100,4,1,1,35,0,0
44195,-100,4,1,1,35,0,0
44882,-50,4,1,1,85,0,0
45140,-50,4,1,1,5,0,0
45226,-200,4,1,1,85,0,0
45484,-200,4,1,1,5,0,0
45570,-83.3333333333333,4,1,1,85,0,0
50038,-50,4,1,1,65,0,0
50381,-100,4,1,1,65,0,0
51756,-50,4,1,1,65,0,0
52443,-100,4,1,1,65,0,0
53045,-50,4,1,1,65,0,0
53303,-100,4,1,1,65,0,0
53818,-50,4,1,1,65,0,0
54162,-100,4,1,1,65,0,0
56568,-50,4,1,1,65,0,0
56911,-66.6666666666667,4,1,1,65,0,0
57255,-100,4,1,1,65,0,0
65160,-100,4,1,1,75,0,0
66921,-100,4,1,1,5,0,0
66964,-100,4,1,1,75,0,0
67007,-100,4,1,1,5,0,0
67050,-100,4,1,1,75,0,0
67093,-100,4,1,1,5,0,0
67136,-100,4,1,1,75,0,0
67179,-100,4,1,1,5,0,0
67222,-100,4,1,1,75,0,0
67265,-100,4,1,1,5,0,0
67308,-100,4,1,1,75,0,0
67351,-100,4,1,1,5,0,0
67394,-100,4,1,1,75,0,0
67437,-100,4,1,1,5,0,0
67480,-100,4,1,1,75,0,0
67522,-100,4,1,1,5,0,0
67565,-100,4,1,1,75,0,1
68854,-100,4,1,1,100,0,1
69456,-100,4,1,1,75,0,1
76673,-100,4,1,1,80,0,1
76845,-100,4,1,1,90,0,1
77017,-100,4,1,1,100,0,1
77189,-100,4,1,1,75,0,1
78220,-100,4,1,1,80,0,1
78306,-100,4,1,1,90,0,1
78391,-100,4,1,1,95,0,1
78477,-100,4,1,1,100,0,1
78563,-100,4,1,1,75,0,1
89218,-100,4,1,1,80,0,1
89304,-100,4,1,1,90,0,1
89389,-100,4,1,1,95,0,1
89475,-100,4,1,1,100,0,1
89561,-100,4,1,1,75,0,0
100559,-100,4,1,1,75,0,1
111557,-100,4,1,1,75,0,0
122555,-100,4,1,1,75,0,1
132178,-100,4,1,1,75,0,0
133552,-100,4,1,1,75,0,0
133896,-100,4,1,1,65,0,0
133982,-100,4,1,1,55,0,0
134068,-100,4,1,1,45,0,0
134154,-100,4,1,1,35,0,0
134240,-100,4,1,1,35,0,0
134755,-100,4,1,1,45,0,0
134841,-100,4,1,1,50,0,0
134927,-100,4,1,1,55,0,0
135013,-100,4,1,1,60,0,0
135099,-100,4,1,1,70,0,0
135185,-100,4,1,1,80,0,0
135271,-100,4,1,1,90,0,0
135786,-100,4,1,1,65,0,0
136302,-100,4,1,1,65,0,1
139051,-100,4,1,1,65,0,0
140254,-100,4,1,1,5,0,0
140942,-100,4,1,1,65,0,0
141801,-100,4,1,1,65,0,1
150049,-100,4,1,1,65,0,0

[Colours]
Combo1 : 255,223,223
Combo2 : 213,255,217

[HitObjects]
131,119,891,5,0,0:0:0:0:
142,136,976,1,0,0:0:0:0:
137,156,1062,1,0,0:0:0:0:
148,173,1147,1,0,0:0:0:0:
141,193,1234,1,0,0:0:0:0:
152,210,1319,1,0,0:0:0:0:
147,230,1405,1,0,0:0:0:0:
158,247,1492,1,0,0:0:0:0:
262,298,1579,6,0,B|262:262|253:241|253:241|302:209|302:209|291:184|294:156|294:156|257:165|224:125|224:125|241:80|297:78|297:78|299:44|330:5|330:5|374:23|386:55|386:55|432:36|474:55|474:55|462:112|424:122|424:122|449:151|429:197|429:197|468:186|498:245|498:245|470:281|427:274|427:274|422:327|391:344|391:344|349:329|341:283|341:283|341:348|305:367|305:367|264:388|226:371|226:371|197:352|159:358|159:358,1,1338.75
35,269,7077,6,0,B|40:315|90:338|90:338|115:277|180:279|180:279|167:256|167:231|167:231|125:246|90:208|90:208|99:139|40:101|40:101|67:95|67:95|75:85|42:47|79:5|79:5|88:45|130:64,1,658.75
232,16,9827,6,0,B|197:41|192:85|192:85|236:118|276:87|276:87|246:125|243:161|243:161|286:184|328:165|328:165|330:120|374:98|374:98|418:131|410:167|410:167|428:133|476:118|476:118|497:150|493:184,1,658.75
472,254,12576,6,0,L|422:275,1,42.5
372,376,12920,2,0,L|378:322,1,42.5
458,347,13264,1,0,0:0:0:0:
284,203,13436,2,0,L|355:260,1,85
458,347,13951,6,0,L|416:313,1,42.5
398,201,14295,2,0,L|389:254,1,42.5
468,254,14638,1,0,0:0:0:0:
303,327,14810,2,0,L|383:294,1,85
220,359,15326,5,0,0:0:0:0:
136,300,15669,1,0,0:0:0:0:
42,339,16013,1,0,0:0:0:0:
42,339,16701,1,0,0:0:0:0:
243,264,17044,1,0,0:0:0:0:
61,189,17388,1,0,0:0:0:0:
190,136,17732,1,0,0:0:0:0:
99,90,18075,6,0,L|84:44,1,42.5
180,44,18419,2,0,L|174:-1,1,42.5
272,72,18763,1,0,0:0:0:0:
330,23,18934,1,0,0:0:0:0:
402,47,19106,1,0,0:0:0:0:
463,0,19278,1,0,0:0:0:0:
512,144,19450,6,0,L|502:189,1,42.5
415,121,19794,2,0,L|421:169,1,42.5
331,176,20137,2,0,L|361:219,1,42.5
444,312,20481,1,0,0:0:0:0:
277,372,20825,5,0,0:0:0:0:
260,280,21168,1,0,0:0:0:0:
190,342,21512,1,0,0:0:0:0:
157,151,21856,1,0,0:0:0:0:
90,216,22199,1,0,0:0:0:0:
58,90,22543,2,0,L|42:19,1,42.5
3,200,22887,1,0,0:0:0:0:
192,340,23230,5,0,0:0:0:0:
259,308,23316,1,0,0:0:0:0:
195,265,23402,2,0,P|198:234|206:218,1,42.5
172,111,23574,6,0,P|192:129|204:149,1,42.5
312,171,23746,2,0,P|289:180|259:187,1,42.5
91,325,23918,2,0,B|118:304|151:310|151:310|176:345|176:345|208:353|239:329,1,170
250,347,24347,1,0,0:0:0:0:
267,359,24433,1,0,0:0:0:0:
444,187,24605,1,0,0:0:0:0:
435,167,24691,1,0,0:0:0:0:
420,149,24777,1,0,0:0:0:0:
402,138,24863,1,0,0:0:0:0:
325,36,24949,6,0,P|336:54|351:68,1,42.5
255,133,25121,2,0,L|303:146,1,42.5
324,237,25293,2,0,B|337:219|365:219|365:219|394:253|384:296|384:296|404:320|432:316,1,170
440,316,25722,1,0,0:0:0:0:
459,308,25808,1,0,0:0:0:0:
260,349,25980,1,0,0:0:0:0:
239,348,26066,1,0,0:0:0:0:
219,355,26152,1,0,0:0:0:0:
202,367,26238,1,0,0:0:0:0:
120,336,26324,6,0,P|120:313|128:295,1,42.5
241,234,26495,2,0,P|218:243|201:247,1,42.5
120,45,26667,2,0,B|100:73|107:111|107:111|133:143|133:143|144:172|126:200,1,170
109,216,27097,1,0,0:0:0:0:
88,221,27183,1,0,0:0:0:0:
208,85,27355,1,0,0:0:0:0:
226,74,27441,1,0,0:0:0:0:
245,66,27526,1,0,0:0:0:0:
266,66,27612,1,0,0:0:0:0:
369,124,27698,6,0,P|352:104|342:89,1,42.5
337,202,27870,2,0,L|294:207,1,42.5
388,266,28042,2,0,P|379:283|371:306,1,42.5
425,191,28214,1,0,0:0:0:0:
290,293,28300,6,0,P|292:327|304:359,1,42.5
456,384,28472,1,0,0:0:0:0:
468,376,28558,2,0,B|469:347|459:328|459:328|479:301|479:301|469:276|471:251|471:251,1,127.5
503,142,28901,2,0,P|511:172|513:200,1,42.5
324,65,29073,6,0,P|345:63|366:57,1,42.5
352,147,29245,2,0,L|391:170,1,42.5
268,167,29417,2,0,B|282:201|282:230|282:230|253:264|253:264|249:295|266:326,1,170
280,335,29846,1,0,0:0:0:0:
300,340,29932,1,0,0:0:0:0:
190,208,30104,1,0,0:0:0:0:
171,197,30190,1,0,0:0:0:0:
150,191,30276,1,0,0:0:0:0:
128,193,30362,1,0,0:0:0:0:
24,125,30448,6,0,P|41:146|56:175,1,42.5
117,64,30620,2,0,P|121:90|119:123,1,42.5
225,95,30791,2,0,B|218:121|205:138|205:138|243:154|257:194|257:194|238:215|218:215,1,170
198,215,31221,1,0,0:0:0:0:
179,226,31307,1,0,0:0:0:0:
318,107,31479,1,0,0:0:0:0:
339,108,31565,1,0,0:0:0:0:
359,103,31651,1,0,0:0:0:0:
376,91,31737,1,0,0:0:0:0:
460,118,31823,6,0,P|451:142|447:174,1,42.5
499,274,31994,2,0,P|482:254|457:234,1,42.5
215,310,32166,2,0,B|234:289|272:291|272:291|298:234|298:234|317:237|343:231,1,170
362,220,32596,1,0,0:0:0:0:
383,221,32682,1,0,0:0:0:0:
203,320,32854,1,0,0:0:0:0:
164,336,32939,1,0,0:0:0:0:
121,333,33025,1,0,0:0:0:0:
84,311,33111,1,0,0:0:0:0:
49,234,33197,6,0,B|46:204|28:172|28:172|46:136|46:136|23:112|20:77,1,170
265,42,33541,6,0,B|264:89|234:132|234:132|261:186|261:186|229:224|225:275,1,255
293,326,33885,1,0,0:0:0:0:
224,275,33971,6,0,P|182:286|145:320,1,85
352,79,34228,6,0,P|403:91|468:148,1,127.5
461,223,34572,6,0,B|448:245|451:264|451:264|474:280|474:280|487:312|458:337,1,127.5
390,368,34916,1,0,0:0:0:0:
144,258,35087,2,0,P|128:243|116:225,1,42.5
194,187,35259,2,0,B|207:165|204:146|204:146|181:130|181:130|168:98|197:73,1,127.5
265,42,35603,1,0,0:0:0:0:
226,269,35775,2,0,P|221:289|211:308,1,42.5
111,358,35947,6,0,B|127:360|145:350|145:350|173:390|224:384,1,127.5
288,332,36290,1,0,0:0:0:0:
37,322,36462,2,0,P|49:304|65:290,1,42.5
257,232,36634,2,0,B|240:234|222:224|222:224|195:264|143:258,1,127.5
75,204,36977,1,0,0:0:0:0:
339,197,37150,2,0,P|326:179|310:165,1,42.5
155,168,37321,6,0,B|151:149|130:135|130:135|136:103|136:103|115:86|111:59,1,127.5
188,20,37665,1,0,0:0:0:0:
75,204,37837,2,0,P|62:238|59:270,1,42.5
266,275,38009,2,0,B|270:256|291:242|291:242|285:210|285:210|306:193|310:166,1,127.5
233,127,38353,1,0,0:0:0:0:
346,311,38525,2,0,P|359:345|362:377,1,42.5
311,77,38696,6,0,B|363:80|380:117|380:117|407:119|432:94,1,127.5
441,22,39040,1,0,0:0:0:0:
310,165,39212,2,0,P|323:184|331:228,1,42.5
186,240,39384,2,0,B|134:243|117:280|117:280|90:282|65:257,1,127.5
50,192,39728,1,0,0:0:0:0:
189,324,39900,2,0,P|176:343|168:387,1,42.5
329,202,40071,5,0,0:0:0:0:
169,361,40243,1,0,0:0:0:0:
176,162,40415,5,0,0:0:0:0:
315,294,40586,1,0,0:0:0:0:
421,134,40758,5,0,0:0:0:0:
203,239,40930,1,0,0:0:0:0:
32,107,41102,5,0,0:0:0:0:
329,202,41274,1,0,0:0:0:0:
512,30,41446,5,0,0:0:0:0:
439,348,41617,1,0,0:0:0:0:
274,66,41789,5,0,0:0:0:0:
439,359,41961,1,0,0:0:0:0:
124,243,42133,5,0,0:0:0:0:
497,134,42305,1,0,0:0:0:0:
136,14,42477,5,0,0:0:0:0:
512,136,42648,1,0,0:0:0:0:
237,309,42820,5,0,0:0:0:0:
223,292,42906,1,0,0:0:0:0:
230,271,42992,1,0,0:0:0:0:
216,254,43078,1,0,0:0:0:0:
217,232,43164,1,0,0:0:0:0:
203,215,43250,1,0,0:0:0:0:
210,194,43336,1,0,0:0:0:0:
196,177,43422,1,0,0:0:0:0:
262,124,43508,5,0,0:0:0:0:
303,115,43594,1,0,0:0:0:0:
342,129,43680,1,0,0:0:0:0:
374,156,43766,1,0,0:0:0:0:
414,167,43852,1,0,0:0:0:0:
455,160,43937,1,0,0:0:0:0:
489,135,44023,1,0,0:0:0:0:
498,93,44109,1,0,0:0:0:0:
412,62,44195,6,0,L|417:87,1,21.25
295,191,44367,2,0,L|300:212,1,21.25
168,124,44539,2,0,L|172:144,1,21.25
31,323,44711,2,0,L|36:344,3,21.25
124,354,44882,6,0,B|119:292|89:256|89:256|115:223|115:223|83:181|84:121,1,255
262,16,45226,6,0,P|251:46|245:77,1,63.75
388,183,45570,5,0,0:0:0:0:
429,153,45656,1,0,0:0:0:0:
448,105,45742,1,0,0:0:0:0:
438,54,45828,1,0,0:0:0:0:
357,0,45913,2,0,B|324:6|300:25|300:25|292:60|292:60|274:79|242:88,1,152.999995330811
112,36,46257,6,0,P|137:39|160:48,1,50.9999984436036
126,161,46429,2,0,L|172:138,1,50.9999984436036
235,315,46601,2,0,B|235:285|252:262|252:262|236:227|236:227|251:204|253:173,1,152.999995330811
318,348,46945,6,0,P|344:350|368:341,1,50.9999984436036
327,131,47116,2,0,L|358:182,1,50.9999984436036
512,220,47288,2,0,P|503:245|488:264,1,50.9999984436036
398,250,47460,1,0,0:0:0:0:
398,250,47546,1,0,0:0:0:0:
246,87,47632,6,0,P|254:69|286:48,1,50.9999984436036
430,211,47804,2,0,B|407:262|346:276|300:243|300:243|275:257|273:291,1,203.999993774414
319,352,48233,1,0,0:0:0:0:
238,358,48319,5,0,0:0:0:0:
202,321,48405,1,0,0:0:0:0:
153,304,48491,1,0,0:0:0:0:
102,314,48577,1,0,0:0:0:0:
38,244,48663,2,0,B|61:220|63:185|63:185|44:172|44:172|40:132|65:105,1,152.999995330811
268,3,49007,6,0,P|243:7|220:18,1,50.9999984436036
153,198,49178,2,0,P|151:168|143:149,1,50.9999984436036
338,172,49350,2,0,B|298:178|275:149|275:149|273:130|273:130|252:103|218:105,1,152.999995330811
106,23,49694,6,0,P|126:39|143:68,1,50.9999984436036
59,111,49866,2,0,P|53:135|53:161,1,50.9999984436036
176,96,50038,6,0,P|196:144|192:188,1,85
14,173,50210,2,0,P|42:229|86:253,1,85
257,334,50381,5,0,0:0:0:0:
256,312,50467,1,0,0:0:0:0:
259,291,50553,2,0,P|271:264|286:244,1,42.5
413,120,50725,1,0,0:0:0:0:
427,160,50811,1,0,0:0:0:0:
423,202,50897,1,0,0:0:0:0:
401,238,50983,1,0,0:0:0:0:
331,166,51069,6,0,L|270:154,1,42.5,0|0,0:0|0:0,0:0:0:0:
204,64,51241,2,0,L|224:122,1,42.5
181,223,51412,2,0,L|221:176,1,42.5
300,72,51584,1,0,0:0:0:0:
106,340,51756,6,0,B|104:322|99:306|99:306|106:294|106:294|99:274|95:248,1,85
34,136,51928,2,0,B|53:144|66:146|66:146|73:159|73:159|97:164|119:172,1,85
398,165,52100,2,0,B|381:175|376:182|376:182|358:184|358:184|345:199|327:205|327:205|314:199|295:196|295:196|285:186|285:186|264:184|249:176|249:176|229:186|220:198|220:198|206:198|206:198|193:213|179:223,1,255
177,307,52443,6,0,B|196:313|196:313|205:293,1,42.5
187,127,52615,2,0,B|180:104|180:104|161:119,1,42.5
23,222,52787,2,0,B|8:239|8:239|30:251,1,42.5
125,217,52959,1,0,0:0:0:0:
57,65,53045,6,0,B|104:68|139:28|139:28|202:66|202:66|227:30|281:24,1,255
294,28,53389,1,0,0:0:0:0:
379,68,53474,1,0,0:0:0:0:
359,106,53560,1,0,0:0:0:0:
370,146,53646,1,0,0:0:0:0:
354,185,53732,1,0,0:0:0:0:
444,225,53818,6,0,B|430:272|386:280|386:280|397:324|455:323|455:323|430:368|388:374,1,255
301,343,54162,6,0,P|290:321|289:288,1,42.5
451,231,54334,1,0,0:0:0:0:
465,236,54420,2,0,P|476:214|477:181,1,42.5
267,118,54591,1,0,0:0:0:0:
253,123,54677,2,0,P|242:101|241:68,1,42.5
512,4,54849,2,0,B|506:26|489:39|489:39|493:60|508:77|508:77|506:102|490:113,1,127.5
352,152,55193,6,0,P|372:160|404:176,1,42.5
272,216,55365,2,0,P|276:240|276:280,1,42.5
168,196,55537,2,0,P|160:212|140:236,1,42.5
253,123,55708,1,0,0:0:0:0:
293,339,55880,5,0,0:0:0:0:
289,319,55966,1,0,0:0:0:0:
285,299,56052,2,0,L|273:243,1,42.5
147,27,56224,1,0,0:0:0:0:
128,65,56310,1,0,0:0:0:0:
136,106,56396,1,0,0:0:0:0:
116,143,56482,1,0,0:0:0:0:
37,176,56568,6,0,B|62:225|125:243|179:204|179:204|151:243|161:288,1,255
233,351,56911,6,0,L|228:382,2,31.8750012159348
252,261,57083,2,0,L|266:181,1,63.7500024318696
280,106,57255,5,0,0:0:0:0:
305,72,57341,1,0,0:0:0:0:
344,55,57427,1,0,0:0:0:0:
386,59,57513,1,0,0:0:0:0:
467,113,57599,2,0,P|477:146|485:196,1,85
233,351,57942,5,0,0:0:0:0:
191,362,58028,1,0,0:0:0:0:
149,352,58114,1,0,0:0:0:0:
117,323,58200,1,0,0:0:0:0:
107,228,58286,2,0,P|116:185|126:143,1,85
276,80,58630,5,0,0:0:0:0:
199,38,58716,2,0,B|180:55|157:53|157:53|177:59|187:76,1,85
330,154,58973,1,0,0:0:0:0:
359,123,59059,1,0,0:0:0:0:
368,81,59145,1,0,0:0:0:0:
356,39,59231,1,0,0:0:0:0:
