osu file format v14

[General]
AudioFilename: audio.mp3
AudioLeadIn: 0
PreviewTime: 111552
Countdown: 0
SampleSet: Normal
StackLeniency: 0.7
Mode: 2
LetterboxInBreaks: 0
EpilepsyWarning: 1
WidescreenStoryboard: 0

[Editor]
Bookmarks: 32858,44542,44885,67566,89559
DistanceSpacing: 1
BeatDivisor: 8
GridSize: 16
TimelineZoom: 2.9

[Metadata]
Title:Nhelv
TitleUnicode:Nhelv
Artist:Silentroom
ArtistUnicode:Silentroom
Creator:-Plus-
Version:Reimu's Salad
Source:BMS
Tags:of fighters ultimate bofu2017 shun spectator hareimu nelly neurofunk dnb drum'n'bass
BeatmapID:1478871
BeatmapSetID:684268

[Difficulty]
HPDrainRate:3
CircleSize:3
OverallDifficulty:7
ApproachRate:7
SliderMultiplier:1.5
SliderTickRate:1

[Events]
//Background and Video events
0,0,"nhelv.jpg",0,0
//Break Periods
//Storyboard Layer 0 (Background)
//Storyboard Layer 1 (Fail)
//Storyboard Layer 2 (Pass)
//Storyboard Layer 3 (Foreground)
//Storyboard Sound Samples

[TimingPoints]
1587,343.642611683849,4,1,3,60,1,0
1672,-100,4,2,0,40,0,0
12411,-100,4,2,0,5,0,0
12583,-100,4,2,2,35,0,0
23580,-100,4,2,1,60,0,0
33202,-100,4,1,1,60,0,0
33288,-100,4,1,2,60,0,0
33373,-100,4,2,2,60,0,0
33545,-100,4,1,2,60,0,0
34576,-100,4,1,1,60,0,0
44198,-100,4,1,2,70,0,0
44885,-100,4,1,1,75,0,1
45573,-100,4,1,1,75,0,0
66879,-100,4,2,1,60,0,0
67566,-100,4,1,1,75,0,0
89559,-100,4,2,1,60,0,0
100556,-100,4,1,1,60,0,0
111552,-100,4,2,1,40,0,0
122549,-100,4,1,1,60,0,0
132171,-100,4,1,2,60,0,0
132858,-100,4,1,1,60,0,1
133459,-100,4,1,1,60,0,0
133545,-166.666666666667,4,1,1,75,0,1
135607,-100,4,1,1,75,0,0
139129,-100,4,2,1,75,0,0
141793,-100,4,1,1,75,0,0
150126,-100,4,2,1,60,0,0
155538,-100,4,2,1,5,0,0

[Colours]
Combo1 : 0,128,0
Combo2 : 128,0,64
Combo3 : 0,128,128
Combo4 : 128,0,0

[HitObjects]
255,195,1587,5,4,0:0:0:0:
256,192,1930,12,0,12239,0:0:0:0:
332,245,12583,6,0,P|375:181|332:139,1,150,0|0,0:0|0:0,0:0:0:0:
106,138,13442,1,0,0:0:0:0:
256,138,13786,1,0,0:0:0:0:
180,138,13958,2,0,P|137:202|180:244,1,150,0|0,0:0|0:0,0:0:0:0:
405,244,14817,1,0,0:0:0:0:
180,253,15332,6,0,P|106:202|92:131,1,150,0|0,0:0|0:0,0:0:0:0:
240,143,16019,2,0,L|272:293,1,150,2|0,0:0|0:0,0:0:0:0:
421,147,16707,2,0,P|395:216|332:253,1,150,0|0,0:0|0:0,0:0:0:0:
106,249,17566,1,0,0:0:0:0:
287,257,18081,6,0,P|361:206|375:135,1,150,0|0,0:0|0:0,0:0:0:0:
150,148,18940,1,0,0:0:0:0:
300,147,19284,1,0,0:0:0:0:
224,147,19456,2,0,P|150:198|136:269,1,150,0|0,0:0|0:0,0:0:0:0:
360,251,20315,1,0,0:0:0:0:
135,257,20830,6,0,L|76:118,1,150,0|0,0:0|0:0,0:0:0:0:
226,106,21518,1,2,0:0:0:0:
284,254,21861,1,0,0:0:0:0:
435,118,22205,2,0,L|377:257,1,150,0|0,0:0|0:0,0:0:0:0:
152,264,23064,2,0,L|66:264,2,75,0|0|0,0:0|0:0|0:0,0:0:0:0:
319,255,23580,6,0,P|385:223|415:146,1,150,4|8,1:1|0:0,0:0:0:0:
264,150,24267,2,0,L|252:228,1,75,0|0,0:0|1:0,0:0:0:0:
328,220,24611,2,0,L|369:295,1,75,8|0,0:0|1:0,0:0:0:0:
289,293,24954,6,0,L|110:293,1,150,0|8,1:0|0:0,0:0:0:0:
252,140,25556,2,0,L|386:140,1,112.5,0|0,1:0|1:0,0:0:0:0:
289,243,25985,2,0,L|211:243,1,75,8|0,0:0|1:0,0:0:0:0:
380,128,26329,6,0,P|426:181|383:237,1,150,4|8,1:1|0:0,0:0:0:0:
235,237,27016,2,0,L|148:238,1,75,0|0,0:0|1:0,0:0:0:0:
235,147,27360,2,0,L|322:146,1,75,8|0,0:0|1:0,0:0:0:0:
235,237,27703,6,0,L|74:237,1,150,0|8,1:0|0:0,0:0:0:0:
197,148,28305,2,0,L|319:147,1,112.5,0|0,1:0|1:0,0:0:0:0:
235,237,28734,2,0,L|133:233,1,75,8|0,0:0|1:0,0:0:0:0:
326,222,29078,6,0,P|381:175|339:117,1,150,4|8,1:1|0:0,0:0:0:0:
194,95,29765,1,0,0:0:0:0:
130,135,29937,1,0,1:0:0:0:
142,209,30109,1,8,0:0:0:0:
220,233,30281,1,0,1:0:0:0:
302,233,30452,6,0,P|363:171|360:98,1,150,0|8,1:0|0:0,0:0:0:0:
252,115,31054,2,0,L|137:116,1,112.5,0|0,1:0|1:0,0:0:0:0:
214,268,31483,2,0,L|315:271,1,75,8|0,0:0|1:0,0:0:0:0:
126,249,31827,6,0,P|67:204|37:128,1,150,4|8,1:1|0:0,0:0:0:0:
189,112,32514,2,0,L|277:109,3,75,0|0|8|0,0:0|1:0|0:0|1:0,0:0:0:0:
429,105,33202,6,0,L|449:261,1,150,4|2,0:0|0:0,0:0:0:0:
336,256,33803,2,0,L|226:255,2,75,2|2|0,0:0|0:0|0:0,0:0:0:0:
381,256,34233,1,2,0:0:0:0:
96,266,34576,6,0,P|56:208|104:158,1,150,4|8,0:0|0:0,0:0:0:0:
253,156,35263,2,0,L|296:82,1,75,2|0,0:0|0:0,0:0:0:0:
214,116,35607,2,0,L|119:116,1,75,8|2,0:0|0:0,0:0:0:0:
213,116,35951,6,0,P|262:164|217:215,1,150,2|8,0:0|0:0,0:0:0:0:
64,223,36638,2,0,L|156:220,1,75,2|0,0:0|0:0,0:0:0:0:
215,223,36982,2,0,L|310:223,1,75,8|2,0:0|0:0,0:0:0:0:
455,102,37325,6,0,P|470:194|422:231,1,150,2|8,0:0|0:0,0:0:0:0:
286,215,38013,2,0,L|292:133,1,75,2|0,0:0|0:0,0:0:0:0:
216,142,38356,2,0,L|210:60,1,75,8|2,0:0|0:0,0:0:0:0:
135,63,38700,6,0,L|91:222,1,150,2|8,0:0|0:0,0:0:0:0:
245,217,39388,2,0,L|239:135,1,75,2|0,0:0|0:0,0:0:0:0:
315,144,39731,2,0,L|390:94,1,75,8|2,0:0|0:0,0:0:0:0:
215,117,40074,5,2,0:0:0:0:
151,157,40245,1,2,0:0:0:0:
112,222,40417,1,2,0:0:0:0:
99,297,40589,1,2,0:0:0:0:
112,222,40761,1,2,0:0:0:0:
151,157,40933,1,2,0:0:0:0:
215,117,41104,1,2,0:0:0:0:
305,117,41276,1,2,0:0:0:0:
469,313,41449,5,2,0:0:0:0:
482,240,41620,1,2,0:0:0:0:
469,168,41792,1,2,0:0:0:0:
430,108,41964,1,2,0:0:0:0:
365,71,42136,1,2,0:0:0:0:
274,71,42308,1,2,0:0:0:0:
211,111,42479,1,2,0:0:0:0:
172,175,42651,1,2,0:0:0:0:
337,179,42824,6,0,L|390:178,2,37.5,2|2|2,0:0|0:0|0:0,0:0:0:0:
261,179,43167,1,2,0:0:0:0:
223,180,43253,1,2,0:0:0:0:
185,179,43339,1,2,0:0:0:0:
261,179,43511,6,0,L|314:178,2,37.5,2|2|2,0:0|0:0|0:0,0:0:0:0:
185,179,43854,1,2,0:0:0:0:
147,180,43940,1,2,0:0:0:0:
109,179,44026,1,2,0:0:0:0:
274,296,44198,6,0,P|389:232|307:129,1,300,2|4,0:0|0:0,0:0:0:0:
84,283,45573,6,0,P|64:236|110:147,1,150,6|8,0:0|0:0,0:0:0:0:
253,149,46260,2,0,L|273:233,1,75,0|2,0:0|0:0,0:0:0:0:
194,224,46604,1,8,0:0:0:0:
118,224,46776,1,0,0:0:0:0:
207,156,46947,6,0,L|297:156,2,75,2|0|8,0:0|0:0|0:0,0:0:0:0:
387,157,47635,1,0,0:0:0:0:
451,197,47807,1,2,0:0:0:0:
439,271,47979,1,8,0:0:0:0:
361,295,48151,1,0,0:0:0:0:
199,296,48322,6,0,P|159:251|205:189,1,150,2|8,0:0|0:0,0:0:0:0:
280,192,48837,2,0,L|398:192,2,112.5,0|0|8,0:0|0:0|0:0,0:0:0:0:
190,206,49525,1,0,0:0:0:0:
264,203,49696,6,0,L|345:203,2,75,2|0|8,0:0|0:0|0:0,0:0:0:0:
150,201,50298,2,0,L|19:201,1,112.5,8|2,0:0|0:0,0:0:0:0:
112,200,50727,2,0,L|215:200,1,75,8|0,0:0|0:0,0:0:0:0:
351,98,51071,6,0,P|416:131|460:197,1,150,2|8,0:0|0:0,0:0:0:0:
348,182,51672,2,0,L|261:182,1,75,0|0,0:0|0:0,0:0:0:0:
160,178,52102,2,0,L|177:85,1,75,8|0,0:0|0:0,0:0:0:0:
248,106,52446,6,0,L|330:107,2,75,2|0|8,0:0|0:0|0:0,0:0:0:0:
135,247,53047,2,0,L|260:248,1,112.5,0|2,0:0|0:0,0:0:0:0:
322,250,53477,2,0,L|340:157,1,75,8|0,0:0|0:0,0:0:0:0:
174,134,53820,6,0,B|87:133|87:133|185:134,1,150,2|8,0:0|0:0,0:0:0:0:
262,129,54422,2,0,L|253:223,1,75,0|0,0:0|0:0,0:0:0:0:
142,208,54851,2,0,L|133:115,1,75,8|0,0:0|0:0,0:0:0:0:
210,131,55195,5,2,0:0:0:0:
286,132,55367,1,0,0:0:0:0:
361,236,55538,2,0,L|229:237,2,112.5,8|0|2,0:0|0:0|0:0,0:0:0:0:
436,237,56226,2,0,L|360:237,1,75,8|0,0:0|0:0,0:0:0:0:
198,284,56569,6,0,P|121:234|99:171,1,150,2|8,0:0|0:0,0:0:0:0:
211,175,57171,2,0,L|286:175,1,75,0|0,0:0|0:0,0:0:0:0:
398,176,57600,2,0,L|313:176,1,75,8|0,0:0|0:0,0:0:0:0:
247,173,57944,6,0,L|162:173,2,75,2|0|8,0:0|0:0|0:0,0:0:0:0:
359,173,58545,2,0,L|223:173,1,112.5,0|2,0:0|0:0,0:0:0:0:
172,173,58975,2,0,L|163:96,1,75,8|0,0:0|0:0,0:0:0:0:
328,99,59318,6,0,L|477:100,1,150,2|8,0:0|0:0,0:0:0:0:
364,284,59920,2,0,L|277:283,1,75,0|0,0:0|0:0,0:0:0:0:
176,282,60349,2,0,L|263:281,1,75,8|0,0:0|0:0,0:0:0:0:
326,277,60693,5,2,0:0:0:0:
353,207,60865,1,0,0:0:0:0:
280,193,61037,1,8,0:0:0:0:
167,195,61294,2,0,L|151:108,1,75,0|0,0:0|0:0,0:0:0:0:
266,116,61724,2,0,L|368:116,1,75,8|0,0:0|0:0,0:0:0:0:
175,265,62068,6,0,L|91:264,1,75,2|0,0:0|0:0,0:0:0:0:
24,70,62411,2,0,L|151:70,1,112.5,8|0,0:0|0:0,0:0:0:0:
211,316,62841,2,0,L|93:316,2,112.5,0|8|0,0:0|0:0|0:0,0:0:0:0:
248,70,63442,6,0,L|91:69,1,150,2|8,0:0|0:0,0:0:0:0:
173,313,63958,2,0,B|248:312|248:312|170:313,1,150,0|2,0:0|0:0,0:0:0:0:
97,70,64473,2,0,L|234:70,1,112.5,8|0,0:0|0:0,0:0:0:0:
242,88,64817,5,2,0:0:0:0:
235,138,64931,1,0,0:0:0:0:
178,159,65046,1,0,0:0:0:0:
237,159,65160,2,0,L|369:161,2,112.5,8|0|2,0:0|0:0|0:0,0:0:0:0:
312,161,65848,2,0,L|397:160,1,75,8|0,0:0|0:0,0:0:0:0:
224,208,66191,6,0,B|150:209|150:209|226:208,1,150,2|8,0:0|0:0,0:0:0:0:
301,204,66707,1,0,0:0:0:0:
224,208,66879,6,0,L|217:168,2,37.5,2|2|2,0:0|0:0|0:0,0:0:0:0:
301,204,67222,2,0,L|308:164,2,37.5,2|2|2,0:0|0:0|0:0,0:0:0:0:
136,283,67566,6,0,P|81:245|123:193,1,150,6|8,0:0|0:0,0:0:0:0:
234,170,68167,1,2,0:0:0:0:
251,96,68339,1,8,0:0:0:0:
364,96,68597,1,8,0:0:0:0:
381,170,68769,1,0,0:0:0:0:
306,174,68940,6,0,L|385:175,1,75,2|2,0:0|0:0,0:0:0:0:
306,270,69284,2,0,L|168:271,2,112.5,8|2|2,0:0|0:0|0:0,0:0:0:0:
380,174,69971,2,0,L|306:174,1,75,8|0,0:0|0:0,0:0:0:0:
140,213,70315,6,0,L|114:120,1,75,2|0,0:0|0:0,0:0:0:0:
192,140,70659,2,0,L|328:140,1,112.5,8|2,0:0|0:0,0:0:0:0:
342,140,71002,2,0,P|382:206|345:258,1,150,0|8,0:0|0:0,0:0:0:0:
194,264,71690,6,0,L|97:262,2,75,2|2|8,0:0|0:0|0:0,0:0:0:0:
344,127,72377,2,0,L|185:128,1,150,0|8,0:0|0:0,0:0:0:0:
118,126,72892,1,0,0:0:0:0:
278,159,73064,6,0,P|311:220|254:258,1,150,6|8,0:0|0:0,0:0:0:0:
146,257,73666,1,2,0:0:0:0:
72,258,73837,1,8,0:0:0:0:
184,171,74095,1,8,0:0:0:0:
259,170,74266,1,0,0:0:0:0:
334,168,74439,6,0,L|245:166,1,75,2|2,0:0|0:0,0:0:0:0:
184,213,74782,1,8,0:0:0:0:
259,211,74954,2,0,L|426:211,1,150,0|2,0:0|0:0,0:0:0:0:
333,210,75470,2,0,L|237:211,1,75,8|0,0:0|0:0,0:0:0:0:
92,210,75813,6,0,P|44:158|80:99,1,150,6|8,0:0|0:0,0:0:0:0:
235,100,76501,2,0,L|70:100,1,150,0|8,0:0|0:0,0:0:0:0:
234,114,77188,6,0,L|330:112,2,75,2|2|8,0:0|0:0|0:0,0:0:0:0:
121,117,77789,2,0,L|215:116,1,75,2|8,0:0|0:0,0:0:0:0:
308,112,78219,2,0,L|385:112,1,75,8|0,0:0|0:0,0:0:0:0:
220,212,78562,6,0,P|145:165|126:109,1,150,6|8,0:0|0:0,0:0:0:0:
269,123,79250,2,0,L|431:123,1,150,0|8,0:0|0:0,0:0:0:0:
269,132,79937,6,0,L|191:130,2,75,2|2|8,0:0|0:0|0:0,0:0:0:0:
381,126,80538,2,0,L|256:126,1,112.5,2|2,0:0|0:0,0:0:0:0:
193,127,80968,2,0,L|173:216,1,75,8|0,0:0|0:0,0:0:0:0:
343,208,81312,6,0,P|401:243|366:301,1,150,6|8,0:0|0:0,0:0:0:0:
216,311,81999,2,0,P|142:278|134:185,1,150,0|8,0:0|0:0,0:0:0:0:
274,214,82686,6,0,L|355:213,1,75,2|2,0:0|0:0,0:0:0:0:
273,211,83030,2,0,L|142:210,1,112.5,8|2,0:0|0:0,0:0:0:0:
235,210,83459,1,8,0:0:0:0:
122,214,83717,2,0,L|109:120,1,75,8|0,0:0|0:0,0:0:0:0:
275,137,84061,6,0,P|328:183|286:241,1,150,6|8,0:0|0:0,0:0:0:0:
139,236,84748,2,0,L|307:236,1,150,0|8,0:0|0:0,0:0:0:0:
138,236,85435,6,0,L|124:144,1,75,2|2,0:0|0:0,0:0:0:0:
202,163,85779,2,0,L|335:162,2,112.5,8|2|2,0:0|0:0|0:0,0:0:0:0:
126,161,86466,2,0,L|217:162,1,75,8|0,0:0|0:0,0:0:0:0:
360,161,86810,6,0,P|430:184|462:249,1,150,6|8,0:0|0:0,0:0:0:0:
312,258,87497,2,0,L|290:103,1,150,0|8,0:0|0:0,0:0:0:0:
140,105,88184,6,0,L|123:215,1,75,2|2,0:0|0:0,0:0:0:0:
204,178,88528,2,0,L|335:177,1,112.5,8|2,0:0|0:0,0:0:0:0:
241,180,88958,1,8,0:0:0:0:
353,181,89215,2,0,L|402:179,2,37.5,8|0|0,0:0|0:0|0:0,0:0:0:0:
184,22,89559,6,0,B|136:29|88:40|42:79|19:142|19:197|20:271|32:337|56:368|86:378|142:376|196:386|256:371|256:371|317:382|372:372|424:373|452:364|476:338|496:273|494:197|493:141|468:76|424:43|376:29|328:22,1,1200,0|0,0:0|0:0,0:0:0:0:
184,55,92652,2,0,L|171:148,1,75,2|0,0:0|0:0,0:0:0:0:
248,130,92995,6,0,P|318:158|352:236,1,150,0|2,0:0|0:0,0:0:0:0:
200,216,93683,2,0,P|130:173|95:105,1,150,0|2,0:0|0:0,0:0:0:0:
247,115,94370,2,0,L|424:114,1,150,0|2,0:0|0:0,0:0:0:0:
147,113,95057,6,0,L|130:269,1,150,0|2,0:0|0:0,0:0:0:0:
280,273,95745,2,0,P|334:226|221:285,1,750,0|2,0:0|0:0,0:0:0:0:
369,277,97806,6,0,P|389:201|322:163,1,150,0|2,0:0|0:0,0:0:0:0:
192,196,98494,2,0,P|134:168|93:76,1,150,0|2,0:0|0:0,0:0:0:0:
244,102,99181,6,0,L|396:102,2,150,0|2|0,0:0|0:0|0:0,0:0:0:0:
206,102,99954,1,0,0:0:0:0:
243,102,100040,1,0,0:0:0:0:
318,105,100212,2,0,L|397:105,1,75,2|0,0:0|0:0,0:0:0:0:
229,74,100556,6,0,L|74:73,1,150,6|8,0:0|0:0,0:0:0:0:
154,309,101071,1,2,0:0:0:0:
228,312,101243,2,0,P|272:243|220:211,1,150,2|8,0:0|0:0,0:0:0:0:
155,215,101758,1,2,0:0:0:0:
230,216,101930,6,0,L|388:218,1,150,6|8,0:0|0:0,0:0:0:0:
229,220,102617,2,0,P|202:154|251:105,1,112.5,2|2,0:0|0:0,0:0:0:0:
257,121,102961,2,0,L|350:120,1,75,8|2,0:0|0:0,0:0:0:0:
173,123,103305,6,0,P|124:173|160:232,1,150,6|8,0:0|0:0,0:0:0:0:
308,229,103992,2,0,P|387:187|407:105,1,150,2|8,0:0|0:0,0:0:0:0:
332,132,104507,1,2,0:0:0:0:
256,133,104679,1,6,0:0:0:0:
105,133,105023,1,8,0:0:0:0:
256,133,105367,1,2,0:0:0:0:
320,173,105539,1,0,0:0:0:0:
308,247,105711,1,8,0:0:0:0:
230,271,105883,1,2,0:0:0:0:
68,288,106054,5,2,0:0:0:0:
33,221,106225,1,2,0:0:0:0:
53,148,106397,1,2,0:0:0:0:
126,130,106569,1,2,0:0:0:0:
223,130,106741,1,2,0:0:0:0:
298,136,106913,1,2,0:0:0:0:
361,177,107085,1,2,0:0:0:0:
392,245,107257,1,2,0:0:0:0:
230,244,107428,5,2,0:0:0:0:
181,198,107599,1,2,0:0:0:0:
191,140,107771,1,2,0:0:0:0:
254,112,107943,1,2,0:0:0:0:
163,113,108116,1,2,0:0:0:0:
139,190,108288,1,2,0:0:0:0:
163,113,108459,1,2,0:0:0:0:
254,112,108632,1,2,0:0:0:0:
419,114,108803,6,0,L|420:158,2,37.5,2|2|2,0:0|0:0|0:0,0:0:0:0:
343,115,109147,2,0,L|333:159,2,37.5,2|2|2,0:0|0:0|0:0,0:0:0:0:
247,135,109490,6,0,L|219:168,2,37.5,2|2|2,0:0|0:0|0:0,0:0:0:0:
133,130,109834,2,0,L|66:133,2,37.5,2|2|2,0:0|0:0|0:0,0:0:0:0:
294,107,110178,6,0,P|343:237|226:311,1,300,2|2,0:0|0:0,0:0:0:0:
440,108,111552,6,0,P|256:301|64:105,1,600,6|2,1:0|0:0,0:0:0:0:
427,297,113829,6,0,L|315:297,1,112.5,0|2,0:0|0:0,0:0:0:0:
195,307,114301,2,0,P|132:192|299:307,1,600,2|2,0:0|0:0,0:0:0:0:
76,60,117050,5,2,0:0:0:0:
300,144,117738,2,0,P|98:255|182:41,1,600,2|2,0:0|0:0,0:0:0:0:
409,118,119800,1,2,0:0:0:0:
256,192,121174,12,0,122205,0:0:0:0:
110,91,122549,6,0,P|69:168|132:209,1,150,6|8,0:0|0:0,0:0:0:0:
179,206,123064,1,2,0:0:0:0:
291,206,123236,2,0,L|446:207,1,150,2|8,0:0|0:0,0:0:0:0:
365,206,123751,1,2,0:0:0:0:
289,206,123923,6,0,P|232:130|289:93,1,150,6|8,0:0|0:0,0:0:0:0:
330,98,124439,1,2,0:0:0:0:
217,96,124611,2,0,P|146:118|127:198,1,150,2|8,0:0|0:0,0:0:0:0:
402,91,125298,6,0,P|443:168|380:209,1,150,6|8,0:0|0:0,0:0:0:0:
333,206,125813,1,2,0:0:0:0:
221,206,125985,2,0,L|66:207,1,150,2|8,0:0|0:0,0:0:0:0:
147,206,126500,1,2,0:0:0:0:
223,206,126672,6,0,P|280:130|223:93,1,150,6|8,0:0|0:0,0:0:0:0:
182,98,127188,1,2,0:0:0:0:
257,289,127360,2,0,L|424:290,1,150,2|8,0:0|0:0,0:0:0:0:
331,289,127875,1,2,0:0:0:0:
167,290,128047,6,0,L|153:211,3,75,2|2|2|2,0:0|0:0|0:0|0:0,0:0:0:0:
228,214,128734,2,0,L|282:153,3,75,2|2|2|2,0:0|0:0|0:0|0:0,0:0:0:0:
202,149,129422,5,2,0:0:0:0:
127,155,129593,1,2,0:0:0:0:
83,215,129765,1,2,0:0:0:0:
65,141,129937,1,2,0:0:0:0:
159,116,130109,1,2,0:0:0:0:
218,155,130280,1,2,0:0:0:0:
208,225,130452,1,2,0:0:0:0:
134,206,130624,1,2,0:0:0:0:
301,219,130796,6,0,L|341:219,2,37.5,2|2|2,0:0|0:0|0:0,0:0:0:0:
225,218,131140,2,0,L|214:165,2,37.5,2|2|2,0:0|0:0|0:0,0:0:0:0:
387,124,131483,2,0,L|427:124,2,37.5,2|2|2,0:0|0:0|0:0,0:0:0:0:
313,124,131827,1,2,0:0:0:0:
275,125,131913,1,2,0:0:0:0:
237,126,131999,1,2,0:0:0:0:
395,98,132171,6,0,P|478:197|364:280,1,300,2|6,0:0|0:0,0:0:0:0:
87,360,133545,6,0,P|98:89|365:43,1,584.999982147217,6|2,0:0|0:0,0:0:0:0:
440,44,135951,2,0,L|365:43,1,75,8|0,0:0|0:0,0:0:0:0:
203,82,136294,6,0,P|143:113|177:171,1,150,2|8,0:0|0:0,0:0:0:0:
248,169,136810,2,0,L|374:169,2,112.5,2|8|8,0:0|0:0|0:0,0:0:0:0:
172,169,137497,1,2,0:0:0:0:
284,169,137669,6,0,L|300:81,1,75,2|2,0:0|0:0,0:0:0:0:
222,91,138013,2,0,L|96:91,2,112.5,10|8|2,0:0|0:0|0:0,0:0:0:0:
297,89,138700,2,0,L|398:89,1,75,8|0,0:0|0:0,0:0:0:0:
205,84,139044,6,0,P|97:159|191:252,1,300,6|2,0:0|1:0,0:0:0:0:
267,250,139903,2,0,L|359:248,2,75,0|0|0,0:0|0:0|0:0,0:0:0:0:
116,256,140590,2,0,L|99:161,1,75,2|0,0:1|0:0,0:0:0:0:
252,193,141105,2,0,L|333:191,1,75,2|2,0:0|0:1,0:0:0:0:
251,191,141449,2,0,L|156:188,1,75,10|0,0:1|0:0,0:0:0:0:
340,207,141793,6,0,P|412:158|434:71,1,150,6|8,0:0|0:0,0:0:0:0:
322,101,142394,2,0,L|228:101,1,75,0|8,0:0|0:0,0:0:0:0:
360,101,142824,2,0,L|369:181,1,75,8|2,0:0|0:0,0:0:0:0:
293,174,143167,6,0,L|284:254,1,75,6|0,0:0|0:0,0:0:0:0:
209,249,143511,1,8,0:0:0:0:
96,254,143769,2,0,L|197:253,1,75,0|8,0:0|0:0,0:0:0:0:
283,130,144198,2,0,L|376:132,1,75,8|2,0:0|0:0,0:0:0:0:
195,132,144542,6,0,L|112:129,2,75,2|0|12,0:0|0:0|0:0,0:0:0:0:
339,125,145229,2,0,L|428:124,1,75,0|0,0:0|0:0,0:0:0:0:
338,260,145573,2,0,L|258:259,1,75,8|0,0:0|0:0,0:0:0:0:
187,124,145916,5,2,0:0:0:0:
262,124,146088,1,0,0:0:0:0:
186,259,146260,2,0,P|120:234|104:181,2,112.5,8|0|0,0:0|0:0|0:0,0:0:0:0:
298,259,147033,1,0,0:0:0:0:
74,104,147291,6,0,P|49:176|122:229,1,150,2|8,0:0|0:0,0:0:0:0:
206,231,147892,2,0,L|343:229,1,112.5,0|0,0:0|0:0,0:0:0:0:
243,233,148322,2,0,L|232:138,1,75,8|2,0:0|0:0,0:0:0:0:
309,153,148666,6,0,L|388:152,2,75,2|0|8,0:0|0:0|0:0,0:0:0:0:
197,138,149267,2,0,L|187:223,1,75,0|8,0:0|0:0,0:0:0:0:
300,211,149696,2,0,L|310:126,1,75,8|2,0:0|0:0,0:0:0:0:
143,109,150040,6,0,P|109:172|151:230,1,150,6|8,0:0|1:0,0:0:0:0:
302,225,150727,2,0,L|208:104,1,150,8|8,1:0|1:0,0:0:0:0:
359,229,151415,6,0,P|402:172|376:106,1,150,6|8,1:0|1:0,0:0:0:0:
225,108,152102,1,8,1:0:0:0:
375,105,152446,1,8,1:0:0:0:
113,171,152789,6,0,L|103:286,1,112.5,12|12,1:0|1:0,0:0:0:0:
214,284,153305,2,0,L|224:169,1,112.5,12|12,1:0|1:0,0:0:0:0:
338,172,153820,2,0,L|328:287,1,112.5,12|12,1:0|1:0,0:0:0:0:
252,284,154250,5,10,1:0:0:0:
220,260,154335,1,2,1:0:0:0:
211,225,154421,1,2,1:0:0:0:
221,190,154507,1,10,1:0:0:0:
253,167,154593,1,2,1:0:0:0:
328,163,154765,1,10,1:0:0:0:
359,138,154850,1,2,1:0:0:0:
353,101,154936,1,10,1:0:0:0:
314,79,155022,1,2,1:0:0:0:
151,77,155195,6,0,L|104:77,2,37.5,10|2|10,1:0|1:0|1:0,0:0:0:0:
189,78,155452,1,10,1:0:0:0:
256,192,155796,12,0,158288,0:0:0:0:
