osu file format v14

[General]
AudioFilename: audio.mp3
AudioLeadIn: 0
PreviewTime: 111552
Countdown: 0
SampleSet: Normal
StackLeniency: 0.7
Mode: 2
LetterboxInBreaks: 0
WidescreenStoryboard: 1

[Editor]
Bookmarks: 44542,44885,67566,89559
DistanceSpacing: 1.6
BeatDivisor: 4
GridSize: 32
TimelineZoom: 2.9

[Metadata]
Title:Nhelv
TitleUnicode:Nhelv
Artist:Silentroom
ArtistUnicode:Silentroom
Creator:-Plus-
Version:Platter
Source:BMS
Tags:of fighters ultimate bofu2017 shun spectator hareimu nelly neurofunk dnb drum'n'bass
BeatmapID:1490220
BeatmapSetID:684268

[Difficulty]
HPDrainRate:5
CircleSize:3.6
OverallDifficulty:8
ApproachRate:8
SliderMultiplier:1.75
SliderTickRate:2

[Events]
//Background and Video events
0,0,"nhelv.jpg",0,0
//Break Periods
//Storyboard Layer 0 (Background)
//Storyboard Layer 1 (Fail)
//Storyboard Layer 2 (Pass)
//Storyboard Layer 3 (Foreground)
//Storyboard Sound Samples

[TimingPoints]
1587,343.642611683849,4,1,3,60,1,0
1672,-100,4,2,0,40,0,0
12239,-100,4,2,0,5,0,0
12583,-200,4,2,2,35,0,0
23580,-133.333333333333,4,2,1,60,0,0
33202,-100,4,1,1,60,0,0
33545,-100,4,1,2,60,0,0
34404,-100,4,1,1,60,0,0
34576,-117.647058823529,4,1,1,60,0,0
44198,-117.647058823529,4,1,2,70,0,0
44885,-66.6666666666667,4,1,1,75,0,1
44971,-66.6666666666667,4,1,1,75,0,1
45573,-100,4,1,1,75,0,0
50040,-90.9090909090909,4,1,1,75,0,0
50384,-100,4,1,1,75,0,0
53047,-66.6666666666667,4,1,1,75,0,0
53305,-100,4,1,1,75,0,0
56569,-90.9090909090909,4,1,1,75,0,0
56913,-100,4,1,1,75,0,0
62411,-66.6666666666667,4,1,1,75,0,0
63442,-100,4,1,1,75,0,0
65160,-90.9090909090909,4,1,1,75,0,0
66191,-100,4,1,1,75,0,0
66879,-100,4,2,1,60,0,0
67566,-100,4,1,1,75,0,0
89559,-133.333333333333,4,2,1,60,0,0
100556,-100,4,1,1,60,0,0
110865,-66.6666666666667,4,1,1,60,0,0
111552,-200,4,2,1,40,0,0
122549,-117.647058823529,4,1,1,60,0,0
132171,-117.647058823529,4,1,2,60,0,0
132858,-66.6666666666667,4,1,1,60,0,1
133459,-66.6666666666667,4,1,1,60,0,0
133545,-83.3333333333333,4,1,1,75,0,1
135607,-100,4,1,1,75,0,0
138013,-90.9090909090909,4,1,1,75,0,0
139044,-125,4,1,1,75,0,0
139129,-125,4,2,1,75,0,0
141793,-90.9090909090909,4,1,1,75,0,0
150126,-100,4,2,1,60,0,0
151415,-90.9090909090909,4,2,1,60,0,0
151758,-100,4,2,1,60,0,0
155538,-100,4,2,1,5,0,0

[Colours]
Combo1 : 0,128,0
Combo2 : 128,0,64
Combo3 : 0,128,128
Combo4 : 128,0,0

[HitObjects]
81,349,1587,5,4,0:0:0:0:
256,192,1758,12,0,12239,0:0:0:0:
73,364,12583,6,0,L|62:277,1,87.5,0|0,0:0|0:0,0:0:0:0:
230,213,13270,2,0,L|224:157,1,43.75,2|0,0:0|0:0,0:0:0:0:
90,168,13786,1,0,0:0:0:0:
230,213,13958,2,0,L|219:126,1,87.5,0|0,0:0|0:0,0:0:0:0:
73,364,14817,1,0,0:0:0:0:
396,368,15246,1,0,0:0:0:0:
439,364,15332,6,0,L|450:277,1,87.5,0|0,0:0|0:0,0:0:0:0:
282,213,16019,1,2,0:0:0:0:
450,277,16707,2,0,L|439:364,1,87.5,0|0,0:0|0:0,0:0:0:0:
282,213,17566,1,0,0:0:0:0:
439,364,18081,6,0,L|450:277,1,87.5,0|0,0:0|0:0,0:0:0:0:
282,213,18768,2,0,L|288:157,1,43.75,2|0,0:0|0:0,0:0:0:0:
422,168,19284,1,0,0:0:0:0:
282,213,19456,2,0,L|293:126,1,87.5,0|0,0:0|0:0,0:0:0:0:
439,364,20315,1,0,0:0:0:0:
116,368,20744,1,0,0:0:0:0:
73,364,20830,6,0,L|62:277,1,87.5,0|0,0:0|0:0,0:0:0:0:
230,213,21517,1,2,0:0:0:0:
62,277,22205,2,0,L|73:364,1,87.5,0|0,0:0|0:0,0:0:0:0:
230,213,23064,1,0,0:0:0:0:
123,321,23236,2,0,L|90:319,2,21.875,0|0|0,0:0|0:0|0:0,0:0:0:0:
410,345,23580,6,0,P|433:302|387:248,1,98.4375037550928,4|0,1:1|0:0,0:0:0:0:
360,248,23923,1,8,0:0:0:0:
257,185,24095,2,0,L|377:173,1,98.4375037550928,0|8,0:0|0:0,0:0:0:0:
402,168,24439,1,0,1:0:0:0:
496,114,24611,2,0,L|414:110,1,65.6250025033952,8|0,0:0|1:0,0:0:0:0:
234,113,24954,6,0,P|193:101|162:43,1,98.4375037550928,0|0,1:0|0:0,0:0:0:0:
156,16,25298,1,8,0:0:0:0:
257,55,25470,1,0,0:0:0:0:
302,18,25556,2,0,L|228:18,1,65.6250025033952,0|8,1:0|0:0,0:0:0:0:
168,72,25813,2,0,L|242:72,1,65.6250025033952,0|8,1:0|0:0,0:0:0:0:
348,68,26157,1,0,1:0:0:0:
74,324,26329,6,0,P|49:276|86:249,1,98.4375037550928,4|0,1:1|0:0,0:0:0:0:
124,231,26672,1,8,0:0:0:0:
223,186,26844,2,0,L|107:174,1,98.4375037550928,0|8,0:0|0:0,0:0:0:0:
180,132,27188,1,0,1:0:0:0:
284,111,27360,2,0,L|204:103,1,65.6250025033952,8|0,0:0|1:0,0:0:0:0:
33,177,27703,6,0,P|42:225|108:254,1,98.4375037550928,0|0,1:0|0:0,0:0:0:0:
122,250,28047,1,8,0:0:0:0:
224,244,28219,1,0,0:0:0:0:
271,243,28305,2,0,P|288:204|261:181,1,65.6250025033952,0|8,1:0|0:0,0:0:0:0:
226,161,28562,2,0,L|145:161,1,65.6250025033952,0|8,1:0|0:0,0:0:0:0:
27,161,28906,1,0,1:0:0:0:
287,348,29078,6,0,L|409:348,1,98.4375037550928,4|0,1:1|0:0,0:0:0:0:
334,307,29422,1,8,0:0:0:0:
224,298,29593,2,0,P|191:269|226:219,1,98.4375037550928,0|8,0:0|0:0,0:0:0:0:
262,216,29937,1,0,1:0:0:0:
373,209,30109,2,0,L|385:142,1,65.6250025033952,8|0,0:0|1:0,0:0:0:0:
177,128,30452,6,0,P|130:147|109:204,1,98.4375037550928,0|0,1:0|0:0,0:0:0:0:
108,236,30796,1,8,0:0:0:0:
189,313,30968,1,0,0:0:0:0:
228,354,31054,2,0,L|301:348,1,65.6250025033952,0|8,1:0|0:0,0:0:0:0:
351,298,31312,2,0,L|278:292,1,65.6250025033952,0|8,1:0|0:0,0:0:0:0:
181,265,31655,1,0,1:0:0:0:
458,226,31827,6,0,P|489:197|458:131,1,98.4375037550928,4|0,1:1|0:0,0:0:0:0:
441,125,32171,1,8,0:0:0:0:
338,139,32343,2,0,L|224:143,1,98.4375037550928,0|8,0:0|0:0,0:0:0:0:
290,201,32686,1,0,1:0:0:0:
387,276,32858,2,0,L|464:268,1,65.6250025033952,8|0,0:0|1:0,0:0:0:0:
218,364,33202,6,0,P|177:325|220:273,1,131.25,4|0,0:0|0:0,0:0:0:0:
273,245,33545,2,0,L|159:235,1,87.5,2|0,0:0|0:0,0:0:0:0:
127,187,33803,2,0,L|241:177,1,87.5,2|2,0:0|0:0,0:0:0:0:
109,132,34147,1,0,0:0:0:0:
50,128,34233,2,0,P|23:82|48:65,1,87.5,2|0,0:0|0:0,0:0:0:0:
323,39,34576,6,0,L|457:43,1,111.562502127886,4|2,0:0|0:0,0:0:0:0:
491,105,34920,2,0,L|396:101,1,74.3750014185906,8|2,0:0|0:0,0:0:0:0:
321,209,35263,1,2,0:0:0:0:
270,204,35349,2,0,L|274:109,1,74.3750014185906,2|2,0:2|0:0,0:0:0:0:
326,69,35607,2,0,L|421:73,1,74.3750014185906,8|2,0:0|0:0,0:0:0:0:
211,341,35951,6,0,P|176:323|170:240,1,111.562502127886,2|2,0:0|0:0,0:0:0:0:
211,188,36294,2,0,L|317:190,1,74.3750014185906,8|2,0:0|0:0,0:0:0:0:
401,191,36638,1,2,0:0:0:0:
452,186,36724,2,0,L|448:91,1,74.3750014185906,2|2,0:2|0:0,0:0:0:0:
396,51,36982,2,0,L|301:55,1,74.3750014185906,8|2,0:0|0:0,0:0:0:0:
83,68,37325,6,0,P|58:122|122:159,1,111.562502127886,2|2,0:0|0:0,0:0:0:0:
144,184,37669,2,0,L|225:188,1,74.3750014185906,8|2,0:0|0:0,0:0:0:0:
327,187,38013,1,2,0:0:0:0:
368,113,38099,2,0,L|287:117,1,74.3750014185906,2|2,0:2|0:0,0:0:0:0:
242,161,38356,2,0,L|246:242,1,74.3750014185906,8|2,0:0|0:0,0:0:0:0:
429,245,38700,6,0,P|414:185|354:152,1,111.562502127886,2|2,0:0|0:0,0:0:0:0:
318,116,39044,2,0,L|402:108,1,74.3750014185906,8|2,0:0|0:0,0:0:0:0:
277,109,39387,1,2,0:0:0:0:
236,35,39473,2,0,L|317:39,1,74.3750014185906,2|2,0:2|0:0,0:0:0:0:
360,39,39731,1,8,0:0:0:0:
482,45,39903,1,2,0:0:0:0:
193,341,40074,5,2,0:0:0:0:
131,304,40245,1,2,0:0:0:0:
122,232,40417,1,2,0:0:0:0:
173,182,40589,1,2,0:0:0:0:
339,182,40762,1,2,0:0:0:0:
390,232,40934,1,2,0:0:0:0:
381,304,41106,1,2,0:0:0:0:
319,341,41277,1,2,0:0:0:0:
164,365,41449,6,0,L|156:260,1,74.3750014185906,2|2,0:0|0:0,0:0:0:0:
334,316,41793,2,0,L|342:211,1,74.3750014185906,2|2,0:0|0:0,0:0:0:0:
178,316,42136,2,0,L|170:211,1,74.3750014185906,2|2,0:0|0:0,0:0:0:0:
348,365,42480,2,0,L|356:260,1,74.3750014185906,2|2,0:0|0:0,0:0:0:0:
116,373,42824,5,2,0:0:0:0:
81,356,42909,1,2,0:0:0:0:
59,327,42995,1,2,0:0:0:0:
54,290,43081,1,2,0:0:0:0:
68,256,43167,1,2,0:0:0:0:
96,233,43253,1,2,0:0:0:0:
132,226,43339,1,2,0:0:0:0:
380,226,43511,5,2,0:0:0:0:
416,233,43597,1,2,0:0:0:0:
444,256,43683,1,2,0:0:0:0:
458,290,43769,1,2,0:0:0:0:
453,327,43855,1,2,0:0:0:0:
431,356,43941,1,2,0:0:0:0:
396,373,44026,1,2,0:0:0:0:
158,368,44198,6,2,L|36:362,1,99.1666685581208,2|2,0:0|0:2,0:0:0:0:
124,314,44542,2,2,L|216:308,2,49.5833342790604,2|2|0,0:2|0:2|0:0,0:0:0:0:
58,363,44885,2,0,P|15:291|203:82,1,393.750015020371,6|0,0:0|0:0,0:0:0:0:
466,65,45573,6,0,P|482:129|420:181,1,131.25,6|0,0:0|0:0,0:0:0:0:
386,215,45916,2,0,L|483:236,1,87.5,8|0,0:0|0:0,0:0:0:0:
352,320,46260,2,0,L|306:330,2,43.75,0|0|2,0:0|0:0|0:0,0:0:0:0:
471,233,46604,2,0,L|386:215,1,87.5,8|0,0:0|0:0,0:0:0:0:
196,224,46947,6,0,L|190:131,1,87.5,2|0,0:0|0:0,0:0:0:0:
281,91,47291,2,0,L|120:87,1,131.25,8|0,0:0|0:0,0:0:0:0:
82,52,47635,2,0,L|204:54,1,87.5,0|2,0:0|0:0,0:0:0:0:
57,262,47978,1,8,0:0:0:0:
56,306,48064,1,0,0:0:0:0:
56,350,48149,1,0,0:0:0:0:
290,359,48322,6,0,L|393:357,1,87.5,2|0,0:0|0:0,0:0:0:0:
261,324,48666,2,0,P|236:279|292:227,1,131.25,8|0,0:0|0:0,0:0:0:0:
346,192,49009,1,0,0:0:0:0:
302,190,49094,1,0,0:0:0:0:
258,188,49180,1,2,0:0:0:0:
145,159,49353,2,0,L|255:155,1,87.5,8|0,0:0|0:0,0:0:0:0:
427,210,49696,6,0,L|420:109,1,87.5,2|0,0:0|0:0,0:0:0:0:
178,314,50040,6,0,P|120:277|132:194,1,144.375004405975,8|8,0:0|0:0,0:0:0:0:
232,177,50470,1,8,0:0:0:0:
286,142,50556,2,0,L|170:142,1,87.5,2|8,0:0|0:0,0:0:0:0:
137,200,50813,2,0,L|79:200,1,43.75,0|0,0:0|0:0,0:0:0:0:
282,322,51071,6,0,P|340:310|356:214,1,131.25,2|0,0:0|0:0,0:0:0:0:
357,290,51415,1,8,0:0:0:0:
114,361,51587,1,0,0:0:0:0:
16,329,51758,1,0,0:0:0:0:
59,327,51843,1,0,0:0:0:0:
103,325,51929,1,2,0:0:0:0:
213,268,52102,2,0,L|97:262,1,87.5,8|0,0:0|0:0,0:0:0:0:
290,235,52446,6,0,P|317:185|261:132,1,131.25,2|0,0:0|0:0,0:0:0:0:
213,125,52789,1,8,0:0:0:0:
450,239,52961,1,0,0:0:0:0:
496,185,53047,2,0,L|349:185,1,131.25000500679,0|0,0:0|0:0,0:0:0:0:
268,229,53391,1,0,0:0:0:0:
260,185,53477,1,8,0:0:0:0:
252,141,53562,1,0,0:0:0:0:
245,98,53648,1,0,0:0:0:0:
481,80,53820,6,0,P|477:136|398:185,1,131.25,2|0,0:0|0:0,0:0:0:0:
362,187,54164,1,8,0:0:0:0:
259,199,54336,1,0,0:0:0:0:
204,160,54422,2,0,L|301:157,1,87.5,0|0,0:0|0:0,0:0:0:0:
176,115,54765,1,0,0:0:0:0:
117,177,54851,2,0,L|114:80,1,87.5,8|0,0:0|0:0,0:0:0:0:
353,84,55195,6,0,P|417:84|430:166,1,116.666666666667,2|0,0:0|0:0,0:0:0:0:
372,197,55538,2,0,L|200:210,1,116.666666666667,8|0,0:0|0:0,0:0:0:0:
316,205,55882,2,0,L|200:197,1,116.666666666667,0|0,0:0|0:0,0:0:0:0:
130,124,56226,2,0,P|113:185|130:195,1,87.5,8|0,0:0|0:0,0:0:0:0:
396,74,56569,6,0,P|441:117|383:185,1,144.375004405975,2|0,0:0|0:0,0:0:0:0:
345,206,56913,2,0,L|432:220,1,87.5,8|0,0:0|0:0,0:0:0:0:
494,270,57171,2,0,L|407:284,1,87.5,0|0,0:0|0:0,0:0:0:0:
298,341,57514,1,0,0:0:0:0:
353,375,57600,2,0,L|367:288,1,87.5,8|0,0:0|0:0,0:0:0:0:
180,245,57944,6,0,L|87:245,1,87.5,2|0,0:0|0:0,0:0:0:0:
199,320,58288,2,0,L|205:225,1,87.5,8|0,0:0|0:0,0:0:0:0:
143,227,58545,2,0,P|93:214|81:115,1,131.25,0|2,0:0|0:0,0:0:0:0:
166,103,58975,1,8,0:0:0:0:
122,98,59060,1,0,0:0:0:0:
79,93,59146,1,0,0:0:0:0:
313,291,59318,6,0,P|331:245|265:196,1,131.25,2|0,0:0|0:0,0:0:0:0:
203,214,59662,2,0,L|195:111,1,87.5,8|0,0:0|0:0,0:0:0:0:
269,105,59920,2,0,P|321:111|344:183,1,131.25,0|2,0:0|0:0,0:0:0:0:
242,252,60349,2,0,L|149:264,1,87.5,8|0,0:0|0:0,0:0:0:0:
334,348,60693,5,2,0:0:0:0:
427,352,60865,2,0,L|435:296,1,43.75,0|0,0:0|0:0,0:0:0:0:
427,352,61037,2,0,L|328:348,1,87.5,8|0,0:0|0:0,0:0:0:0:
280,344,61294,2,0,P|257:296|317:228,1,131.25,0|2,0:0|0:0,0:0:0:0:
408,195,61724,1,8,0:0:0:0:
364,193,61809,1,0,0:0:0:0:
320,191,61895,1,0,0:0:0:0:
179,273,62068,6,0,L|171:176,1,87.5,2|0,0:0|0:0,0:0:0:0:
468,53,62411,2,0,P|491:121|398:171,1,131.25000500679,8|0,0:0|0:0,0:0:0:0:
396,180,62669,1,0,0:0:0:0:
151,345,62841,2,0,L|0:343,1,131.25000500679,0|0,0:0|0:0,0:0:0:0:
62,302,63099,2,0,L|180:205,1,131.25000500679,8|0,0:0|0:0,0:0:0:0:
424,65,63442,6,0,P|447:128|400:171,1,131.25,2|0,0:0|0:0,0:0:0:0:
348,189,63786,2,0,L|230:195,1,87.5,8|0,0:0|0:0,0:0:0:0:
201,223,64044,2,0,L|365:214,1,131.25,0|2,0:0|0:0,0:0:0:0:
437,210,64473,2,0,L|487:208,2,43.75,8|0|0,0:0|0:0|0:0,0:0:0:0:
147,353,64817,6,0,P|96:291|139:256,1,131.25,2|0,0:0|0:0,0:0:0:0:
188,237,65160,2,0,L|59:231,1,96.250002937317,8|0,0:0|0:0,0:0:0:0:
21,152,65418,2,0,L|150:146,1,96.250002937317,0|0,0:0|0:0,0:0:0:0:
219,144,65762,1,0,0:0:0:0:
283,77,65848,2,0,L|154:71,1,96.250002937317,8|0,0:0|0:0,0:0:0:0:
431,316,66191,5,2,0:0:0:0:
461,285,66276,1,0,0:0:0:0:
465,242,66362,1,0,0:0:0:0:
442,206,66448,1,0,0:0:0:0:
402,192,66535,2,0,L|282:200,1,87.5,8|0,0:0|0:0,0:0:0:0:
46,223,66879,6,0,L|33:165,6,43.75,2|2|2|2|2|2|2,0:0|0:0|0:0|0:0|0:0|0:0|0:0,0:0:0:0:
314,197,67566,5,6,0:0:0:0:
489,103,67910,2,0,L|393:99,1,87.5,8|0,0:0|0:0,0:0:0:0:
341,137,68167,2,0,P|312:188|376:248,1,131.25,2|2,0:0|0:0,0:0:0:0:
489,103,68597,2,0,L|393:99,1,87.5,8|0,0:0|0:0,0:0:0:0:
222,324,68940,5,2,0:0:0:0:
124,322,69112,2,0,L|73:314,1,43.75,2|0,0:0|0:0,0:0:0:0:
141,291,69284,2,0,P|180:241|118:190,1,131.25,8|2,0:0|0:0,0:0:0:0:
36,196,69714,2,0,L|42:148,1,43.75,8|2,0:0|0:0,0:0:0:0:
175,91,69971,2,0,L|79:87,1,87.5,8|0,0:0|0:0,0:0:0:0:
330,312,70315,5,2,0:0:0:0:
490,313,70659,2,0,L|496:226,1,87.5,8|0,0:0|0:0,0:0:0:0:
435,223,70916,2,0,P|369:190|364:109,1,131.25,2|2,0:0|0:0,0:0:0:0:
496,226,71346,2,0,L|490:313,1,87.5,8|0,0:0|0:0,0:0:0:0:
267,361,71690,5,2,0:0:0:0:
171,359,71861,1,2,0:0:0:0:
127,353,71946,1,0,0:0:0:0:
84,347,72033,2,0,P|42:289|89:252,1,131.25,8|2,0:0|0:0,0:0:0:0:
189,194,72463,2,0,L|127:190,1,43.75,8|2,0:0|0:0,0:0:0:0:
31,216,72721,1,8,0:0:0:0:
24,172,72806,1,0,0:0:0:0:
18,129,72892,1,0,0:0:0:0:
290,80,73064,5,6,0:0:0:0:
476,101,73408,2,0,L|470:216,1,87.5,8|0,0:0|0:0,0:0:0:0:
412,240,73666,2,0,P|360:228|333:148,1,131.25,2|2,0:0|0:0,0:0:0:0:
471,188,74095,2,0,L|476:101,1,87.5,8|0,0:0|0:0,0:0:0:0:
271,65,74439,5,2,0:0:0:0:
176,111,74611,2,0,L|127:115,1,43.75,2|0,0:0|0:0,0:0:0:0:
71,128,74782,2,0,P|57:202|113:221,1,131.25,8|2,0:0|0:0,0:0:0:0:
211,269,75212,2,0,L|137:277,1,43.75,8|2,0:0|0:0,0:0:0:0:
60,247,75470,2,0,L|75:353,1,87.5,8|0,0:0|0:0,0:0:0:0:
337,355,75813,5,6,0:0:0:0:
480,353,76157,2,0,L|381:349,1,87.5,8|0,0:0|0:0,0:0:0:0:
333,347,76415,2,0,P|302:285|342:270,1,131.25,2|2,0:0|0:0,0:0:0:0:
480,353,76844,2,0,L|392:349,1,87.5,8|0,0:0|0:0,0:0:0:0:
212,352,77188,5,2,0:0:0:0:
112,345,77360,1,2,0:0:0:0:
107,301,77445,1,0,0:0:0:0:
102,258,77532,2,0,L|240:247,1,131.25,8|2,0:0|0:0,0:0:0:0:
112,345,77961,1,8,0:0:0:0:
68,345,78046,1,2,0:0:0:0:
32,322,78132,1,0,0:0:0:0:
15,282,78218,1,8,0:0:0:0:
24,240,78304,1,0,0:0:0:0:
55,210,78390,1,0,0:0:0:0:
321,197,78562,5,6,0:0:0:0:
496,103,78906,2,0,L|400:99,1,87.5,8|0,0:0|0:0,0:0:0:0:
348,137,79164,2,0,P|319:188|383:248,1,131.25,2|2,0:0|0:0,0:0:0:0:
496,103,79593,2,0,L|400:99,1,87.5,8|0,0:0|0:0,0:0:0:0:
224,94,79937,5,2,0:0:0:0:
122,237,80109,2,0,L|113:179,1,43.75,2|0,0:0|0:0,0:0:0:0:
165,162,80281,2,0,L|14:176,1,131.25,8|2,0:0|0:0,0:0:0:0:
151,273,80710,2,0,L|211:267,1,43.75,8|2,0:0|0:0,0:0:0:0:
81,231,80968,2,0,L|70:134,1,87.5,8|0,0:0|0:0,0:0:0:0:
330,312,81312,5,6,0:0:0:0:
490,313,81656,2,0,L|496:226,1,87.5,8|0,0:0|0:0,0:0:0:0:
435,223,81913,2,0,P|369:190|364:109,1,131.25,2|2,0:0|0:0,0:0:0:0:
496,226,82343,2,0,L|490:313,1,87.5,8|0,0:0|0:0,0:0:0:0:
294,365,82686,5,2,0:0:0:0:
195,370,82858,1,2,0:0:0:0:
151,364,82943,1,0,0:0:0:0:
108,359,83030,2,0,L|251:347,1,131.25,8|2,0:0|0:0,0:0:0:0:
149,279,83459,2,0,L|86:285,1,43.75,8|2,0:0|0:0,0:0:0:0:
16,303,83717,1,8,0:0:0:0:
22,259,83802,1,0,0:0:0:0:
28,216,83888,1,0,0:0:0:0:
290,80,84061,5,6,0:0:0:0:
476,101,84405,2,0,L|470:216,1,87.5,8|0,0:0|0:0,0:0:0:0:
412,240,84663,2,0,P|360:228|333:148,1,131.25,2|2,0:0|0:0,0:0:0:0:
471,188,85092,2,0,L|476:101,1,87.5,8|0,0:0|0:0,0:0:0:0:
288,80,85435,5,2,0:0:0:0:
180,109,85607,2,0,L|176:169,1,43.75,2|0,0:0|0:0,0:0:0:0:
246,186,85779,2,0,P|269:239|196:277,1,131.25,8|2,0:0|0:0,0:0:0:0:
122,281,86208,2,0,L|62:277,1,43.75,8|2,0:0|0:0,0:0:0:0:
173,357,86466,2,0,L|69:348,1,87.5,8|0,0:0|0:0,0:0:0:0:
349,357,86810,5,6,0:0:0:0:
492,355,87154,2,0,L|393:351,1,87.5,8|0,0:0|0:0,0:0:0:0:
345,349,87412,2,0,P|314:287|354:272,1,131.25,2|2,0:0|0:0,0:0:0:0:
492,355,87841,2,0,L|404:351,1,87.5,8|0,0:0|0:0,0:0:0:0:
211,355,88184,5,2,0:0:0:0:
114,339,88356,1,2,0:0:0:0:
157,333,88441,1,0,0:0:0:0:
200,327,88528,2,0,P|238:276|199:225,1,131.25,8|2,0:0|0:0,0:0:0:0:
75,221,88958,1,8,0:0:0:0:
79,178,89043,1,2,0:0:0:0:
106,145,89129,1,0,0:0:0:0:
168,125,89215,1,8,0:0:0:0:
124,123,89300,1,0,0:0:0:0:
80,121,89386,1,0,0:0:0:0:
366,74,89559,6,0,P|434:88|463:167,1,131.25000500679,0|0,0:0|0:0,0:0:0:0:
343,155,90074,2,0,P|275:169|246:248,1,131.25000500679,0|0,0:0|0:0,0:0:0:0:
366,74,90590,1,2,0:0:0:0:
174,276,90934,2,0,L|83:268,1,65.6250025033952,0|0,0:0|0:0,0:0:0:0:
195,360,91277,2,0,L|286:352,1,65.6250025033952,2|0,0:0|0:0,0:0:0:0:
154,306,91621,1,0,0:0:0:0:
49,287,91793,2,0,L|43:352,1,65.6250025033952,0|2,0:0|0:0,0:0:0:0:
384,357,92308,6,0,P|415:314|364:268,1,131.25000500679,0|2,0:0|0:0,0:0:0:0:
271,273,92824,1,0,0:0:0:0:
176,216,92995,2,0,L|315:229,1,131.25000500679,0|2,0:0|0:0,0:0:0:0:
491,301,93683,2,0,L|497:366,1,65.6250025033952,0|0,0:0|0:0,0:0:0:0:
406,245,94026,2,0,L|412:310,1,65.6250025033952,2|0,0:0|0:0,0:0:0:0:
325,166,94370,2,0,L|390:160,1,65.6250025033952,0|0,0:0|0:0,0:0:0:0:
470,146,94714,1,2,0:0:0:0:
143,345,95057,6,0,P|73:316|85:247,1,131.25000500679,0|2,0:0|0:0,0:0:0:0:
166,231,95573,1,0,0:0:0:0:
261,192,95745,2,0,L|110:183,1,131.25000500679,0|2,0:0|0:0,0:0:0:0:
305,94,96432,6,0,L|311:159,1,65.6250025033952,0|0,0:0|0:0,0:0:0:0:
220,202,96776,1,2,0:0:0:0:
318,219,96947,2,0,L|473:201,1,131.25000500679,0|0,0:0|0:0,0:0:0:0:
464,117,97463,1,2,0:0:0:0:
170,94,97806,6,0,P|143:140|205:187,1,131.25000500679,0|2,0:0|0:0,0:0:0:0:
284,187,98322,1,0,0:0:0:0:
377,282,98494,2,0,P|423:242|398:187,1,131.25000500679,0|2,0:0|0:0,0:0:0:0:
63,223,99181,6,0,L|55:305,1,65.6250025033952,0|0,0:0|0:0,0:0:0:0:
158,297,99525,2,0,L|166:379,1,65.6250025033952,2|0,0:0|0:0,0:0:0:0:
319,355,99868,1,0,0:0:0:0:
351,353,99953,1,0,0:0:0:0:
384,351,100039,1,0,0:0:0:0:
490,244,100212,1,2,0:0:0:0:
457,242,100297,1,0,0:0:0:0:
424,240,100383,1,0,0:0:0:0:
152,248,100556,6,0,P|92:221|96:132,1,131.25,6|2,0:0|0:0,0:0:0:0:
140,116,100899,2,0,L|229:122,1,87.5,8|2,0:0|0:0,0:0:0:0:
119,296,101243,1,2,0:0:0:0:
55,306,101329,2,0,L|32:200,1,87.5,2|2,0:2|0:0,0:0:0:0:
96,174,101587,2,0,L|185:180,1,87.5,8|2,0:0|0:0,0:0:0:0:
360,248,101930,6,0,P|420:221|416:132,1,131.25,6|2,0:0|0:0,0:0:0:0:
372,116,102274,2,0,L|283:122,1,87.5,8|2,0:0|0:0,0:0:0:0:
393,296,102617,1,2,0:0:0:0:
457,306,102703,2,0,L|480:200,1,87.5,2|2,0:2|0:0,0:0:0:0:
416,174,102961,2,0,L|327:180,1,87.5,8|2,0:0|0:0,0:0:0:0:
84,322,103305,6,0,P|98:246|162:229,1,131.25,6|2,0:0|0:0,0:0:0:0:
228,244,103648,2,0,L|224:155,1,87.5,8|2,0:0|0:0,0:0:0:0:
115,153,103992,1,2,0:0:0:0:
170,179,104078,2,0,L|272:169,1,87.5,2|2,0:2|0:0,0:0:0:0:
325,297,104336,2,0,L|223:287,1,87.5,8|2,0:0|0:0,0:0:0:0:
428,322,104679,6,0,P|414:246|350:229,1,131.25,6|2,0:0|0:0,0:0:0:0:
284,244,105023,2,0,L|288:155,1,87.5,8|2,0:0|0:0,0:0:0:0:
397,153,105366,1,2,0:0:0:0:
342,179,105452,2,0,L|240:169,1,87.5,2|2,0:2|0:0,0:0:0:0:
187,297,105710,2,0,L|289:287,1,87.5,8|2,0:0|0:0,0:0:0:0:
38,334,106054,5,2,0:0:0:0:
29,248,106225,1,2,0:0:0:0:
70,172,106397,1,2,0:0:0:0:
146,131,106569,1,2,0:0:0:0:
325,169,106741,2,0,L|336:266,1,87.5,2|2,0:0|0:0,0:0:0:0:
177,255,107085,2,0,L|187:169,1,87.5,2|2,0:0|0:0,0:0:0:0:
366,131,107428,5,2,0:0:0:0:
442,172,107600,1,2,0:0:0:0:
483,248,107772,1,2,0:0:0:0:
474,334,107943,1,2,0:0:0:0:
287,360,108116,2,0,L|277:273,1,87.5,2|2,0:0|0:0,0:0:0:0:
458,249,108459,2,0,L|448:162,1,87.5,2|2,0:0|0:0,0:0:0:0:
173,96,108803,5,2,0:0:0:0:
131,109,108888,1,2,0:0:0:0:
98,136,108974,1,2,0:0:0:0:
77,174,109060,1,2,0:0:0:0:
71,217,109146,1,2,0:0:0:0:
82,260,109232,1,2,0:0:0:0:
108,295,109318,1,2,0:0:0:0:
403,295,109490,5,2,0:0:0:0:
429,260,109576,1,2,0:0:0:0:
440,217,109662,1,2,0:0:0:0:
434,174,109748,1,2,0:0:0:0:
413,136,109834,1,2,0:0:0:0:
380,109,109920,1,2,0:0:0:0:
338,96,110005,1,2,0:0:0:0:
77,115,110178,2,0,L|60:198,6,43.75,2|0|0|0|0|0|0,0:0|0:0|0:0|0:0|0:0|0:0|0:0,0:0:0:0:
360,345,110865,6,0,P|458:303|333:0,1,525.000020027161,2|6,0:0|1:0,0:0:0:0:
256,192,111724,12,2,114301,0:0:0:0:
64,192,115676,5,2,0:0:0:0:
387,176,117050,2,0,P|474:154|499:72,2,175,2|2|0,0:0|0:0|0:0,0:0:0:0:
256,183,119112,1,2,0:0:0:0:
125,176,119800,2,0,P|75:218|185:373,1,306.25,2|0,0:0|0:0,0:0:0:0:
311,361,121174,6,0,L|304:301,1,43.75,0|0,0:0|0:0,0:0:0:0:
186,297,121518,2,0,L|193:237,1,43.75,0|0,0:0|0:0,0:0:0:0:
74,210,121861,1,0,0:0:0:0:
52,207,121946,1,0,0:0:0:0:
30,205,122032,1,0,0:0:0:0:
151,132,122205,1,0,0:0:0:0:
172,129,122290,1,0,0:0:0:0:
194,127,122376,1,0,0:0:0:0:
441,117,122549,6,0,P|472:192|439:221,1,111.562502127886,6|2,0:0|0:0,0:0:0:0:
402,247,122892,2,0,L|304:247,1,74.3750014185906,8|2,0:0|0:0,0:0:0:0:
225,256,123236,1,2,0:0:0:0:
171,262,123322,2,0,L|163:167,1,74.3750014185906,2|2,0:2|0:0,0:0:0:0:
216,112,123580,2,0,L|311:104,1,74.3750014185906,8|2,0:0|0:0,0:0:0:0:
466,208,123923,6,0,L|329:221,1,111.562502127886,6|2,0:0|0:0,0:0:0:0:
298,227,124267,2,0,P|282:183|300:161,1,74.3750014185906,8|2,0:0|0:0,0:0:0:0:
395,162,124611,1,2,0:0:0:0:
449,168,124697,2,0,L|457:73,1,74.3750014185906,2|2,0:2|0:0,0:0:0:0:
404,18,124955,2,0,L|309:10,1,74.3750014185906,8|2,0:0|0:0,0:0:0:0:
60,136,125298,6,0,P|50:204|106:243,1,111.562502127886,6|2,0:0|0:0,0:0:0:0:
133,258,125641,2,0,L|34:272,1,74.3750014185906,8|2,0:0|0:0,0:0:0:0:
169,332,125985,1,2,0:0:0:0:
219,354,126071,2,0,L|111:369,1,74.3750014185906,2|2,0:2|0:0,0:0:0:0:
94,306,126329,2,0,L|79:198,1,74.3750014185906,8|2,0:0|0:0,0:0:0:0:
251,200,126672,6,0,P|294:185|300:99,1,111.562502127886,6|2,0:0|0:0,0:0:0:0:
251,103,127016,2,0,L|338:99,1,74.3750014185906,8|2,0:0|0:0,0:0:0:0:
225,339,127360,1,2,0:0:0:0:
175,361,127446,2,0,L|283:376,1,74.3750014185906,2|2,0:2|0:0,0:0:0:0:
300,313,127703,1,8,0:0:0:0:
396,328,127875,1,2,0:0:0:0:
106,261,128047,5,2,0:0:0:0:
63,188,128218,1,2,0:0:0:0:
91,108,128390,1,2,0:0:0:0:
169,77,128562,1,2,0:0:0:0:
342,77,128734,1,2,0:0:0:0:
420,108,128906,1,2,0:0:0:0:
448,188,129078,1,2,0:0:0:0:
405,261,129249,1,2,0:0:0:0:
239,347,129422,6,0,L|145:336,1,74.3750014185906,2|2,0:0|0:0,0:0:0:0:
335,254,129765,2,0,L|356:154,1,74.3750014185906,2|2,0:0|0:0,0:0:0:0:
177,254,130109,2,0,L|161:181,1,74.3750014185906,2|2,0:0|0:0,0:0:0:0:
310,252,130452,2,0,L|383:243,1,74.3750014185906,2|2,0:0|0:0,0:0:0:0:
101,308,130796,5,2,0:0:0:0:
64,308,130881,1,2,0:0:0:0:
32,289,130967,1,2,0:0:0:0:
16,257,131053,1,2,0:0:0:0:
19,220,131139,1,2,0:0:0:0:
42,191,131225,1,2,0:0:0:0:
76,178,131311,1,2,0:0:0:0:
309,201,131483,5,2,0:0:0:0:
325,151,131568,1,2,0:0:0:0:
303,100,131654,1,2,0:0:0:0:
251,82,131740,1,2,0:0:0:0:
203,103,131826,1,2,0:0:0:0:
180,151,131912,1,2,0:0:0:0:
197,201,131998,1,2,0:0:0:0:
441,355,132171,6,0,P|466:308|420:247,1,111.562502127886,2|0,0:0|0:0,0:0:0:0:
371,231,132514,2,2,L|300:233,2,49.5833342790604,2|2|2,0:2|0:2|0:0,0:2:0:0:
443,258,132858,2,0,B|509:243|488:159|472:144|443:140|424:142|410:153|383:163|354:167|325:157|298:122|331:68|379:37|430:35,1,393.750015020371,6|0,0:0|0:0,0:0:0:0:
101,309,133545,6,0,P|254:-109|412:307,1,1154.9999647522,6|0,0:0|0:0,0:0:0:0:
302,318,135607,1,0,0:0:0:0:
287,277,135692,1,0,0:0:0:0:
301,237,135778,1,2,0:0:0:0:
337,215,135864,1,0,0:0:0:0:
406,221,135951,2,0,L|391:132,1,87.5,8|0,0:0|0:0,0:0:0:0:
156,92,136294,6,0,L|50:101,1,87.5,2|0,0:0|0:0,0:0:0:0:
184,204,136638,2,0,P|213:146|141:96,1,131.25,8|0,0:0|0:0,0:0:0:0:
76,297,137068,2,0,L|72:253,1,43.75,8|0,0:0|0:0,0:0:0:0:
190,196,137325,2,0,L|100:194,1,87.5,8|2,0:0|0:0,0:0:0:0:
292,165,137669,6,0,L|307:272,1,87.5,2|2,0:0|0:0,0:0:0:0:
29,372,138013,2,0,P|42:305|112:283,1,144.375004405975,10|8,0:0|0:0,0:0:0:0:
207,281,138442,1,8,0:0:0:0:
269,247,138528,2,0,L|164:233,1,96.250002937317,2|8,0:0|0:0,0:0:0:0:
63,219,138872,1,0,0:0:0:0:
325,185,139044,6,0,P|402:174|422:98,2,140,4|0|2,0:0|0:0|1:0,0:0:0:0:
136,208,140074,2,0,L|126:121,1,70,0|0,0:0|0:0,0:0:0:0:
413,121,140762,1,0,0:0:0:0:
249,320,141105,2,0,L|350:305,1,70,2|2,0:2|0:1,0:0:0:0:
495,330,141449,2,0,L|478:237,1,70,10|0,0:1|0:0,0:0:0:0:
191,225,141793,6,0,P|131:214|116:115,1,144.375004405975,6|2,0:0|0:0,0:0:0:0:
175,123,142136,2,0,L|162:23,1,96.250002937317,8|2,0:0|0:0,0:0:0:0:
45,70,142480,2,0,L|199:76,1,144.375004405975,2|0,0:0|0:0,0:0:0:0:
254,146,142824,2,0,L|128:140,1,96.250002937317,8|2,0:0|0:0,0:0:0:0:
358,334,143167,6,0,L|364:208,1,96.250002937317,6|0,0:0|0:0,0:0:0:0:
311,229,143425,1,2,0:0:0:0:
260,213,143511,2,0,L|266:87,1,96.250002937317,8|2,0:0|0:0,0:0:0:0:
459,162,143855,2,0,L|462:108,1,48.1250014686585,2|8,0:0|0:0,0:0:0:0:
362,81,144112,2,0,L|304:86,2,48.1250014686585,0|8|0,0:0|0:0|0:0,0:0:0:0:
420,78,144370,1,2,0:0:0:0:
234,257,144542,6,0,P|209:199|240:178,1,96.250002937317,2|0,0:0|0:0,0:0:0:0:
496,84,144885,2,0,P|493:143|416:184,1,144.375004405975,12|8,0:0|0:0,0:0:0:0:
305,240,145315,2,0,L|308:294,1,48.1250014686585,8|0,0:0|0:0,0:0:0:0:
433,359,145573,2,0,L|315:354,1,96.250002937317,8|0,0:0|0:0,0:0:0:0:
133,361,145916,6,0,L|143:260,1,96.250002937317,2|0,0:0|0:0,0:0:0:0:
255,235,146260,2,0,L|102:229,1,144.375004405975,8|0,0:0|0:0,0:0:0:0:
223,202,146690,2,0,L|233:122,1,48.1250014686585,8|0,0:0|0:0,0:0:0:0:
122,125,146947,2,0,L|2:128,1,96.250002937317,8|2,0:0|0:0,0:0:0:0:
346,331,147291,6,0,P|375:279|321:217,1,144.375004405975,2|2,0:0|0:0,0:0:0:0:
257,214,147635,1,8,0:0:0:0:
362,167,147806,1,2,0:0:0:0:
422,142,147892,2,0,L|278:142,1,144.375004405975,0|0,0:0|0:0,0:0:0:0:
396,204,148322,2,0,L|402:103,1,96.250002937317,8|2,0:0|0:0,0:0:0:0:
205,76,148666,5,2,0:0:0:0:
108,179,148837,2,0,L|172:187,1,48.1250014686585,0|2,0:0|0:0,0:0:0:0:
223,191,149009,2,0,P|244:241|176:303,1,144.375004405975,8|0,0:0|0:0,0:0:0:0:
64,314,149439,1,8,0:0:0:0:
174,349,149611,1,2,0:0:0:0:
111,347,149696,2,0,L|49:357,2,48.1250014686585,8|0|2,0:0|0:0|0:0,0:0:0:0:
404,326,150040,6,0,P|451:268|389:204,1,144.375004405975,6|0,0:0|0:0,0:0:0:0:
347,207,150384,2,0,P|306:158|364:123,1,131.25,8|0,1:0|0:0,0:0:0:0:
424,113,150727,1,8,1:0:0:0:
273,67,151071,2,0,L|377:61,1,87.5,8|0,1:0|0:0,0:0:0:0:
108,326,151415,6,0,P|61:268|123:204,1,144.375004405975,6|0,1:0|0:0,0:0:0:0:
165,207,151759,2,0,P|206:158|148:123,1,131.25,8|0,1:0|0:0,0:0:0:0:
88,113,152102,1,8,1:0:0:0:
239,67,152446,2,0,L|135:61,1,87.5,8|0,1:0|0:0,0:0:0:0:
414,366,152789,6,0,L|416:205,1,131.25,12|12,1:0|1:0,0:0:0:0:
163,302,153305,2,0,P|138:239|213:202,1,131.25,12|12,1:0|1:0,0:0:0:0:
421,145,153820,2,10,P|416:78|363:26,1,131.25,10|10,1:0|1:0,1:0:0:0:
127,100,154250,5,10,1:0:0:0:
80,173,154336,2,0,L|168:168,1,87.5,2|10,1:0|1:0,0:0:0:0:
344,218,154679,1,2,1:0:0:0:
391,292,154765,2,0,L|303:287,1,87.5,10|10,1:0|1:0,0:0:0:0:
116,294,155109,2,2,L|112:230,1,43.75,2|10,1:0|1:0,0:0:0:0:
396,90,155367,2,2,L|400:154,1,43.75,10|10,1:0|1:0,0:0:0:0:
256,192,155624,12,0,158288,0:0:0:0:
