osu file format v14

[General]
AudioFilename: audio.mp3
AudioLeadIn: 0
PreviewTime: 111552
Countdown: 0
SampleSet: Normal
StackLeniency: 0.7
Mode: 2
LetterboxInBreaks: 0
WidescreenStoryboard: 1

[Editor]
Bookmarks: 44542,44885,57944,67566,89559
DistanceSpacing: 1.5
BeatDivisor: 4
GridSize: 8
TimelineZoom: 7.800001

[Metadata]
Title:Nhelv
TitleUnicode:Nhelv
Artist:Silentroom
ArtistUnicode:Silentroom
Creator:-Plus-
Version:Nelly's Rain
Source:BMS
Tags:of fighters ultimate bofu2017 shun spectator hareimu nelly neurofunk dnb drum'n'bass
BeatmapID:1487209
BeatmapSetID:684268

[Difficulty]
HPDrainRate:6
CircleSize:4
OverallDifficulty:9
ApproachRate:9
SliderMultiplier:1.8
SliderTickRate:2

[Events]
//Background and Video events
0,0,"nhelv.jpg",0,0
//Break Periods
//Storyboard Layer 0 (Background)
//Storyboard Layer 1 (Fail)
//Storyboard Layer 2 (Pass)
//Storyboard Layer 3 (Foreground)
//Storyboard Sound Samples

[TimingPoints]
1587,343.642611683849,4,1,3,60,1,0
1672,-100,4,2,0,40,0,0
12411,-100,4,2,0,5,0,0
12583,-100,4,2,2,35,0,0
23580,-100,4,2,1,60,0,0
33202,-100,4,1,1,60,0,0
33288,-100,4,1,2,60,0,0
33373,-100,4,2,2,60,0,0
33545,-100,4,1,2,60,0,0
33975,-100,4,1,2,60,0,0
34233,-100,4,1,2,60,0,0
34576,-100,4,1,1,60,0,0
40762,-100,4,1,1,60,0,0
41449,-100,4,1,1,60,0,0
44198,-100,4,1,2,70,0,0
44885,-100,4,1,1,75,0,1
45573,-100,4,1,1,75,0,0
50040,-100,4,1,1,75,0,0
50126,-100,4,1,1,75,0,0
50298,-100,4,1,1,75,0,0
51587,-100,4,1,1,75,0,0
51758,-100,4,1,1,75,0,0
52789,-100,4,1,1,75,0,0
52961,-100,4,1,1,75,0,0
53047,-100,4,1,1,75,0,0
53305,-100,4,1,1,75,0,0
56569,-100,4,1,1,75,0,0
57257,-100,4,1,1,75,0,0
62411,-100,4,1,1,75,0,0
63013,-100,4,1,1,75,0,0
65160,-100,4,1,1,75,0,0
65418,-100,4,1,1,75,0,0
65934,-100,4,1,1,75,0,0
66879,-100,4,2,1,60,0,0
67566,-100,4,1,1,75,0,0
89559,-100,4,2,1,60,0,0
100556,-100,4,1,1,60,0,0
110865,-100,4,1,1,60,0,0
111552,-100,4,2,1,40,0,0
117738,-100,4,2,1,40,0,0
121174,-100,4,2,1,40,0,0
122549,-100,4,1,1,60,0,0
132171,-100,4,1,2,60,0,0
132858,-100,4,1,1,60,0,1
133459,-100,4,1,1,60,0,0
133545,-100,4,1,1,75,0,1
135607,-100,4,1,1,75,0,0
136294,-100,4,1,1,75,0,0
138013,-100,4,1,1,75,0,0
138270,-100,4,1,1,75,0,0
138528,-100,4,1,1,75,0,0
139044,-100,4,1,1,75,0,0
139129,-100,4,2,1,75,0,0
141793,-100,4,1,1,75,0,0
150126,-100,4,2,1,60,0,0
154164,-100,4,2,1,60,0,0
155538,-100,4,2,1,5,0,0

[Colours]
Combo1 : 0,128,0
Combo2 : 128,0,64
Combo3 : 0,128,128
Combo4 : 128,0,0

[HitObjects]
224,288,1587,5,4,0:0:0:0:
256,192,1758,12,0,12411,0:0:0:0:
125,317,12583,6,0,L|111:115,1,180,0|0,0:0|0:0,0:0:0:0:
268,132,13270,1,2,0:0:0:0:
109,137,13442,1,0,0:0:0:0:
109,137,13786,1,0,0:0:0:0:
268,132,13958,6,0,P|343:140|385:229,1,180,0|0,0:0|0:0,0:0:0:0:
226,221,14645,1,0,0:0:0:0:
385,226,14817,1,0,0:0:0:0:
195,317,15246,6,0,L|193:272,1,45,0|0,0:0|0:0,0:0:0:0:
349,136,15676,1,0,0:0:0:0:
193,272,16019,1,2,0:0:0:0:
387,317,16707,6,0,L|401:115,1,180,0|0,0:0|0:0,0:0:0:0:
220,139,17394,1,0,0:0:0:0:
399,137,17566,1,0,0:0:0:0:
195,317,18081,6,0,L|182:137,1,180,0|0,0:0|0:0,0:0:0:0:
341,132,18768,1,2,0:0:0:0:
182,137,18940,1,0,0:0:0:0:
341,132,19284,1,0,0:0:0:0:
182,137,19456,6,0,P|130:156|171:245,1,180,0|0,0:0|0:0,0:0:0:0:
341,132,20143,1,0,0:0:0:0:
195,317,20745,1,0,0:0:0:0:
125,317,20831,6,0,L|111:115,1,180,0|0,0:0|0:0,0:0:0:0:
341,132,21518,1,2,0:0:0:0:
147,143,21861,1,0,0:0:0:0:
356,255,22205,6,0,P|436:197|320:80,1,270,0|0,0:0|0:0,0:0:0:0:
232,80,22892,2,0,L|350:69,1,90,0|0,0:0|0:0,0:0:0:0:
464,72,23236,2,0,L|472:120,3,45,0|0|0|0,0:0|0:0|0:0|0:0,0:0:0:0:
208,304,23580,5,4,1:1:0:0:
158,298,23665,1,0,0:0:0:0:
136,255,23751,1,0,0:0:0:0:
158,211,23837,1,0,0:0:0:0:
208,202,23923,1,8,0:0:0:0:
336,176,24095,2,0,L|344:128,1,45,0|0,0:0|1:0,0:0:0:0:
288,104,24267,2,0,L|192:112,1,90,0|0,0:0|1:0,0:0:0:0:
344,272,24611,2,0,L|440:280,1,90,8|0,0:0|1:0,0:0:0:0:
192,344,24954,5,0,1:0:0:0:
147,340,25039,1,0,0:0:0:0:
102,336,25125,1,0,0:0:0:0:
232,272,25298,1,8,0:0:0:0:
104,240,25470,1,0,0:0:0:0:
54,234,25555,1,0,1:0:0:0:
32,191,25641,1,0,0:0:0:0:
54,147,25727,1,8,0:0:0:0:
104,138,25813,1,0,1:0:0:0:
248,176,25985,2,0,L|344:184,1,90,8|0,0:0|1:0,0:0:0:0:
85,312,26329,6,0,L|37:320,2,45,4|0|0,1:1|0:0|0:0,0:0:0:0:
213,312,26672,2,0,L|309:320,1,90,8|0,0:0|0:0,0:0:0:0:
173,240,27016,2,0,L|165:192,1,45,0|8,0:0|0:0,0:0:0:0:
221,136,27188,2,0,L|229:88,1,45,0|0,1:0|0:0,0:0:0:0:
165,40,27360,2,0,L|69:48,1,90,8|0,0:0|1:0,0:0:0:0:
344,24,27703,5,0,1:0:0:0:
388,27,27788,1,0,0:0:0:0:
433,31,27874,1,0,0:0:0:0:
304,96,28047,2,0,L|296:192,1,90,8|0,0:0|0:0,0:0:0:0:
424,200,28391,2,0,L|432:296,1,90,0|0,0:0|1:0,0:0:0:0:
288,360,28734,1,8,0:0:0:0:
416,368,28906,1,0,1:0:0:0:
184,48,29078,5,4,1:1:0:0:
139,54,29163,1,0,0:0:0:0:
102,78,29249,1,0,0:0:0:0:
78,116,29335,1,0,0:0:0:0:
72,160,29421,1,8,0:0:0:0:
200,144,29593,1,0,0:0:0:0:
204,189,29678,1,0,1:0:0:0:
152,216,29765,2,0,L|144:312,1,90,0|0,0:0|1:0,0:0:0:0:
272,336,30109,2,0,L|368:328,1,90,8|0,0:0|1:0,0:0:0:0:
72,160,30452,5,0,1:0:0:0:
70,204,30537,1,0,0:0:0:0:
68,249,30623,1,0,0:0:0:0:
66,294,30709,1,0,0:0:0:0:
64,339,30795,1,8,0:0:0:0:
192,360,30968,1,0,0:0:0:0:
236,356,31053,1,0,1:0:0:0:
281,352,31140,2,0,L|376:360,1,90,0|0,0:0|1:0,0:0:0:0:
232,264,31483,2,0,L|137:271,1,90,8|0,0:0|1:0,0:0:0:0:
384,288,31827,5,4,1:1:0:0:
434,282,31912,1,0,0:0:0:0:
456,239,31998,1,0,0:0:0:0:
434,195,32084,1,0,0:0:0:0:
384,186,32170,1,8,0:0:0:0:
256,160,32342,2,0,L|248:112,1,45,0|0,0:0|1:0,0:0:0:0:
304,88,32514,2,0,L|400:96,1,90,0|0,0:0|1:0,0:0:0:0:
248,256,32858,2,0,L|152:264,1,90,8|0,0:0|1:0,0:0:0:0:
432,344,33202,5,0,0:0:0:0:
260,237,33459,2,0,L|255:185,1,45
385,151,33717,2,0,L|394:106,1,45
240,112,33975,1,0,0:0:0:0:
397,250,34148,1,0,0:0:0:0:
352,243,34233,2,0,L|258:231,1,90
8,200,34576,5,4,0:0:0:0:
14,156,34662,1,0,0:0:0:0:
38,118,34748,1,0,0:0:0:0:
75,94,34834,1,2,0:0:0:0:
120,88,34919,1,8,0:0:0:0:
248,112,35092,1,2,0:0:0:0:
120,168,35263,1,2,0:0:0:0:
116,212,35348,1,2,0:2:0:0:
112,257,35434,1,0,0:0:0:0:
256,304,35607,2,0,L|352:296,1,90,8|2,0:0|0:0,0:0:0:0:
46,208,35951,5,2,0:0:0:0:
42,163,36036,1,0,0:0:0:0:
38,118,36122,1,0,0:0:0:0:
160,80,36294,1,8,0:0:0:0:
32,64,36466,1,2,0:0:0:0:
176,48,36638,1,2,0:0:0:0:
221,54,36723,1,2,0:2:0:0:
258,78,36809,1,0,0:0:0:0:
282,116,36895,1,2,0:0:0:0:
288,160,36981,1,8,0:0:0:0:
144,184,37154,1,2,0:0:0:0:
392,296,37325,5,2,0:0:0:0:
442,290,37410,1,0,0:0:0:0:
464,247,37496,1,0,0:0:0:0:
442,203,37582,1,2,0:0:0:0:
392,194,37669,1,8,0:0:0:0:
264,208,37841,1,2,0:0:0:0:
408,244,38013,2,0,L|416:196,1,45,2|2,0:0|0:2,0:0:0:0:
360,140,38184,2,0,L|352:92,1,45,0|2,0:0|0:0,0:0:0:0:
408,36,38356,2,0,L|504:44,1,90,8|2,0:0|0:0,0:0:0:0:
177,299,38700,5,0,0:0:0:0:
134,288,38785,1,0,0:0:0:0:
113,249,38871,1,0,0:0:0:0:
127,208,38957,1,0,0:0:0:0:
166,189,39043,1,8,0:0:0:0:
301,178,39215,2,0,L|306:224,1,45
232,246,39387,1,2,0:0:0:0:
322,305,39559,1,0,0:0:0:0:
367,309,39644,1,2,0:0:0:0:
411,313,39731,2,0,L|506:305,1,90,8|2,0:0|0:0,0:0:0:0:
128,352,40074,5,2,0:0:0:0:
46,321,40245,1,2,0:0:0:0:
12,241,40417,1,2,0:0:0:0:
46,161,40589,1,2,0:0:0:0:
384,352,40762,1,2,0:0:0:0:
466,321,40933,1,2,0:0:0:0:
500,241,41105,1,2,0:0:0:0:
466,161,41277,1,2,0:0:0:0:
232,56,41449,6,0,L|128:64,1,90,2|2,0:0|0:0,0:0:0:0:
280,120,41793,2,0,L|384:128,1,90,2|2,0:0|0:0,0:0:0:0:
128,184,42136,2,0,L|48:248,1,90,2|2,0:0|0:0,0:0:0:0:
384,208,42480,2,0,L|464:272,1,90,2|2,0:0|0:0,0:0:0:0:
144,352,42824,5,2,0:0:0:0:
95,343,42909,1,2,0:0:0:0:
54,317,42995,1,2,0:0:0:0:
26,276,43081,1,2,0:0:0:0:
16,228,43167,1,2,0:0:0:0:
26,180,43253,1,2,0:0:0:0:
54,139,43339,1,2,0:0:0:0:
96,112,43425,1,2,0:0:0:0:
256,88,43511,5,2,0:0:0:0:
305,103,43596,1,2,0:0:0:0:
327,150,43682,1,2,0:0:0:0:
306,199,43768,1,2,0:0:0:0:
256,215,43855,1,2,0:0:0:0:
205,231,43940,1,2,0:0:0:0:
183,278,44026,1,2,0:0:0:0:
204,326,44112,1,2,0:0:0:0:
360,352,44198,5,2,0:0:0:0:
480,344,44370,2,0,L|488:248,1,90,0|0,0:0|0:0,0:0:0:0:
368,240,44714,2,0,L|320:248,1,45,2|2,2:0|2:0,0:0:0:0:
120,288,44885,2,0,P|64:272|104:72,1,315,4|0,0:0|0:0,0:0:0:0:
354,49,45573,5,6,0:0:0:0:
399,55,45658,1,0,0:0:0:0:
436,79,45744,1,0,0:0:0:0:
460,117,45830,1,0,0:0:0:0:
466,161,45916,1,8,0:0:0:0:
320,232,46088,1,0,0:0:0:0:
316,187,46173,1,0,0:0:0:0:
312,142,46259,1,0,0:0:0:0:
440,256,46432,1,2,0:0:0:0:
296,48,46604,2,0,L|200:56,1,90,8|0,0:0|0:0,0:0:0:0:
459,341,46947,5,2,0:0:0:0:
460,296,47032,1,0,0:0:0:0:
462,251,47118,1,0,0:0:0:0:
464,206,47204,1,0,0:0:0:0:
466,161,47290,1,8,0:0:0:0:
336,144,47463,1,0,0:0:0:0:
291,147,47548,1,0,0:0:0:0:
246,151,47634,1,0,0:0:0:0:
376,56,47806,2,0,L|472:64,2,90,2|8|0,0:0|0:0|0:0,0:0:0:0:
144,48,48321,5,2,0:0:0:0:
94,57,48408,1,0,0:0:0:0:
72,101,48494,1,0,0:0:0:0:
200,160,48666,2,0,L|336:152,1,135,8|0,0:0|0:0,0:0:0:0:
376,256,49009,2,0,L|280:248,1,90,0|2,0:0|0:0,0:0:0:0:
424,192,49353,2,0,L|432:96,1,90,8|0,0:0|0:0,0:0:0:0:
144,48,49696,5,2,0:0:0:0:
94,57,49783,1,0,0:0:0:0:
72,101,49869,1,0,0:0:0:0:
94,144,49955,1,0,0:0:0:0:
144,150,50040,2,0,L|280:152,1,135,8|8,0:0|0:0,0:0:0:0:
328,232,50384,2,0,L|232:240,1,90,0|2,0:0|0:0,0:0:0:0:
96,280,50727,2,0,L|88:232,3,45,8|0|0|8,0:0|0:0|0:0|0:0,0:0:0:0:
256,32,51071,5,2,0:0:0:0:
300,35,51156,1,0,0:0:0:0:
345,39,51242,1,0,0:0:0:0:
472,112,51415,2,0,L|376:120,1,90,8|0,0:0|0:0,0:0:0:0:
240,136,51758,1,0,0:0:0:0:
190,145,51845,1,0,0:0:0:0:
168,189,51931,1,2,0:0:0:0:
190,232,52017,1,0,0:0:0:0:
240,238,52102,2,0,L|336:240,1,90,8|0,0:0|0:0,0:0:0:0:
376,232,52360,1,0,0:0:0:0:
168,189,52446,6,0,L|78:187,2,90,2|0|8,0:0|0:0|0:0,0:0:0:0:
296,152,52961,1,0,0:0:0:0:
344,144,53047,2,0,P|392:152|432:224,1,135,0|2,0:0|0:0,0:0:0:0:
288,384,53477,2,0,L|280:336,1,45,8|0,0:0|0:0,0:0:0:0:
336,280,53648,2,0,L|344:232,1,45,0|0,0:0|0:0,0:0:0:0:
168,128,53820,5,2,0:0:0:0:
123,131,53905,1,0,0:0:0:0:
88,168,53991,1,0,0:0:0:0:
216,208,54164,1,8,0:0:0:0:
80,216,54336,1,0,0:0:0:0:
48,248,54422,2,0,L|40:344,1,90,0|0,0:0|0:0,0:0:0:0:
88,352,54679,1,2,0:0:0:0:
132,355,54764,1,0,0:0:0:0:
177,359,54850,1,8,0:0:0:0:
48,144,55023,2,0,L|40:96,1,45,0|0,0:0|0:0,0:0:0:0:
280,32,55195,6,0,L|376:40,1,90,2|0,0:0|0:0,0:0:0:0:
405,45,55452,1,0,0:0:0:0:
369,39,55538,1,8,0:0:0:0:
152,48,55710,2,0,L|144:96,1,45
184,112,55882,2,0,L|280:120,1,90,0|2,0:0|0:0,0:0:0:0:
97,265,56226,1,8,0:0:0:0:
79,226,56312,1,0,0:0:0:0:
100,188,56398,1,0,0:0:0:0:
144,184,56483,1,0,0:0:0:0:
312,192,56569,6,0,L|448:200,1,135,2|0,0:0|0:0,0:0:0:0:
496,264,56913,2,0,L|504:360,1,90,8|0,0:0|0:0,0:0:0:0:
368,376,57257,2,0,L|360:280,1,90,0|2,0:0|0:0,0:0:0:0:
496,136,57600,2,0,L|504:88,1,45,8|0,0:0|0:0,0:0:0:0:
464,64,57772,1,0,0:0:0:0:
158,49,57944,5,2,0:0:0:0:
113,55,58029,1,0,0:0:0:0:
76,79,58115,1,0,0:0:0:0:
52,117,58201,1,0,0:0:0:0:
46,161,58287,1,8,0:0:0:0:
192,232,58459,1,0,0:0:0:0:
196,187,58544,1,0,0:0:0:0:
200,142,58630,1,0,0:0:0:0:
72,256,58803,1,2,0:0:0:0:
216,48,58975,2,0,L|312:56,1,90,8|0,0:0|0:0,0:0:0:0:
53,341,59318,5,2,0:0:0:0:
52,296,59403,1,0,0:0:0:0:
50,251,59489,1,0,0:0:0:0:
48,206,59575,1,0,0:0:0:0:
46,161,59661,1,8,0:0:0:0:
176,144,59834,1,0,0:0:0:0:
221,147,59919,1,0,0:0:0:0:
266,151,60005,1,0,0:0:0:0:
118,51,60178,1,0,0:0:0:0:
81,76,60263,1,0,0:0:0:0:
44,102,60349,1,8,0:0:0:0:
127,187,60521,1,0,0:0:0:0:
368,48,60692,5,2,0:0:0:0:
418,57,60779,1,0,0:0:0:0:
440,101,60865,1,0,0:0:0:0:
312,160,61037,2,0,L|216:152,1,90,8|0,0:0|0:0,0:0:0:0:
352,232,61380,1,0,0:0:0:0:
355,276,61465,1,0,0:0:0:0:
359,321,61551,1,0,0:0:0:0:
232,360,61724,2,0,L|142:367,1,90,8|0,0:0|0:0,0:0:0:0:
187,321,61982,1,0,0:0:0:0:
392,48,62067,5,2,0:0:0:0:
442,57,62154,1,0,0:0:0:0:
464,101,62240,1,0,0:0:0:0:
442,144,62326,1,0,0:0:0:0:
392,150,62411,2,0,L|256:152,1,135,8|0,0:0|0:0,0:0:0:0:
208,232,62755,2,0,L|304:240,1,90,0|0,0:0|0:0,0:0:0:0:
416,280,63098,2,0,L|424:232,3,45,8|0|0|0,0:0|0:0|0:0|0:0,0:0:0:0:
256,32,63442,5,2,0:0:0:0:
212,35,63527,1,0,0:0:0:0:
167,39,63613,1,0,0:0:0:0:
40,112,63786,2,0,L|136:120,1,90,8|0,0:0|0:0,0:0:0:0:
272,136,64129,1,0,0:0:0:0:
322,145,64216,1,0,0:0:0:0:
344,189,64302,1,2,0:0:0:0:
322,232,64388,1,0,0:0:0:0:
272,238,64473,2,0,L|176:240,1,90,8|0,0:0|0:0,0:0:0:0:
136,232,64731,1,0,0:0:0:0:
344,189,64817,6,0,L|434:187,2,90,2|0|8,0:0|0:0|0:0,0:0:0:0:
216,152,65332,1,0,0:0:0:0:
168,144,65418,2,0,P|120:152|83:215,1,90,0|2,0:0|0:0,0:0:0:0:
79,218,65676,1,0,0:0:0:0:
224,384,65848,2,0,L|232:336,1,45,8|0,0:0|0:0,0:0:0:0:
176,280,66019,2,0,L|168:232,1,45,0|0,0:0|0:0,0:0:0:0:
344,128,66191,5,2,0:0:0:0:
389,131,66276,1,0,0:0:0:0:
424,168,66362,1,0,0:0:0:0:
296,208,66535,1,8,0:0:0:0:
432,216,66707,1,0,0:0:0:0:
40,32,66879,6,0,L|32:80,7,45,2|2|2|2|2|2|2|2,0:0|0:0|0:0|0:0|0:0|0:0|0:0|0:0,0:0:0:0:
296,48,67566,5,6,0:0:0:0:
341,54,67651,1,0,0:0:0:0:
378,78,67737,1,0,0:0:0:0:
402,116,67823,1,0,0:0:0:0:
408,160,67909,1,8,0:0:0:0:
262,231,68081,2,0,L|216:240,2,45,0|2|0,0:0|0:0|0:0,0:0:0:0:
382,255,68425,1,2,0:0:0:0:
238,47,68597,2,0,L|142:55,1,90,8|0,0:0|0:0,0:0:0:0:
459,341,68940,5,2,0:0:0:0:
460,296,69025,1,0,0:0:0:0:
462,251,69111,1,2,0:0:0:0:
464,206,69197,1,0,0:0:0:0:
466,161,69283,1,8,0:0:0:0:
336,144,69456,1,0,0:0:0:0:
291,147,69541,1,2,0:0:0:0:
246,151,69627,1,0,0:0:0:0:
376,56,69799,2,0,L|472:64,2,90,2|8|0,0:0|0:0|0:0,0:0:0:0:
144,48,70314,5,2,0:0:0:0:
94,57,70401,1,0,0:0:0:0:
72,101,70487,1,0,0:0:0:0:
200,160,70659,1,8,0:0:0:0:
72,176,70830,1,0,0:0:0:0:
208,240,71002,2,0,L|297:247,1,90,0|2,0:0|0:0,0:0:0:0:
424,328,71346,2,0,L|334:335,1,90,8|0,0:0|0:0,0:0:0:0:
104,48,71689,5,2,0:0:0:0:
54,57,71776,1,0,0:0:0:0:
32,101,71862,1,2,0:0:0:0:
54,144,71948,1,0,0:0:0:0:
104,150,72033,2,0,L|240:152,1,135,8|2,0:0|0:0,0:0:0:0:
288,232,72377,2,0,L|192:240,1,90,0|2,0:0|0:0,0:0:0:0:
54,246,72721,1,8,0:0:0:0:
32,203,72807,1,0,0:0:0:0:
54,159,72893,1,0,0:0:0:0:
104,150,72978,1,8,0:0:0:0:
256,32,73064,5,6,0:0:0:0:
300,35,73149,1,0,0:0:0:0:
345,39,73235,1,0,0:0:0:0:
472,112,73408,2,0,L|376:120,1,90,8|0,0:0|0:0,0:0:0:0:
240,136,73751,1,0,0:0:0:0:
190,145,73838,1,8,0:0:0:0:
168,189,73924,1,2,0:0:0:0:
190,232,74010,1,0,0:0:0:0:
240,238,74095,2,0,L|336:240,1,90,8|0,0:0|0:0,0:0:0:0:
376,232,74353,1,8,0:0:0:0:
168,189,74439,6,0,L|78:187,2,90,2|2|8,0:0|0:0|0:0,0:0:0:0:
296,152,74954,1,0,0:0:0:0:
344,144,75040,2,0,P|392:152|432:224,1,135,2|2,0:0|0:0,0:0:0:0:
288,384,75470,2,0,L|280:336,1,45,8|0,0:0|0:0,0:0:0:0:
336,280,75641,2,0,L|344:232,1,45,0|8,0:0|0:0,0:0:0:0:
168,128,75813,5,6,0:0:0:0:
123,131,75898,1,0,0:0:0:0:
88,168,75984,1,0,0:0:0:0:
216,208,76157,1,8,0:0:0:0:
80,216,76329,1,0,0:0:0:0:
48,248,76415,2,0,L|40:344,1,90,2|8,0:0|0:0,0:0:0:0:
88,352,76672,1,2,0:0:0:0:
132,355,76757,1,0,0:0:0:0:
177,359,76843,1,8,0:0:0:0:
48,144,77016,2,0,L|40:96,1,45,0|8,0:0|0:0,0:0:0:0:
280,32,77188,6,0,L|376:40,2,90,2|2|8,0:0|0:0|0:0,0:0:0:0:
152,48,77703,2,0,L|144:96,1,45,0|2,0:0|0:0,0:0:0:0:
184,112,77875,2,0,L|280:120,1,90,0|2,0:0|0:0,0:0:0:0:
97,265,78219,1,8,0:0:0:0:
79,226,78305,1,0,0:0:0:0:
100,188,78391,1,0,0:0:0:0:
144,184,78476,1,8,0:0:0:0:
312,192,78562,6,0,L|448:200,1,135,6|0,0:0|0:0,0:0:0:0:
496,264,78906,2,0,L|504:360,1,90,8|0,0:0|0:0,0:0:0:0:
368,376,79250,2,0,L|360:280,1,90,0|2,0:0|0:0,0:0:0:0:
496,136,79593,2,0,L|504:88,1,45,8|0,0:0|0:0,0:0:0:0:
464,64,79765,1,0,0:0:0:0:
232,40,79937,5,2,0:0:0:0:
187,43,80022,1,0,0:0:0:0:
142,47,80108,1,2,0:0:0:0:
272,112,80281,1,8,0:0:0:0:
136,144,80452,1,0,0:0:0:0:
132,189,80538,1,2,0:0:0:0:
128,234,80623,1,0,0:0:0:0:
264,312,80796,1,2,0:0:0:0:
174,315,80967,1,8,0:0:0:0:
84,319,81139,1,0,0:0:0:0:
368,352,81312,6,0,P|424:328|376:256,1,135,6|0,0:0|0:0,0:0:0:0:
369,255,81655,2,0,L|280:264,1,90,8|0,0:0|0:0,0:0:0:0:
416,248,81999,2,0,L|424:200,1,45,0|8,0:0|0:0,0:0:0:0:
376,176,82171,2,0,L|368:128,1,45,2|0,0:0|0:0,0:0:0:0:
432,112,82343,2,0,L|440:16,1,90,8|0,0:0|0:0,0:0:0:0:
200,48,82686,5,2,0:0:0:0:
155,54,82771,1,0,0:0:0:0:
118,78,82857,1,2,0:0:0:0:
94,116,82943,1,0,0:0:0:0:
88,160,83029,1,8,0:0:0:0:
234,231,83201,1,0,0:0:0:0:
238,186,83288,1,2,0:0:0:0:
242,141,83372,1,0,0:0:0:0:
114,255,83545,1,2,0:0:0:0:
258,47,83717,2,0,L|354:55,1,90,8|0,0:0|0:0,0:0:0:0:
53,341,84060,5,6,0:0:0:0:
52,296,84147,1,0,0:0:0:0:
50,251,84233,1,0,0:0:0:0:
48,206,84317,1,0,0:0:0:0:
46,161,84403,1,8,0:0:0:0:
176,144,84576,2,0,L|184:192,1,45,0|2,0:0|0:0,0:0:0:0:
144,208,84748,1,0,0:0:0:0:
8,72,84919,2,0,L|104:80,2,90,2|8|0,0:0|0:0|0:0,0:0:0:0:
312,48,85435,5,2,0:0:0:0:
357,54,85520,1,0,0:0:0:0:
394,78,85606,1,2,0:0:0:0:
418,116,85692,1,0,0:0:0:0:
424,160,85778,1,8,0:0:0:0:
278,231,85950,1,0,0:0:0:0:
274,186,86037,1,2,0:0:0:0:
270,141,86123,1,0,0:0:0:0:
398,255,86294,1,2,0:0:0:0:
254,47,86466,2,0,L|158:55,1,90,8|0,0:0|0:0,0:0:0:0:
459,341,86809,5,6,0:0:0:0:
460,296,86896,1,0,0:0:0:0:
462,251,86982,1,0,0:0:0:0:
464,206,87068,1,0,0:0:0:0:
466,161,87154,1,8,0:0:0:0:
336,144,87325,2,0,L|328:192,1,45,0|2,0:0|0:0,0:0:0:0:
368,208,87497,1,0,0:0:0:0:
504,72,87669,2,0,L|408:80,2,90,2|8|0,0:0|0:0|0:0,0:0:0:0:
256,40,88184,5,2,0:0:0:0:
204,45,88269,1,0,0:0:0:0:
178,90,88355,1,2,0:0:0:0:
204,137,88441,1,0,0:0:0:0:
256,145,88527,1,8,0:0:0:0:
308,150,88614,1,0,0:0:0:0:
334,195,88700,1,0,0:0:0:0:
308,242,88786,1,2,0:0:0:0:
152,312,88872,5,0,0:0:0:0:
111,294,88957,1,8,0:0:0:0:
86,257,89043,1,2,0:0:0:0:
86,213,89129,1,0,0:0:0:0:
360,312,89215,1,8,0:0:0:0:
400,294,89300,1,0,0:0:0:0:
425,257,89386,1,0,0:0:0:0:
425,213,89472,1,8,0:0:0:0:
249,239,89559,5,0,0:0:0:0:
134,244,89903,2,0,L|125:154,1,90,0|0,0:0|0:0,0:0:0:0:
322,157,90418,1,0,0:0:0:0:
185,158,90590,1,2,0:0:0:0:
378,244,90934,2,0,L|386:154,1,90,0|0,0:0|0:0,0:0:0:0:
252,152,91277,2,0,L|244:242,1,90,2|0,0:0|0:0,0:0:0:0:
378,244,91621,2,0,L|386:154,1,90,0|0,0:0|0:0,0:0:0:0:
218,144,91965,1,2,0:0:0:0:
218,144,92308,5,0,0:0:0:0:
378,244,92652,2,0,L|386:154,1,90,2|0,0:0|0:0,0:0:0:0:
190,157,93167,1,0,0:0:0:0:
327,158,93339,1,2,0:0:0:0:
134,244,93683,2,0,L|125:154,1,90,0|0,0:0|0:0,0:0:0:0:
260,152,94026,2,0,L|269:242,1,90,2|0,0:0|0:0,0:0:0:0:
125,154,94370,1,0,0:0:0:0:
248,148,94542,1,0,0:0:0:0:
111,156,94714,1,2,0:0:0:0:
111,156,95057,5,0,0:0:0:0:
290,245,95401,2,0,L|304:156,1,90,2|0,0:0|0:0,0:0:0:0:
116,163,95916,1,0,0:0:0:0:
276,159,96088,1,2,0:0:0:0:
92,274,96432,6,0,L|80:184,1,90,0|0,0:0|0:0,0:0:0:0:
227,180,96776,2,0,L|239:270,1,90,2|0,0:0|0:0,0:0:0:0:
92,274,97119,2,0,L|80:184,1,90,0|0,0:0|0:0,0:0:0:0:
227,180,97463,1,2,0:0:0:0:
401,156,97806,5,0,0:0:0:0:
222,245,98150,2,0,L|207:156,1,90,2|0,0:0|0:0,0:0:0:0:
396,163,98665,1,0,0:0:0:0:
236,159,98837,1,2,0:0:0:0:
420,274,99181,6,0,L|431:184,1,90,0|0,0:0|0:0,0:0:0:0:
296,160,99525,1,2,0:0:0:0:
251,166,99610,1,0,0:0:0:0:
213,189,99696,1,0,0:0:0:0:
187,226,99782,1,0,0:0:0:0:
177,269,99868,1,0,0:0:0:0:
185,313,99954,1,0,0:0:0:0:
210,351,100040,1,0,0:0:0:0:
247,375,100126,1,0,0:0:0:0:
420,274,100212,2,0,L|467:268,1,45,2|0,0:0|0:0,0:0:0:0:
187,226,100384,2,0,L|140:220,1,45,0|0,0:0|0:0,0:0:0:0:
360,56,100556,6,0,P|404:70|367:166,1,135,6|2,0:0|0:0,0:0:0:0:
360,168,100899,2,0,L|264:175,1,90,8|2,0:0|0:0,0:0:0:0:
448,336,101243,1,2,0:0:0:0:
466,297,101329,1,2,0:2:0:0:
445,259,101415,1,0,0:0:0:0:
401,255,101500,1,2,0:0:0:0:
238,47,101587,2,0,L|142:55,1,90,8|2,0:0|0:0,0:0:0:0:
459,341,101930,5,6,0:0:0:0:
460,296,102015,1,0,0:0:0:0:
462,251,102101,1,0,0:0:0:0:
464,206,102187,1,2,0:0:0:0:
466,161,102273,1,8,0:0:0:0:
336,144,102446,1,2,0:0:0:0:
291,147,102531,1,0,0:0:0:0:
246,151,102617,1,2,0:0:0:0:
376,56,102789,2,0,L|472:64,2,90,0|8|2,0:0|0:0|0:0,0:0:0:0:
144,48,103304,5,6,0:0:0:0:
94,57,103391,1,0,0:0:0:0:
72,101,103477,1,0,0:0:0:0:
200,160,103648,2,0,L|336:168,1,135,8|0,0:0|0:0,0:0:0:0:
384,248,103992,2,0,L|294:255,1,90,2|0,0:0|0:0,0:0:0:0:
416,112,104336,2,0,L|506:119,1,90,8|2,0:0|0:0,0:0:0:0:
189,72,104679,5,6,0:0:0:0:
139,81,104766,1,0,0:0:0:0:
117,125,104852,1,0,0:0:0:0:
139,168,104938,1,2,0:0:0:0:
189,174,105023,2,0,L|325:176,1,135,8|0,0:0|0:0,0:0:0:0:
373,256,105367,2,0,L|277:264,1,90,2|0,0:0|0:0,0:0:0:0:
139,270,105711,1,8,0:0:0:0:
117,227,105797,1,0,0:0:0:0:
139,183,105883,1,2,0:0:0:0:
189,174,105968,1,8,0:0:0:0:
384,352,106054,5,2,0:0:0:0:
466,321,106225,1,2,0:0:0:0:
500,241,106397,1,2,0:0:0:0:
466,161,106569,1,2,0:0:0:0:
128,352,106742,1,2,0:0:0:0:
46,321,106913,1,2,0:0:0:0:
12,241,107085,1,2,0:0:0:0:
46,161,107257,1,2,0:0:0:0:
280,56,107429,6,0,L|376:64,1,90,2|2,0:0|0:0,0:0:0:0:
232,120,107773,2,0,L|136:128,1,90,2|2,0:0|0:0,0:0:0:0:
384,184,108116,2,0,L|456:240,1,90,2|2,0:0|0:0,0:0:0:0:
128,208,108460,2,0,L|56:264,1,90,2|2,0:0|0:0,0:0:0:0:
368,352,108804,5,2,0:0:0:0:
417,343,108889,1,2,0:0:0:0:
458,317,108975,1,2,0:0:0:0:
486,276,109061,1,2,0:0:0:0:
496,228,109147,1,2,0:0:0:0:
486,180,109233,1,2,0:0:0:0:
458,139,109319,1,2,0:0:0:0:
416,112,109405,1,2,0:0:0:0:
256,88,109491,5,2,0:0:0:0:
207,103,109576,1,2,0:0:0:0:
185,150,109662,1,2,0:0:0:0:
206,199,109748,1,2,0:0:0:0:
256,215,109835,1,2,0:0:0:0:
307,231,109920,1,2,0:0:0:0:
329,278,110006,1,2,0:0:0:0:
308,326,110092,1,2,0:0:0:0:
152,344,110178,5,2,0:0:0:0:
111,326,110263,1,0,0:0:0:0:
86,289,110349,1,0,0:0:0:0:
86,245,110435,1,0,0:0:0:0:
329,278,110521,1,0,0:0:0:0:
370,260,110606,1,0,0:0:0:0:
395,223,110692,1,0,0:0:0:0:
395,179,110778,1,0,0:0:0:0:
144,40,110865,2,0,P|96:56|168:232,1,315,2|0,0:0|0:0,0:0:0:0:
476,106,111552,5,6,1:0:0:0:
256,192,111724,12,2,117050,0:0:0:0:
160,24,117738,6,0,P|64:120|160:296,1,360,2|0,0:0|0:0,0:0:0:0:
256,192,119112,1,2,0:0:0:0:
352,24,119800,2,0,P|448:120|352:296,1,360,2|0,0:0|0:0,0:0:0:0:
256,32,121174,5,0,0:0:0:0:
212,38,121259,1,0,0:0:0:0:
177,66,121345,1,0,0:0:0:0:
164,108,121431,1,0,0:0:0:0:
178,151,121517,1,0,0:0:0:0:
212,182,121603,1,0,0:0:0:0:
256,192,121690,1,0,0:0:0:0:
299,198,121775,1,0,0:0:0:0:
334,226,121861,1,0,0:0:0:0:
347,268,121947,1,0,0:0:0:0:
334,311,122033,1,0,0:0:0:0:
300,342,122119,1,0,0:0:0:0:
136,344,122205,2,0,L|88:336,1,45,0|0,0:0|0:0,0:0:0:0:
347,268,122377,2,0,L|395:260,1,45,0|0,0:0|0:0,0:0:0:0:
152,56,122549,6,0,P|108:70|145:166,1,135,6|2,0:0|0:0,0:0:0:0:
152,168,122892,2,0,L|248:175,1,90,8|2,0:0|0:0,0:0:0:0:
64,336,123236,1,2,0:0:0:0:
46,297,123322,1,2,0:2:0:0:
67,259,123408,1,0,0:0:0:0:
111,255,123493,1,2,0:0:0:0:
274,47,123580,2,0,L|370:55,1,90,8|2,0:0|0:0,0:0:0:0:
53,341,123923,5,6,0:0:0:0:
52,296,124008,1,0,0:0:0:0:
50,251,124094,1,0,0:0:0:0:
48,206,124180,1,2,0:0:0:0:
46,161,124266,1,8,0:0:0:0:
176,144,124439,5,2,0:0:0:0:
221,147,124524,1,0,0:0:0:0:
266,151,124610,1,2,0:0:0:0:
136,56,124782,2,0,L|40:64,2,90,0|8|2,0:0|0:0|0:0,0:0:0:0:
368,48,125297,5,6,0:0:0:0:
418,57,125384,1,0,0:0:0:0:
440,101,125470,1,0,0:0:0:0:
312,160,125641,2,0,L|176:168,1,135,8|0,0:0|0:0,0:0:0:0:
128,248,125985,2,0,L|218:255,1,90,2|0,0:0|0:0,0:0:0:0:
96,112,126329,2,0,L|6:119,1,90,8|2,0:0|0:0,0:0:0:0:
323,72,126672,5,6,0:0:0:0:
373,81,126759,5,0,0:0:0:0:
395,125,126845,1,0,0:0:0:0:
373,168,126931,1,2,0:0:0:0:
323,174,127016,2,0,L|187:176,1,135,8|0,0:0|0:0,0:0:0:0:
139,256,127360,2,0,L|235:264,1,90,2|0,0:0|0:0,0:0:0:0:
373,270,127704,1,8,0:0:0:0:
395,227,127790,1,0,0:0:0:0:
373,183,127876,1,2,0:0:0:0:
323,174,127961,1,8,0:0:0:0:
128,352,128047,5,2,0:0:0:0:
46,321,128218,1,2,0:0:0:0:
12,241,128390,1,2,0:0:0:0:
46,161,128562,1,2,0:0:0:0:
384,352,128735,1,2,0:0:0:0:
466,321,128906,1,2,0:0:0:0:
500,241,129078,1,2,0:0:0:0:
466,161,129250,1,2,0:0:0:0:
232,56,129422,6,0,L|136:64,1,90,2|2,0:0|0:0,0:0:0:0:
280,120,129766,2,0,L|376:128,1,90,2|2,0:0|0:0,0:0:0:0:
128,184,130109,2,0,L|56:240,1,90,2|2,0:0|0:0,0:0:0:0:
384,208,130453,2,0,L|456:264,1,90,2|2,0:0|0:0,0:0:0:0:
144,352,130797,5,2,0:0:0:0:
95,343,130882,1,2,0:0:0:0:
54,317,130968,1,2,0:0:0:0:
26,276,131054,1,2,0:0:0:0:
16,228,131140,1,2,0:0:0:0:
26,180,131226,1,2,0:0:0:0:
54,139,131312,1,2,0:0:0:0:
96,112,131398,1,2,0:0:0:0:
339,277,131483,5,2,0:0:0:0:
380,259,131568,1,2,0:0:0:0:
405,222,131654,1,2,0:0:0:0:
405,178,131740,1,2,0:0:0:0:
162,211,131826,1,2,0:0:0:0:
121,193,131913,1,2,0:0:0:0:
96,156,131999,1,2,0:0:0:0:
96,112,132085,1,2,0:0:0:0:
360,352,132171,5,2,0:0:0:0:
480,344,132343,2,0,L|488:248,1,90,0|0,0:0|0:0,0:0:0:0:
368,240,132687,2,0,L|320:248,1,45,2|2,0:2|0:2,0:0:0:0:
120,288,132858,2,0,P|64:272|104:72,1,315,6|0,0:0|0:0,0:0:0:0:
392,104,133545,1,6,0:0:0:0:
256,192,133717,12,0,135435,0:0:0:0:
160,48,135607,6,0,L|152:96,1,45,0|0,0:0|0:0,0:0:0:0:
208,112,135779,2,0,L|216:160,1,45,2|0,0:0|0:0,0:0:0:0:
152,176,135950,1,8,0:0:0:0:
288,216,136123,2,0,L|336:224,1,45,0|8,0:0|0:0,0:0:0:0:
152,176,136294,6,0,L|56:184,1,90,2|0,0:0|0:0,0:0:0:0:
216,48,136638,2,0,L|312:56,1,90,8|2,0:0|0:0,0:0:0:0:
168,48,136982,1,2,0:0:0:0:
123,54,137067,1,8,0:0:0:0:
86,78,137153,1,0,0:0:0:0:
62,116,137239,1,2,0:0:0:0:
56,160,137325,1,8,0:0:0:0:
176,184,137497,1,2,0:0:0:0:
416,64,137669,5,2,0:0:0:0:
466,73,137756,1,0,0:0:0:0:
488,117,137842,1,2,0:0:0:0:
466,160,137928,1,2,0:0:0:0:
416,166,138013,2,0,L|280:168,1,135,10|8,0:0|0:0,0:0:0:0:
232,248,138357,2,0,L|328:256,1,90,0|2,0:0|0:0,0:0:0:0:
480,336,138699,1,8,0:0:0:0:
502,293,138785,1,0,0:0:0:0:
480,249,138871,1,0,0:0:0:0:
430,240,138958,1,8,0:0:0:0:
200,272,139044,6,0,P|136:256|80:40,1,315,6|0,0:0|0:0,0:0:0:0:
120,24,139731,1,2,1:0:0:0:
368,40,140074,2,0,L|376:136,1,90,0|0,0:0|0:0,0:0:0:0:
120,304,140590,2,0,L|112:208,1,90,2|0,0:1|0:0,0:0:0:0:
304,88,141019,6,0,L|312:136,1,45,0|2,0:0|0:0,0:0:0:0:
184,152,141277,1,2,0:1:0:0:
320,216,141449,2,0,P|384:240|416:304,1,135,10|0,0:1|0:0,0:0:0:0:
40,368,141793,5,6,0:0:0:0:
39,323,141878,1,0,0:0:0:0:
37,278,141964,1,0,0:0:0:0:
35,233,142050,1,2,0:0:0:0:
33,188,142136,1,8,0:0:0:0:
160,184,142308,1,2,0:0:0:0:
162,139,142394,1,0,0:0:0:0:
164,94,142480,1,2,0:0:0:0:
40,32,142652,1,2,0:0:0:0:
38,77,142738,1,0,0:0:0:0:
80,104,142824,2,0,L|176:112,1,90,8|2,0:0|0:0,0:0:0:0:
430,240,143167,5,6,0:0:0:0:
480,249,143254,1,0,0:0:0:0:
502,293,143340,1,0,0:0:0:0:
480,336,143426,1,0,0:0:0:0:
432,344,143511,2,0,L|336:336,1,90,8|2,0:0|0:0,0:0:0:0:
84,104,143855,5,2,0:0:0:0:
46,128,143941,1,8,0:0:0:0:
20,166,144027,1,2,0:0:0:0:
10,210,144113,1,0,0:0:0:0:
20,253,144199,1,8,0:0:0:0:
46,290,144285,1,0,0:0:0:0:
84,313,144371,1,2,0:0:0:0:
128,320,144456,1,8,0:0:0:0:
280,40,144542,5,2,0:0:0:0:
325,43,144627,1,0,0:0:0:0:
370,47,144713,1,0,0:0:0:0:
240,112,144886,1,12,0:0:0:0:
376,144,145057,1,0,0:0:0:0:
380,189,145143,1,8,0:0:0:0:
384,234,145228,1,0,0:0:0:0:
248,312,145401,1,0,0:0:0:0:
338,315,145572,1,8,0:0:0:0:
428,319,145744,1,0,0:0:0:0:
144,352,145917,6,0,P|88:328|136:256,1,135,2|2,0:0|0:0,0:0:0:0:
143,255,146260,2,0,L|232:264,1,90,8|2,0:0|0:0,0:0:0:0:
96,248,146604,2,0,L|88:200,1,45,2|8,0:0|0:0,0:0:0:0:
136,176,146776,2,0,L|144:128,1,45,0|2,0:0|0:0,0:0:0:0:
80,112,146948,2,0,L|72:16,1,90,8|2,0:0|0:0,0:0:0:0:
312,24,147291,5,2,0:0:0:0:
357,30,147376,1,0,0:0:0:0:
394,54,147462,1,0,0:0:0:0:
418,92,147548,1,2,0:0:0:0:
424,136,147634,1,8,0:0:0:0:
278,207,147806,1,2,0:0:0:0:
274,162,147891,1,0,0:0:0:0:
312,136,147978,1,0,0:0:0:0:
424,272,148150,2,0,L|328:280,2,90,0|8|2,0:0|0:0|0:0,0:0:0:0:
120,80,148666,5,2,0:0:0:0:
70,89,148751,1,0,0:0:0:0:
48,133,148837,1,0,0:0:0:0:
70,176,148923,1,2,0:0:0:0:
120,182,149010,2,0,L|256:184,1,135,8|0,0:0|0:0,0:0:0:0:
304,264,149354,2,0,L|208:272,1,90,2|0,0:0|0:0,0:0:0:0:
70,278,149696,1,8,0:0:0:0:
48,235,149782,1,0,0:0:0:0:
70,191,149868,1,2,0:0:0:0:
120,182,149954,1,0,0:0:0:0:
344,168,150040,6,0,P|392:176|448:240,1,135,6|0,0:0|0:0,0:0:0:0:
440,280,150384,1,8,1:0:0:0:
256,256,150727,1,8,1:0:0:0:
440,280,151071,1,8,1:0:0:0:
168,168,151415,6,0,P|120:176|64:240,1,135,6|0,1:0|0:0,0:0:0:0:
72,280,151759,1,8,1:0:0:0:
256,256,152102,1,8,1:0:0:0:
72,280,152446,1,8,1:0:0:0:
324,144,152789,6,0,L|188:136,1,135,12|12,1:0|1:0,0:0:0:0:
368,72,153305,2,0,L|376:208,1,135,12|12,1:0|1:0,0:0:0:0:
144,72,153820,2,0,L|136:208,1,135,12|12,1:0|1:0,0:0:0:0:
368,352,154164,5,0,0:0:0:0:
417,343,154249,1,10,1:0:0:0:
458,317,154335,1,2,1:0:0:0:
486,276,154421,1,2,1:0:0:0:
496,228,154507,1,10,1:0:0:0:
486,180,154593,1,2,1:0:0:0:
458,139,154679,1,2,1:0:0:0:
416,112,154765,1,10,1:0:0:0:
190,136,154851,5,2,1:0:0:0:
141,151,154936,1,10,1:0:0:0:
119,198,155022,1,2,1:0:0:0:
140,247,155108,1,2,1:0:0:0:
328,304,155195,2,0,L|376:296,1,45,10|2,1:0|1:0,0:0:0:0:
140,247,155367,2,0,L|92:239,1,45,10|10,1:0|1:0,0:0:0:0:
