osu file format v14

[General]
AudioFilename: audio.mp3
AudioLeadIn: 0
PreviewTime: 36192
Countdown: 0
SampleSet: Normal
StackLeniency: 0.7
Mode: 3
LetterboxInBreaks: 0
SpecialStyle: 0
WidescreenStoryboard: 1

[Editor]
Bookmarks: 12056,21656,30656,40856,50456,60056,69656,79256,88856,98456,108056,117656,120956,136856,146456,156056,165656,175256,184856,223256,232856
DistanceSpacing: 0.9
BeatDivisor: 4
GridSize: 8
TimelineZoom: 2.1

[Metadata]
Title:NULCTRL EX
TitleUnicode:NULCTRL EX
Artist:Silentroom
ArtistUnicode:Silentroom
Creator:AHHHHHHHHHHHHHH
Version:Hard
Source:G2R2018 Climax
Tags:SLRM-0001 sv ravon musync musynx featured artist fa Groundbreaking compilation album VI Yoru FRENZ2018 null control nullctrl ctrl extended go back 2 to your roots bms rainbow frontier maimai dx+ electronic edm dance music instrumental WING plain jane swissbeatbox seville film studio sfs motion
BeatmapID:2422800
BeatmapSetID:1128596

[Difficulty]
HPDrainRate:7.5
CircleSize:4
OverallDifficulty:7
ApproachRate:5
SliderMultiplier:1.4
SliderTickRate:1

[Events]
//Background and Video events
0,0,"bg.png",0,0
//Break Periods
//Storyboard Layer 0 (Background)
//Storyboard Layer 1 (Fail)
//Storyboard Layer 2 (Pass)
//Storyboard Layer 3 (Foreground)
//Storyboard Layer 4 (Overlay)
//Storyboard Sound Samples

[TimingPoints]
230,600,4,1,1,40,1,0
118730,-100,4,1,1,10,0,0
134630,-100,4,1,1,40,0,0
192830,-100,4,1,1,40,0,1
199430,-100,4,1,1,40,0,0
202430,-100,4,1,1,40,0,1
209030,-100,4,1,1,40,0,0
212030,-100,4,1,1,40,0,1
218630,-100,4,1,1,40,0,0
240230,-100,4,1,1,5,0,0

[HitObjects]
64,192,230,5,0,0:0:0:0:
320,192,230,1,0,0:0:0:0:
192,192,380,1,0,0:0:0:0:
448,192,530,1,0,0:0:0:0:
320,192,680,1,0,0:0:0:0:
64,192,830,1,4,0:0:0:0:
192,192,830,1,0,0:0:0:0:
320,192,980,1,0,0:0:0:0:
64,192,1130,128,0,1430:0:0:0:0:
64,192,2630,1,0,0:0:0:0:
320,192,2630,1,0,0:0:0:0:
192,192,2780,1,0,0:0:0:0:
448,192,2930,1,0,0:0:0:0:
320,192,3080,1,0,0:0:0:0:
64,192,3230,1,4,0:0:0:0:
192,192,3230,1,0,0:0:0:0:
320,192,3380,1,0,0:0:0:0:
64,192,3530,128,0,3830:0:0:0:0:
64,192,5030,1,0,0:0:0:0:
320,192,5030,1,0,0:0:0:0:
192,192,5180,1,0,0:0:0:0:
448,192,5330,1,0,0:0:0:0:
320,192,5480,1,0,0:0:0:0:
64,192,5630,1,4,0:0:0:0:
192,192,5630,1,0,0:0:0:0:
320,192,5780,1,0,0:0:0:0:
64,192,5930,128,0,6230:0:0:0:0:
64,192,7430,1,0,0:0:0:0:
320,192,7430,1,0,0:0:0:0:
192,192,7580,1,0,0:0:0:0:
448,192,7730,1,0,0:0:0:0:
320,192,7880,1,0,0:0:0:0:
64,192,8030,1,4,0:0:0:0:
192,192,8030,1,0,0:0:0:0:
320,192,8180,1,0,0:0:0:0:
64,192,8330,128,0,8630:0:0:0:0:
448,192,8630,1,0,0:0:0:0:
448,192,8780,1,0,0:0:0:0:
192,192,8930,1,0,0:0:0:0:
192,192,9080,1,0,0:0:0:0:
448,192,9230,1,0,0:0:0:0:
448,192,9380,1,0,0:0:0:0:
192,192,9530,1,0,0:0:0:0:
192,192,9680,1,0,0:0:0:0:
64,192,9830,1,0,0:0:0:0:
320,192,9830,1,0,0:0:0:0:
192,192,9980,1,0,0:0:0:0:
448,192,10130,1,0,0:0:0:0:
320,192,10280,1,0,0:0:0:0:
64,192,10430,1,4,0:0:0:0:
192,192,10430,1,0,0:0:0:0:
320,192,10580,1,0,0:0:0:0:
64,192,10730,1,0,0:0:0:0:
448,192,11030,1,0,0:0:0:0:
64,192,11480,1,0,0:0:0:0:
448,192,11930,1,0,0:0:0:0:
64,192,12230,1,0,0:0:0:0:
320,192,12230,1,0,0:0:0:0:
192,192,12380,1,0,0:0:0:0:
448,192,12530,1,0,0:0:0:0:
320,192,12680,1,0,0:0:0:0:
64,192,12830,1,4,0:0:0:0:
192,192,12830,1,0,0:0:0:0:
320,192,12980,1,0,0:0:0:0:
64,192,13130,1,0,0:0:0:0:
448,192,13430,1,0,0:0:0:0:
64,192,13880,1,0,0:0:0:0:
448,192,14330,1,0,0:0:0:0:
448,192,14480,1,0,0:0:0:0:
64,192,14630,1,0,0:0:0:0:
320,192,14630,1,0,0:0:0:0:
192,192,14780,1,0,0:0:0:0:
448,192,14930,1,0,0:0:0:0:
320,192,15080,1,0,0:0:0:0:
64,192,15230,1,4,0:0:0:0:
192,192,15230,1,0,0:0:0:0:
320,192,15380,1,0,0:0:0:0:
64,192,15530,1,0,0:0:0:0:
448,192,15830,1,0,0:0:0:0:
64,192,16280,1,0,0:0:0:0:
448,192,16730,1,0,0:0:0:0:
64,192,17030,1,4,0:0:0:0:
320,192,17030,1,0,0:0:0:0:
192,192,17180,1,0,0:0:0:0:
448,192,17330,1,0,0:0:0:0:
64,192,17630,1,4,0:0:0:0:
192,192,17630,1,0,0:0:0:0:
320,192,17780,1,0,0:0:0:0:
64,192,17930,1,0,0:0:0:0:
448,192,17930,1,0,0:0:0:0:
192,192,18230,1,0,0:0:0:0:
320,192,18305,1,0,0:0:0:0:
192,192,18380,1,0,0:0:0:0:
320,192,18530,1,0,0:0:0:0:
320,192,18680,1,0,0:0:0:0:
192,192,18830,1,0,0:0:0:0:
192,192,18980,1,0,0:0:0:0:
320,192,19130,1,0,0:0:0:0:
320,192,19280,1,0,0:0:0:0:
192,192,19355,1,0,0:0:0:0:
64,192,19430,128,2,19730:0:0:0:0:
448,192,19430,128,0,19730:0:0:0:0:
192,192,20030,128,0,20180:0:0:0:0:
64,192,20330,128,2,20630:0:0:0:0:
448,192,20330,128,0,20630:0:0:0:0:
192,192,20630,128,0,20780:0:0:0:0:
192,192,20930,128,0,21080:0:0:0:0:
64,192,21230,128,0,21380:0:0:0:0:
320,192,21530,128,0,21680:0:0:0:0:
320,192,21830,128,0,21980:0:0:0:0:
320,192,22430,128,0,22580:0:0:0:0:
64,192,22730,128,2,23030:0:0:0:0:
448,192,22730,128,0,23030:0:0:0:0:
320,192,23030,128,0,23180:0:0:0:0:
320,192,23330,128,0,23480:0:0:0:0:
448,192,23630,128,0,23780:0:0:0:0:
64,192,23930,1,2,0:0:0:0:
192,192,23930,1,0,0:0:0:0:
320,192,24080,1,2,0:0:0:0:
448,192,24080,1,0,0:0:0:0:
64,192,24230,128,2,24530:0:0:0:0:
448,192,24230,128,0,24530:0:0:0:0:
320,192,24830,128,0,24980:0:0:0:0:
64,192,25130,128,2,25430:0:0:0:0:
448,192,25130,128,0,25430:0:0:0:0:
320,192,25430,128,0,25580:0:0:0:0:
320,192,25730,128,0,25880:0:0:0:0:
192,192,26030,128,0,26180:0:0:0:0:
448,192,26330,128,0,26480:0:0:0:0:
448,192,26630,128,0,26780:0:0:0:0:
448,192,27230,128,0,27380:0:0:0:0:
320,192,27530,128,0,27680:0:0:0:0:
448,192,27830,128,0,27980:0:0:0:0:
448,192,28130,128,0,28280:0:0:0:0:
64,192,28430,1,0,0:0:0:0:
192,192,28580,1,0,0:0:0:0:
320,192,28730,1,2,0:0:0:0:
448,192,28730,1,0,0:0:0:0:
192,192,28880,1,0,0:0:0:0:
64,192,29030,1,2,0:0:0:0:
448,192,29030,1,0,0:0:0:0:
320,192,29180,1,0,0:0:0:0:
320,192,29330,1,0,0:0:0:0:
192,192,29480,1,0,0:0:0:0:
64,192,29630,1,2,0:0:0:0:
448,192,29630,1,0,0:0:0:0:
320,192,29780,1,0,0:0:0:0:
320,192,29930,1,0,0:0:0:0:
192,192,30080,1,0,0:0:0:0:
64,192,30230,1,2,0:0:0:0:
448,192,30230,1,0,0:0:0:0:
320,192,30380,1,0,0:0:0:0:
320,192,30530,1,0,0:0:0:0:
192,192,30680,1,0,0:0:0:0:
64,192,30830,1,2,0:0:0:0:
448,192,30830,1,0,0:0:0:0:
320,192,30980,1,0,0:0:0:0:
320,192,31130,1,0,0:0:0:0:
192,192,31280,1,0,0:0:0:0:
64,192,31430,1,2,0:0:0:0:
448,192,31430,1,0,0:0:0:0:
192,192,31580,1,0,0:0:0:0:
192,192,31730,1,0,0:0:0:0:
320,192,31880,1,0,0:0:0:0:
64,192,32030,1,2,0:0:0:0:
448,192,32030,1,0,0:0:0:0:
192,192,32180,1,0,0:0:0:0:
192,192,32330,1,0,0:0:0:0:
320,192,32480,1,0,0:0:0:0:
64,192,32630,1,2,0:0:0:0:
448,192,32630,1,0,0:0:0:0:
192,192,32780,1,0,0:0:0:0:
192,192,32930,1,0,0:0:0:0:
320,192,33080,1,0,0:0:0:0:
64,192,33230,1,2,0:0:0:0:
448,192,33230,1,0,0:0:0:0:
64,192,33380,1,0,0:0:0:0:
320,192,33530,1,0,0:0:0:0:
320,192,33680,1,0,0:0:0:0:
192,192,33830,1,2,0:0:0:0:
448,192,33830,1,0,0:0:0:0:
320,192,33905,1,0,0:0:0:0:
64,192,33980,1,0,0:0:0:0:
192,192,34055,1,0,0:0:0:0:
448,192,34130,1,0,0:0:0:0:
320,192,34205,1,0,0:0:0:0:
64,192,34280,1,0,0:0:0:0:
192,192,34355,1,0,0:0:0:0:
448,192,34430,1,0,0:0:0:0:
320,192,34505,1,0,0:0:0:0:
64,192,34580,1,0,0:0:0:0:
192,192,34655,1,0,0:0:0:0:
448,192,34730,1,0,0:0:0:0:
320,192,34805,1,0,0:0:0:0:
64,192,34880,1,0,0:0:0:0:
192,192,34955,1,0,0:0:0:0:
448,192,35030,1,0,0:0:0:0:
320,192,35105,1,0,0:0:0:0:
64,192,35180,1,0,0:0:0:0:
192,192,35255,1,0,0:0:0:0:
448,192,35330,1,0,0:0:0:0:
320,192,35405,1,0,0:0:0:0:
64,192,35480,1,0,0:0:0:0:
192,192,35555,1,0,0:0:0:0:
448,192,35630,1,0,0:0:0:0:
320,192,35705,1,0,0:0:0:0:
64,192,35780,1,0,0:0:0:0:
192,192,35855,1,0,0:0:0:0:
448,192,35930,1,0,0:0:0:0:
320,192,36005,1,0,0:0:0:0:
64,192,36080,1,0,0:0:0:0:
192,192,36155,1,0,0:0:0:0:
448,192,36230,1,0,0:0:0:0:
320,192,36380,1,0,0:0:0:0:
448,192,36530,1,0,0:0:0:0:
320,192,36680,1,0,0:0:0:0:
64,192,36830,128,0,37130:0:0:0:0:
320,192,37130,1,0,0:0:0:0:
192,192,37280,1,0,0:0:0:0:
64,192,37430,128,0,37730:0:0:0:0:
448,192,37730,128,0,38030:0:0:0:0:
64,192,38030,1,0,0:0:0:0:
192,192,38030,1,0,0:0:0:0:
320,192,38330,1,2,0:0:0:0:
448,192,38330,1,0,0:0:0:0:
64,192,38630,128,2,38930:0:0:0:0:
448,192,38630,128,0,38930:0:0:0:0:
320,192,38930,1,0,0:0:0:0:
64,192,39230,1,4,0:0:0:0:
448,192,39230,1,2,0:0:0:0:
192,192,39530,128,0,39680:0:0:0:0:
448,192,39680,1,0,0:0:0:0:
64,192,39830,1,2,0:0:0:0:
320,192,39830,1,0,0:0:0:0:
192,192,39980,1,0,0:0:0:0:
320,192,40130,1,0,0:0:0:0:
192,192,40280,1,0,0:0:0:0:
64,192,40430,1,2,0:0:0:0:
448,192,40430,1,4,0:0:0:0:
320,192,40580,1,0,0:0:0:0:
192,192,40730,1,0,0:0:0:0:
320,192,40880,1,0,0:0:0:0:
64,192,41030,128,2,41330:0:0:0:0:
448,192,41030,128,0,41330:0:0:0:0:
320,192,41330,1,0,0:0:0:0:
64,192,41630,1,4,0:0:0:0:
448,192,41630,1,2,0:0:0:0:
192,192,41930,128,0,42080:0:0:0:0:
448,192,42080,1,0,0:0:0:0:
64,192,42230,1,2,0:0:0:0:
320,192,42230,1,0,0:0:0:0:
192,192,42380,1,0,0:0:0:0:
320,192,42530,1,0,0:0:0:0:
192,192,42680,1,0,0:0:0:0:
64,192,42830,1,4,0:0:0:0:
448,192,42830,1,2,0:0:0:0:
320,192,42980,128,0,43130:0:0:0:0:
192,192,43130,128,0,43430:0:0:0:0:
320,192,43280,128,0,43430:0:0:0:0:
64,192,43430,128,2,43730:0:0:0:0:
448,192,43430,128,0,43730:0:0:0:0:
320,192,43730,1,0,0:0:0:0:
192,192,43805,1,0,0:0:0:0:
320,192,43880,1,0,0:0:0:0:
192,192,43955,1,0,0:0:0:0:
64,192,44030,1,4,0:0:0:0:
448,192,44030,1,2,0:0:0:0:
192,192,44330,128,0,44480:0:0:0:0:
448,192,44480,1,0,0:0:0:0:
64,192,44630,1,2,0:0:0:0:
320,192,44630,1,0,0:0:0:0:
192,192,44780,1,0,0:0:0:0:
320,192,44930,1,0,0:0:0:0:
192,192,45080,1,0,0:0:0:0:
64,192,45230,1,4,0:0:0:0:
448,192,45230,1,2,0:0:0:0:
320,192,45380,128,0,45530:0:0:0:0:
192,192,45530,128,0,45830:0:0:0:0:
320,192,45680,128,0,45830:0:0:0:0:
64,192,45830,128,2,46130:0:0:0:0:
448,192,45830,1,0,0:0:0:0:
320,192,46130,128,0,46430:0:0:0:0:
64,192,46430,128,2,46730:0:0:0:0:
448,192,46430,1,0,0:0:0:0:
320,192,46730,128,0,47030:0:0:0:0:
64,192,47030,128,2,47330:0:0:0:0:
448,192,47030,1,0,0:0:0:0:
320,192,47330,128,0,47630:0:0:0:0:
448,192,47330,128,0,47630:0:0:0:0:
192,192,47630,1,0,0:0:0:0:
64,192,47780,1,0,0:0:0:0:
192,192,47930,1,0,0:0:0:0:
320,192,48080,1,0,0:0:0:0:
64,192,48230,128,2,48530:0:0:0:0:
448,192,48230,128,0,48530:0:0:0:0:
320,192,48530,1,0,0:0:0:0:
192,192,48730,1,0,0:0:0:0:
64,192,48830,1,4,0:0:0:0:
448,192,48830,1,0,0:0:0:0:
320,192,49130,128,0,49280:0:0:0:0:
64,192,49280,1,0,0:0:0:0:
448,192,49430,1,0,0:0:0:0:
192,192,49580,1,0,0:0:0:0:
320,192,49730,1,0,0:0:0:0:
192,192,49880,1,0,0:0:0:0:
64,192,50030,1,2,0:0:0:0:
448,192,50030,1,4,0:0:0:0:
320,192,50180,1,0,0:0:0:0:
64,192,50330,1,0,0:0:0:0:
320,192,50480,1,0,0:0:0:0:
64,192,50630,128,2,50930:0:0:0:0:
448,192,50630,128,0,50930:0:0:0:0:
320,192,50930,1,0,0:0:0:0:
64,192,51230,1,2,0:0:0:0:
448,192,51230,1,4,0:0:0:0:
320,192,51530,128,0,51680:0:0:0:0:
64,192,51680,1,0,0:0:0:0:
448,192,51830,1,2,0:0:0:0:
320,192,51830,1,0,0:0:0:0:
192,192,51980,1,0,0:0:0:0:
320,192,52130,1,0,0:0:0:0:
192,192,52280,1,0,0:0:0:0:
64,192,52430,1,2,0:0:0:0:
448,192,52430,1,4,0:0:0:0:
320,192,52580,1,0,0:0:0:0:
64,192,52730,1,0,0:0:0:0:
320,192,52880,1,0,0:0:0:0:
64,192,53030,128,2,53180:0:0:0:0:
448,192,53030,128,0,53180:0:0:0:0:
192,192,53180,128,0,53330:0:0:0:0:
320,192,53180,128,0,53330:0:0:0:0:
64,192,53330,128,0,53480:0:0:0:0:
448,192,53330,128,0,53480:0:0:0:0:
192,192,53480,128,0,53630:0:0:0:0:
320,192,53480,128,0,53630:0:0:0:0:
64,192,53630,1,4,0:0:0:0:
448,192,53630,1,2,0:0:0:0:
192,192,53780,1,0,0:0:0:0:
320,192,53930,128,0,54080:0:0:0:0:
64,192,54080,128,0,54230:0:0:0:0:
448,192,54230,1,2,0:0:0:0:
320,192,54230,1,0,0:0:0:0:
192,192,54380,1,0,0:0:0:0:
320,192,54530,1,0,0:0:0:0:
192,192,54680,1,0,0:0:0:0:
64,192,54830,1,2,0:0:0:0:
448,192,54830,128,4,55130:0:0:0:0:
320,192,54980,128,0,55130:0:0:0:0:
64,192,55130,1,0,0:0:0:0:
64,192,55430,128,2,55730:0:0:0:0:
192,192,55430,128,0,55730:0:0:0:0:
320,192,55730,1,0,0:0:0:0:
192,192,55880,1,0,0:0:0:0:
320,192,56030,128,2,56330:0:0:0:0:
448,192,56030,128,4,56330:0:0:0:0:
192,192,56330,1,0,0:0:0:0:
320,192,56480,1,0,0:0:0:0:
64,192,56630,128,0,56930:0:0:0:0:
448,192,56930,128,0,57230:0:0:0:0:
64,192,57230,1,4,0:0:0:0:
320,192,57230,1,0,0:0:0:0:
192,192,57380,1,0,0:0:0:0:
448,192,57530,128,0,57830:0:0:0:0:
64,192,57830,1,0,0:0:0:0:
320,192,58130,1,0,0:0:0:0:
64,192,58430,1,4,0:0:0:0:
192,192,58430,1,0,0:0:0:0:
448,192,58730,1,0,0:0:0:0:
320,192,59180,1,0,0:0:0:0:
192,192,59330,1,0,0:0:0:0:
320,192,59480,1,0,0:0:0:0:
64,192,59630,1,4,0:0:0:0:
192,192,59630,1,2,0:0:0:0:
448,192,59780,1,0,0:0:0:0:
64,192,59930,1,0,0:0:0:0:
320,192,60080,1,0,0:0:0:0:
64,192,60230,128,2,60530:0:0:0:0:
448,192,60230,128,0,60530:0:0:0:0:
320,192,60530,1,0,0:0:0:0:
448,192,60830,128,4,61130:0:0:0:0:
64,192,60830,1,2,0:0:0:0:
320,192,61130,128,0,61280:0:0:0:0:
64,192,61280,1,0,0:0:0:0:
192,192,61430,1,2,0:0:0:0:
448,192,61430,1,0,0:0:0:0:
320,192,61580,1,0,0:0:0:0:
192,192,61730,1,0,0:0:0:0:
320,192,61880,1,0,0:0:0:0:
64,192,62030,1,4,0:0:0:0:
192,192,62030,1,2,0:0:0:0:
448,192,62105,1,0,0:0:0:0:
320,192,62180,1,0,0:0:0:0:
192,192,62255,1,0,0:0:0:0:
64,192,62330,1,0,0:0:0:0:
448,192,62430,1,0,0:0:0:0:
320,192,62530,1,0,0:0:0:0:
64,192,62630,1,2,0:0:0:0:
192,192,62630,1,0,0:0:0:0:
448,192,62730,1,0,0:0:0:0:
320,192,62830,1,0,0:0:0:0:
64,192,62930,1,0,0:0:0:0:
192,192,63030,1,0,0:0:0:0:
320,192,63130,1,0,0:0:0:0:
64,192,63230,1,4,0:0:0:0:
448,192,63230,1,2,0:0:0:0:
320,192,63530,128,0,63680:0:0:0:0:
64,192,63680,128,0,63830:0:0:0:0:
192,192,63830,1,2,0:0:0:0:
448,192,63830,1,0,0:0:0:0:
320,192,63980,1,0,0:0:0:0:
192,192,64130,1,0,0:0:0:0:
320,192,64280,1,0,0:0:0:0:
64,192,64430,1,4,0:0:0:0:
192,192,64430,1,2,0:0:0:0:
448,192,64580,128,0,64730:0:0:0:0:
64,192,64730,128,0,65030:0:0:0:0:
320,192,64880,128,0,65030:0:0:0:0:
192,192,65030,128,2,65330:0:0:0:0:
448,192,65030,128,0,65330:0:0:0:0:
320,192,65330,1,0,0:0:0:0:
192,192,65480,1,0,0:0:0:0:
64,192,65630,128,4,65930:0:0:0:0:
320,192,65630,128,2,65930:0:0:0:0:
192,192,65930,1,0,0:0:0:0:
320,192,66080,1,0,0:0:0:0:
192,192,66230,128,2,66530:0:0:0:0:
448,192,66230,128,0,66530:0:0:0:0:
64,192,66530,128,0,66830:0:0:0:0:
320,192,66530,128,0,66830:0:0:0:0:
448,192,66830,1,4,0:0:0:0:
192,192,66980,1,0,0:0:0:0:
320,192,67130,1,0,0:0:0:0:
64,192,67430,1,2,0:0:0:0:
448,192,67430,1,0,0:0:0:0:
192,192,67580,1,0,0:0:0:0:
320,192,67730,1,0,0:0:0:0:
64,192,68030,1,4,0:0:0:0:
448,192,68030,1,0,0:0:0:0:
320,192,68180,1,0,0:0:0:0:
192,192,68330,1,0,0:0:0:0:
320,192,68630,1,0,0:0:0:0:
64,192,68780,1,0,0:0:0:0:
320,192,68930,1,2,0:0:0:0:
448,192,68930,1,0,0:0:0:0:
64,192,69230,1,4,0:0:0:0:
192,192,69230,1,0,0:0:0:0:
448,192,69380,1,0,0:0:0:0:
192,192,69530,1,0,0:0:0:0:
64,192,69830,1,2,0:0:0:0:
320,192,69830,1,0,0:0:0:0:
192,192,69980,1,0,0:0:0:0:
448,192,70130,1,0,0:0:0:0:
192,192,70430,1,4,0:0:0:0:
448,192,70430,1,0,0:0:0:0:
320,192,70580,1,0,0:0:0:0:
64,192,70730,1,0,0:0:0:0:
192,192,71030,1,0,0:0:0:0:
448,192,71180,1,0,0:0:0:0:
64,192,71330,1,2,0:0:0:0:
192,192,71330,1,0,0:0:0:0:
320,192,71630,1,4,0:0:0:0:
448,192,71630,1,0,0:0:0:0:
192,192,71780,1,0,0:0:0:0:
320,192,71930,1,0,0:0:0:0:
64,192,72230,1,2,0:0:0:0:
192,192,72230,1,0,0:0:0:0:
320,192,72380,1,0,0:0:0:0:
64,192,72530,1,0,0:0:0:0:
192,192,72680,1,0,0:0:0:0:
64,192,72830,1,4,0:0:0:0:
320,192,72830,1,0,0:0:0:0:
448,192,72980,1,0,0:0:0:0:
192,192,73130,1,0,0:0:0:0:
320,192,73280,1,0,0:0:0:0:
448,192,73430,1,0,0:0:0:0:
64,192,73580,1,0,0:0:0:0:
192,192,73730,1,2,0:0:0:0:
320,192,73730,1,0,0:0:0:0:
448,192,73880,1,0,0:0:0:0:
64,192,74030,1,4,0:0:0:0:
320,192,74030,1,0,0:0:0:0:
448,192,74180,1,0,0:0:0:0:
192,192,74330,1,0,0:0:0:0:
320,192,74480,1,0,0:0:0:0:
64,192,74630,128,2,74930:0:0:0:0:
448,192,74630,128,0,74930:0:0:0:0:
64,192,75230,128,4,75530:0:0:0:0:
448,192,75230,128,2,75530:0:0:0:0:
192,192,75530,1,0,0:0:0:0:
320,192,75680,1,0,0:0:0:0:
192,192,75830,1,0,0:0:0:0:
320,192,75905,1,0,0:0:0:0:
192,192,75980,1,0,0:0:0:0:
320,192,76130,1,0,0:0:0:0:
64,192,76280,1,2,0:0:0:0:
320,192,76280,1,0,0:0:0:0:
192,192,76430,1,0,0:0:0:0:
192,192,76580,1,0,0:0:0:0:
320,192,76730,1,0,0:0:0:0:
320,192,76880,1,0,0:0:0:0:
192,192,76955,1,0,0:0:0:0:
64,192,77030,128,2,77330:0:0:0:0:
448,192,77030,128,0,77330:0:0:0:0:
320,192,77330,1,0,0:0:0:0:
64,192,77630,1,2,0:0:0:0:
448,192,77630,1,4,0:0:0:0:
320,192,77780,1,0,0:0:0:0:
192,192,77930,128,0,78080:0:0:0:0:
448,192,78080,1,0,0:0:0:0:
64,192,78230,1,2,0:0:0:0:
320,192,78230,1,0,0:0:0:0:
192,192,78380,128,0,78530:0:0:0:0:
320,192,78530,128,0,78680:0:0:0:0:
192,192,78680,1,0,0:0:0:0:
64,192,78830,1,4,0:0:0:0:
448,192,78830,1,2,0:0:0:0:
320,192,78980,128,0,79130:0:0:0:0:
192,192,79130,128,0,79280:0:0:0:0:
320,192,79280,1,0,0:0:0:0:
64,192,79430,128,2,79730:0:0:0:0:
448,192,79430,128,0,79730:0:0:0:0:
320,192,79730,1,0,0:0:0:0:
64,192,80030,1,2,0:0:0:0:
448,192,80030,1,4,0:0:0:0:
320,192,80180,1,0,0:0:0:0:
192,192,80330,128,0,80480:0:0:0:0:
448,192,80480,1,0,0:0:0:0:
64,192,80630,1,2,0:0:0:0:
320,192,80630,1,0,0:0:0:0:
192,192,80780,128,0,80930:0:0:0:0:
320,192,80930,128,0,81080:0:0:0:0:
192,192,81080,1,0,0:0:0:0:
64,192,81230,1,2,0:0:0:0:
448,192,81230,1,4,0:0:0:0:
320,192,81380,128,0,81530:0:0:0:0:
192,192,81530,128,0,81830:0:0:0:0:
320,192,81680,128,0,81830:0:0:0:0:
64,192,81830,128,2,82130:0:0:0:0:
448,192,81830,128,0,82130:0:0:0:0:
320,192,82130,1,0,0:0:0:0:
192,192,82205,1,0,0:0:0:0:
320,192,82280,1,0,0:0:0:0:
192,192,82355,1,0,0:0:0:0:
64,192,82430,1,4,0:0:0:0:
448,192,82430,1,2,0:0:0:0:
320,192,82580,1,0,0:0:0:0:
192,192,82730,128,0,82880:0:0:0:0:
448,192,82880,1,0,0:0:0:0:
64,192,83030,1,2,0:0:0:0:
320,192,83030,1,0,0:0:0:0:
192,192,83180,128,0,83330:0:0:0:0:
320,192,83330,128,0,83480:0:0:0:0:
192,192,83480,1,0,0:0:0:0:
64,192,83630,1,4,0:0:0:0:
448,192,83630,1,2,0:0:0:0:
320,192,83780,128,0,83930:0:0:0:0:
192,192,83930,128,0,84230:0:0:0:0:
320,192,84080,128,0,84230:0:0:0:0:
64,192,84230,128,2,84530:0:0:0:0:
448,192,84230,1,0,0:0:0:0:
320,192,84530,128,0,84830:0:0:0:0:
64,192,84830,128,2,85130:0:0:0:0:
448,192,84830,1,0,0:0:0:0:
320,192,85130,128,0,85430:0:0:0:0:
64,192,85430,128,2,85730:0:0:0:0:
448,192,85430,1,0,0:0:0:0:
320,192,85730,128,0,86030:0:0:0:0:
448,192,85730,128,0,86030:0:0:0:0:
192,192,86030,1,0,0:0:0:0:
64,192,86180,1,0,0:0:0:0:
192,192,86330,1,0,0:0:0:0:
320,192,86480,1,0,0:0:0:0:
64,192,86630,128,2,86930:0:0:0:0:
448,192,86630,128,0,86930:0:0:0:0:
320,192,86930,1,0,0:0:0:0:
192,192,87130,1,0,0:0:0:0:
64,192,87230,1,4,0:0:0:0:
448,192,87230,1,0,0:0:0:0:
192,192,87380,1,0,0:0:0:0:
320,192,87530,128,0,87680:0:0:0:0:
192,192,87680,1,0,0:0:0:0:
448,192,87830,1,0,0:0:0:0:
192,192,87980,1,0,0:0:0:0:
320,192,88130,1,0,0:0:0:0:
192,192,88280,1,0,0:0:0:0:
64,192,88430,1,4,0:0:0:0:
448,192,88430,1,2,0:0:0:0:
320,192,88580,128,0,88730:0:0:0:0:
64,192,88730,128,0,88880:0:0:0:0:
320,192,88880,1,0,0:0:0:0:
64,192,89030,128,2,89330:0:0:0:0:
448,192,89030,128,0,89330:0:0:0:0:
320,192,89330,1,0,0:0:0:0:
64,192,89630,1,4,0:0:0:0:
448,192,89630,1,2,0:0:0:0:
192,192,89780,1,0,0:0:0:0:
320,192,89930,128,0,90080:0:0:0:0:
192,192,90080,1,0,0:0:0:0:
448,192,90230,1,2,0:0:0:0:
320,192,90230,1,0,0:0:0:0:
192,192,90380,128,0,90530:0:0:0:0:
320,192,90530,128,0,90680:0:0:0:0:
192,192,90680,1,0,0:0:0:0:
64,192,90830,1,2,0:0:0:0:
448,192,90830,1,4,0:0:0:0:
320,192,90980,1,0,0:0:0:0:
64,192,91130,1,0,0:0:0:0:
320,192,91280,1,0,0:0:0:0:
64,192,91430,128,2,91730:0:0:0:0:
448,192,91430,1,0,0:0:0:0:
320,192,91730,128,0,92030:0:0:0:0:
64,192,92030,1,4,0:0:0:0:
448,192,92030,1,2,0:0:0:0:
192,192,92180,128,0,92330:0:0:0:0:
320,192,92330,128,0,92480:0:0:0:0:
192,192,92480,1,0,0:0:0:0:
448,192,92630,1,2,0:0:0:0:
320,192,92630,1,0,0:0:0:0:
192,192,92780,1,0,0:0:0:0:
320,192,92930,1,0,0:0:0:0:
192,192,93080,1,0,0:0:0:0:
64,192,93230,1,4,0:0:0:0:
448,192,93230,128,2,93530:0:0:0:0:
320,192,93380,128,0,93530:0:0:0:0:
64,192,93530,1,0,0:0:0:0:
64,192,93830,128,2,94130:0:0:0:0:
192,192,93830,128,0,94130:0:0:0:0:
320,192,94130,1,0,0:0:0:0:
192,192,94280,1,0,0:0:0:0:
320,192,94430,128,4,94730:0:0:0:0:
448,192,94430,128,2,94730:0:0:0:0:
192,192,94730,1,0,0:0:0:0:
320,192,94880,1,0,0:0:0:0:
64,192,95030,128,0,95330:0:0:0:0:
448,192,95330,128,0,95630:0:0:0:0:
64,192,95630,1,4,0:0:0:0:
320,192,95630,1,0,0:0:0:0:
192,192,95780,1,0,0:0:0:0:
448,192,95930,128,0,96230:0:0:0:0:
64,192,96230,1,0,0:0:0:0:
320,192,96530,1,0,0:0:0:0:
64,192,96830,1,4,0:0:0:0:
192,192,96830,1,0,0:0:0:0:
448,192,97130,1,0,0:0:0:0:
320,192,97580,1,0,0:0:0:0:
192,192,97730,1,0,0:0:0:0:
320,192,97880,1,0,0:0:0:0:
64,192,98030,1,4,0:0:0:0:
192,192,98030,1,2,0:0:0:0:
448,192,98180,1,0,0:0:0:0:
64,192,98330,1,0,0:0:0:0:
320,192,98480,1,0,0:0:0:0:
64,192,98630,128,2,98930:0:0:0:0:
448,192,98630,128,0,98930:0:0:0:0:
320,192,98930,1,0,0:0:0:0:
64,192,99230,1,2,0:0:0:0:
448,192,99230,1,4,0:0:0:0:
192,192,99380,1,0,0:0:0:0:
448,192,99530,128,0,99680:0:0:0:0:
320,192,99680,1,0,0:0:0:0:
64,192,99830,1,2,0:0:0:0:
192,192,99830,1,0,0:0:0:0:
320,192,99980,128,0,100130:0:0:0:0:
192,192,100130,128,0,100280:0:0:0:0:
320,192,100280,1,0,0:0:0:0:
64,192,100430,128,4,100730:0:0:0:0:
448,192,100430,1,2,0:0:0:0:
320,192,100730,128,0,101030:0:0:0:0:
64,192,101030,1,2,0:0:0:0:
192,192,101030,128,0,101330:0:0:0:0:
320,192,101330,128,0,101630:0:0:0:0:
64,192,101630,1,4,0:0:0:0:
448,192,101630,1,2,0:0:0:0:
192,192,101780,1,0,0:0:0:0:
448,192,101930,1,0,0:0:0:0:
448,192,102080,1,0,0:0:0:0:
192,192,102230,1,2,0:0:0:0:
64,192,102230,1,0,0:0:0:0:
320,192,102380,128,0,102530:0:0:0:0:
192,192,102530,128,0,102680:0:0:0:0:
320,192,102680,1,0,0:0:0:0:
64,192,102830,1,4,0:0:0:0:
192,192,102830,1,2,0:0:0:0:
448,192,102980,128,0,103130:0:0:0:0:
64,192,103130,128,0,103430:0:0:0:0:
320,192,103280,128,0,103430:0:0:0:0:
192,192,103430,128,2,103730:0:0:0:0:
448,192,103430,128,0,103730:0:0:0:0:
320,192,103730,1,0,0:0:0:0:
192,192,103880,1,0,0:0:0:0:
64,192,104030,128,4,104330:0:0:0:0:
320,192,104030,128,2,104330:0:0:0:0:
192,192,104330,1,0,0:0:0:0:
320,192,104480,1,0,0:0:0:0:
192,192,104630,128,2,104930:0:0:0:0:
448,192,104630,128,0,104930:0:0:0:0:
64,192,104930,128,0,105230:0:0:0:0:
320,192,104930,128,0,105230:0:0:0:0:
448,192,105230,1,4,0:0:0:0:
192,192,105380,1,0,0:0:0:0:
320,192,105530,1,0,0:0:0:0:
64,192,105830,1,2,0:0:0:0:
448,192,105830,1,0,0:0:0:0:
192,192,105980,1,0,0:0:0:0:
320,192,106130,1,0,0:0:0:0:
64,192,106430,1,4,0:0:0:0:
448,192,106430,1,0,0:0:0:0:
320,192,106580,1,0,0:0:0:0:
192,192,106730,1,0,0:0:0:0:
320,192,107030,1,0,0:0:0:0:
64,192,107180,1,0,0:0:0:0:
320,192,107330,1,2,0:0:0:0:
448,192,107330,1,0,0:0:0:0:
64,192,107630,1,4,0:0:0:0:
192,192,107630,1,0,0:0:0:0:
448,192,107780,1,0,0:0:0:0:
192,192,107930,1,0,0:0:0:0:
64,192,108230,1,2,0:0:0:0:
320,192,108230,1,0,0:0:0:0:
192,192,108380,1,0,0:0:0:0:
448,192,108530,1,0,0:0:0:0:
192,192,108830,1,4,0:0:0:0:
448,192,108830,1,0,0:0:0:0:
320,192,108980,1,0,0:0:0:0:
64,192,109130,1,0,0:0:0:0:
192,192,109430,1,0,0:0:0:0:
448,192,109580,1,0,0:0:0:0:
64,192,109730,1,2,0:0:0:0:
192,192,109730,1,0,0:0:0:0:
320,192,110030,1,4,0:0:0:0:
448,192,110030,1,0,0:0:0:0:
192,192,110180,1,0,0:0:0:0:
320,192,110330,1,0,0:0:0:0:
64,192,110630,1,2,0:0:0:0:
192,192,110630,1,0,0:0:0:0:
320,192,110780,1,0,0:0:0:0:
64,192,110930,1,0,0:0:0:0:
192,192,111080,1,0,0:0:0:0:
64,192,111230,1,4,0:0:0:0:
320,192,111230,1,0,0:0:0:0:
448,192,111380,1,0,0:0:0:0:
192,192,111530,1,0,0:0:0:0:
320,192,111680,1,0,0:0:0:0:
448,192,111830,1,0,0:0:0:0:
64,192,111980,1,0,0:0:0:0:
192,192,112130,1,2,0:0:0:0:
320,192,112130,1,0,0:0:0:0:
448,192,112280,1,0,0:0:0:0:
64,192,112430,1,4,0:0:0:0:
320,192,112430,1,0,0:0:0:0:
448,192,112580,1,0,0:0:0:0:
192,192,112730,1,0,0:0:0:0:
320,192,112880,1,0,0:0:0:0:
64,192,113030,128,2,113330:0:0:0:0:
448,192,113030,128,0,113330:0:0:0:0:
64,192,113630,128,4,113930:0:0:0:0:
448,192,113630,128,0,113930:0:0:0:0:
192,192,113930,1,0,0:0:0:0:
320,192,114080,1,0,0:0:0:0:
192,192,114230,1,0,0:0:0:0:
320,192,114305,1,0,0:0:0:0:
192,192,114380,1,0,0:0:0:0:
320,192,114530,1,0,0:0:0:0:
64,192,114680,1,2,0:0:0:0:
320,192,114680,1,0,0:0:0:0:
192,192,114830,1,0,0:0:0:0:
192,192,114980,1,0,0:0:0:0:
448,192,115130,1,0,0:0:0:0:
448,192,115280,1,0,0:0:0:0:
192,192,115355,1,0,0:0:0:0:
64,192,115430,1,0,0:0:0:0:
320,192,115430,1,0,0:0:0:0:
192,192,115580,1,0,0:0:0:0:
448,192,115730,1,0,0:0:0:0:
320,192,115880,1,0,0:0:0:0:
64,192,116030,1,4,0:0:0:0:
192,192,116030,1,0,0:0:0:0:
320,192,116180,1,0,0:0:0:0:
64,192,116330,128,0,116630:0:0:0:0:
64,192,117830,1,0,0:0:0:0:
320,192,117830,1,0,0:0:0:0:
192,192,117980,1,0,0:0:0:0:
448,192,118130,1,0,0:0:0:0:
320,192,118280,1,0,0:0:0:0:
64,192,118430,1,4,0:0:0:0:
192,192,118430,1,0,0:0:0:0:
320,192,118580,1,0,0:0:0:0:
64,192,118730,1,0,0:0:0:0:
192,192,118880,1,0,0:0:0:0:
448,192,119030,1,0,0:0:0:0:
320,192,119180,1,0,0:0:0:0:
64,192,119330,1,0,0:0:0:0:
192,192,119480,1,0,0:0:0:0:
448,192,119630,1,0,0:0:0:0:
320,192,119780,1,0,0:0:0:0:
64,192,119930,1,0,0:0:0:0:
192,192,120080,1,0,0:0:0:0:
448,192,120230,1,0,0:0:0:0:
64,192,120380,1,0,0:0:0:0:
192,192,120530,1,0,0:0:0:0:
448,192,120680,1,0,0:0:0:0:
64,192,120830,1,0,0:0:0:0:
192,192,120980,1,0,0:0:0:0:
448,192,121130,1,0,0:0:0:0:
64,192,121280,1,0,0:0:0:0:
320,192,121430,1,0,0:0:0:0:
192,192,121580,1,0,0:0:0:0:
448,192,121730,1,0,0:0:0:0:
320,192,121880,1,0,0:0:0:0:
192,192,122030,1,0,0:0:0:0:
448,192,122180,1,0,0:0:0:0:
320,192,122330,1,0,0:0:0:0:
192,192,122480,1,0,0:0:0:0:
64,192,122630,1,0,0:0:0:0:
320,192,122780,1,0,0:0:0:0:
448,192,122930,1,0,0:0:0:0:
192,192,123080,1,0,0:0:0:0:
64,192,123230,1,0,0:0:0:0:
320,192,123380,1,0,0:0:0:0:
448,192,123530,1,0,0:0:0:0:
192,192,123680,1,0,0:0:0:0:
64,192,123830,1,0,0:0:0:0:
448,192,123980,1,0,0:0:0:0:
320,192,124130,1,0,0:0:0:0:
192,192,124280,1,0,0:0:0:0:
64,192,124430,1,0,0:0:0:0:
448,192,124580,1,0,0:0:0:0:
320,192,124730,1,0,0:0:0:0:
192,192,124880,1,0,0:0:0:0:
64,192,125030,1,0,0:0:0:0:
320,192,125180,1,0,0:0:0:0:
448,192,125330,1,0,0:0:0:0:
192,192,125480,1,0,0:0:0:0:
64,192,125630,1,0,0:0:0:0:
320,192,125780,1,0,0:0:0:0:
448,192,125930,1,0,0:0:0:0:
192,192,126080,1,0,0:0:0:0:
64,192,126230,1,0,0:0:0:0:
320,192,126380,1,0,0:0:0:0:
192,192,126530,1,0,0:0:0:0:
448,192,126680,1,0,0:0:0:0:
64,192,126830,1,0,0:0:0:0:
320,192,126980,1,0,0:0:0:0:
192,192,127130,1,0,0:0:0:0:
448,192,127280,1,0,0:0:0:0:
320,192,127430,1,0,0:0:0:0:
64,192,127580,1,0,0:0:0:0:
448,192,127730,1,0,0:0:0:0:
192,192,127880,1,0,0:0:0:0:
320,192,128030,1,0,0:0:0:0:
64,192,128180,1,0,0:0:0:0:
448,192,128330,1,0,0:0:0:0:
192,192,128480,1,0,0:0:0:0:
64,192,128630,1,0,0:0:0:0:
448,192,128780,1,0,0:0:0:0:
192,192,128930,1,0,0:0:0:0:
320,192,129080,1,0,0:0:0:0:
64,192,129230,1,0,0:0:0:0:
448,192,129380,1,0,0:0:0:0:
192,192,129530,1,0,0:0:0:0:
320,192,129680,1,0,0:0:0:0:
448,192,129830,1,0,0:0:0:0:
192,192,129980,1,0,0:0:0:0:
320,192,130130,1,0,0:0:0:0:
64,192,130280,1,0,0:0:0:0:
448,192,130430,1,0,0:0:0:0:
192,192,130580,1,0,0:0:0:0:
320,192,130730,1,0,0:0:0:0:
64,192,130880,1,0,0:0:0:0:
192,192,131030,1,0,0:0:0:0:
448,192,131180,1,0,0:0:0:0:
64,192,131330,1,0,0:0:0:0:
320,192,131480,1,0,0:0:0:0:
192,192,131630,1,0,0:0:0:0:
448,192,131780,1,0,0:0:0:0:
64,192,131930,1,0,0:0:0:0:
320,192,132080,1,0,0:0:0:0:
448,192,132230,1,0,0:0:0:0:
64,192,132380,1,0,0:0:0:0:
320,192,132530,1,0,0:0:0:0:
192,192,132680,1,0,0:0:0:0:
448,192,132830,1,0,0:0:0:0:
64,192,132980,1,0,0:0:0:0:
320,192,133130,1,0,0:0:0:0:
192,192,133280,1,0,0:0:0:0:
448,192,133430,1,0,0:0:0:0:
320,192,133580,1,0,0:0:0:0:
64,192,133730,1,0,0:0:0:0:
192,192,133880,1,0,0:0:0:0:
448,192,134030,1,0,0:0:0:0:
320,192,134180,1,0,0:0:0:0:
64,192,134330,1,0,0:0:0:0:
192,192,134480,1,0,0:0:0:0:
64,192,134630,1,0,0:0:0:0:
320,192,134630,1,0,0:0:0:0:
192,192,134780,1,0,0:0:0:0:
448,192,134930,1,0,0:0:0:0:
320,192,135080,1,0,0:0:0:0:
64,192,135230,1,4,0:0:0:0:
192,192,135230,1,0,0:0:0:0:
320,192,135380,1,0,0:0:0:0:
64,192,135530,1,0,0:0:0:0:
320,192,135680,1,0,0:0:0:0:
64,192,135980,1,0,0:0:0:0:
320,192,136130,1,0,0:0:0:0:
192,192,136280,1,0,0:0:0:0:
64,192,136580,1,0,0:0:0:0:
320,192,136730,1,0,0:0:0:0:
192,192,136880,1,0,0:0:0:0:
64,192,137030,1,0,0:0:0:0:
320,192,137030,1,0,0:0:0:0:
192,192,137180,1,0,0:0:0:0:
448,192,137330,1,0,0:0:0:0:
320,192,137480,1,0,0:0:0:0:
64,192,137630,1,4,0:0:0:0:
192,192,137630,1,0,0:0:0:0:
320,192,137780,1,0,0:0:0:0:
64,192,137930,1,0,0:0:0:0:
320,192,138080,1,0,0:0:0:0:
64,192,138380,1,0,0:0:0:0:
320,192,138530,1,0,0:0:0:0:
192,192,138680,1,0,0:0:0:0:
64,192,138980,1,0,0:0:0:0:
320,192,139130,1,0,0:0:0:0:
192,192,139280,1,0,0:0:0:0:
64,192,139430,1,0,0:0:0:0:
320,192,139430,1,0,0:0:0:0:
192,192,139580,1,0,0:0:0:0:
448,192,139730,1,0,0:0:0:0:
320,192,139880,1,0,0:0:0:0:
64,192,140030,1,4,0:0:0:0:
192,192,140030,1,0,0:0:0:0:
320,192,140180,1,0,0:0:0:0:
64,192,140330,1,0,0:0:0:0:
320,192,140480,1,0,0:0:0:0:
64,192,140780,1,0,0:0:0:0:
320,192,140930,1,0,0:0:0:0:
192,192,141080,1,0,0:0:0:0:
64,192,141380,1,0,0:0:0:0:
320,192,141530,1,0,0:0:0:0:
192,192,141680,1,0,0:0:0:0:
64,192,141830,1,0,0:0:0:0:
320,192,141830,1,0,0:0:0:0:
192,192,141980,1,0,0:0:0:0:
448,192,142130,1,0,0:0:0:0:
320,192,142280,1,0,0:0:0:0:
64,192,142430,1,4,0:0:0:0:
192,192,142430,1,0,0:0:0:0:
320,192,142580,1,0,0:0:0:0:
64,192,142730,1,0,0:0:0:0:
448,192,142730,1,0,0:0:0:0:
192,192,143030,1,0,0:0:0:0:
320,192,143180,1,0,0:0:0:0:
192,192,143330,1,0,0:0:0:0:
320,192,143480,1,0,0:0:0:0:
448,192,143630,128,0,143930:0:0:0:0:
192,192,143780,1,0,0:0:0:0:
64,192,143930,128,2,144230:0:0:0:0:
320,192,144080,1,0,0:0:0:0:
192,192,144230,1,2,0:0:0:0:
448,192,144230,1,0,0:0:0:0:
192,192,144380,1,0,0:0:0:0:
320,192,144530,1,0,0:0:0:0:
320,192,144680,1,0,0:0:0:0:
64,192,144830,1,2,0:0:0:0:
448,192,144830,1,0,0:0:0:0:
64,192,144980,1,0,0:0:0:0:
192,192,145130,1,0,0:0:0:0:
192,192,145280,1,0,0:0:0:0:
320,192,145430,1,2,0:0:0:0:
448,192,145430,1,0,0:0:0:0:
448,192,145580,1,0,0:0:0:0:
64,192,145730,1,0,0:0:0:0:
64,192,145880,1,0,0:0:0:0:
192,192,146030,1,2,0:0:0:0:
320,192,146030,1,0,0:0:0:0:
320,192,146180,1,0,0:0:0:0:
448,192,146330,1,0,0:0:0:0:
448,192,146480,1,0,0:0:0:0:
64,192,146630,1,2,0:0:0:0:
192,192,146630,1,0,0:0:0:0:
192,192,146780,1,0,0:0:0:0:
320,192,146930,1,0,0:0:0:0:
320,192,147080,1,0,0:0:0:0:
64,192,147230,1,2,0:0:0:0:
448,192,147230,1,0,0:0:0:0:
64,192,147380,1,0,0:0:0:0:
192,192,147530,1,0,0:0:0:0:
192,192,147680,1,0,0:0:0:0:
320,192,147830,1,2,0:0:0:0:
448,192,147830,1,0,0:0:0:0:
448,192,147980,1,0,0:0:0:0:
64,192,148130,1,0,0:0:0:0:
64,192,148280,1,0,0:0:0:0:
192,192,148430,1,2,0:0:0:0:
320,192,148430,1,0,0:0:0:0:
320,192,148580,1,0,0:0:0:0:
448,192,148730,1,0,0:0:0:0:
448,192,148880,1,0,0:0:0:0:
64,192,149030,1,2,0:0:0:0:
192,192,149030,1,0,0:0:0:0:
320,192,149180,1,0,0:0:0:0:
320,192,149330,1,0,0:0:0:0:
320,192,149480,1,0,0:0:0:0:
320,192,149630,1,0,0:0:0:0:
192,192,149780,1,0,0:0:0:0:
192,192,149930,1,0,0:0:0:0:
192,192,150080,1,0,0:0:0:0:
192,192,150230,1,0,0:0:0:0:
320,192,150380,1,0,0:0:0:0:
320,192,150530,1,0,0:0:0:0:
320,192,150680,1,0,0:0:0:0:
320,192,150830,1,0,0:0:0:0:
192,192,150980,1,0,0:0:0:0:
192,192,151130,1,0,0:0:0:0:
192,192,151280,1,0,0:0:0:0:
448,192,151430,1,0,0:0:0:0:
320,192,151505,1,0,0:0:0:0:
64,192,151580,1,0,0:0:0:0:
192,192,151655,1,0,0:0:0:0:
448,192,151730,1,0,0:0:0:0:
320,192,151805,1,0,0:0:0:0:
64,192,151880,1,0,0:0:0:0:
192,192,151955,1,0,0:0:0:0:
448,192,152030,1,0,0:0:0:0:
320,192,152105,1,0,0:0:0:0:
64,192,152180,1,0,0:0:0:0:
192,192,152255,1,0,0:0:0:0:
448,192,152330,1,0,0:0:0:0:
320,192,152405,1,0,0:0:0:0:
64,192,152480,1,0,0:0:0:0:
192,192,152555,1,0,0:0:0:0:
320,192,152630,1,0,0:0:0:0:
448,192,152705,1,0,0:0:0:0:
64,192,152780,1,0,0:0:0:0:
192,192,152855,1,0,0:0:0:0:
320,192,152930,1,0,0:0:0:0:
448,192,153005,1,0,0:0:0:0:
64,192,153080,1,0,0:0:0:0:
192,192,153155,1,0,0:0:0:0:
320,192,153230,1,0,0:0:0:0:
448,192,153305,1,0,0:0:0:0:
64,192,153380,1,0,0:0:0:0:
192,192,153455,1,0,0:0:0:0:
320,192,153530,1,0,0:0:0:0:
448,192,153605,1,0,0:0:0:0:
64,192,153680,1,0,0:0:0:0:
192,192,153755,1,0,0:0:0:0:
320,192,153830,1,2,0:0:0:0:
448,192,153830,1,0,0:0:0:0:
64,192,154130,128,0,154280:0:0:0:0:
320,192,154430,1,4,0:0:0:0:
448,192,154430,1,0,0:0:0:0:
64,192,154580,128,0,154730:0:0:0:0:
192,192,154730,128,0,154880:0:0:0:0:
448,192,154880,1,0,0:0:0:0:
320,192,155030,128,0,155180:0:0:0:0:
64,192,155330,128,2,155630:0:0:0:0:
192,192,155330,128,0,155630:0:0:0:0:
320,192,155480,128,0,155630:0:0:0:0:
448,192,155630,1,4,0:0:0:0:
192,192,155780,1,0,0:0:0:0:
320,192,155930,1,0,0:0:0:0:
64,192,156080,1,0,0:0:0:0:
192,192,156230,128,2,156530:0:0:0:0:
448,192,156230,128,0,156530:0:0:0:0:
64,192,156530,128,0,156680:0:0:0:0:
320,192,156830,1,4,0:0:0:0:
448,192,156830,1,0,0:0:0:0:
64,192,156980,128,0,157130:0:0:0:0:
192,192,157130,128,2,157430:0:0:0:0:
448,192,157130,128,0,157430:0:0:0:0:
320,192,157430,128,0,157580:0:0:0:0:
192,192,157730,128,2,158030:0:0:0:0:
448,192,157730,128,0,158030:0:0:0:0:
320,192,157880,128,0,158030:0:0:0:0:
64,192,158030,128,4,158330:0:0:0:0:
448,192,158330,128,0,158630:0:0:0:0:
320,192,158630,128,0,158930:0:0:0:0:
192,192,158930,128,0,159080:0:0:0:0:
64,192,159230,1,4,0:0:0:0:
448,192,159230,1,0,0:0:0:0:
192,192,159380,128,0,159530:0:0:0:0:
64,192,159530,128,2,159830:0:0:0:0:
448,192,159530,128,0,159830:0:0:0:0:
320,192,159830,128,0,159980:0:0:0:0:
64,192,160130,128,2,160430:0:0:0:0:
448,192,160130,128,0,160430:0:0:0:0:
320,192,160280,128,0,160430:0:0:0:0:
192,192,160580,128,0,160730:0:0:0:0:
320,192,160730,128,0,161030:0:0:0:0:
192,192,160880,128,0,161030:0:0:0:0:
64,192,161030,128,2,161330:0:0:0:0:
448,192,161030,128,0,161330:0:0:0:0:
64,192,161630,128,4,161930:0:0:0:0:
192,192,161630,1,0,0:0:0:0:
320,192,161930,128,2,162230:0:0:0:0:
448,192,161930,1,0,0:0:0:0:
192,192,162080,1,0,0:0:0:0:
64,192,162230,128,0,162530:0:0:0:0:
320,192,162830,1,0,0:0:0:0:
64,192,162980,1,0,0:0:0:0:
192,192,163130,1,0,0:0:0:0:
320,192,163280,1,0,0:0:0:0:
64,192,163430,1,0,0:0:0:0:
448,192,163430,128,0,163730:0:0:0:0:
192,192,163730,128,0,163880:0:0:0:0:
64,192,164030,1,4,0:0:0:0:
448,192,164030,1,0,0:0:0:0:
192,192,164180,128,0,164330:0:0:0:0:
64,192,164330,128,2,164630:0:0:0:0:
320,192,164330,128,0,164630:0:0:0:0:
448,192,164630,128,0,164780:0:0:0:0:
64,192,164930,128,2,165230:0:0:0:0:
320,192,164930,128,0,165230:0:0:0:0:
448,192,165080,128,0,165230:0:0:0:0:
192,192,165230,1,4,0:0:0:0:
320,192,165380,1,0,0:0:0:0:
64,192,165530,1,0,0:0:0:0:
192,192,165680,1,0,0:0:0:0:
448,192,165830,128,0,166130:0:0:0:0:
192,192,166130,128,0,166280:0:0:0:0:
320,192,166430,1,4,0:0:0:0:
448,192,166430,1,0,0:0:0:0:
192,192,166580,128,0,166730:0:0:0:0:
64,192,166730,128,2,167030:0:0:0:0:
448,192,166730,128,0,167030:0:0:0:0:
320,192,167030,128,0,167180:0:0:0:0:
64,192,167330,128,2,167630:0:0:0:0:
448,192,167330,128,0,167630:0:0:0:0:
320,192,167480,128,0,167630:0:0:0:0:
192,192,167630,1,4,0:0:0:0:
448,192,167723,1,0,0:0:0:0:
320,192,167817,1,0,0:0:0:0:
192,192,167911,1,0,0:0:0:0:
64,192,168005,1,0,0:0:0:0:
320,192,168098,1,0,0:0:0:0:
192,192,168192,1,0,0:0:0:0:
64,192,168286,1,0,0:0:0:0:
448,192,168417,1,0,0:0:0:0:
192,192,168530,128,0,168680:0:0:0:0:
64,192,168830,1,4,0:0:0:0:
448,192,168830,1,0,0:0:0:0:
192,192,168980,128,0,169130:0:0:0:0:
320,192,169130,128,2,169430:0:0:0:0:
448,192,169130,128,0,169430:0:0:0:0:
64,192,169430,128,0,169580:0:0:0:0:
320,192,169730,128,2,170030:0:0:0:0:
448,192,169730,128,0,170030:0:0:0:0:
64,192,169880,128,0,170030:0:0:0:0:
64,192,170330,1,0,0:0:0:0:
192,192,170380,1,0,0:0:0:0:
320,192,170430,1,0,0:0:0:0:
448,192,170480,1,0,0:0:0:0:
64,192,170630,128,2,170930:0:0:0:0:
192,192,170630,128,0,170930:0:0:0:0:
320,192,170930,1,0,0:0:0:0:
192,192,171080,1,0,0:0:0:0:
320,192,171230,128,2,171530:0:0:0:0:
448,192,171230,128,4,171530:0:0:0:0:
192,192,171530,1,0,0:0:0:0:
320,192,171680,1,0,0:0:0:0:
64,192,171830,128,2,172130:0:0:0:0:
192,192,171830,1,0,0:0:0:0:
448,192,172130,128,0,172430:0:0:0:0:
64,192,172430,1,4,0:0:0:0:
320,192,172430,1,0,0:0:0:0:
192,192,172580,1,0,0:0:0:0:
448,192,172730,128,0,173030:0:0:0:0:
64,192,173030,1,0,0:0:0:0:
320,192,173330,1,0,0:0:0:0:
64,192,173630,1,4,0:0:0:0:
192,192,173630,1,0,0:0:0:0:
448,192,173780,128,0,174005:0:0:0:0:
64,192,174005,128,0,174155:0:0:0:0:
320,192,174255,1,0,0:0:0:0:
192,192,174455,1,0,0:0:0:0:
64,192,174530,128,2,174830:0:0:0:0:
448,192,174530,128,0,174830:0:0:0:0:
320,192,174655,1,0,0:0:0:0:
192,192,174830,1,4,0:0:0:0:
320,192,175055,1,0,0:0:0:0:
64,192,175255,1,0,0:0:0:0:
320,192,175430,128,2,175730:0:0:0:0:
448,192,175430,128,0,175730:0:0:0:0:
64,192,175655,1,0,0:0:0:0:
192,192,175855,1,0,0:0:0:0:
64,192,176030,1,4,0:0:0:0:
320,192,176030,1,0,0:0:0:0:
448,192,176255,1,0,0:0:0:0:
192,192,176455,1,0,0:0:0:0:
448,192,176655,1,0,0:0:0:0:
192,192,176855,1,0,0:0:0:0:
320,192,176930,1,2,0:0:0:0:
448,192,176930,1,0,0:0:0:0:
64,192,177055,1,0,0:0:0:0:
320,192,177230,1,4,0:0:0:0:
448,192,177230,1,0,0:0:0:0:
192,192,177330,1,0,0:0:0:0:
64,192,177430,1,0,0:0:0:0:
320,192,177530,1,0,0:0:0:0:
192,192,177630,1,0,0:0:0:0:
448,192,177730,1,0,0:0:0:0:
320,192,177830,1,0,0:0:0:0:
192,192,177930,1,0,0:0:0:0:
64,192,178130,1,0,0:0:0:0:
64,192,178430,128,4,178730:0:0:0:0:
448,192,178430,128,0,178730:0:0:0:0:
320,192,178730,128,0,178880:0:0:0:0:
192,192,179055,1,0,0:0:0:0:
320,192,179255,1,0,0:0:0:0:
64,192,179330,128,2,179630:0:0:0:0:
448,192,179330,128,0,179630:0:0:0:0:
192,192,179455,1,0,0:0:0:0:
320,192,179630,1,4,0:0:0:0:
192,192,179855,1,0,0:0:0:0:
320,192,179930,128,0,180080:0:0:0:0:
64,192,180080,128,0,180230:0:0:0:0:
192,192,180230,128,2,180530:0:0:0:0:
448,192,180230,128,0,180530:0:0:0:0:
320,192,180455,1,0,0:0:0:0:
192,192,180655,1,0,0:0:0:0:
64,192,180830,128,4,181130:0:0:0:0:
320,192,180830,128,2,181130:0:0:0:0:
192,192,181055,1,0,0:0:0:0:
448,192,181255,1,0,0:0:0:0:
64,192,181430,128,0,181730:0:0:0:0:
320,192,181730,128,0,182030:0:0:0:0:
448,192,182030,1,4,0:0:0:0:
192,192,182180,1,0,0:0:0:0:
320,192,182330,1,0,0:0:0:0:
64,192,182630,1,0,0:0:0:0:
192,192,182780,1,0,0:0:0:0:
320,192,182930,1,0,0:0:0:0:
64,192,183230,1,4,0:0:0:0:
448,192,183230,1,0,0:0:0:0:
320,192,183380,1,0,0:0:0:0:
192,192,183530,1,0,0:0:0:0:
320,192,183830,1,0,0:0:0:0:
64,192,183980,1,0,0:0:0:0:
320,192,184130,1,2,0:0:0:0:
448,192,184130,1,0,0:0:0:0:
64,192,184430,1,4,0:0:0:0:
192,192,184430,1,0,0:0:0:0:
448,192,184580,1,0,0:0:0:0:
192,192,184730,1,0,0:0:0:0:
64,192,185030,1,2,0:0:0:0:
320,192,185030,1,0,0:0:0:0:
192,192,185180,1,0,0:0:0:0:
448,192,185330,1,0,0:0:0:0:
192,192,185630,1,4,0:0:0:0:
448,192,185630,1,0,0:0:0:0:
320,192,185780,1,0,0:0:0:0:
64,192,185930,1,0,0:0:0:0:
192,192,186230,1,0,0:0:0:0:
448,192,186380,1,0,0:0:0:0:
64,192,186530,1,2,0:0:0:0:
192,192,186530,1,0,0:0:0:0:
320,192,186830,1,4,0:0:0:0:
448,192,186830,1,0,0:0:0:0:
192,192,186980,1,0,0:0:0:0:
320,192,187130,1,0,0:0:0:0:
64,192,187430,1,2,0:0:0:0:
192,192,187430,1,0,0:0:0:0:
320,192,187580,1,0,0:0:0:0:
64,192,187730,1,0,0:0:0:0:
192,192,187880,1,0,0:0:0:0:
64,192,188030,1,4,0:0:0:0:
320,192,188030,1,0,0:0:0:0:
448,192,188180,1,0,0:0:0:0:
192,192,188330,1,0,0:0:0:0:
320,192,188480,1,0,0:0:0:0:
448,192,188630,1,0,0:0:0:0:
64,192,188780,1,0,0:0:0:0:
192,192,188930,1,2,0:0:0:0:
320,192,188930,1,0,0:0:0:0:
448,192,189080,1,0,0:0:0:0:
64,192,189230,1,4,0:0:0:0:
320,192,189230,1,0,0:0:0:0:
448,192,189380,1,0,0:0:0:0:
192,192,189530,1,0,0:0:0:0:
320,192,189680,1,0,0:0:0:0:
64,192,189830,128,2,190130:0:0:0:0:
448,192,189830,128,0,190130:0:0:0:0:
64,192,190430,128,4,190730:0:0:0:0:
448,192,190430,128,2,190730:0:0:0:0:
192,192,190730,1,0,0:0:0:0:
320,192,190880,1,0,0:0:0:0:
192,192,191030,1,0,0:0:0:0:
320,192,191105,1,0,0:0:0:0:
192,192,191180,1,0,0:0:0:0:
320,192,191330,1,0,0:0:0:0:
64,192,191480,1,2,0:0:0:0:
320,192,191480,1,0,0:0:0:0:
192,192,191630,1,0,0:0:0:0:
192,192,191780,1,0,0:0:0:0:
320,192,191930,1,0,0:0:0:0:
320,192,192080,1,0,0:0:0:0:
192,192,192155,1,0,0:0:0:0:
64,192,192230,128,2,192530:0:0:0:0:
320,192,192230,1,0,0:0:0:0:
448,192,192230,128,0,192530:0:0:0:0:
320,192,192530,1,0,0:0:0:0:
64,192,192830,128,2,193280:0:0:0:0:
192,192,192830,128,4,193280:0:0:0:0:
448,192,192830,128,0,193280:0:0:0:0:
64,192,193430,128,2,193880:0:0:0:0:
192,192,193430,128,0,193880:0:0:0:0:
448,192,193430,128,0,193880:0:0:0:0:
64,192,194030,128,4,194480:0:0:0:0:
192,192,194030,128,2,194480:0:0:0:0:
448,192,194030,128,0,194480:0:0:0:0:
64,192,194630,128,2,195080:0:0:0:0:
192,192,194630,128,0,195080:0:0:0:0:
448,192,194630,128,0,195080:0:0:0:0:
64,192,195230,128,4,195680:0:0:0:0:
192,192,195230,128,2,195680:0:0:0:0:
448,192,195230,128,0,195680:0:0:0:0:
64,192,195830,128,2,196280:0:0:0:0:
192,192,195830,128,0,196280:0:0:0:0:
448,192,195830,128,0,196280:0:0:0:0:
64,192,196430,1,4,0:0:0:0:
192,192,196430,1,2,0:0:0:0:
320,192,196580,128,0,196730:0:0:0:0:
192,192,196730,128,0,196880:0:0:0:0:
320,192,196880,128,0,197030:0:0:0:0:
64,192,197030,128,2,197330:0:0:0:0:
448,192,197030,128,0,197330:0:0:0:0:
192,192,197030,1,0,0:0:0:0:
192,192,197330,1,0,0:0:0:0:
320,192,197405,1,0,0:0:0:0:
192,192,197480,1,0,0:0:0:0:
320,192,197555,1,0,0:0:0:0:
64,192,197630,128,2,198080:0:0:0:0:
192,192,197630,128,4,198080:0:0:0:0:
448,192,197630,128,0,198080:0:0:0:0:
64,192,198230,128,2,198680:0:0:0:0:
192,192,198230,128,0,198680:0:0:0:0:
448,192,198230,128,0,198680:0:0:0:0:
64,192,198830,128,2,199280:0:0:0:0:
192,192,198830,128,4,199280:0:0:0:0:
448,192,198830,128,0,199280:0:0:0:0:
64,192,199430,128,2,199730:0:0:0:0:
448,192,199430,1,0,0:0:0:0:
320,192,199730,128,0,200030:0:0:0:0:
64,192,200030,128,2,200330:0:0:0:0:
448,192,200030,1,0,0:0:0:0:
320,192,200330,128,0,200630:0:0:0:0:
64,192,200630,128,2,200930:0:0:0:0:
448,192,200630,1,0,0:0:0:0:
320,192,200930,128,0,201230:0:0:0:0:
448,192,200930,128,0,201230:0:0:0:0:
192,192,201230,1,0,0:0:0:0:
64,192,201380,1,0,0:0:0:0:
192,192,201530,1,0,0:0:0:0:
320,192,201680,1,0,0:0:0:0:
64,192,201830,128,2,202130:0:0:0:0:
192,192,201830,1,0,0:0:0:0:
448,192,201830,128,0,202130:0:0:0:0:
320,192,202130,1,0,0:0:0:0:
192,192,202330,1,0,0:0:0:0:
64,192,202430,128,4,202880:0:0:0:0:
320,192,202430,128,0,202880:0:0:0:0:
448,192,202430,128,0,202880:0:0:0:0:
64,192,203030,128,0,203480:0:0:0:0:
320,192,203030,128,0,203480:0:0:0:0:
448,192,203030,128,0,203480:0:0:0:0:
64,192,203630,128,4,203930:0:0:0:0:
320,192,203630,128,2,204080:0:0:0:0:
448,192,203630,128,0,204080:0:0:0:0:
192,192,203930,128,0,204080:0:0:0:0:
64,192,204230,128,2,204530:0:0:0:0:
320,192,204230,128,0,204680:0:0:0:0:
448,192,204230,128,0,204680:0:0:0:0:
192,192,204530,128,0,204680:0:0:0:0:
64,192,204830,128,2,205130:0:0:0:0:
320,192,204830,128,4,205280:0:0:0:0:
448,192,204830,128,0,205280:0:0:0:0:
192,192,205130,128,0,205280:0:0:0:0:
64,192,205430,128,2,205730:0:0:0:0:
320,192,205430,128,0,205880:0:0:0:0:
448,192,205430,128,0,205880:0:0:0:0:
192,192,205730,128,0,205880:0:0:0:0:
320,192,206030,1,2,0:0:0:0:
448,192,206030,1,4,0:0:0:0:
192,192,206180,128,0,206330:0:0:0:0:
64,192,206330,1,0,0:0:0:0:
320,192,206480,1,0,0:0:0:0:
64,192,206630,1,2,0:0:0:0:
192,192,206630,1,0,0:0:0:0:
448,192,206780,1,0,0:0:0:0:
320,192,206930,1,0,0:0:0:0:
192,192,207080,1,0,0:0:0:0:
64,192,207230,128,2,207680:0:0:0:0:
320,192,207230,128,4,207680:0:0:0:0:
448,192,207230,128,0,207680:0:0:0:0:
64,192,207830,128,2,208130:0:0:0:0:
320,192,207830,128,0,208280:0:0:0:0:
448,192,207830,128,0,208280:0:0:0:0:
192,192,208130,128,0,208280:0:0:0:0:
64,192,208430,128,2,208880:0:0:0:0:
192,192,208430,128,4,208880:0:0:0:0:
448,192,208430,128,0,208730:0:0:0:0:
320,192,208730,128,0,208880:0:0:0:0:
64,192,209030,128,2,209330:0:0:0:0:
192,192,209030,128,0,209330:0:0:0:0:
320,192,209330,1,0,0:0:0:0:
192,192,209480,1,0,0:0:0:0:
320,192,209630,128,4,209930:0:0:0:0:
448,192,209630,128,2,209930:0:0:0:0:
192,192,209930,1,0,0:0:0:0:
320,192,210080,1,0,0:0:0:0:
64,192,210230,128,0,210530:0:0:0:0:
448,192,210530,128,0,210830:0:0:0:0:
64,192,210830,1,4,0:0:0:0:
320,192,210830,1,0,0:0:0:0:
192,192,210980,1,0,0:0:0:0:
448,192,211130,128,0,211430:0:0:0:0:
64,192,211430,1,2,0:0:0:0:
192,192,211430,1,0,0:0:0:0:
320,192,211730,1,0,0:0:0:0:
64,192,212030,128,4,212480:0:0:0:0:
192,192,212030,128,2,212480:0:0:0:0:
448,192,212030,128,0,212480:0:0:0:0:
64,192,212630,128,2,213080:0:0:0:0:
192,192,212630,128,0,213080:0:0:0:0:
448,192,212630,128,0,213080:0:0:0:0:
64,192,213230,128,2,213680:0:0:0:0:
192,192,213230,128,4,213680:0:0:0:0:
448,192,213230,128,0,213680:0:0:0:0:
64,192,213830,128,2,214280:0:0:0:0:
192,192,213830,128,0,214280:0:0:0:0:
448,192,213830,128,0,214280:0:0:0:0:
64,192,214430,128,2,214880:0:0:0:0:
192,192,214430,128,4,214880:0:0:0:0:
448,192,214430,128,0,214880:0:0:0:0:
64,192,215030,128,2,215480:0:0:0:0:
192,192,215030,128,0,215480:0:0:0:0:
448,192,215030,128,0,215480:0:0:0:0:
64,192,215630,128,4,215930:0:0:0:0:
192,192,215630,128,2,215930:0:0:0:0:
448,192,215630,128,0,215780:0:0:0:0:
320,192,215930,128,0,216080:0:0:0:0:
448,192,215930,128,0,216080:0:0:0:0:
64,192,216230,128,2,216530:0:0:0:0:
192,192,216230,128,0,216530:0:0:0:0:
448,192,216230,128,0,216380:0:0:0:0:
320,192,216530,128,0,216680:0:0:0:0:
448,192,216530,128,0,216680:0:0:0:0:
64,192,216830,128,4,217130:0:0:0:0:
192,192,216830,128,2,217130:0:0:0:0:
448,192,216830,128,0,216980:0:0:0:0:
320,192,217130,128,0,217280:0:0:0:0:
448,192,217130,128,0,217280:0:0:0:0:
64,192,217430,128,2,217730:0:0:0:0:
192,192,217430,128,0,217730:0:0:0:0:
448,192,217430,128,0,217580:0:0:0:0:
320,192,217730,128,0,217880:0:0:0:0:
448,192,217730,128,0,217880:0:0:0:0:
64,192,218030,128,4,218330:0:0:0:0:
192,192,218030,128,2,218330:0:0:0:0:
448,192,218030,128,0,218180:0:0:0:0:
320,192,218330,128,0,218480:0:0:0:0:
448,192,218330,128,0,218480:0:0:0:0:
192,192,218630,128,2,218930:0:0:0:0:
448,192,218630,128,0,218930:0:0:0:0:
320,192,218930,1,0,0:0:0:0:
192,192,219080,1,0,0:0:0:0:
64,192,219230,128,4,219530:0:0:0:0:
320,192,219230,128,2,219530:0:0:0:0:
192,192,219530,1,0,0:0:0:0:
320,192,219680,1,0,0:0:0:0:
192,192,219830,128,2,220130:0:0:0:0:
448,192,219830,128,0,220130:0:0:0:0:
64,192,220130,128,0,220430:0:0:0:0:
320,192,220130,128,0,220430:0:0:0:0:
448,192,220430,1,4,0:0:0:0:
192,192,220580,1,0,0:0:0:0:
320,192,220730,1,0,0:0:0:0:
64,192,221030,1,2,0:0:0:0:
448,192,221030,1,0,0:0:0:0:
192,192,221180,1,0,0:0:0:0:
320,192,221330,1,0,0:0:0:0:
64,192,221630,1,4,0:0:0:0:
448,192,221630,1,0,0:0:0:0:
320,192,221780,1,0,0:0:0:0:
192,192,221930,1,0,0:0:0:0:
320,192,222230,1,0,0:0:0:0:
64,192,222380,1,0,0:0:0:0:
320,192,222530,1,2,0:0:0:0:
448,192,222530,1,0,0:0:0:0:
64,192,222830,1,4,0:0:0:0:
192,192,222830,1,0,0:0:0:0:
448,192,222980,1,0,0:0:0:0:
192,192,223130,1,0,0:0:0:0:
64,192,223430,1,2,0:0:0:0:
320,192,223430,1,0,0:0:0:0:
192,192,223580,1,0,0:0:0:0:
448,192,223730,1,0,0:0:0:0:
192,192,224030,1,4,0:0:0:0:
448,192,224030,1,0,0:0:0:0:
320,192,224180,1,0,0:0:0:0:
64,192,224330,1,0,0:0:0:0:
192,192,224630,1,0,0:0:0:0:
448,192,224780,1,0,0:0:0:0:
64,192,224930,1,2,0:0:0:0:
192,192,224930,1,0,0:0:0:0:
320,192,225230,1,4,0:0:0:0:
448,192,225230,1,0,0:0:0:0:
192,192,225380,1,0,0:0:0:0:
320,192,225530,1,0,0:0:0:0:
64,192,225830,1,2,0:0:0:0:
192,192,225830,1,0,0:0:0:0:
320,192,225980,1,0,0:0:0:0:
64,192,226130,1,0,0:0:0:0:
192,192,226280,1,0,0:0:0:0:
64,192,226430,1,4,0:0:0:0:
320,192,226430,1,0,0:0:0:0:
448,192,226580,1,0,0:0:0:0:
192,192,226730,1,0,0:0:0:0:
320,192,226880,1,0,0:0:0:0:
448,192,227030,1,0,0:0:0:0:
64,192,227180,1,0,0:0:0:0:
192,192,227330,1,2,0:0:0:0:
320,192,227330,1,0,0:0:0:0:
448,192,227480,1,0,0:0:0:0:
64,192,227630,1,4,0:0:0:0:
320,192,227630,1,0,0:0:0:0:
448,192,227780,1,0,0:0:0:0:
192,192,227930,1,0,0:0:0:0:
320,192,228080,1,0,0:0:0:0:
64,192,228230,128,2,228530:0:0:0:0:
448,192,228230,128,0,228530:0:0:0:0:
64,192,228830,128,4,229130:0:0:0:0:
448,192,228830,128,0,229130:0:0:0:0:
192,192,229130,1,0,0:0:0:0:
320,192,229280,1,0,0:0:0:0:
192,192,229430,1,0,0:0:0:0:
320,192,229505,1,0,0:0:0:0:
192,192,229580,1,0,0:0:0:0:
320,192,229730,1,0,0:0:0:0:
64,192,229880,1,2,0:0:0:0:
320,192,229880,1,0,0:0:0:0:
192,192,230030,128,0,230330:0:0:0:0:
448,192,230330,128,0,230630:0:0:0:0:
64,192,230630,1,0,0:0:0:0:
320,192,230630,1,0,0:0:0:0:
192,192,230780,1,0,0:0:0:0:
448,192,230930,1,0,0:0:0:0:
320,192,231080,1,0,0:0:0:0:
64,192,231230,1,4,0:0:0:0:
192,192,231230,1,0,0:0:0:0:
320,192,231380,1,0,0:0:0:0:
64,192,231530,128,0,231830:0:0:0:0:
64,192,233030,1,0,0:0:0:0:
320,192,233030,1,0,0:0:0:0:
192,192,233180,1,0,0:0:0:0:
448,192,233330,1,0,0:0:0:0:
320,192,233480,1,0,0:0:0:0:
64,192,233630,1,4,0:0:0:0:
192,192,233630,1,0,0:0:0:0:
320,192,233780,1,0,0:0:0:0:
64,192,233930,128,0,234230:0:0:0:0:
64,192,235430,1,0,0:0:0:0:
320,192,235430,1,0,0:0:0:0:
192,192,235580,1,0,0:0:0:0:
448,192,235730,1,0,0:0:0:0:
320,192,235880,1,0,0:0:0:0:
64,192,236030,1,4,0:0:0:0:
192,192,236030,1,0,0:0:0:0:
320,192,236180,1,0,0:0:0:0:
64,192,236330,128,0,236630:0:0:0:0:
64,192,237830,1,0,0:0:0:0:
320,192,237830,1,0,0:0:0:0:
192,192,237980,1,0,0:0:0:0:
448,192,238130,1,0,0:0:0:0:
320,192,238280,1,0,0:0:0:0:
64,192,238430,1,4,0:0:0:0:
192,192,238430,1,0,0:0:0:0:
320,192,238580,1,0,0:0:0:0:
64,192,238730,128,0,239030:0:0:0:0:
448,192,239030,1,0,0:0:0:0:
448,192,239180,1,0,0:0:0:0:
192,192,239330,1,0,0:0:0:0:
192,192,239480,1,0,0:0:0:0:
448,192,239630,1,0,0:0:0:0:
448,192,239780,1,0,0:0:0:0:
192,192,239930,1,0,0:0:0:0:
192,192,240080,1,0,0:0:0:0:
320,192,240230,128,0,245030:0:0:0:0:
