osu file format v14

[General]
AudioFilename: audio.mp3
AudioLeadIn: 0
PreviewTime: 77255
Countdown: 0
SampleSet: Soft
StackLeniency: 0.7
Mode: 3
LetterboxInBreaks: 0
SpecialStyle: 0
WidescreenStoryboard: 0

[Editor]
DistanceSpacing: 0.8
BeatDivisor: 8
GridSize: 32
TimelineZoom: 1.7

[Metadata]
Title:NULCTRL EX
TitleUnicode:NULCTRL EX
Artist:Silentroom
ArtistUnicode:Silentroom
Creator:-mint-
Version:MOTION
Source:
Tags:electronic instrumental bms frenz2018 g2r2018 climax null control dont stop to the club go silent groundbreaking rainbow frontier famoss qqqant
BeatmapID:2272395
BeatmapSetID:1086666

[Difficulty]
HPDrainRate:8.5
CircleSize:4
OverallDifficulty:8.3
ApproachRate:5
SliderMultiplier:1.4
SliderTickRate:1

[Events]
//Background and Video events
0,0,"bg.jpg",0,0
//Break Periods
//Storyboard Layer 0 (Background)
//Storyboard Layer 1 (Fail)
//Storyboard Layer 2 (Pass)
//Storyboard Layer 3 (Foreground)
//Storyboard Layer 4 (Overlay)
//Storyboard Sound Samples

[TimingPoints]
455,600,4,2,1,70,1,0
38855,-100,4,2,1,70,0,1
46055,-100,4,2,1,70,0,0
48455,-100,4,2,1,70,0,1
55655,-100,4,2,1,70,0,0
60455,-100,4,2,1,70,0,1
65255,-100,4,2,1,70,0,0
77255,-100,4,2,1,70,0,1
84455,-100,4,2,1,70,0,0
86855,-100,4,2,1,70,0,1
94055,-100,4,2,1,70,0,0
98855,-100,4,2,1,70,0,1
103655,-100,4,2,1,70,0,0
120455,-100,4,2,1,50,0,0
134855,-100,4,2,1,70,0,0
192455,-100,4,2,1,70,0,1
199655,-100,4,2,1,70,0,0
202055,-100,4,2,1,70,0,1
209255,-100,4,2,1,70,0,0
212255,-100,4,2,1,70,0,1
218855,-100,4,2,1,70,0,0

[HitObjects]
448,192,455,128,0,680:0:0:0:0:
64,192,455,128,0,605:0:0:0:100:bbx1_peer_mixed.wav
192,192,605,1,0,0:0:0:0:
320,192,680,1,0,0:0:0:0:
64,192,755,1,0,0:0:0:0:
448,192,905,1,0,0:0:0:0:
320,192,1055,1,0,0:0:0:0:
192,192,1055,1,0,0:0:0:100:bbx2_3+4.wav
192,192,1205,1,0,0:0:0:0:
448,192,1355,128,0,1580:0:0:0:0:
448,192,2855,128,0,3080:0:0:0:0:
64,192,2855,128,0,3005:0:0:0:100:bbx1_peer_mixed.wav
192,192,3005,1,0,0:0:0:0:
320,192,3080,1,0,0:0:0:0:
64,192,3155,1,0,0:0:0:0:
448,192,3305,1,0,0:0:0:0:
320,192,3455,1,0,0:0:0:0:
192,192,3455,1,0,0:0:0:100:bbx2_3+4.wav
192,192,3605,1,0,0:0:0:0:
448,192,3755,128,0,3980:0:0:0:0:
448,192,5255,128,0,5480:0:0:0:0:
64,192,5255,128,0,5405:0:0:0:100:bbx1_peer_mixed.wav
192,192,5405,1,0,0:0:0:0:
320,192,5480,1,0,0:0:0:0:
64,192,5555,1,0,0:0:0:0:
448,192,5705,1,0,0:0:0:0:
320,192,5855,1,0,0:0:0:0:
192,192,5855,1,0,0:0:0:100:bbx2_3+4.wav
192,192,6005,1,0,0:0:0:0:
448,192,6155,128,0,6380:0:0:0:0:
448,192,7655,128,0,7880:0:0:0:0:
64,192,7655,128,0,7805:0:0:0:100:bbx1_peer_mixed.wav
192,192,7805,1,0,0:0:0:0:
320,192,7880,1,0,0:0:0:0:
64,192,7955,1,0,0:0:0:0:
448,192,8105,1,0,0:0:0:0:
320,192,8255,1,0,0:0:0:0:
192,192,8255,1,0,0:0:0:100:bbx2_3+4.wav
192,192,8405,1,0,0:0:0:0:
448,192,8555,128,0,8780:0:0:0:0:
64,192,8855,1,0,0:0:0:100:fillkit_001.ogg
64,192,9005,1,0,0:0:0:100:fillkit_001.ogg
64,192,9155,1,0,0:0:0:100:fillkit_001.ogg
64,192,9305,1,0,0:0:0:100:fillkit_001.ogg
448,192,9455,1,0,0:0:0:100:fillkit_001.ogg
448,192,9605,1,0,0:0:0:100:fillkit_001.ogg
448,192,9755,1,0,0:0:0:100:fillkit_001.ogg
192,192,9830,1,0,0:0:0:0:
448,192,9905,1,0,0:0:0:100:fillkit_001.ogg
192,192,9980,1,0,0:0:0:0:
448,192,10055,128,0,10280:0:0:0:0:
64,192,10055,128,0,10205:0:0:0:100:bbx1_peer_mixed.wav
192,192,10205,1,0,0:0:0:0:
320,192,10280,1,0,0:0:0:0:
64,192,10355,1,0,0:0:0:0:
448,192,10505,1,0,0:0:0:0:
320,192,10655,1,0,0:0:0:0:
192,192,10655,1,0,0:0:0:100:bbx2_3+4.wav
192,192,10805,1,0,0:0:0:0:
448,192,10955,1,0,0:0:0:0:
64,192,11105,1,0,0:0:0:0:
448,192,11255,1,0,0:0:0:0:
192,192,11405,1,0,0:0:0:0:
192,192,11555,128,0,11705:0:0:0:0:
448,192,11705,1,0,0:0:0:0:
64,192,11855,1,0,0:0:0:0:
192,192,12005,1,0,0:0:0:0:
448,192,12155,1,0,0:0:0:0:
320,192,12305,1,0,0:0:0:0:
448,192,12455,128,0,12680:0:0:0:0:
64,192,12455,128,0,12605:0:0:0:100:bbx1_peer_mixed.wav
192,192,12605,1,0,0:0:0:0:
320,192,12680,1,0,0:0:0:0:
64,192,12755,1,0,0:0:0:0:
448,192,12905,1,0,0:0:0:0:
320,192,13055,1,0,0:0:0:0:
192,192,13055,1,0,0:0:0:100:bbx2_3+4.wav
192,192,13205,1,0,0:0:0:0:
448,192,13355,1,0,0:0:0:0:
64,192,13505,1,0,0:0:0:0:
448,192,13655,1,0,0:0:0:0:
192,192,13805,1,0,0:0:0:0:
192,192,13955,128,0,14105:0:0:0:0:
448,192,14105,1,0,0:0:0:0:
64,192,14255,1,0,0:0:0:0:
192,192,14405,1,0,0:0:0:0:
448,192,14555,1,0,0:0:0:0:
192,192,14630,1,0,0:0:0:0:
448,192,14705,1,0,0:0:0:0:
192,192,14780,1,0,0:0:0:0:
448,192,14855,128,0,15080:0:0:0:0:
64,192,14855,128,0,15005:0:0:0:100:bbx1_peer_mixed.wav
192,192,15005,1,0,0:0:0:0:
320,192,15080,1,0,0:0:0:0:
64,192,15155,1,0,0:0:0:0:
448,192,15305,1,0,0:0:0:0:
320,192,15455,1,0,0:0:0:0:
192,192,15455,1,0,0:0:0:100:bbx2_3+4.wav
192,192,15605,1,0,0:0:0:0:
448,192,15755,1,0,0:0:0:0:
64,192,15905,1,0,0:0:0:0:
448,192,16055,1,0,0:0:0:0:
192,192,16205,1,0,0:0:0:0:
192,192,16355,128,0,16505:0:0:0:0:
448,192,16505,1,0,0:0:0:0:
64,192,16655,1,0,0:0:0:0:
192,192,16805,1,0,0:0:0:0:
448,192,16955,1,0,0:0:0:0:
320,192,17105,1,0,0:0:0:0:
448,192,17255,1,0,0:0:0:0:
64,192,17255,1,0,0:0:0:100:bbx1_peer_mixed.wav
192,192,17405,1,0,0:0:0:0:
64,192,17555,1,0,0:0:0:0:
320,192,17855,1,0,0:0:0:0:
192,192,17855,1,0,0:0:0:100:bbx2_3+4.wav
192,192,18005,1,0,0:0:0:0:
448,192,18155,1,0,0:0:0:100:fillkit_003.ogg
64,192,18455,1,0,0:0:0:0:
192,192,18492,1,0,0:0:0:0:
320,192,18530,1,0,0:0:0:0:
448,192,18567,1,0,0:0:0:0:
64,192,18605,1,0,0:0:0:0:
320,192,18755,1,0,0:0:0:0:
448,192,18792,1,0,0:0:0:0:
320,192,18905,1,0,0:0:0:0:
448,192,18942,1,0,0:0:0:0:
64,192,19055,1,0,0:0:0:0:
192,192,19092,1,0,0:0:0:0:
64,192,19205,1,0,0:0:0:0:
192,192,19242,1,0,0:0:0:0:
448,192,19355,1,0,0:0:0:0:
320,192,19392,1,0,0:0:0:0:
448,192,19505,1,0,0:0:0:0:
320,192,19542,1,0,0:0:0:0:
192,192,19580,1,0,0:0:0:0:
64,192,19617,1,0,0:0:0:0:
448,192,19655,128,0,19955:0:0:0:0:
320,192,19655,128,2,19805:0:0:0:0:
64,192,19955,1,0,0:0:0:0:
320,192,20255,1,0,0:0:0:0:
192,192,20405,1,0,0:0:0:0:
192,192,20555,128,0,20705:0:0:0:0:
64,192,20555,128,2,20855:0:0:0:0:
448,192,20855,1,0,0:0:0:0:
448,192,21155,1,0,0:0:0:0:
64,192,21455,128,0,21605:0:0:0:0:
320,192,21755,1,0,0:0:0:0:
192,192,21905,1,0,0:0:0:0:
320,192,22055,1,0,0:0:0:0:
192,192,22205,1,0,0:0:0:0:
64,192,22355,128,0,22505:0:0:0:0:
448,192,22655,1,0,0:0:0:0:
448,192,22955,128,0,23255:0:0:0:0:
320,192,22955,128,2,23105:0:0:0:0:
192,192,23105,1,0,0:0:0:0:
64,192,23255,128,0,23405:0:0:0:0:
448,192,23555,1,0,0:0:0:0:
320,192,23855,1,0,0:0:0:0:
192,192,24005,1,0,0:0:0:0:
448,192,24155,1,0,0:0:0:0:
320,192,24155,1,2,0:0:0:0:
448,192,24305,1,0,0:0:0:0:
320,192,24305,1,2,0:0:0:0:
192,192,24455,128,0,24605:0:0:0:0:
64,192,24455,128,2,24755:0:0:0:0:
448,192,24755,1,0,0:0:0:0:
192,192,25055,1,0,0:0:0:0:
320,192,25205,1,0,0:0:0:0:
448,192,25355,128,0,25655:0:0:0:0:
320,192,25355,128,2,25505:0:0:0:0:
64,192,25655,1,0,0:0:0:0:
64,192,25955,1,0,0:0:0:0:
448,192,26255,128,0,26405:0:0:0:0:
192,192,26555,1,0,0:0:0:0:
320,192,26705,1,0,0:0:0:0:
192,192,26855,1,0,0:0:0:0:
320,192,27005,1,0,0:0:0:0:
448,192,27155,128,0,27305:0:0:0:0:
64,192,27455,1,0,0:0:0:0:
192,192,27755,1,0,0:0:0:0:
320,192,27905,1,0,0:0:0:0:
448,192,28055,128,0,28205:0:0:0:0:
64,192,28355,1,0,0:0:0:0:
192,192,28655,1,0,0:0:0:0:
320,192,28805,1,0,0:0:0:0:
448,192,28955,1,0,0:0:0:0:
64,192,28955,1,2,0:0:0:0:
64,192,29105,1,0,0:0:0:0:
448,192,29255,1,0,0:0:0:0:
320,192,29255,1,2,0:0:0:0:
320,192,29405,1,0,0:0:0:0:
192,192,29555,1,0,0:0:0:0:
320,192,29705,1,0,0:0:0:0:
192,192,29855,1,0,0:0:0:0:
64,192,29855,1,2,0:0:0:0:
64,192,30005,1,0,0:0:0:0:
320,192,30155,1,0,0:0:0:0:
192,192,30305,1,0,0:0:0:0:
448,192,30455,1,0,0:0:0:0:
320,192,30455,1,2,0:0:0:0:
448,192,30605,1,0,0:0:0:0:
64,192,30755,1,0,0:0:0:0:
320,192,30905,1,0,0:0:0:0:
192,192,31055,1,0,0:0:0:0:
64,192,31055,1,2,0:0:0:0:
192,192,31205,1,0,0:0:0:0:
448,192,31355,1,0,0:0:0:0:
64,192,31505,1,0,0:0:0:0:
448,192,31655,1,0,0:0:0:0:
320,192,31655,1,2,0:0:0:0:
192,192,31805,1,0,0:0:0:0:
320,192,31955,1,0,0:0:0:0:
192,192,32105,1,0,0:0:0:0:
448,192,32255,1,0,0:0:0:0:
320,192,32255,1,2,0:0:0:0:
448,192,32405,1,0,0:0:0:0:
64,192,32555,1,0,0:0:0:0:
192,192,32705,1,0,0:0:0:0:
448,192,32855,1,0,0:0:0:0:
320,192,32855,1,2,0:0:0:0:
192,192,33005,1,0,0:0:0:0:
320,192,33155,1,0,0:0:0:0:
64,192,33305,1,0,0:0:0:0:
448,192,33455,1,0,0:0:0:0:
320,192,33455,1,2,0:0:0:0:
448,192,33605,1,0,0:0:0:0:
448,192,33755,1,0,0:0:0:0:
448,192,33905,1,0,0:0:0:0:
192,192,34055,1,0,0:0:0:0:
64,192,34055,1,2,0:0:0:0:
320,192,34130,1,0,0:0:0:0:
192,192,34205,1,0,0:0:0:0:
320,192,34280,1,0,0:0:0:0:
64,192,34355,1,0,0:0:0:0:
448,192,34430,1,0,0:0:0:0:
64,192,34505,1,0,0:0:0:0:
448,192,34580,1,0,0:0:0:0:
320,192,34655,1,0,0:0:0:0:
192,192,34730,1,0,0:0:0:0:
320,192,34805,1,0,0:0:0:0:
192,192,34880,1,0,0:0:0:0:
448,192,34955,1,0,0:0:0:0:
64,192,35030,1,0,0:0:0:0:
320,192,35105,1,0,0:0:0:0:
64,192,35180,1,0,0:0:0:0:
448,192,35255,1,0,0:0:0:0:
192,192,35330,1,0,0:0:0:0:
448,192,35405,1,0,0:0:0:0:
192,192,35480,1,0,0:0:0:0:
320,192,35555,1,0,0:0:0:0:
64,192,35630,1,0,0:0:0:0:
448,192,35705,1,0,0:0:0:0:
64,192,35780,1,0,0:0:0:0:
192,192,35855,1,0,0:0:0:0:
320,192,35930,1,0,0:0:0:0:
64,192,36005,1,0,0:0:0:0:
320,192,36080,1,0,0:0:0:0:
192,192,36155,1,0,0:0:0:0:
448,192,36230,1,0,0:0:0:0:
192,192,36305,1,0,0:0:0:0:
320,192,36380,1,0,0:0:0:0:
64,192,36455,1,0,0:0:0:0:
64,192,36605,1,0,0:0:0:0:
64,192,36755,1,0,0:0:0:0:
64,192,36905,1,0,0:0:0:0:
448,192,37055,128,0,37205:0:0:0:0:
320,192,37355,1,0,0:0:0:0:
192,192,37505,1,0,0:0:0:0:
448,192,37655,128,0,37805:0:0:0:0:
64,192,37955,1,0,0:0:0:0:
448,192,38255,128,0,38305:0:0:0:0:
320,192,38255,128,0,38330:0:0:0:0:
192,192,38255,128,0,38305:0:0:0:100:fillkit_012.ogg
192,192,38555,1,0,0:0:0:0:
64,192,38555,1,2,0:0:0:0:
448,192,38855,128,0,39155:0:0:0:0:
192,192,38855,128,0,39080:0:0:0:0:
64,192,38855,128,2,39005:0:0:0:0:
320,192,39155,1,0,0:0:0:0:
448,192,39455,1,2,0:0:0:0:
64,192,39455,1,8,0:0:0:0:
192,192,39605,128,0,39905:0:0:0:0:
448,192,39755,128,0,39905:0:0:0:0:
64,192,39905,1,0,0:0:0:0:
192,192,40055,1,0,0:0:0:0:
64,192,40055,1,2,0:0:0:0:
320,192,40205,128,0,40280:0:0:0:0:
64,192,40355,1,0,0:0:0:0:
448,192,40430,1,0,0:0:0:0:
320,192,40505,128,0,40580:0:0:0:0:
192,192,40580,1,0,0:0:0:0:
448,192,40655,1,2,0:0:0:0:
64,192,40655,1,8,0:0:0:0:
448,192,40805,1,0,0:0:0:0:
192,192,40955,128,0,41030:0:0:0:0:
448,192,41055,1,0,0:0:0:0:
64,192,41105,1,0,0:0:0:0:
448,192,41255,128,0,41405:0:0:0:0:
320,192,41255,128,0,41480:0:0:0:0:
64,192,41255,128,2,41555:0:0:0:0:
192,192,41555,1,0,0:0:0:0:
448,192,41855,1,2,0:0:0:0:
64,192,41855,1,8,0:0:0:0:
320,192,42005,128,0,42305:0:0:0:0:
64,192,42155,128,0,42305:0:0:0:0:
448,192,42305,1,0,0:0:0:0:
448,192,42455,1,0,0:0:0:0:
320,192,42455,1,2,0:0:0:0:
192,192,42605,128,0,42680:0:0:0:0:
448,192,42755,1,0,0:0:0:0:
64,192,42830,1,0,0:0:0:0:
192,192,42905,128,0,42980:0:0:0:0:
320,192,42980,1,0,0:0:0:0:
448,192,43055,1,2,0:0:0:0:
64,192,43055,1,8,0:0:0:0:
320,192,43205,1,0,0:0:0:0:
320,192,43355,128,0,43655:0:0:0:0:
448,192,43505,1,0,0:0:0:0:
448,192,43655,128,0,43955:0:0:0:0:
192,192,43655,128,0,43880:0:0:0:0:
64,192,43655,128,2,43805:0:0:0:0:
320,192,43955,128,0,44030:0:0:0:0:
192,192,44030,128,0,44105:0:0:0:0:
320,192,44105,128,0,44180:0:0:0:0:
192,192,44180,128,0,44255:0:0:0:0:
448,192,44255,1,2,0:0:0:0:
64,192,44255,1,8,0:0:0:0:
192,192,44405,128,0,44705:0:0:0:0:
448,192,44555,128,0,44705:0:0:0:0:
64,192,44705,1,0,0:0:0:0:
192,192,44855,1,0,0:0:0:0:
64,192,44855,1,2,0:0:0:0:
320,192,45005,128,0,45155:0:0:0:0:
64,192,45155,1,0,0:0:0:0:
448,192,45230,1,0,0:0:0:0:
320,192,45305,128,0,45455:0:0:0:0:
192,192,45380,1,0,0:0:0:0:
448,192,45455,1,2,0:0:0:0:
64,192,45455,1,8,0:0:0:0:
192,192,45605,1,0,0:0:0:0:
192,192,45755,128,0,46055:0:0:0:0:
64,192,45905,1,0,0:0:0:0:
448,192,46055,128,0,46355:0:0:0:0:
320,192,46055,128,0,46505:0:0:0:0:
64,192,46055,128,2,46205:0:0:0:0:
448,192,46655,128,0,46955:0:0:0:0:
320,192,46655,128,0,47105:0:0:0:0:
64,192,46655,1,2,0:0:0:0:
64,192,46805,128,0,46955:0:0:0:0:
192,192,46955,128,0,47105:0:0:0:0:
448,192,47105,1,0,0:0:0:0:
448,192,47255,128,0,47555:0:0:0:0:
320,192,47255,128,0,47555:0:0:0:0:
64,192,47255,128,2,47405:0:0:0:0:
192,192,47555,128,0,47755:0:0:0:0:
64,192,47605,128,0,47855:0:0:0:0:
320,192,47855,1,0,0:0:0:0:
192,192,48005,1,0,0:0:0:0:
448,192,48155,128,0,48305:0:0:0:0:
448,192,48455,128,0,48755:0:0:0:0:
192,192,48455,128,0,48680:0:0:0:0:
64,192,48455,128,2,48605:0:0:0:0:
320,192,48755,1,0,0:0:0:0:
192,192,48955,1,0,0:0:0:0:
448,192,49055,1,8,0:0:0:0:
448,192,49355,128,0,49430:0:0:0:0:
64,192,49505,1,0,0:0:0:0:
320,192,49555,1,0,0:0:0:0:
192,192,49655,1,0,0:0:0:0:
320,192,49805,128,0,49880:0:0:0:0:
64,192,49855,1,0,0:0:0:0:
192,192,49955,1,0,0:0:0:0:
448,192,50030,1,0,0:0:0:0:
320,192,50105,128,0,50180:0:0:0:0:
192,192,50180,1,0,0:0:0:0:
448,192,50255,1,2,0:0:0:0:
64,192,50255,1,8,0:0:0:0:
448,192,50405,1,0,0:0:0:0:
192,192,50555,128,0,50630:0:0:0:0:
320,192,50705,1,0,0:0:0:0:
448,192,50855,128,0,51005:0:0:0:0:
320,192,50855,128,0,51080:0:0:0:0:
64,192,50855,128,2,51155:0:0:0:0:
192,192,51155,1,0,0:0:0:0:
448,192,51455,1,2,0:0:0:0:
64,192,51455,1,8,0:0:0:0:
192,192,51605,1,0,0:0:0:0:
320,192,51655,1,0,0:0:0:0:
64,192,51755,128,0,51830:0:0:0:0:
448,192,51905,1,0,0:0:0:0:
192,192,51955,1,0,0:0:0:0:
448,192,52055,1,0,0:0:0:0:
320,192,52055,1,2,0:0:0:0:
192,192,52205,128,0,52280:0:0:0:0:
448,192,52355,1,0,0:0:0:0:
64,192,52430,1,0,0:0:0:0:
192,192,52505,128,0,52580:0:0:0:0:
320,192,52580,1,0,0:0:0:0:
448,192,52655,1,2,0:0:0:0:
64,192,52655,1,8,0:0:0:0:
64,192,52805,128,0,53105:0:0:0:0:
320,192,52955,128,0,53030:0:0:0:0:
192,192,53105,1,0,0:0:0:0:
192,192,53255,1,0,0:0:0:0:
64,192,53255,1,2,0:0:0:0:
320,192,53405,128,0,53505:0:0:0:0:
320,192,53555,128,0,53655:0:0:0:0:
320,192,53705,128,0,53805:0:0:0:0:
448,192,53855,1,2,0:0:0:0:
64,192,53855,1,8,0:0:0:0:
192,192,54005,1,0,0:0:0:0:
448,192,54155,128,0,54305:0:0:0:0:
64,192,54230,1,0,0:0:0:0:
320,192,54305,1,0,0:0:0:0:
192,192,54380,1,0,0:0:0:0:
448,192,54455,1,0,0:0:0:0:
320,192,54455,1,2,0:0:0:0:
320,192,54605,128,0,54755:0:0:0:0:
64,192,54755,1,0,0:0:0:0:
448,192,54830,1,0,0:0:0:0:
320,192,54905,128,0,55055:0:0:0:0:
192,192,54980,1,0,0:0:0:0:
448,192,55055,128,2,55280:0:0:0:0:
64,192,55055,1,8,0:0:0:0:
320,192,55205,1,0,0:0:0:0:
192,192,55355,128,0,55505:0:0:0:0:
448,192,55505,1,0,0:0:0:0:
448,192,55655,128,0,55805:0:0:0:0:
320,192,55655,128,0,55805:0:0:0:0:
64,192,55655,128,2,55955:0:0:0:0:
192,192,55955,1,0,0:0:0:0:
448,192,56030,1,0,0:0:0:0:
64,192,56105,1,0,0:0:0:0:
320,192,56180,1,0,0:0:0:0:
448,192,56255,128,0,56555:0:0:0:0:
64,192,56255,128,8,56405:0:0:0:0:
192,192,56255,128,2,56405:0:0:0:0:
320,192,56555,1,0,0:0:0:0:
64,192,56630,1,0,0:0:0:0:
448,192,56705,1,0,0:0:0:0:
192,192,56780,1,0,0:0:0:0:
320,192,56855,128,0,57005:0:0:0:0:
64,192,56855,128,0,57155:0:0:0:0:
192,192,57155,1,0,0:0:0:0:
448,192,57230,1,0,0:0:0:0:
64,192,57305,1,0,0:0:0:0:
192,192,57380,1,0,0:0:0:0:
320,192,57455,1,8,0:0:0:0:
192,192,57605,1,0,0:0:0:0:
448,192,57755,128,0,57905:0:0:0:0:
64,192,58055,128,0,58505:0:0:0:0:
192,192,58355,1,0,0:0:0:0:
448,192,58405,1,0,0:0:0:0:
448,192,58655,1,0,0:0:0:0:
64,192,58655,128,8,58955:0:0:0:0:
320,192,58805,1,0,0:0:0:0:
448,192,58955,128,0,59030:0:0:0:0:
192,192,59105,128,0,59255:0:0:0:0:
64,192,59255,1,0,0:0:0:0:
320,192,59405,128,0,59480:0:0:0:0:
64,192,59555,1,0,0:0:0:0:
448,192,59630,1,0,0:0:0:0:
320,192,59705,128,0,59780:0:0:0:0:
192,192,59780,1,0,0:0:0:0:
448,192,59855,1,2,0:0:0:0:
64,192,59855,1,8,0:0:0:0:
320,192,60005,1,0,0:0:0:0:
192,192,60155,128,0,60230:0:0:0:0:
448,192,60305,1,0,0:0:0:0:
448,192,60455,128,0,60605:0:0:0:0:
320,192,60455,128,0,60680:0:0:0:0:
64,192,60455,128,2,60755:0:0:0:0:
192,192,60755,1,0,0:0:0:0:
448,192,61055,1,2,0:0:0:0:
64,192,61055,1,8,0:0:0:0:
320,192,61205,128,0,61505:0:0:0:0:
64,192,61355,128,0,61430:0:0:0:0:
448,192,61505,1,0,0:0:0:0:
448,192,61655,1,0,0:0:0:0:
320,192,61655,1,2,0:0:0:0:
192,192,61805,128,0,61880:0:0:0:0:
320,192,61955,1,0,0:0:0:0:
192,192,62105,128,0,62180:0:0:0:0:
448,192,62255,1,2,0:0:0:0:
64,192,62255,1,8,0:0:0:0:
320,192,62330,1,0,0:0:0:0:
192,192,62405,1,0,0:0:0:0:
64,192,62480,1,0,0:0:0:0:
448,192,62555,1,0,0:0:0:0:
320,192,62655,1,0,0:0:0:0:
320,192,62755,1,0,0:0:0:0:
192,192,62855,1,0,0:0:0:0:
64,192,62855,1,2,0:0:0:0:
448,192,62955,128,0,63055:0:0:0:0:
64,192,63055,128,0,63155:0:0:0:0:
448,192,63155,128,0,63255:0:0:0:0:
192,192,63255,128,0,63355:0:0:0:0:
320,192,63355,128,0,63455:0:0:0:0:
448,192,63455,1,2,0:0:0:0:
64,192,63455,1,8,0:0:0:0:
192,192,63605,1,0,0:0:0:0:
448,192,63755,128,0,63905:0:0:0:0:
64,192,63905,1,0,0:0:0:0:
448,192,64055,1,0,0:0:0:0:
320,192,64055,1,2,0:0:0:0:
320,192,64205,128,0,64355:0:0:0:0:
64,192,64355,1,0,0:0:0:0:
448,192,64430,1,0,0:0:0:0:
320,192,64505,128,0,64655:0:0:0:0:
192,192,64580,1,0,0:0:0:0:
448,192,64655,1,2,0:0:0:0:
64,192,64655,1,8,0:0:0:0:
192,192,64805,1,0,0:0:0:0:
192,192,64955,128,0,65105:0:0:0:0:
448,192,65105,1,0,0:0:0:0:
448,192,65255,128,0,65405:0:0:0:0:
320,192,65255,128,0,65555:0:0:0:0:
64,192,65255,128,2,65405:0:0:0:0:
192,192,65555,1,0,0:0:0:0:
448,192,65855,128,0,66005:0:0:0:0:
320,192,65855,128,8,66155:0:0:0:0:
64,192,65855,1,2,0:0:0:0:
64,192,66005,128,0,66155:0:0:0:0:
192,192,66155,128,0,66305:0:0:0:0:
448,192,66305,1,0,0:0:0:0:
448,192,66455,128,0,66755:0:0:0:0:
320,192,66455,128,0,66755:0:0:0:0:
64,192,66455,128,2,66605:0:0:0:0:
192,192,66755,128,0,66955:0:0:0:0:
64,192,66805,128,0,67055:0:0:0:0:
448,192,67055,1,8,0:0:0:0:
320,192,67092,1,0,0:0:0:0:
192,192,67130,1,0,0:0:0:0:
64,192,67167,1,0,0:0:0:0:
448,192,67205,1,0,0:0:0:0:
192,192,67355,1,0,0:0:0:0:
64,192,67392,1,0,0:0:0:0:
192,192,67505,1,0,0:0:0:0:
64,192,67542,1,0,0:0:0:0:
448,192,67655,1,0,0:0:0:0:
320,192,67655,1,2,0:0:0:0:
320,192,67805,1,0,0:0:0:0:
64,192,67955,1,0,0:0:0:0:
448,192,68255,1,0,0:0:0:0:
192,192,68255,1,8,0:0:0:0:
192,192,68405,1,0,0:0:0:0:
448,192,68555,1,0,0:0:0:0:
320,192,68855,1,0,0:0:0:0:
320,192,69005,1,0,0:0:0:0:
192,192,69155,1,0,0:0:0:0:
64,192,69155,1,2,0:0:0:0:
448,192,69455,1,0,0:0:0:0:
192,192,69455,1,8,0:0:0:0:
192,192,69605,1,0,0:0:0:0:
448,192,69755,1,0,0:0:0:0:
192,192,70055,1,0,0:0:0:0:
64,192,70055,1,2,0:0:0:0:
192,192,70205,1,0,0:0:0:0:
448,192,70355,1,0,0:0:0:0:
320,192,70655,1,0,0:0:0:0:
64,192,70655,1,8,0:0:0:0:
320,192,70805,1,0,0:0:0:0:
64,192,70955,1,0,0:0:0:0:
192,192,71255,1,0,0:0:0:0:
192,192,71405,1,0,0:0:0:0:
448,192,71555,1,0,0:0:0:0:
320,192,71555,1,2,0:0:0:0:
320,192,71855,1,0,0:0:0:0:
64,192,71855,1,8,0:0:0:0:
320,192,72005,1,0,0:0:0:0:
64,192,72155,128,0,72380:0:0:0:0:
448,192,72455,1,0,0:0:0:0:
320,192,72455,1,2,0:0:0:0:
320,192,72605,1,0,0:0:0:0:
192,192,72755,1,0,0:0:0:0:
192,192,72905,1,0,0:0:0:0:
448,192,73055,1,0,0:0:0:0:
64,192,73055,1,8,0:0:0:0:
448,192,73205,1,0,0:0:0:0:
64,192,73355,1,0,0:0:0:0:
64,192,73505,1,0,0:0:0:0:
448,192,73655,1,0,0:0:0:0:
448,192,73805,1,0,0:0:0:0:
192,192,73955,1,0,0:0:0:0:
64,192,73955,1,2,0:0:0:0:
192,192,74105,1,0,0:0:0:0:
320,192,74255,1,0,0:0:0:0:
64,192,74255,1,8,0:0:0:0:
320,192,74405,1,0,0:0:0:0:
192,192,74555,1,0,0:0:0:0:
192,192,74705,1,0,0:0:0:0:
448,192,74855,128,0,75005:0:0:0:0:
320,192,74855,128,0,75080:0:0:0:0:
64,192,74855,128,2,75155:0:0:0:0:
192,192,75155,1,0,0:0:0:0:
448,192,75455,128,0,75755:0:0:0:0:
192,192,75455,128,8,75680:0:0:0:0:
64,192,75455,128,2,75605:0:0:0:0:
320,192,75755,1,0,0:0:0:0:
192,192,75905,1,0,0:0:0:0:
448,192,76055,1,0,0:0:0:0:
320,192,76092,1,0,0:0:0:0:
192,192,76130,1,0,0:0:0:0:
64,192,76167,1,0,0:0:0:0:
448,192,76205,1,0,0:0:0:0:
192,192,76355,1,0,0:0:0:0:
64,192,76392,1,0,0:0:0:0:
192,192,76505,1,0,0:0:0:0:
64,192,76542,1,0,0:0:0:0:
320,192,76655,1,0,0:0:0:0:
448,192,76692,1,0,0:0:0:0:
320,192,76805,1,0,0:0:0:0:
448,192,76842,1,0,0:0:0:0:
64,192,76955,1,0,0:0:0:0:
192,192,76992,1,0,0:0:0:0:
64,192,77105,1,0,0:0:0:0:
192,192,77142,1,0,0:0:0:0:
320,192,77180,1,0,0:0:0:0:
448,192,77217,1,0,0:0:0:0:
192,192,77255,128,0,77480:0:0:0:0:
64,192,77255,128,2,77555:0:0:0:0:
320,192,77555,1,0,0:0:0:0:
448,192,77855,1,2,0:0:0:0:
64,192,77855,1,8,0:0:0:0:
192,192,78005,128,0,78305:0:0:0:0:
448,192,78155,128,0,78305:0:0:0:0:
64,192,78305,1,0,0:0:0:0:
192,192,78455,1,0,0:0:0:0:
64,192,78455,1,2,0:0:0:0:
320,192,78605,128,0,78680:0:0:0:0:
192,192,78680,1,0,0:0:0:0:
64,192,78755,1,0,0:0:0:0:
448,192,78830,1,0,0:0:0:0:
320,192,78905,128,0,78980:0:0:0:0:
192,192,78980,1,0,0:0:0:0:
448,192,79055,1,2,0:0:0:0:
64,192,79055,1,8,0:0:0:0:
448,192,79205,1,0,0:0:0:0:
320,192,79280,1,0,0:0:0:0:
192,192,79355,128,0,79430:0:0:0:0:
448,192,79455,1,0,0:0:0:0:
64,192,79505,1,0,0:0:0:0:
192,192,79580,1,0,0:0:0:0:
448,192,79655,128,0,79805:0:0:0:0:
320,192,79655,128,0,79880:0:0:0:0:
64,192,79655,128,2,79955:0:0:0:0:
192,192,79955,1,0,0:0:0:0:
448,192,80255,1,2,0:0:0:0:
64,192,80255,1,8,0:0:0:0:
320,192,80405,128,0,80705:0:0:0:0:
64,192,80555,128,0,80705:0:0:0:0:
448,192,80705,1,0,0:0:0:0:
448,192,80855,1,0,0:0:0:0:
320,192,80855,1,2,0:0:0:0:
192,192,81005,128,0,81080:0:0:0:0:
320,192,81080,1,0,0:0:0:0:
448,192,81155,1,0,0:0:0:0:
64,192,81230,1,0,0:0:0:0:
192,192,81305,128,0,81380:0:0:0:0:
320,192,81380,1,0,0:0:0:0:
448,192,81455,1,2,0:0:0:0:
64,192,81455,1,8,0:0:0:0:
320,192,81605,1,0,0:0:0:0:
320,192,81755,128,0,82055:0:0:0:0:
448,192,81905,1,0,0:0:0:0:
448,192,82055,128,0,82355:0:0:0:0:
192,192,82055,128,0,82280:0:0:0:0:
64,192,82055,128,2,82205:0:0:0:0:
320,192,82355,128,0,82430:0:0:0:0:
192,192,82430,128,0,82505:0:0:0:0:
320,192,82505,128,0,82580:0:0:0:0:
192,192,82580,128,0,82655:0:0:0:0:
448,192,82655,1,2,0:0:0:0:
64,192,82655,1,8,0:0:0:0:
192,192,82805,128,0,83105:0:0:0:0:
448,192,82955,128,0,83105:0:0:0:0:
64,192,83105,1,0,0:0:0:0:
192,192,83255,1,0,0:0:0:0:
64,192,83255,1,2,0:0:0:0:
320,192,83405,128,0,83555:0:0:0:0:
192,192,83480,1,0,0:0:0:0:
64,192,83555,1,0,0:0:0:0:
448,192,83630,1,0,0:0:0:0:
320,192,83705,128,0,83855:0:0:0:0:
192,192,83780,1,0,0:0:0:0:
448,192,83855,1,2,0:0:0:0:
64,192,83855,1,8,0:0:0:0:
192,192,84005,1,0,0:0:0:0:
192,192,84155,128,0,84455:0:0:0:0:
64,192,84305,1,0,0:0:0:0:
448,192,84455,128,0,84755:0:0:0:0:
320,192,84455,128,0,84905:0:0:0:0:
64,192,84455,128,2,84605:0:0:0:0:
448,192,85055,128,0,85355:0:0:0:0:
320,192,85055,128,0,85505:0:0:0:0:
64,192,85055,1,2,0:0:0:0:
64,192,85205,128,0,85355:0:0:0:0:
192,192,85355,128,0,85505:0:0:0:0:
448,192,85505,1,0,0:0:0:0:
448,192,85655,128,0,85955:0:0:0:0:
320,192,85655,128,0,85955:0:0:0:0:
64,192,85655,128,2,85805:0:0:0:0:
192,192,85955,128,0,86155:0:0:0:0:
64,192,86005,128,0,86255:0:0:0:0:
320,192,86255,1,8,0:0:0:0:
192,192,86405,1,0,0:0:0:0:
448,192,86555,128,0,86705:0:0:0:0:
448,192,86855,128,0,87155:0:0:0:0:
192,192,86855,128,0,87080:0:0:0:0:
64,192,86855,128,2,87005:0:0:0:0:
320,192,87155,1,0,0:0:0:0:
192,192,87355,1,0,0:0:0:0:
448,192,87455,1,8,0:0:0:0:
448,192,87755,128,0,87830:0:0:0:0:
64,192,87905,1,0,0:0:0:0:
320,192,87955,1,0,0:0:0:0:
192,192,88055,1,0,0:0:0:0:
320,192,88205,128,0,88280:0:0:0:0:
64,192,88255,1,0,0:0:0:0:
192,192,88355,1,0,0:0:0:0:
64,192,88455,1,0,0:0:0:0:
320,192,88505,128,0,88580:0:0:0:0:
192,192,88555,1,0,0:0:0:0:
448,192,88655,1,2,0:0:0:0:
64,192,88655,1,8,0:0:0:0:
448,192,88805,1,0,0:0:0:0:
192,192,88955,128,0,89030:0:0:0:0:
448,192,89030,1,0,0:0:0:0:
320,192,89105,1,0,0:0:0:0:
192,192,89180,1,0,0:0:0:0:
448,192,89255,128,0,89405:0:0:0:0:
320,192,89255,128,0,89480:0:0:0:0:
64,192,89255,128,2,89555:0:0:0:0:
192,192,89555,1,0,0:0:0:0:
448,192,89855,1,2,0:0:0:0:
64,192,89855,1,8,0:0:0:0:
192,192,90005,1,0,0:0:0:0:
320,192,90055,1,0,0:0:0:0:
64,192,90155,128,0,90230:0:0:0:0:
448,192,90305,1,0,0:0:0:0:
192,192,90355,1,0,0:0:0:0:
448,192,90455,1,0,0:0:0:0:
320,192,90455,1,2,0:0:0:0:
192,192,90605,128,0,90680:0:0:0:0:
448,192,90755,1,0,0:0:0:0:
64,192,90830,1,0,0:0:0:0:
192,192,90905,128,0,90980:0:0:0:0:
320,192,90980,1,0,0:0:0:0:
448,192,91055,1,2,0:0:0:0:
64,192,91055,1,8,0:0:0:0:
192,192,91205,1,0,0:0:0:0:
320,192,91355,128,0,91430:0:0:0:0:
192,192,91505,1,0,0:0:0:0:
192,192,91655,1,0,0:0:0:0:
64,192,91655,1,2,0:0:0:0:
448,192,91715,1,0,0:0:0:0:
320,192,91745,1,0,0:0:0:0:
192,192,91775,1,0,0:0:0:0:
64,192,91805,1,0,0:0:0:0:
448,192,91835,1,0,0:0:0:0:
320,192,91865,1,0,0:0:0:0:
192,192,91895,1,0,0:0:0:0:
64,192,91925,1,0,0:0:0:0:
448,192,91970,1,0,0:0:0:0:
320,192,92015,1,0,0:0:0:0:
192,192,92060,1,0,0:0:0:0:
64,192,92105,1,0,0:0:0:0:
448,192,92142,1,0,0:0:0:0:
320,192,92180,1,0,0:0:0:0:
192,192,92217,1,0,0:0:0:0:
448,192,92255,1,2,0:0:0:0:
64,192,92255,1,8,0:0:0:0:
192,192,92405,1,0,0:0:0:0:
448,192,92555,128,0,92705:0:0:0:0:
64,192,92630,1,0,0:0:0:0:
320,192,92705,1,0,0:0:0:0:
192,192,92780,1,0,0:0:0:0:
448,192,92855,1,0,0:0:0:0:
320,192,92855,1,2,0:0:0:0:
320,192,93005,128,0,93155:0:0:0:0:
64,192,93155,1,0,0:0:0:0:
448,192,93230,1,0,0:0:0:0:
320,192,93305,128,0,93455:0:0:0:0:
192,192,93380,1,0,0:0:0:0:
448,192,93455,128,2,93680:0:0:0:0:
64,192,93455,1,8,0:0:0:0:
320,192,93605,1,0,0:0:0:0:
192,192,93755,128,0,93905:0:0:0:0:
448,192,93905,1,0,0:0:0:0:
448,192,94055,128,0,94205:0:0:0:0:
320,192,94055,128,0,94205:0:0:0:0:
64,192,94055,128,2,94355:0:0:0:0:
192,192,94355,1,0,0:0:0:0:
448,192,94430,1,0,0:0:0:0:
64,192,94505,1,0,0:0:0:0:
320,192,94580,1,0,0:0:0:0:
448,192,94655,128,0,94955:0:0:0:0:
192,192,94655,128,2,94805:0:0:0:0:
64,192,94655,128,8,94805:0:0:0:0:
320,192,94955,1,0,0:0:0:0:
64,192,95030,1,0,0:0:0:0:
448,192,95105,1,0,0:0:0:0:
192,192,95180,1,0,0:0:0:0:
320,192,95255,128,0,95405:0:0:0:0:
64,192,95255,128,0,95555:0:0:0:0:
192,192,95555,1,0,0:0:0:0:
448,192,95630,1,0,0:0:0:0:
64,192,95705,1,0,0:0:0:0:
192,192,95780,1,0,0:0:0:0:
320,192,95855,1,8,0:0:0:0:
192,192,96005,1,0,0:0:0:0:
448,192,96155,128,0,96305:0:0:0:0:
64,192,96455,128,0,96905:0:0:0:0:
192,192,96755,1,0,0:0:0:0:
448,192,96805,1,0,0:0:0:0:
448,192,97055,1,0,0:0:0:0:
64,192,97055,128,8,97355:0:0:0:0:
320,192,97205,1,0,0:0:0:0:
448,192,97355,128,0,97430:0:0:0:0:
192,192,97505,128,0,97655:0:0:0:0:
64,192,97655,1,0,0:0:0:0:
320,192,97805,128,0,97880:0:0:0:0:
192,192,97955,1,0,0:0:0:0:
320,192,98105,128,0,98180:0:0:0:0:
448,192,98255,1,2,0:0:0:0:
64,192,98255,1,8,0:0:0:0:
448,192,98405,1,0,0:0:0:0:
192,192,98555,128,0,98630:0:0:0:0:
192,192,98705,1,0,0:0:0:0:
448,192,98855,128,0,99005:0:0:0:0:
320,192,98855,128,0,99080:0:0:0:0:
64,192,98855,128,2,99155:0:0:0:0:
192,192,99155,1,0,0:0:0:0:
448,192,99455,1,2,0:0:0:0:
64,192,99455,1,8,0:0:0:0:
320,192,99605,128,0,99905:0:0:0:0:
64,192,99755,128,0,99830:0:0:0:0:
448,192,99905,1,0,0:0:0:0:
448,192,100055,1,0,0:0:0:0:
320,192,100055,1,2,0:0:0:0:
192,192,100205,128,0,100280:0:0:0:0:
320,192,100355,1,0,0:0:0:0:
192,192,100505,128,0,100580:0:0:0:0:
448,192,100655,1,2,0:0:0:0:
64,192,100655,1,8,0:0:0:0:
192,192,100705,1,0,0:0:0:0:
320,192,100738,1,0,0:0:0:0:
448,192,100771,1,0,0:0:0:0:
64,192,100805,1,0,0:0:0:0:
192,192,100842,1,0,0:0:0:0:
320,192,100880,1,0,0:0:0:0:
448,192,100917,1,0,0:0:0:0:
64,192,100955,1,0,0:0:0:0:
192,192,100992,1,0,0:0:0:0:
320,192,101030,1,0,0:0:0:0:
448,192,101067,1,0,0:0:0:0:
64,192,101105,1,0,0:0:0:0:
192,192,101142,1,0,0:0:0:0:
320,192,101180,1,0,0:0:0:0:
448,192,101205,1,0,0:0:0:0:
192,192,101255,1,0,0:0:0:0:
64,192,101255,1,2,0:0:0:0:
320,192,101330,128,0,101705:0:0:0:0:
448,192,101405,128,0,101780:0:0:0:0:
64,192,101480,128,0,101780:0:0:0:0:
192,192,101555,128,0,101855:0:0:0:0:
320,192,101780,1,0,0:0:0:0:
448,192,101855,1,2,0:0:0:0:
64,192,101855,1,8,0:0:0:0:
192,192,102005,1,0,0:0:0:0:
448,192,102155,128,0,102305:0:0:0:0:
64,192,102305,1,0,0:0:0:0:
448,192,102455,1,0,0:0:0:0:
320,192,102455,1,2,0:0:0:0:
320,192,102605,128,0,102755:0:0:0:0:
64,192,102755,1,0,0:0:0:0:
448,192,102830,1,0,0:0:0:0:
320,192,102905,128,0,103055:0:0:0:0:
192,192,102980,1,0,0:0:0:0:
448,192,103055,1,2,0:0:0:0:
64,192,103055,1,8,0:0:0:0:
192,192,103205,1,0,0:0:0:0:
192,192,103355,128,0,103505:0:0:0:0:
448,192,103505,1,0,0:0:0:0:
448,192,103655,128,0,103805:0:0:0:0:
320,192,103655,128,0,103955:0:0:0:0:
64,192,103655,128,2,103805:0:0:0:0:
192,192,103955,1,0,0:0:0:0:
448,192,104255,128,0,104405:0:0:0:0:
320,192,104255,128,8,104555:0:0:0:0:
64,192,104255,1,2,0:0:0:0:
64,192,104405,128,0,104555:0:0:0:0:
192,192,104555,128,0,104705:0:0:0:0:
448,192,104705,1,0,0:0:0:0:
448,192,104855,128,0,105155:0:0:0:0:
320,192,104855,128,0,105155:0:0:0:0:
64,192,104855,128,2,105005:0:0:0:0:
192,192,105155,128,0,105355:0:0:0:0:
64,192,105205,128,0,105455:0:0:0:0:
448,192,105455,1,8,0:0:0:0:
320,192,105492,1,0,0:0:0:0:
192,192,105530,1,0,0:0:0:0:
64,192,105567,1,0,0:0:0:0:
448,192,105605,1,0,0:0:0:0:
192,192,105755,1,0,0:0:0:0:
64,192,105792,1,0,0:0:0:0:
192,192,105905,1,0,0:0:0:0:
64,192,105942,1,0,0:0:0:0:
448,192,106055,1,0,0:0:0:0:
320,192,106055,1,2,0:0:0:0:
320,192,106205,1,0,0:0:0:0:
64,192,106355,1,0,0:0:0:0:
448,192,106655,1,0,0:0:0:0:
192,192,106655,1,8,0:0:0:0:
192,192,106805,1,0,0:0:0:0:
448,192,106955,1,0,0:0:0:0:
320,192,107255,1,0,0:0:0:0:
320,192,107405,1,0,0:0:0:0:
192,192,107555,1,0,0:0:0:0:
64,192,107555,1,2,0:0:0:0:
448,192,107855,1,0,0:0:0:0:
192,192,107855,1,8,0:0:0:0:
192,192,108005,1,0,0:0:0:0:
448,192,108155,1,0,0:0:0:0:
192,192,108455,1,0,0:0:0:0:
64,192,108455,1,2,0:0:0:0:
192,192,108605,1,0,0:0:0:0:
448,192,108755,1,0,0:0:0:0:
320,192,109055,1,0,0:0:0:0:
64,192,109055,1,8,0:0:0:0:
320,192,109205,1,0,0:0:0:0:
64,192,109355,1,0,0:0:0:0:
192,192,109655,1,0,0:0:0:0:
192,192,109805,1,0,0:0:0:0:
448,192,109955,1,0,0:0:0:0:
320,192,109955,1,2,0:0:0:0:
320,192,110255,1,0,0:0:0:0:
64,192,110255,1,8,0:0:0:0:
320,192,110405,1,0,0:0:0:0:
64,192,110555,128,0,110780:0:0:0:0:
448,192,110855,1,0,0:0:0:0:
320,192,110855,1,2,0:0:0:0:
320,192,111005,1,0,0:0:0:0:
192,192,111155,1,0,0:0:0:0:
192,192,111305,1,0,0:0:0:0:
448,192,111455,1,0,0:0:0:0:
64,192,111455,1,8,0:0:0:0:
448,192,111605,1,0,0:0:0:0:
64,192,111755,1,0,0:0:0:0:
64,192,111905,1,0,0:0:0:0:
448,192,112055,1,0,0:0:0:0:
448,192,112205,1,0,0:0:0:0:
192,192,112355,1,0,0:0:0:0:
64,192,112355,1,2,0:0:0:0:
192,192,112505,1,0,0:0:0:0:
320,192,112655,1,0,0:0:0:0:
64,192,112655,1,8,0:0:0:0:
320,192,112805,1,0,0:0:0:0:
192,192,112955,1,0,0:0:0:0:
192,192,113105,1,0,0:0:0:0:
448,192,113255,128,0,113405:0:0:0:0:
320,192,113255,128,0,113480:0:0:0:0:
64,192,113255,128,2,113555:0:0:0:0:
192,192,113555,1,0,0:0:0:0:
448,192,113855,128,0,114155:0:0:0:0:
192,192,113855,128,8,114080:0:0:0:0:
64,192,113855,128,2,114005:0:0:0:0:
320,192,114155,1,0,0:0:0:0:
192,192,114305,1,0,0:0:0:0:
448,192,114455,1,0,0:0:0:0:
320,192,114492,1,0,0:0:0:0:
192,192,114530,1,0,0:0:0:0:
64,192,114567,1,0,0:0:0:0:
448,192,114605,1,0,0:0:0:0:
192,192,114755,1,0,0:0:0:0:
64,192,114792,1,0,0:0:0:0:
192,192,114905,1,0,0:0:0:0:
64,192,114942,1,0,0:0:0:0:
320,192,115055,1,0,0:0:0:0:
448,192,115092,1,0,0:0:0:0:
320,192,115205,1,0,0:0:0:0:
448,192,115242,1,0,0:0:0:0:
64,192,115355,1,0,0:0:0:0:
192,192,115392,1,0,0:0:0:0:
64,192,115505,1,0,0:0:0:0:
448,192,115542,1,0,0:0:0:0:
192,192,115580,1,0,0:0:0:0:
320,192,115617,1,0,0:0:0:0:
448,192,115655,128,0,115880:0:0:0:0:
64,192,115655,128,0,115805:0:0:0:100:bbx1_peer_mixed.wav
192,192,115805,1,0,0:0:0:0:
320,192,115880,1,0,0:0:0:0:
64,192,115955,1,0,0:0:0:0:
448,192,116105,1,0,0:0:0:0:
320,192,116255,1,0,0:0:0:0:
192,192,116255,1,0,0:0:0:100:bbx2_3+4.wav
192,192,116405,1,0,0:0:0:0:
448,192,116555,128,0,116780:0:0:0:0:
448,192,118055,128,0,118280:0:0:0:0:
64,192,118055,128,0,118205:0:0:0:100:bbx1_peer_mixed.wav
192,192,118205,1,0,0:0:0:0:
320,192,118280,1,0,0:0:0:0:
64,192,118355,1,0,0:0:0:0:
448,192,118505,1,0,0:0:0:0:
320,192,118655,1,0,0:0:0:0:
192,192,118655,1,0,0:0:0:100:bbx2_3+4.wav
192,192,118805,1,0,0:0:0:0:
448,192,118955,128,0,119180:0:0:0:0:
64,192,120455,1,0,0:0:0:0:
448,192,120605,1,0,0:0:0:0:
64,192,120755,1,0,0:0:0:0:
448,192,120905,1,0,0:0:0:0:
64,192,121055,1,0,0:0:0:0:
448,192,121205,1,0,0:0:0:0:
64,192,121355,1,0,0:0:0:0:
448,192,121505,1,0,0:0:0:0:
64,192,121655,1,0,0:0:0:0:
448,192,121805,1,0,0:0:0:0:
64,192,121955,1,0,0:0:0:0:
448,192,122105,1,0,0:0:0:0:
64,192,122255,1,0,0:0:0:0:
448,192,122405,1,0,0:0:0:0:
64,192,122555,1,0,0:0:0:0:
448,192,122705,1,0,0:0:0:0:
64,192,122855,1,0,0:0:0:0:
448,192,123005,1,0,0:0:0:0:
192,192,123155,1,0,0:0:0:0:
448,192,123305,1,0,0:0:0:0:
64,192,123455,1,0,0:0:0:0:
448,192,123605,1,0,0:0:0:0:
192,192,123755,1,0,0:0:0:0:
448,192,123905,1,0,0:0:0:0:
64,192,124055,1,0,0:0:0:0:
448,192,124205,1,0,0:0:0:0:
192,192,124355,1,0,0:0:0:0:
448,192,124505,1,0,0:0:0:0:
64,192,124655,1,0,0:0:0:0:
448,192,124805,1,0,0:0:0:0:
192,192,124955,1,0,0:0:0:0:
448,192,125105,1,0,0:0:0:0:
64,192,125255,1,0,0:0:0:0:
448,192,125405,1,0,0:0:0:0:
192,192,125555,1,0,0:0:0:0:
320,192,125705,1,0,0:0:0:0:
64,192,125855,1,0,0:0:0:0:
448,192,126005,1,0,0:0:0:0:
192,192,126155,1,0,0:0:0:0:
320,192,126305,1,0,0:0:0:0:
64,192,126455,1,0,0:0:0:0:
448,192,126605,1,0,0:0:0:0:
192,192,126755,1,0,0:0:0:0:
320,192,126905,1,0,0:0:0:0:
64,192,127055,1,0,0:0:0:0:
448,192,127205,1,0,0:0:0:0:
192,192,127355,1,0,0:0:0:0:
320,192,127505,1,0,0:0:0:0:
64,192,127655,1,0,0:0:0:0:
192,192,127805,1,0,0:0:0:0:
448,192,127955,1,0,0:0:0:0:
320,192,128105,1,0,0:0:0:0:
64,192,128255,1,0,0:0:0:0:
192,192,128405,1,0,0:0:0:0:
448,192,128555,1,0,0:0:0:0:
320,192,128705,1,0,0:0:0:0:
64,192,128855,1,0,0:0:0:0:
192,192,129005,1,0,0:0:0:0:
448,192,129155,1,0,0:0:0:0:
320,192,129305,1,0,0:0:0:0:
64,192,129455,1,0,0:0:0:0:
192,192,129605,1,0,0:0:0:0:
448,192,129755,1,0,0:0:0:0:
320,192,129905,1,0,0:0:0:0:
64,192,130055,1,0,0:0:0:0:
192,192,130205,1,0,0:0:0:0:
448,192,130355,1,0,0:0:0:0:
320,192,130505,1,0,0:0:0:0:
64,192,130655,1,0,0:0:0:0:
192,192,130805,1,0,0:0:0:0:
448,192,130955,1,0,0:0:0:0:
320,192,131105,1,0,0:0:0:0:
64,192,131255,1,0,0:0:0:0:
192,192,131405,1,0,0:0:0:0:
448,192,131555,1,0,0:0:0:0:
448,192,131705,1,0,0:0:0:0:
64,192,131855,1,0,0:0:0:0:
192,192,132005,1,0,0:0:0:0:
448,192,132155,1,0,0:0:0:0:
448,192,132305,1,0,0:0:0:0:
64,192,132455,1,0,0:0:0:0:
192,192,132605,1,0,0:0:0:0:
448,192,132755,1,0,0:0:0:0:
448,192,132905,1,0,0:0:0:0:
64,192,133055,1,0,0:0:0:0:
192,192,133205,1,0,0:0:0:0:
448,192,133355,1,0,0:0:0:0:
448,192,133505,1,0,0:0:0:0:
64,192,133655,1,0,0:0:0:0:
192,192,133805,1,0,0:0:0:0:
448,192,133955,1,0,0:0:0:0:
448,192,134105,1,0,0:0:0:0:
64,192,134255,1,0,0:0:0:0:
192,192,134405,128,0,134855:0:0:0:0:
448,192,134555,128,0,134705:0:0:0:0:
320,192,134705,128,0,134855:0:0:0:0:
448,192,134855,128,0,135080:0:0:0:0:
64,192,134855,128,0,135005:0:0:0:100:bbx1_peer_mixed.wav
192,192,135005,1,0,0:0:0:0:
320,192,135080,1,0,0:0:0:0:
64,192,135155,1,0,0:0:0:0:
448,192,135305,1,0,0:0:0:0:
320,192,135455,1,0,0:0:0:0:
192,192,135455,1,0,0:0:0:100:bbx2_3+4.wav
192,192,135605,1,0,0:0:0:0:
448,192,135755,1,0,0:0:0:0:
448,192,135905,1,0,0:0:0:0:
64,192,136055,1,0,0:0:0:0:
192,192,136205,1,0,0:0:0:0:
448,192,136355,1,0,0:0:0:0:
448,192,136505,1,0,0:0:0:0:
64,192,136655,1,0,0:0:0:0:
192,192,136805,1,0,0:0:0:0:
448,192,136955,1,0,0:0:0:0:
64,192,137030,1,0,0:0:0:0:
320,192,137105,1,0,0:0:0:0:
192,192,137180,1,0,0:0:0:0:
448,192,137255,128,0,137480:0:0:0:0:
64,192,137255,128,0,137405:0:0:0:100:bbx1_peer_mixed.wav
192,192,137405,1,0,0:0:0:0:
320,192,137480,1,0,0:0:0:0:
64,192,137555,1,0,0:0:0:0:
448,192,137705,1,0,0:0:0:0:
320,192,137855,1,0,0:0:0:0:
192,192,137855,1,0,0:0:0:100:bbx2_3+4.wav
192,192,138005,1,0,0:0:0:0:
448,192,138155,1,0,0:0:0:0:
448,192,138305,1,0,0:0:0:0:
64,192,138455,1,0,0:0:0:0:
192,192,138605,1,0,0:0:0:0:
448,192,138755,1,0,0:0:0:0:
448,192,138905,1,0,0:0:0:0:
64,192,139055,1,0,0:0:0:0:
192,192,139205,1,0,0:0:0:0:
448,192,139355,1,0,0:0:0:0:
192,192,139430,1,0,0:0:0:0:
448,192,139505,1,0,0:0:0:0:
192,192,139580,1,0,0:0:0:0:
448,192,139655,128,0,139880:0:0:0:0:
64,192,139655,128,0,139805:0:0:0:100:bbx1_peer_mixed.wav
192,192,139805,1,0,0:0:0:0:
320,192,139880,1,0,0:0:0:0:
64,192,139955,1,0,0:0:0:0:
448,192,140105,1,0,0:0:0:0:
320,192,140255,1,0,0:0:0:0:
192,192,140255,1,0,0:0:0:100:bbx2_3+4.wav
192,192,140405,1,0,0:0:0:0:
448,192,140555,1,0,0:0:0:0:
320,192,140705,1,0,0:0:0:0:
64,192,140855,1,0,0:0:0:0:
192,192,141005,1,0,0:0:0:0:
448,192,141155,1,0,0:0:0:0:
320,192,141305,1,0,0:0:0:0:
64,192,141455,1,0,0:0:0:0:
192,192,141605,1,0,0:0:0:0:
448,192,141755,1,0,0:0:0:0:
64,192,141830,1,0,0:0:0:0:
320,192,141905,1,0,0:0:0:0:
192,192,141980,1,0,0:0:0:0:
448,192,142055,128,0,142280:0:0:0:0:
64,192,142055,128,0,142205:0:0:0:100:bbx1_peer_mixed.wav
192,192,142205,1,0,0:0:0:0:
320,192,142280,1,0,0:0:0:0:
64,192,142355,1,0,0:0:0:0:
448,192,142505,1,0,0:0:0:0:
320,192,142655,1,0,0:0:0:0:
192,192,142655,1,0,0:0:0:100:bbx2_3+4.wav
192,192,142805,1,0,0:0:0:0:
448,192,142955,1,0,0:0:0:0:
192,192,142955,1,0,0:0:0:100:fillkit_001.ogg
320,192,143105,1,0,0:0:0:0:
64,192,143255,1,0,0:0:0:100:fillkit_001.ogg
64,192,143405,1,0,0:0:0:100:fillkit_001.ogg
64,192,143555,1,0,0:0:0:100:fillkit_001.ogg
64,192,143705,1,0,0:0:0:100:fillkit_001.ogg
448,192,143855,1,0,0:0:0:100:fillkit_001.ogg
320,192,143955,1,0,0:0:0:0:
448,192,144055,1,0,0:0:0:0:
192,192,144155,1,0,0:0:0:0:
64,192,144155,1,2,0:0:0:0:
320,192,144255,1,0,0:0:0:0:
192,192,144355,1,0,0:0:0:0:
448,192,144455,1,0,0:0:0:0:
320,192,144455,1,2,0:0:0:0:
64,192,144555,1,0,0:0:0:0:
448,192,144605,1,0,0:0:0:0:
192,192,144655,1,0,0:0:0:0:
320,192,144755,1,0,0:0:0:0:
64,192,144755,1,0,0:0:0:0:
448,192,144855,1,0,0:0:0:0:
64,192,144905,1,0,0:0:0:0:
320,192,144955,1,0,0:0:0:0:
192,192,145055,1,0,0:0:0:0:
64,192,145055,1,2,0:0:0:0:
192,192,145205,1,0,0:0:0:0:
448,192,145355,1,0,0:0:0:0:
64,192,145355,1,0,0:0:0:0:
448,192,145505,1,0,0:0:0:0:
192,192,145655,1,0,0:0:0:0:
64,192,145655,1,2,0:0:0:0:
192,192,145805,1,0,0:0:0:0:
320,192,145955,1,0,0:0:0:0:
64,192,145955,1,0,0:0:0:0:
320,192,146105,1,0,0:0:0:0:
448,192,146255,1,0,0:0:0:0:
320,192,146255,1,2,0:0:0:0:
448,192,146405,1,0,0:0:0:0:
320,192,146555,1,0,0:0:0:0:
64,192,146555,1,0,0:0:0:0:
64,192,146705,1,0,0:0:0:0:
448,192,146855,1,0,0:0:0:0:
320,192,146855,1,2,0:0:0:0:
320,192,147005,1,0,0:0:0:0:
448,192,147155,1,0,0:0:0:0:
64,192,147155,1,0,0:0:0:0:
64,192,147305,1,0,0:0:0:0:
192,192,147455,1,0,0:0:0:0:
64,192,147455,1,2,0:0:0:0:
192,192,147605,1,0,0:0:0:0:
320,192,147755,1,0,0:0:0:0:
64,192,147755,1,0,0:0:0:0:
320,192,147905,1,0,0:0:0:0:
192,192,148055,1,0,0:0:0:0:
64,192,148055,1,2,0:0:0:0:
64,192,148205,1,0,0:0:0:0:
448,192,148355,1,0,0:0:0:0:
192,192,148355,1,0,0:0:0:0:
448,192,148505,1,0,0:0:0:0:
448,192,148655,1,0,0:0:0:0:
320,192,148655,1,2,0:0:0:0:
320,192,148805,1,0,0:0:0:0:
448,192,148955,1,0,0:0:0:0:
192,192,148955,1,0,0:0:0:0:
64,192,149005,1,0,0:0:0:0:
320,192,149055,1,0,0:0:0:0:
192,192,149105,1,0,0:0:0:0:
448,192,149155,1,0,0:0:0:0:
320,192,149205,1,0,0:0:0:0:
192,192,149255,1,0,0:0:0:0:
64,192,149255,1,2,0:0:0:0:
448,192,149405,1,0,0:0:0:0:
448,192,149555,1,0,0:0:0:0:
448,192,149705,1,0,0:0:0:0:
64,192,149855,1,0,0:0:0:0:
64,192,150005,1,0,0:0:0:0:
64,192,150155,1,0,0:0:0:0:
64,192,150305,1,0,0:0:0:0:
320,192,150455,1,0,0:0:0:0:
320,192,150605,1,0,0:0:0:0:
320,192,150755,1,0,0:0:0:0:
320,192,150905,1,0,0:0:0:0:
192,192,151055,1,0,0:0:0:0:
192,192,151205,1,0,0:0:0:0:
192,192,151355,1,0,0:0:0:0:
192,192,151505,1,0,0:0:0:0:
448,192,151655,1,0,0:0:0:0:
64,192,151730,1,0,0:0:0:0:
448,192,151805,1,0,0:0:0:0:
64,192,151880,1,0,0:0:0:0:
448,192,151955,1,0,0:0:0:0:
192,192,152030,1,0,0:0:0:0:
320,192,152105,1,0,0:0:0:0:
192,192,152180,1,0,0:0:0:0:
320,192,152255,1,0,0:0:0:0:
192,192,152330,1,0,0:0:0:0:
448,192,152405,1,0,0:0:0:0:
64,192,152480,1,0,0:0:0:0:
448,192,152555,1,0,0:0:0:0:
64,192,152630,1,0,0:0:0:0:
320,192,152705,1,0,0:0:0:0:
192,192,152780,1,0,0:0:0:0:
320,192,152855,1,0,0:0:0:0:
192,192,152930,1,0,0:0:0:0:
448,192,153005,1,0,0:0:0:0:
64,192,153080,1,0,0:0:0:0:
448,192,153155,1,0,0:0:0:0:
64,192,153230,1,0,0:0:0:0:
320,192,153305,1,0,0:0:0:0:
192,192,153380,1,0,0:0:0:0:
448,192,153455,1,0,0:0:0:0:
192,192,153530,1,0,0:0:0:0:
320,192,153605,1,0,0:0:0:0:
64,192,153680,1,0,0:0:0:0:
320,192,153755,1,0,0:0:0:0:
192,192,153830,1,0,0:0:0:0:
448,192,153905,1,0,0:0:0:0:
64,192,153980,1,0,0:0:0:0:
448,192,154055,1,0,0:0:0:0:
320,192,154055,1,2,0:0:0:0:
64,192,154355,128,0,154430:0:0:0:0:
448,192,154655,1,8,0:0:0:0:
192,192,154655,1,2,0:0:0:0:
64,192,154805,128,0,154880:0:0:0:0:
320,192,154955,128,0,155105:0:0:0:0:
448,192,155105,1,0,0:0:0:0:
64,192,155255,128,0,155330:0:0:0:0:
448,192,155555,128,0,155855:0:0:0:0:
320,192,155555,128,2,155705:0:0:0:0:
64,192,155705,128,0,155780:0:0:0:0:
320,192,155855,1,0,0:0:0:0:
64,192,155855,1,8,0:0:0:0:
64,192,156005,1,0,0:0:0:0:
448,192,156155,128,0,156305:0:0:0:0:
320,192,156230,128,0,156305:0:0:0:0:
192,192,156305,1,0,0:0:0:0:
448,192,156455,128,0,156605:0:0:0:0:
320,192,156455,128,0,156680:0:0:0:0:
64,192,156455,128,2,156755:0:0:0:0:
192,192,156755,128,0,156830:0:0:0:0:
448,192,157055,1,0,0:0:0:0:
64,192,157055,1,8,0:0:0:0:
192,192,157205,128,0,157280:0:0:0:0:
448,192,157355,128,0,157655:0:0:0:0:
320,192,157355,128,2,157505:0:0:0:0:
192,192,157655,128,0,157730:0:0:0:0:
448,192,157955,128,0,158255:0:0:0:0:
320,192,157955,128,2,158105:0:0:0:0:
192,192,158105,128,0,158180:0:0:0:0:
320,192,158255,1,0,0:0:0:0:
64,192,158255,1,8,0:0:0:0:
192,192,158330,128,0,158705:0:0:0:0:
320,192,158480,128,0,158855:0:0:0:0:
448,192,158630,128,0,158855:0:0:0:0:
192,192,158780,128,0,159155:0:0:0:0:
64,192,158855,128,0,159155:0:0:0:0:
320,192,159155,128,0,159230:0:0:0:0:
448,192,159455,1,0,0:0:0:0:
64,192,159455,1,8,0:0:0:0:
320,192,159605,128,0,159680:0:0:0:0:
192,192,159755,128,0,159905:0:0:0:0:
64,192,159755,128,2,160055:0:0:0:0:
320,192,160055,128,0,160130:0:0:0:0:
192,192,160355,128,0,160505:0:0:0:0:
64,192,160355,128,2,160655:0:0:0:0:
320,192,160505,128,0,160580:0:0:0:0:
448,192,160655,1,0,0:0:0:0:
192,192,160655,1,8,0:0:0:0:
320,192,160805,1,0,0:0:0:0:
320,192,160955,128,0,161255:0:0:0:0:
64,192,161105,1,0,0:0:0:0:
448,192,161255,128,0,161555:0:0:0:0:
192,192,161255,128,0,161405:0:0:0:0:
64,192,161255,128,2,161405:0:0:0:0:
448,192,161855,128,0,162005:0:0:0:0:
320,192,161855,128,0,162005:0:0:0:0:
64,192,161855,128,8,162155:0:0:0:0:
320,192,162155,128,2,162305:0:0:0:0:
448,192,162305,1,0,0:0:0:0:
448,192,162455,128,0,162755:0:0:0:0:
192,192,162455,128,0,162605:0:0:0:0:
320,192,163055,1,0,0:0:0:0:
192,192,163205,1,0,0:0:0:0:
448,192,163355,128,0,163505:0:0:0:0:
320,192,163655,1,0,0:0:0:0:
192,192,163730,1,0,0:0:0:0:
320,192,163805,1,0,0:0:0:0:
64,192,163880,1,0,0:0:0:0:
192,192,163955,128,0,164030:0:0:0:0:
448,192,164255,1,0,0:0:0:0:
64,192,164255,1,8,0:0:0:0:
192,192,164405,128,0,164480:0:0:0:0:
448,192,164555,128,0,164855:0:0:0:0:
320,192,164555,128,2,164705:0:0:0:0:
192,192,164855,128,0,164930:0:0:0:0:
320,192,164930,1,0,0:0:0:0:
64,192,165005,1,0,0:0:0:0:
192,192,165080,1,0,0:0:0:0:
448,192,165155,128,0,165455:0:0:0:0:
320,192,165155,128,2,165305:0:0:0:0:
192,192,165305,128,0,165380:0:0:0:0:
320,192,165455,1,0,0:0:0:0:
64,192,165455,1,8,0:0:0:0:
64,192,165605,1,0,0:0:0:0:
64,192,165755,1,0,0:0:0:0:
64,192,165905,1,0,0:0:0:0:
448,192,166055,128,0,166355:0:0:0:0:
192,192,166205,1,0,0:0:0:0:
320,192,166355,128,0,166430:0:0:0:0:
448,192,166655,1,0,0:0:0:0:
64,192,166655,1,8,0:0:0:0:
320,192,166805,128,0,166880:0:0:0:0:
192,192,166955,128,0,167105:0:0:0:0:
64,192,166955,128,2,167255:0:0:0:0:
448,192,167105,1,0,0:0:0:0:
320,192,167255,128,0,167330:0:0:0:0:
192,192,167355,1,0,0:0:0:0:
448,192,167455,1,0,0:0:0:0:
192,192,167555,128,0,167705:0:0:0:0:
64,192,167555,128,2,167855:0:0:0:0:
320,192,167705,128,0,167780:0:0:0:0:
448,192,167855,1,0,0:0:0:0:
192,192,167855,1,8,0:0:0:0:
448,192,167948,1,0,0:0:0:0:
320,192,168042,1,0,0:0:0:0:
320,192,168136,1,0,0:0:0:0:
192,192,168230,1,0,0:0:0:0:
192,192,168323,1,0,0:0:0:0:
64,192,168417,1,0,0:0:0:0:
320,192,168455,128,0,168605:0:0:0:0:
64,192,168511,1,0,0:0:0:0:
192,192,168605,1,0,0:0:0:0:
448,192,168755,128,0,168830:0:0:0:0:
320,192,169055,1,0,0:0:0:0:
64,192,169055,1,8,0:0:0:0:
448,192,169205,128,0,169280:0:0:0:0:
192,192,169355,128,0,169505:0:0:0:0:
64,192,169355,128,2,169655:0:0:0:0:
448,192,169655,128,0,169730:0:0:0:0:
192,192,169955,128,0,170105:0:0:0:0:
64,192,169955,128,2,170255:0:0:0:0:
448,192,170105,128,0,170180:0:0:0:0:
448,192,170255,1,0,0:0:0:0:
192,192,170255,1,8,0:0:0:0:
64,192,170405,1,0,0:0:0:0:
320,192,170555,1,0,0:0:0:0:
192,192,170605,1,0,0:0:0:0:
448,192,170705,1,0,0:0:0:0:
448,192,170855,128,0,171005:0:0:0:0:
320,192,170855,128,0,171005:0:0:0:0:
64,192,170855,128,2,171155:0:0:0:0:
192,192,171155,1,0,0:0:0:0:
448,192,171230,1,0,0:0:0:0:
64,192,171305,1,0,0:0:0:0:
320,192,171380,1,0,0:0:0:0:
448,192,171455,128,0,171755:0:0:0:0:
192,192,171455,128,2,171605:0:0:0:0:
64,192,171455,128,8,171605:0:0:0:0:
320,192,171755,1,0,0:0:0:0:
64,192,171830,1,0,0:0:0:0:
448,192,171905,1,0,0:0:0:0:
192,192,171980,1,0,0:0:0:0:
448,192,172055,128,0,172355:0:0:0:0:
320,192,172055,128,2,172205:0:0:0:0:
320,192,172355,1,0,0:0:0:0:
64,192,172430,1,0,0:0:0:0:
448,192,172505,1,0,0:0:0:0:
192,192,172580,1,0,0:0:0:0:
320,192,172655,1,8,0:0:0:0:
192,192,172805,1,0,0:0:0:0:
448,192,172955,128,0,173105:0:0:0:0:
64,192,173255,128,2,173705:0:0:0:0:
320,192,173555,1,0,0:0:0:0:
448,192,173592,1,0,0:0:0:0:
192,192,173630,1,0,0:0:0:0:
448,192,173855,1,0,0:0:0:0:
64,192,173855,128,8,174305:0:0:0:0:
320,192,173930,1,0,0:0:0:0:
192,192,174005,128,0,174305:0:0:0:0:
448,192,174080,1,0,0:0:0:0:
320,192,174155,1,0,0:0:0:0:
448,192,174505,1,0,0:0:0:0:
448,192,174705,1,0,0:0:0:0:
192,192,174755,128,0,174905:0:0:0:0:
64,192,174755,128,2,175055:0:0:0:0:
448,192,174905,1,0,0:0:0:0:
192,192,175055,1,8,0:0:0:0:
448,192,175105,1,0,0:0:0:0:
192,192,175205,128,0,175355:0:0:0:0:
448,192,175305,1,0,0:0:0:0:
64,192,175355,1,0,0:0:0:0:
448,192,175505,1,0,0:0:0:0:
64,192,175655,128,0,175955:0:0:0:0:
192,192,175655,1,2,0:0:0:0:
320,192,175705,1,0,0:0:0:0:
320,192,175905,1,0,0:0:0:0:
192,192,175955,1,0,0:0:0:0:
320,192,176105,1,0,0:0:0:0:
64,192,176255,1,8,0:0:0:0:
320,192,176305,1,0,0:0:0:0:
320,192,176505,1,0,0:0:0:0:
192,192,176555,128,0,176705:0:0:0:0:
320,192,176705,1,0,0:0:0:0:
320,192,176905,1,0,0:0:0:0:
320,192,177105,1,0,0:0:0:0:
192,192,177155,1,0,0:0:0:0:
64,192,177155,1,2,0:0:0:0:
320,192,177305,1,0,0:0:0:0:
320,192,177455,1,0,0:0:0:0:
64,192,177455,1,0,0:0:0:0:
448,192,177530,128,0,177755:0:0:0:0:
192,192,177605,128,0,177905:0:0:0:0:
320,192,177755,128,0,178055:0:0:0:0:
448,192,177905,128,0,178280:0:0:0:0:
192,192,178055,128,0,178205:0:0:0:0:
64,192,178205,128,0,178355:0:0:0:0:
320,192,178280,1,0,0:0:0:0:
192,192,178355,1,0,0:0:0:0:
448,192,178655,1,0,0:0:0:0:
64,192,178655,128,8,178955:0:0:0:0:
320,192,178955,128,0,179105:0:0:0:0:
448,192,179105,1,0,0:0:0:0:
64,192,179305,1,0,0:0:0:0:
64,192,179505,1,0,0:0:0:0:
448,192,179555,128,0,179855:0:0:0:0:
320,192,179555,128,2,179705:0:0:0:0:
64,192,179705,1,0,0:0:0:0:
320,192,179855,1,8,0:0:0:0:
64,192,179905,1,0,0:0:0:0:
448,192,180005,1,0,0:0:0:0:
64,192,180105,1,0,0:0:0:0:
448,192,180155,128,0,180305:0:0:0:0:
64,192,180305,1,0,0:0:0:0:
320,192,180455,1,2,0:0:0:0:
448,192,180455,128,0,180755:0:0:0:0:
192,192,180505,1,0,0:0:0:0:
192,192,180705,1,0,0:0:0:0:
192,192,180905,1,0,0:0:0:0:
448,192,181055,128,10,181355:0:0:0:0:
192,192,181105,1,0,0:0:0:0:
64,192,181205,128,0,181355:0:0:0:0:
192,192,181305,1,0,0:0:0:0:
320,192,181355,128,0,181505:0:0:0:0:
192,192,181505,1,0,0:0:0:0:
448,192,181655,128,0,181805:0:0:0:0:
192,192,181705,1,0,0:0:0:0:
192,192,181905,1,0,0:0:0:0:
320,192,181955,128,0,182155:0:0:0:0:
448,192,182005,128,0,182255:0:0:0:0:
192,192,182105,1,0,0:0:0:0:
64,192,182255,1,0,0:0:0:0:
192,192,182292,1,0,0:0:0:0:
320,192,182330,1,0,0:0:0:0:
448,192,182367,1,0,0:0:0:0:
64,192,182405,1,0,0:0:0:0:
320,192,182555,1,0,0:0:0:0:
448,192,182592,1,0,0:0:0:0:
320,192,182705,1,0,0:0:0:0:
448,192,182742,1,0,0:0:0:0:
192,192,182855,1,0,0:0:0:0:
192,192,183005,1,0,0:0:0:0:
448,192,183155,1,0,0:0:0:0:
320,192,183455,1,0,0:0:0:0:
64,192,183455,1,8,0:0:0:0:
320,192,183605,1,0,0:0:0:0:
64,192,183755,1,0,0:0:0:0:
192,192,184055,1,0,0:0:0:0:
192,192,184205,1,0,0:0:0:0:
448,192,184355,1,0,0:0:0:0:
320,192,184355,1,2,0:0:0:0:
320,192,184655,1,0,0:0:0:0:
64,192,184655,1,8,0:0:0:0:
320,192,184805,1,0,0:0:0:0:
64,192,184955,1,0,0:0:0:0:
448,192,185255,1,0,0:0:0:0:
320,192,185255,1,2,0:0:0:0:
320,192,185405,1,0,0:0:0:0:
64,192,185555,1,0,0:0:0:0:
448,192,185855,1,0,0:0:0:0:
192,192,185855,1,8,0:0:0:0:
192,192,186005,1,0,0:0:0:0:
448,192,186155,1,0,0:0:0:0:
320,192,186455,1,0,0:0:0:0:
320,192,186605,1,0,0:0:0:0:
192,192,186755,1,0,0:0:0:0:
64,192,186755,1,2,0:0:0:0:
448,192,187055,1,0,0:0:0:0:
192,192,187055,1,8,0:0:0:0:
192,192,187205,1,0,0:0:0:0:
448,192,187355,128,0,187580:0:0:0:0:
192,192,187655,1,0,0:0:0:0:
64,192,187655,1,2,0:0:0:0:
192,192,187805,1,0,0:0:0:0:
320,192,187955,1,0,0:0:0:0:
320,192,188105,1,0,0:0:0:0:
448,192,188255,1,0,0:0:0:0:
64,192,188255,1,8,0:0:0:0:
64,192,188405,1,0,0:0:0:0:
448,192,188555,1,0,0:0:0:0:
448,192,188705,1,0,0:0:0:0:
64,192,188855,1,0,0:0:0:0:
64,192,189005,1,0,0:0:0:0:
448,192,189155,1,0,0:0:0:0:
320,192,189155,1,2,0:0:0:0:
320,192,189305,1,0,0:0:0:0:
448,192,189455,1,0,0:0:0:0:
192,192,189455,1,8,0:0:0:0:
192,192,189605,1,0,0:0:0:0:
320,192,189755,1,0,0:0:0:0:
320,192,189905,1,0,0:0:0:0:
448,192,190055,128,0,190355:0:0:0:0:
192,192,190055,128,0,190280:0:0:0:0:
64,192,190055,128,2,190205:0:0:0:0:
320,192,190355,1,0,0:0:0:0:
448,192,190655,128,0,190805:0:0:0:0:
320,192,190655,128,2,190880:0:0:0:0:
64,192,190655,128,8,190955:0:0:0:0:
192,192,190955,1,0,0:0:0:0:
320,192,191105,1,0,0:0:0:0:
64,192,191255,1,0,0:0:0:0:
192,192,191292,1,0,0:0:0:0:
320,192,191330,1,0,0:0:0:0:
448,192,191367,1,0,0:0:0:0:
64,192,191405,1,0,0:0:0:0:
320,192,191555,1,0,0:0:0:0:
448,192,191592,1,0,0:0:0:0:
320,192,191705,1,0,0:0:0:0:
448,192,191742,1,0,0:0:0:0:
64,192,191855,1,0,0:0:0:0:
192,192,191892,1,0,0:0:0:0:
64,192,192005,1,0,0:0:0:0:
192,192,192042,1,0,0:0:0:0:
448,192,192155,1,0,0:0:0:0:
320,192,192192,1,0,0:0:0:0:
448,192,192305,1,0,0:0:0:0:
320,192,192342,1,0,0:0:0:0:
192,192,192380,1,0,0:0:0:0:
64,192,192417,1,0,0:0:0:0:
448,192,192455,128,0,192755:0:0:0:0:
320,192,192455,128,2,192680:0:0:0:0:
192,192,192755,1,0,0:0:0:0:
448,192,193055,1,8,0:0:0:0:
64,192,193055,1,2,0:0:0:0:
192,192,193130,1,0,0:0:0:0:
320,192,193205,1,0,0:0:0:0:
448,192,193280,1,0,0:0:0:0:
192,192,193355,1,0,0:0:0:0:
448,192,193430,1,0,0:0:0:0:
64,192,193505,1,0,0:0:0:0:
320,192,193580,1,0,0:0:0:0:
192,192,193655,1,0,0:0:0:0:
64,192,193655,1,2,0:0:0:0:
448,192,193730,1,0,0:0:0:0:
320,192,193805,1,0,0:0:0:0:
192,192,193880,1,0,0:0:0:0:
64,192,193955,1,0,0:0:0:0:
448,192,194030,1,0,0:0:0:0:
192,192,194105,1,0,0:0:0:0:
320,192,194180,1,0,0:0:0:0:
448,192,194255,1,8,0:0:0:0:
64,192,194255,1,2,0:0:0:0:
192,192,194330,1,0,0:0:0:0:
320,192,194405,1,0,0:0:0:0:
448,192,194480,1,0,0:0:0:0:
192,192,194555,1,0,0:0:0:0:
448,192,194630,1,0,0:0:0:0:
64,192,194705,1,0,0:0:0:0:
320,192,194780,1,0,0:0:0:0:
192,192,194855,1,0,0:0:0:0:
64,192,194855,1,2,0:0:0:0:
448,192,194930,1,0,0:0:0:0:
320,192,195005,1,0,0:0:0:0:
192,192,195080,1,0,0:0:0:0:
64,192,195155,1,0,0:0:0:0:
448,192,195230,1,0,0:0:0:0:
192,192,195305,1,0,0:0:0:0:
320,192,195380,1,0,0:0:0:0:
448,192,195455,1,8,0:0:0:0:
64,192,195455,1,2,0:0:0:0:
192,192,195530,1,0,0:0:0:0:
320,192,195605,1,0,0:0:0:0:
448,192,195680,1,0,0:0:0:0:
192,192,195755,1,0,0:0:0:0:
448,192,195830,1,0,0:0:0:0:
64,192,195905,1,0,0:0:0:0:
320,192,195980,1,0,0:0:0:0:
192,192,196055,1,0,0:0:0:0:
64,192,196055,1,2,0:0:0:0:
448,192,196130,1,0,0:0:0:0:
320,192,196205,1,0,0:0:0:0:
192,192,196280,1,0,0:0:0:0:
64,192,196355,1,0,0:0:0:0:
448,192,196430,1,0,0:0:0:0:
192,192,196505,1,0,0:0:0:0:
320,192,196580,1,0,0:0:0:0:
448,192,196655,1,8,0:0:0:0:
64,192,196655,1,2,0:0:0:0:
192,192,196805,1,0,0:0:0:0:
192,192,196955,128,0,197255:0:0:0:0:
64,192,197105,1,0,0:0:0:0:
448,192,197255,128,0,197405:0:0:0:0:
320,192,197255,128,0,197480:0:0:0:0:
64,192,197255,128,2,197555:0:0:0:0:
192,192,197555,128,0,197630:0:0:0:0:
320,192,197630,128,0,197705:0:0:0:0:
192,192,197705,128,0,197780:0:0:0:0:
320,192,197780,128,0,197855:0:0:0:0:
448,192,197855,1,8,0:0:0:0:
64,192,197855,1,2,0:0:0:0:
192,192,197930,1,0,0:0:0:0:
320,192,198005,1,0,0:0:0:0:
448,192,198080,1,0,0:0:0:0:
192,192,198155,1,0,0:0:0:0:
448,192,198230,1,0,0:0:0:0:
64,192,198305,1,0,0:0:0:0:
320,192,198380,1,0,0:0:0:0:
192,192,198455,1,0,0:0:0:0:
64,192,198455,1,2,0:0:0:0:
448,192,198530,1,0,0:0:0:0:
320,192,198605,1,0,0:0:0:0:
192,192,198680,1,0,0:0:0:0:
448,192,198755,1,0,0:0:0:0:
64,192,198830,1,0,0:0:0:0:
320,192,198905,1,0,0:0:0:0:
192,192,198980,1,0,0:0:0:0:
448,192,199055,1,8,0:0:0:0:
64,192,199055,1,2,0:0:0:0:
320,192,199130,1,0,0:0:0:0:
192,192,199205,1,0,0:0:0:0:
64,192,199280,1,0,0:0:0:0:
320,192,199355,1,0,0:0:0:0:
64,192,199430,1,0,0:0:0:0:
448,192,199505,1,0,0:0:0:0:
192,192,199580,1,0,0:0:0:0:
448,192,199655,128,0,199955:0:0:0:0:
320,192,199655,128,0,200105:0:0:0:0:
64,192,199655,128,2,199805:0:0:0:0:
448,192,200255,128,0,200555:0:0:0:0:
320,192,200255,128,0,200705:0:0:0:0:
64,192,200255,1,2,0:0:0:0:
64,192,200405,128,0,200555:0:0:0:0:
192,192,200555,128,0,200705:0:0:0:0:
448,192,200705,1,0,0:0:0:0:
448,192,200855,128,0,201155:0:0:0:0:
320,192,200855,128,0,201155:0:0:0:0:
64,192,200855,128,2,201005:0:0:0:0:
192,192,201155,128,0,201355:0:0:0:0:
64,192,201205,128,0,201455:0:0:0:0:
320,192,201455,1,8,0:0:0:0:
192,192,201605,1,0,0:0:0:0:
448,192,201755,128,0,201905:0:0:0:0:
448,192,202055,128,0,202355:0:0:0:0:
192,192,202055,128,0,202280:0:0:0:0:
64,192,202055,128,2,202205:0:0:0:0:
320,192,202355,1,0,0:0:0:0:
192,192,202555,1,0,0:0:0:0:
448,192,202655,128,0,202730:0:0:0:0:
64,192,202655,1,8,0:0:0:0:
192,192,202730,1,0,0:0:0:0:
320,192,202805,1,0,0:0:0:0:
64,192,202880,1,0,0:0:0:0:
320,192,202955,1,0,0:0:0:0:
448,192,203030,1,0,0:0:0:0:
192,192,203105,1,0,0:0:0:0:
320,192,203180,1,0,0:0:0:0:
448,192,203255,128,0,203330:0:0:0:0:
64,192,203330,1,0,0:0:0:0:
448,192,203405,1,0,0:0:0:0:
192,192,203480,1,0,0:0:0:0:
320,192,203555,1,0,0:0:0:0:
64,192,203630,1,0,0:0:0:0:
192,192,203705,1,0,0:0:0:0:
320,192,203780,1,0,0:0:0:0:
448,192,203855,1,8,0:0:0:0:
64,192,203855,1,2,0:0:0:0:
192,192,203930,1,0,0:0:0:0:
320,192,204005,1,0,0:0:0:0:
64,192,204080,1,0,0:0:0:0:
448,192,204155,128,0,204230:0:0:0:0:
192,192,204230,1,0,0:0:0:0:
320,192,204305,1,0,0:0:0:0:
448,192,204380,1,0,0:0:0:0:
192,192,204455,1,0,0:0:0:0:
64,192,204455,1,2,0:0:0:0:
320,192,204530,1,0,0:0:0:0:
64,192,204605,1,0,0:0:0:0:
192,192,204680,1,0,0:0:0:0:
448,192,204755,128,0,204830:0:0:0:0:
64,192,204830,1,0,0:0:0:0:
192,192,204905,1,0,0:0:0:0:
320,192,204980,1,0,0:0:0:0:
448,192,205055,1,8,0:0:0:0:
64,192,205055,1,2,0:0:0:0:
192,192,205130,1,0,0:0:0:0:
320,192,205205,1,0,0:0:0:0:
64,192,205280,1,0,0:0:0:0:
448,192,205355,128,0,205430:0:0:0:0:
192,192,205430,1,0,0:0:0:0:
320,192,205505,1,0,0:0:0:0:
448,192,205580,1,0,0:0:0:0:
192,192,205655,1,0,0:0:0:0:
64,192,205655,1,2,0:0:0:0:
320,192,205730,1,0,0:0:0:0:
64,192,205805,1,0,0:0:0:0:
192,192,205880,1,0,0:0:0:0:
448,192,205955,128,0,206030:0:0:0:0:
64,192,206030,1,0,0:0:0:0:
192,192,206105,1,0,0:0:0:0:
320,192,206180,1,0,0:0:0:0:
448,192,206255,1,8,0:0:0:0:
64,192,206255,1,2,0:0:0:0:
64,192,206405,128,0,206705:0:0:0:0:
320,192,206555,128,0,206630:0:0:0:0:
320,192,206705,1,0,0:0:0:0:
192,192,206855,1,0,0:0:0:0:
64,192,206855,1,2,0:0:0:0:
320,192,206955,1,0,0:0:0:0:
448,192,207005,1,0,0:0:0:0:
64,192,207105,1,0,0:0:0:0:
192,192,207155,1,0,0:0:0:0:
448,192,207255,1,0,0:0:0:0:
320,192,207305,1,0,0:0:0:0:
192,192,207405,1,0,0:0:0:0:
448,192,207455,1,8,0:0:0:0:
64,192,207455,1,2,0:0:0:0:
320,192,207530,1,0,0:0:0:0:
192,192,207605,1,0,0:0:0:0:
448,192,207680,1,0,0:0:0:0:
64,192,207755,128,0,207830:0:0:0:0:
320,192,207830,1,0,0:0:0:0:
192,192,207905,1,0,0:0:0:0:
64,192,207980,1,0,0:0:0:0:
448,192,208055,1,0,0:0:0:0:
320,192,208055,1,2,0:0:0:0:
192,192,208130,1,0,0:0:0:0:
64,192,208205,1,0,0:0:0:0:
320,192,208280,1,0,0:0:0:0:
192,192,208355,128,0,208430:0:0:0:0:
64,192,208355,128,0,208430:0:0:0:0:
448,192,208430,1,0,0:0:0:0:
320,192,208505,1,0,0:0:0:0:
192,192,208580,1,0,0:0:0:0:
448,192,208655,1,8,0:0:0:0:
64,192,208655,1,2,0:0:0:0:
320,192,208730,1,0,0:0:0:0:
192,192,208805,1,0,0:0:0:0:
448,192,208880,1,0,0:0:0:0:
192,192,208955,1,0,0:0:0:0:
64,192,209030,1,0,0:0:0:0:
320,192,209105,1,0,0:0:0:0:
192,192,209180,1,0,0:0:0:0:
448,192,209255,128,0,209405:0:0:0:0:
320,192,209255,128,0,209405:0:0:0:0:
64,192,209255,128,2,209555:0:0:0:0:
192,192,209555,1,0,0:0:0:0:
448,192,209630,1,0,0:0:0:0:
64,192,209705,1,0,0:0:0:0:
320,192,209780,1,0,0:0:0:0:
448,192,209855,128,0,210155:0:0:0:0:
192,192,209855,128,0,210005:0:0:0:0:
64,192,209855,128,2,210005:0:0:0:0:
320,192,210155,1,0,0:0:0:0:
64,192,210230,1,0,0:0:0:0:
448,192,210305,1,0,0:0:0:0:
192,192,210380,1,0,0:0:0:0:
320,192,210455,128,0,210605:0:0:0:0:
64,192,210455,128,0,210755:0:0:0:0:
192,192,210755,1,0,0:0:0:0:
448,192,210830,1,0,0:0:0:0:
64,192,210905,1,0,0:0:0:0:
192,192,210980,1,0,0:0:0:0:
320,192,211055,1,8,0:0:0:0:
192,192,211205,1,0,0:0:0:0:
448,192,211355,128,0,211505:0:0:0:0:
192,192,211655,1,0,0:0:0:0:
64,192,211655,128,2,212105:0:0:0:0:
192,192,211955,1,0,0:0:0:0:
448,192,212005,1,0,0:0:0:0:
448,192,212255,1,8,0:0:0:0:
64,192,212255,1,2,0:0:0:0:
192,192,212330,1,0,0:0:0:0:
320,192,212405,1,0,0:0:0:0:
64,192,212480,1,0,0:0:0:0:
320,192,212555,1,0,0:0:0:0:
192,192,212630,1,0,0:0:0:0:
448,192,212705,1,0,0:0:0:0:
64,192,212780,1,0,0:0:0:0:
448,192,212855,1,0,0:0:0:0:
320,192,212855,1,2,0:0:0:0:
192,192,212930,1,0,0:0:0:0:
64,192,213005,1,0,0:0:0:0:
320,192,213080,1,0,0:0:0:0:
64,192,213155,1,0,0:0:0:0:
448,192,213230,1,0,0:0:0:0:
192,192,213305,1,0,0:0:0:0:
320,192,213380,1,0,0:0:0:0:
448,192,213455,1,8,0:0:0:0:
64,192,213455,1,2,0:0:0:0:
192,192,213530,1,0,0:0:0:0:
320,192,213605,1,0,0:0:0:0:
64,192,213680,1,0,0:0:0:0:
320,192,213755,1,0,0:0:0:0:
192,192,213830,1,0,0:0:0:0:
448,192,213905,1,0,0:0:0:0:
64,192,213980,1,0,0:0:0:0:
448,192,214055,1,0,0:0:0:0:
320,192,214055,1,2,0:0:0:0:
192,192,214130,1,0,0:0:0:0:
64,192,214205,1,0,0:0:0:0:
320,192,214280,1,0,0:0:0:0:
64,192,214355,1,0,0:0:0:0:
448,192,214430,1,0,0:0:0:0:
192,192,214505,1,0,0:0:0:0:
320,192,214580,1,0,0:0:0:0:
448,192,214655,1,8,0:0:0:0:
64,192,214655,1,2,0:0:0:0:
192,192,214730,1,0,0:0:0:0:
320,192,214805,1,0,0:0:0:0:
64,192,214880,1,0,0:0:0:0:
320,192,214955,1,0,0:0:0:0:
192,192,215030,1,0,0:0:0:0:
64,192,215105,1,0,0:0:0:0:
448,192,215180,1,0,0:0:0:0:
192,192,215255,1,0,0:0:0:0:
64,192,215255,1,2,0:0:0:0:
320,192,215330,1,0,0:0:0:0:
448,192,215405,1,0,0:0:0:0:
192,192,215480,1,0,0:0:0:0:
448,192,215555,1,0,0:0:0:0:
64,192,215630,1,0,0:0:0:0:
320,192,215705,1,0,0:0:0:0:
192,192,215780,1,0,0:0:0:0:
448,192,215855,1,8,0:0:0:0:
64,192,215855,1,2,0:0:0:0:
320,192,215930,1,0,0:0:0:0:
192,192,216005,1,0,0:0:0:0:
64,192,216080,1,0,0:0:0:0:
320,192,216155,1,0,0:0:0:0:
192,192,216230,1,0,0:0:0:0:
320,192,216305,1,0,0:0:0:0:
448,192,216380,1,0,0:0:0:0:
192,192,216455,1,0,0:0:0:0:
64,192,216455,1,2,0:0:0:0:
320,192,216530,1,0,0:0:0:0:
192,192,216605,1,0,0:0:0:0:
448,192,216680,1,0,0:0:0:0:
320,192,216755,1,0,0:0:0:0:
192,192,216830,1,0,0:0:0:0:
320,192,216905,1,0,0:0:0:0:
64,192,216980,1,0,0:0:0:0:
448,192,217055,1,8,0:0:0:0:
192,192,217055,1,2,0:0:0:0:
320,192,217130,1,0,0:0:0:0:
192,192,217205,1,0,0:0:0:0:
64,192,217280,1,0,0:0:0:0:
320,192,217355,1,0,0:0:0:0:
192,192,217430,1,0,0:0:0:0:
320,192,217505,1,0,0:0:0:0:
448,192,217580,1,0,0:0:0:0:
192,192,217655,1,0,0:0:0:0:
64,192,217655,1,2,0:0:0:0:
320,192,217730,1,0,0:0:0:0:
192,192,217805,1,0,0:0:0:0:
448,192,217880,1,0,0:0:0:0:
320,192,217955,1,0,0:0:0:0:
192,192,218030,1,0,0:0:0:0:
320,192,218105,1,0,0:0:0:0:
64,192,218180,1,0,0:0:0:0:
448,192,218255,1,8,0:0:0:0:
192,192,218255,1,2,0:0:0:0:
320,192,218330,1,0,0:0:0:0:
192,192,218405,1,0,0:0:0:0:
64,192,218480,1,0,0:0:0:0:
320,192,218555,1,0,0:0:0:0:
192,192,218630,1,0,0:0:0:0:
448,192,218705,1,0,0:0:0:0:
320,192,218780,1,0,0:0:0:0:
448,192,218855,128,0,219005:0:0:0:0:
192,192,218855,128,0,219155:0:0:0:0:
64,192,218855,128,2,219005:0:0:0:0:
320,192,219155,1,0,0:0:0:0:
448,192,219455,1,0,0:0:0:0:
192,192,219455,128,2,219755:0:0:0:0:
64,192,219455,128,8,219605:0:0:0:0:
448,192,219605,128,0,219755:0:0:0:0:
320,192,219755,128,0,219905:0:0:0:0:
64,192,219905,1,0,0:0:0:0:
448,192,220055,128,0,220205:0:0:0:0:
192,192,220055,128,0,220355:0:0:0:0:
64,192,220055,128,2,220355:0:0:0:0:
320,192,220355,128,0,220555:0:0:0:0:
448,192,220405,128,0,220655:0:0:0:0:
64,192,220655,1,8,0:0:0:0:
192,192,220692,1,0,0:0:0:0:
320,192,220730,1,0,0:0:0:0:
448,192,220767,1,0,0:0:0:0:
64,192,220805,1,0,0:0:0:0:
320,192,220955,1,0,0:0:0:0:
448,192,220992,1,0,0:0:0:0:
320,192,221105,1,0,0:0:0:0:
448,192,221142,1,0,0:0:0:0:
192,192,221255,1,0,0:0:0:0:
64,192,221255,1,2,0:0:0:0:
192,192,221405,1,0,0:0:0:0:
448,192,221555,1,0,0:0:0:0:
320,192,221855,1,0,0:0:0:0:
64,192,221855,1,8,0:0:0:0:
320,192,222005,1,0,0:0:0:0:
64,192,222155,1,0,0:0:0:0:
192,192,222455,1,0,0:0:0:0:
192,192,222605,1,0,0:0:0:0:
448,192,222755,1,0,0:0:0:0:
320,192,222755,1,2,0:0:0:0:
320,192,223055,1,0,0:0:0:0:
64,192,223055,1,8,0:0:0:0:
320,192,223205,1,0,0:0:0:0:
64,192,223355,1,0,0:0:0:0:
448,192,223655,1,0,0:0:0:0:
320,192,223655,1,2,0:0:0:0:
320,192,223805,1,0,0:0:0:0:
64,192,223955,1,0,0:0:0:0:
448,192,224255,1,0,0:0:0:0:
192,192,224255,1,8,0:0:0:0:
192,192,224405,1,0,0:0:0:0:
448,192,224555,1,0,0:0:0:0:
320,192,224855,1,0,0:0:0:0:
320,192,225005,1,0,0:0:0:0:
192,192,225155,1,0,0:0:0:0:
64,192,225155,1,2,0:0:0:0:
448,192,225455,1,0,0:0:0:0:
192,192,225455,1,8,0:0:0:0:
192,192,225605,1,0,0:0:0:0:
448,192,225755,128,0,225980:0:0:0:0:
192,192,226055,1,0,0:0:0:0:
64,192,226055,1,2,0:0:0:0:
192,192,226205,1,0,0:0:0:0:
320,192,226355,1,0,0:0:0:0:
320,192,226505,1,0,0:0:0:0:
448,192,226655,1,0,0:0:0:0:
64,192,226655,1,8,0:0:0:0:
64,192,226805,1,0,0:0:0:0:
448,192,226955,1,0,0:0:0:0:
448,192,227105,1,0,0:0:0:0:
64,192,227255,1,0,0:0:0:0:
64,192,227405,1,0,0:0:0:0:
448,192,227555,1,0,0:0:0:0:
320,192,227555,1,2,0:0:0:0:
320,192,227705,1,0,0:0:0:0:
448,192,227855,1,0,0:0:0:0:
192,192,227855,1,8,0:0:0:0:
192,192,228005,1,0,0:0:0:0:
320,192,228155,1,0,0:0:0:0:
320,192,228305,1,0,0:0:0:0:
448,192,228455,128,0,228755:0:0:0:0:
192,192,228455,128,0,228680:0:0:0:0:
64,192,228455,128,2,228605:0:0:0:0:
320,192,228755,1,0,0:0:0:0:
448,192,229055,128,0,229205:0:0:0:0:
320,192,229055,128,2,229280:0:0:0:0:
64,192,229055,128,8,229355:0:0:0:0:
192,192,229355,1,0,0:0:0:0:
320,192,229505,1,0,0:0:0:0:
64,192,229655,1,0,0:0:0:0:
192,192,229692,1,0,0:0:0:0:
320,192,229730,1,0,0:0:0:0:
448,192,229767,1,0,0:0:0:0:
64,192,229805,1,0,0:0:0:0:
320,192,229955,1,0,0:0:0:0:
448,192,229992,1,0,0:0:0:0:
320,192,230105,1,0,0:0:0:0:
448,192,230142,1,0,0:0:0:0:
192,192,230255,1,0,0:0:0:0:
64,192,230555,1,0,0:0:0:0:
448,192,230855,128,0,231080:0:0:0:0:
64,192,230855,128,0,231005:0:0:0:100:bbx1_peer_mixed.wav
192,192,231005,1,0,0:0:0:0:
320,192,231080,1,0,0:0:0:0:
64,192,231155,1,0,0:0:0:0:
448,192,231305,1,0,0:0:0:0:
320,192,231455,1,0,0:0:0:0:
192,192,231455,1,0,0:0:0:100:bbx2_3+4.wav
192,192,231605,1,0,0:0:0:0:
448,192,231755,128,0,231980:0:0:0:0:
448,192,233255,128,0,233480:0:0:0:0:
64,192,233255,128,0,233405:0:0:0:100:bbx1_peer_mixed.wav
192,192,233405,1,0,0:0:0:0:
320,192,233480,1,0,0:0:0:0:
64,192,233555,1,0,0:0:0:0:
448,192,233705,1,0,0:0:0:0:
320,192,233855,1,0,0:0:0:0:
192,192,233855,1,0,0:0:0:100:bbx2_3+4.wav
192,192,234005,1,0,0:0:0:0:
448,192,234155,128,0,234380:0:0:0:0:
448,192,235655,128,0,235880:0:0:0:0:
64,192,235655,128,0,235805:0:0:0:100:bbx1_peer_mixed.wav
192,192,235805,1,0,0:0:0:0:
320,192,235880,1,0,0:0:0:0:
64,192,235955,1,0,0:0:0:0:
448,192,236105,1,0,0:0:0:0:
320,192,236255,1,0,0:0:0:0:
192,192,236255,1,0,0:0:0:100:bbx2_3+4.wav
192,192,236405,1,0,0:0:0:0:
448,192,236555,128,0,236780:0:0:0:0:
448,192,238055,128,0,238280:0:0:0:0:
64,192,238055,128,0,238205:0:0:0:100:bbx1_peer_mixed.wav
192,192,238205,1,0,0:0:0:0:
320,192,238280,1,0,0:0:0:0:
64,192,238355,1,0,0:0:0:0:
448,192,238505,1,0,0:0:0:0:
320,192,238655,1,0,0:0:0:0:
192,192,238655,1,0,0:0:0:100:bbx2_3+4.wav
192,192,238805,1,0,0:0:0:0:
448,192,238955,1,0,0:0:0:100:fillkit_001.ogg
64,192,239255,1,0,0:0:0:100:fillkit_001.ogg
64,192,239405,1,0,0:0:0:100:fillkit_001.ogg
64,192,239555,1,0,0:0:0:100:fillkit_001.ogg
64,192,239705,1,0,0:0:0:100:fillkit_001.ogg
448,192,239855,1,0,0:0:0:100:fillkit_001.ogg
448,192,240005,1,0,0:0:0:100:fillkit_001.ogg
448,192,240155,1,0,0:0:0:100:fillkit_001.ogg
192,192,240230,1,0,0:0:0:0:
448,192,240305,1,0,0:0:0:100:fillkit_001.ogg
192,192,240380,1,0,0:0:0:0:
