osu file format v14

[General]
AudioFilename: audio.mp3
AudioLeadIn: 0
PreviewTime:39114
Countdown: 0
SampleSet: Soft
StackLeniency: 0.7
Mode: 0
LetterboxInBreaks: 0
WidescreenStoryboard: 1

[Editor]
DistanceSpacing: 0.9
BeatDivisor: 6
GridSize: 16
TimelineZoom: 2.4

[Metadata]
Title:NULCTRL
TitleUnicode:NULCTRL
Artist:Silentroom
ArtistUnicode:Silentroom
Creator:Nerova Riuz GX
Version:Pattern 03a "exHRD" LMT
Source:osu!
Tags:null ctrl control Seville Film Studio MOTION GO BACK 2 YOUR ROOTS G2R2018 FRENZ2018 Climax maimai でらっくす PLUS Deluxe DX+ DX EX BMS MUSYNC MUSYNX N/A Irreversible LMT LMT1996 Nozhomi BOUYAAA Alphabet Zetera Sala- venax Aistre Instrumental Electronic Memory Waves featured artist fa
BeatmapID:2110801
BeatmapSetID:917159

[Difficulty]
HPDrainRate:6
CircleSize:5
OverallDifficulty:7
ApproachRate:8
SliderMultiplier:1
SliderTickRate:1

[Events]
//Background and Video events
0,0,"stagefile-ex.png"
//Break Periods
//Storyboard Layer 0 (Background)
//Storyboard Layer 1 (Fail)
//Storyboard Layer 2 (Pass)
//Storyboard Layer 3 (Foreground)
//Storyboard Layer 4 (Overlay)
//Storyboard Sound Samples

[TimingPoints]
714,600,4,2,1,40,1,0
17514,-100,4,2,1,40,0,0
19914,-50,4,2,1,60,0,0
39114,-40,4,2,1,80,0,0
46614,-40,4,2,1,5,0,0
46914,-40,4,2,1,80,0,0
56173,-40,4,2,1,5,0,0
56473,-40,4,2,1,80,0,0
56773,-40,4,2,1,5,0,0
57073,-40,4,2,1,80,0,0
57672,-40,4,2,1,80,0,0
65514,-40,4,2,1,80,0,0
65814,-40,4,2,1,5,0,0
66114,-40,4,2,1,80,0,0
67914,-40,4,2,1,60,0,0
77514,-100,4,2,1,40,0,0
87114,-50,4,2,1,60,0,0
95514,-50,4,2,1,55,0,0
95814,-50,4,2,1,50,0,0
96114,-50,4,2,1,45,0,0
96414,-50,4,2,1,40,0,0
96714,-40,4,2,1,80,0,0
104214,-40,4,2,1,5,0,0
104514,-40,4,2,1,80,0,0
110664,-40,4,2,1,70,0,0
110814,-40,4,2,1,60,0,0
110964,-40,4,2,1,50,0,0
111114,-40,4,2,1,80,0,0
123114,-40,4,2,1,80,0,0
125514,-40,4,2,1,60,0,0
135114,-100,4,2,1,40,0,0

[Colours]
Combo1 : 65,65,65
Combo2 : 112,43,138
Combo3 : 191,194,67
Combo4 : 85,174,43
Combo5 : 131,61,56
Combo6 : 58,91,177
Combo7 : 255,51,56
Combo8 : 225,225,225

[HitObjects]
461,260,714,102,0,L|455:303,3,25,0|0|0|0,1:0|0:0|1:0|0:0,0:0:0:0:
473,197,1314,1,0,1:0:0:0:
408,187,1464,1,0,0:0:0:0:
51,260,3114,6,0,L|57:303,3,25,0|0|0|0,1:0|0:0|1:0|0:0,0:0:0:0:
39,197,3714,1,0,1:0:0:0:
104,187,3864,1,0,0:0:0:0:
465,266,5514,102,0,L|462:295,1,25,0|0,1:0|0:0,0:0:0:0:
397,255,5814,2,0,L|394:284,1,25,0|0,1:0|0:0,0:0:0:0:
408,187,6114,1,0,1:0:0:0:
473,197,6264,1,0,0:0:0:0:
47,266,7914,6,0,L|50:295,1,25,0|0,1:0|0:0,0:0:0:0:
115,255,8214,2,0,L|118:284,1,25,0|0,1:0|0:0,0:0:0:0:
104,187,8514,1,0,1:0:0:0:
39,197,8664,1,0,0:0:0:0:
254,151,9114,86,0,L|248:107,3,25
254,230,9714,2,0,L|248:274,3,25
318,192,10314,6,0,L|364:188,1,25,0|0,1:0|0:0,0:0:0:0:
406,185,10614,2,0,L|449:181,1,25
495,179,10914,1,0,1:0:0:0:
495,179,11064,1,0,0:0:0:0:
254,187,11514,5,0,0:0:0:0:
256,94,11964,1,0,0:0:0:0:
259,5,12414,1,0,0:0:0:0:
194,192,12714,102,0,L|148:188,1,25,0|0,1:0|0:0,0:0:0:0:
106,185,13014,2,0,L|63:181,1,25
17,179,13314,1,0,1:0:0:0:
17,179,13464,1,0,0:0:0:0:
254,197,13914,5,0,0:0:0:0:
256,290,14364,1,0,0:0:0:0:
259,379,14814,2,0,L|218:382,1,25
333,327,15114,102,0,L|329:354,1,25,0|0,1:0|0:0,0:0:0:0:
339,260,15414,2,0,L|311:257,1,25
406,268,15714,1,0,1:0:0:0:
400,337,15864,1,0,0:0:0:0:
252,189,16314,5,0,0:0:0:0:
252,189,16764,1,0,0:0:0:0:
252,189,17214,1,0,0:0:0:0:
156,250,17514,101,0,1:0:0:0:
92,250,17664,1,0,0:0:0:0:
28,250,17814,1,0,1:0:0:0:
163,343,18114,6,0,L|120:342,1,25,0|0,1:0|0:0,0:0:0:0:
73,339,18414,1,0,0:0:0:0:
254,341,18714,86,0,L|254:360,2,12.5
256,277,19014,2,0,L|257:241,1,25
260,188,19314,2,0,L|261:155,1,25
262,97,19614,1,0,0:0:0:0:
268,25,19764,1,0,0:0:0:0:
268,25,19839,1,0,0:0:0:0:
268,25,19914,6,0,B|243:24|243:24|155:33,1,100,4|0,3:2|0:0,0:0:0:0:
357,34,20514,1,2,0:0:0:0:
168,105,20814,2,0,B|242:97|242:97|267:98,1,100,2|2,3:2|0:0,0:0:0:0:
57,69,21414,1,2,0:0:0:0:
340,140,21714,1,2,0:0:0:0:
168,188,22014,5,2,0:0:0:0:
133,189,22164,1,0,0:0:0:0:
98,191,22314,1,2,0:0:0:0:
63,193,22464,1,0,0:0:0:0:
29,195,22614,1,0,0:0:0:0:
253,267,22914,101,2,0:0:0:0:
403,243,23214,2,0,B|428:242|428:242|516:251,1,100,2|2,3:2|0:0,0:0:0:0:
328,291,23814,1,2,0:0:0:0:
468,333,24114,2,0,L|401:337,1,50,2|0,0:0|0:0,0:0:0:0:
356,363,24414,1,2,3:2:0:0:
288,356,24564,1,0,3:0:0:0:
220,338,24714,6,0,B|195:337|195:337|107:346,1,100,2|0,3:2|0:0,0:0:0:0:
257,234,25314,1,2,0:0:0:0:
74,265,25614,2,0,B|99:266|99:266|187:257,1,100,2|2,3:2|0:0,0:0:0:0:
7,333,26214,1,2,0:0:0:0:
118,177,26514,101,2,0:0:0:0:
106,65,26814,1,2,0:0:0:0:
62,53,26964,1,0,0:0:0:0:
21,41,27114,1,2,0:0:0:0:
25,80,27264,1,0,0:0:0:0:
29,119,27414,1,0,0:0:0:0:
254,28,27714,5,2,0:0:0:0:
257,156,28014,1,2,0:0:0:0:
261,195,28164,1,0,0:0:0:0:
265,234,28314,1,2,0:0:0:0:
371,47,28614,85,2,0:0:0:0:
505,120,28914,1,2,0:0:0:0:
508,321,29214,6,0,L|446:327,1,50,0|0,3:0|0:0,0:0:0:0:
409,371,29514,2,0,L|304:351,1,100,0|2,3:0|0:0,0:0:0:0:
64,352,30114,2,0,L|169:332,1,100,0|2,3:0|0:0,0:0:0:0:
410,273,30714,2,0,L|353:258,1,50,0|0,3:0|0:0,0:0:0:0:
299,238,31014,1,2,0:0:0:0:
87,263,31314,2,0,L|144:248,1,50,0|0,3:0|0:0,0:0:0:0:
198,228,31614,1,2,0:0:0:0:
308,147,31914,5,0,3:0:0:0:
347,134,32064,1,0,0:0:0:0:
387,120,32214,1,2,0:0:0:0:
393,80,32364,1,0,0:0:0:0:
400,40,32514,2,0,L|504:28,1,100,0|2,3:0|0:0,0:0:0:0:
182,148,33114,101,0,3:0:0:0:
121,123,33264,1,0,0:0:0:0:
60,94,33414,1,2,0:0:0:0:
244,64,33714,6,0,L|239:5,1,50,0|2,3:0|0:0,0:0:0:0:
256,185,34014,2,0,L|252:118,1,50,2|2,0:0|0:0,0:0:0:0:
263,264,34314,2,0,L|266:301,2,25,8|0|0,0:0|0:0|0:0,0:0:0:0:
172,279,34614,102,0,L|111:273,2,50
352,272,35214,5,0,0:0:0:0:
420,254,35364,1,0,0:0:0:0:
484,237,35514,1,0,0:0:0:0:
293,369,35814,102,0,L|238:362,1,50
177,353,36114,2,0,L|115:343,1,50
61,332,36414,2,0,L|-5:319,2,50,0|0|8,0:0|0:0|0:3,0:0:0:0:
345,46,38514,5,8,0:3:0:0:
400,268,38814,1,0,3:0:0:0:
150,228,39114,6,0,B|139:200|139:200|78:175|78:175|36:189,1,125,4|8,3:2|0:1,0:0:0:0:
49,186,39714,1,8,3:2:0:0:
153,121,40014,21,8,0:3:0:0:
129,59,40164,1,0,0:0:0:0:
255,21,40464,1,8,0:3:0:0:
383,59,40764,1,8,0:3:0:0:
359,121,40914,1,8,3:2:0:0:
254,191,41214,1,8,0:3:0:0:
401,287,41514,86,0,B|412:259|412:259|473:234|473:234|515:248,1,125,0|8,3:0|0:1,0:0:0:0:
498,242,42114,1,8,3:2:0:0:
182,267,42414,21,8,0:3:0:0:
190,333,42564,1,0,0:0:0:0:
256,187,42864,1,8,0:3:0:0:
330,267,43164,1,8,0:3:0:0:
315,331,43314,1,8,3:2:0:0:
257,181,43614,86,0,L|252:93,1,62.5,12|0,0:3|0:0,0:0:0:0:
335,80,43914,22,0,B|369:75|369:75|388:85|388:85|474:75,1,125,0|8,3:0|0:1,0:0:0:0:
462,75,44289,1,8,0:1:0:0:
467,74,44364,1,0,0:0:0:0:
506,128,44514,1,8,3:2:0:0:
331,206,44814,85,8,0:3:0:0:
400,187,44964,1,0,0:0:0:0:
254,310,45264,1,8,0:3:0:0:
181,206,45564,1,8,0:3:0:0:
112,187,45714,2,0,L|44:169,1,62.5,8|0,3:2|0:0,0:0:0:0:
142,118,46014,2,0,L|212:137,1,62.5,4|0,0:3|0:0,0:0:0:0:
257,190,46314,86,0,L|393:174,1,125,0|0,3:0|0:0,0:0:0:0:
252,205,46914,2,0,L|386:247,1,125,0|0,3:0|0:0,0:0:0:0:
249,177,47514,2,0,L|371:108,1,125,0|2,3:0|0:3,0:0:0:0:
147,102,48114,5,0,0:0:0:0:
84,127,48264,1,0,0:0:0:0:
24,102,48414,1,0,0:0:0:0:
243,180,48714,38,0,B|267:207|267:207|280:309,1,125,4|0,3:2|0:0,0:0:0:0:
275,294,49314,1,8,0:0:0:0:
192,104,49614,5,8,0:3:0:0:
186,79,49764,1,0,0:0:0:0:
259,27,50064,1,8,0:3:0:0:
320,104,50364,1,8,0:3:0:0:
326,79,50514,1,8,3:2:0:0:
254,157,50814,1,8,0:3:0:0:
376,257,51114,102,0,B|417:250|417:250|443:263|443:263|515:252,1,125,0|8,3:0|0:1,0:0:0:0:
500,256,51714,1,8,3:2:0:0:
336,370,52014,5,8,0:3:0:0:
310,307,52164,1,0,0:0:0:0:
252,137,52464,1,8,0:3:0:0:
202,307,52764,1,8,0:3:0:0:
176,370,52914,1,8,3:2:0:0:
323,227,53214,1,8,0:3:0:0:
254,224,53364,1,0,0:0:0:0:
187,224,53514,1,0,3:0:0:0:
137,171,53664,102,0,L|67:166,2,62.5,2|2|2,0:0|0:0|0:0,0:0:0:0:
311,127,54264,1,0,0:0:0:0:
377,116,54414,2,0,L|515:100,1,125,8|0,0:3|3:0,0:0:0:0:
454,38,54864,2,0,L|375:49,1,62.5,8|0,0:3|0:0,0:0:0:0:
322,55,55164,1,8,0:3:0:0:
254,68,55314,5,8,3:2:0:0:
256,313,55614,1,8,0:3:0:0:
247,176,55914,38,0,L|104:143,1,125,0|0,3:0|0:0,0:0:0:0:
251,185,56514,2,0,L|122:220,1,125,8|0,3:2|0:0,0:0:0:0:
255,194,57114,1,0,0:0:0:0:
464,153,57714,5,8,0:0:0:0:
473,88,57864,1,0,0:0:0:0:
484,24,58014,2,0,B|445:19|445:19|334:36,1,125
250,24,58914,21,8,0:0:0:0:
251,157,59214,1,8,0:3:0:0:
252,239,59664,1,8,0:3:0:0:
255,360,59964,1,8,0:3:0:0:
255,360,60114,5,8,3:2:0:0:
361,300,60414,1,8,0:3:0:0:
149,293,60714,102,0,B|92:288|92:288|82:295|82:295|16:289,1,125,4|8,3:2|0:1,0:0:0:0:
24,291,61314,1,8,3:2:0:0:
198,228,61614,5,8,0:3:0:0:
185,160,61764,1,0,0:0:0:0:
252,297,62064,1,8,0:3:0:0:
323,159,62364,1,8,0:3:0:0:
331,234,62514,102,0,B|356:233|356:233|387:259,5,41.6666666666667,8|0|8|8|8|0,3:2|0:1|0:1|0:1|0:1|0:0,0:0:0:0:
324,262,63114,2,0,B|336:272|336:272|361:271,5,41.6666666666667,0|0|2|2|2|2,3:0|0:0|0:0|0:0|0:0|0:0,0:0:0:0:
308,237,63714,1,8,3:2:0:0:
206,234,64014,5,8,0:3:0:0:
195,166,64164,1,0,0:0:0:0:
304,145,64464,2,0,L|320:68,1,62.5,8|0,0:3|0:0,0:0:0:0:
252,56,64764,1,8,0:3:0:0:
187,78,64914,1,8,3:2:0:0:
126,41,65064,102,0,L|54:32,2,62.5,0|4|0,0:0|0:3|0:0,0:0:0:0:
242,123,65514,70,0,L|139:229,1,125,0|0,3:0|0:0,0:0:0:0:
245,116,66114,2,0,L|283:267,1,125,8|0,3:2|0:0,0:0:0:0:
242,109,66714,2,0,L|381:154,1,125,0|2,3:0|0:3,0:0:0:0:
183,49,67314,5,8,0:0:0:0:
251,27,67464,1,0,0:0:0:0:
322,45,67614,1,0,0:0:0:0:
93,86,67914,5,0,3:0:0:0:
402,297,68514,1,8,0:0:0:0:
183,141,69414,1,0,3:0:0:0:
311,234,69714,1,8,0:0:0:0:
419,86,70314,53,0,3:0:0:0:
110,297,70914,1,8,0:0:0:0:
327,141,71814,1,0,3:0:0:0:
210,226,72114,1,8,0:0:0:0:
263,183,72264,1,0,0:0:0:0:
318,148,72414,1,0,0:0:0:0:
156,80,72714,54,0,L|77:68,1,62.5,0|0,3:0|0:0,0:0:0:0:
84,142,73014,2,0,L|-6:123,1,62.5
32,245,73314,54,0,L|111:233,1,62.5,8|0,0:0|0:0,0:0:0:0:
122,315,73614,2,0,L|212:296,1,62.5
302,305,73914,54,0,L|381:317,1,62.5
408,233,74214,2,0,L|498:252,1,62.5,0|0,3:0|0:0,0:0:0:0:
488,99,74514,54,0,L|409:111,1,62.5,8|0,0:0|0:0,0:0:0:0:
356,20,74814,2,0,L|266:39,1,62.5
256,144,75114,22,0,L|247:288,1,125,0|0,3:0|0:0,0:0:0:0:
257,138,75714,2,0,L|266:282,1,125,8|0,0:0|0:0,0:0:0:0:
138,189,76314,5,8,0:1:0:0:
34,123,76614,1,0,0:1:0:0:
25,56,76764,1,2,0:0:0:0:
45,234,77064,1,2,0:0:0:0:
54,303,77214,1,0,0:0:0:0:
61,368,77364,1,0,0:0:0:0:
130,374,77514,102,0,L|166:379,3,25,0|0|0|0,1:0|0:0|1:0|0:0,0:0:0:0:
138,307,78114,1,0,1:0:0:0:
150,240,78264,1,0,0:0:0:0:
382,374,79914,6,0,L|346:379,3,25,0|0|0|0,1:0|0:0|1:0|0:0,0:0:0:0:
374,307,80514,1,0,1:0:0:0:
362,240,80664,1,0,0:0:0:0:
508,91,82314,102,0,L|505:62,1,25,0|0,1:0|0:0,0:0:0:0:
440,102,82614,2,0,L|437:73,1,25,0|0,1:0|0:0,0:0:0:0:
374,109,82914,1,0,1:0:0:0:
307,116,83064,1,0,0:0:0:0:
0,96,84714,6,0,L|3:125,1,25,0|0,1:0|0:0,0:0:0:0:
68,85,85014,2,0,L|71:114,1,25,0|0,1:0|0:0,0:0:0:0:
134,71,85314,1,0,1:0:0:0:
200,60,85464,1,0,0:0:0:0:
263,18,85614,101,0,1:0:0:0:
263,18,85914,2,0,L|262:58,1,25
262,110,86214,2,0,L|261:145,1,25
259,201,86514,2,0,L|258:223,2,12.5,8|0|0,0:0|0:0|0:0,0:0:0:0:
257,275,86814,2,0,L|256:302,1,25,0|0,3:0|0:0,0:0:0:0:
251,368,87114,6,0,L|183:372,2,50,0|0|2,3:0|0:0|0:0,0:0:0:0:
111,256,87714,2,0,L|43:260,2,50,0|0|2,3:0|0:0|0:0,0:0:0:0:
254,192,88314,2,0,L|186:196,2,50,0|0|2,3:0|0:0|0:0,0:0:0:0:
114,80,88914,2,0,L|46:84,2,50,0|0|2,3:0|0:0|0:0,0:0:0:0:
254,76,89514,101,0,3:0:0:0:
293,67,89664,1,0,0:0:0:0:
331,57,89814,1,2,0:0:0:0:
322,167,90114,5,0,3:0:0:0:
360,178,90264,1,0,0:0:0:0:
398,189,90414,1,2,0:0:0:0:
195,228,90714,101,0,3:0:0:0:
156,219,90864,1,0,0:0:0:0:
118,209,91014,1,2,0:0:0:0:
127,319,91314,5,0,3:0:0:0:
89,330,91464,1,0,0:0:0:0:
51,341,91614,1,2,0:0:0:0:
257,366,91914,102,0,L|259:313,15,50,0|2|2|2|2|2|2|2|2|2|2|2|2|2|2|2,3:0|0:0|0:0|0:0|0:0|0:0|0:0|0:0|0:0|0:0|0:0|0:0|0:0|0:0|0:0|0:0,0:0:0:0:
322,260,94314,5,2,0:0:0:0:
255,251,94464,1,2,0:0:0:0:
191,243,94614,1,2,0:0:0:0:
249,210,94764,1,2,0:0:0:0:
307,181,94914,1,2,0:0:0:0:
261,173,95064,1,2,0:0:0:0:
216,164,95214,1,2,0:0:0:0:
251,139,95364,1,2,0:0:0:0:
286,116,95514,1,2,0:0:0:0:
256,109,95664,1,2,0:0:0:0:
224,100,95814,1,2,0:0:0:0:
242,85,95964,1,2,0:0:0:0:
261,71,96114,1,2,0:0:0:0:
246,63,96264,1,2,0:0:0:0:
231,55,96414,1,2,0:0:0:0:
242,42,96564,1,0,0:0:0:0:
253,30,96714,1,0,3:2:0:0:
108,26,97014,53,8,0:1:0:0:
108,26,97314,1,8,0:0:0:0:
137,86,97464,2,0,B|148:123|148:123|129:233,1,125
75,130,97914,1,8,0:1:0:0:
75,130,98214,2,0,L|229:123,1,125,0|8,3:0|0:0,0:0:0:0:
257,166,98664,1,0,0:0:0:0:
320,134,98814,1,0,0:0:0:0:
261,94,98964,1,0,0:0:0:0:
253,172,99114,22,0,B|248:210|248:210|265:328,1,125,0|8,3:0|0:1,0:0:0:0:
264,303,99714,1,8,0:0:0:0:
281,368,99864,1,0,0:0:0:0:
210,350,100014,2,0,B|183:332|183:332|60:323,1,125,0|8,3:0|0:1,0:0:0:0:
93,330,100614,2,0,L|84:250,1,62.5,0|0,3:0|0:0,0:0:0:0:
77,199,100914,86,0,B|65:188|65:188|23:197|23:197|12:229,2,83.3333333333333,8|0|0,0:0|0:0|0:0,0:0:0:0:
140,173,101514,2,0,B|124:148|124:148|116:37,1,125,0|8,0:0|0:1,0:0:0:0:
215,23,102114,21,8,0:0:0:0:
263,75,102264,2,0,L|272:156,1,62.5,2|0,0:0|3:0,0:0:0:0:
343,131,102564,1,0,0:0:0:0:
335,61,102714,1,8,0:1:0:0:
478,144,103014,85,0,3:0:0:0:
423,187,103164,2,0,L|411:296,1,62.5,2|8,0:0|0:0,0:0:0:0:
395,315,103464,1,0,0:0:0:0:
347,262,103614,2,0,L|359:153,1,62.5,4|0,0:3|0:0,0:0:0:0:
281,197,103914,38,0,L|119:174,1,125,0|0,3:0|0:0,0:0:0:0:
279,190,104514,2,0,L|133:196,1,125,8|0,0:0|3:0,0:0:0:0:
312,132,104964,1,0,0:0:0:0:
285,201,105114,1,0,0:0:0:0:
193,52,105714,5,0,0:0:0:0:
257,29,105864,1,0,0:0:0:0:
318,55,106014,1,0,0:0:0:0:
132,117,106314,22,0,B|110:109|110:109|51:109|51:109|34:99|34:99|-10:97,1,125,4|8,0:0|0:1,0:0:0:0:
178,183,106914,1,8,0:0:0:0:
188,249,107064,2,0,L|196:347,1,62.5,2|0,0:0|3:0,0:0:0:0:
260,241,107364,1,0,0:0:0:0:
251,171,107514,2,0,B|274:152|274:152|384:140,1,125,8|0,0:1|3:0,0:0:0:0:
437,136,107964,2,0,L|450:57,1,62.5,2|8,0:0|0:0,0:0:0:0:
466,12,108264,1,0,0:0:0:0:
466,12,108414,1,0,0:0:0:0:
466,12,108564,1,0,0:0:0:0:
451,83,108714,6,0,B|464:104|464:104|477:248,1,125,0|8,0:0|0:1,0:0:0:0:
477,210,109314,1,8,0:0:0:0:
407,206,109464,2,0,L|396:304,1,62.5,2|0,0:0|3:0,0:0:0:0:
471,282,109764,1,0,0:0:0:0:
401,276,109914,2,0,B|353:270|353:270|345:257|345:257|256:243,1,125,8|0,0:1|3:0,0:0:0:0:
213,234,110364,1,0,0:0:0:0:
202,303,110514,102,0,B|185:313|185:313|160:305,6,41.6666666666667,8|8|8|8|2|2|0,0:0|0:1|0:1|0:1|0:0|0:0|0:0,0:0:0:0:
64,230,111414,6,0,L|78:100,1,125,8|8,0:1|0:0,0:0:0:0:
148,95,111864,2,0,L|136:14,1,62.5,2|0,0:0|3:0,0:0:0:0:
213,24,112164,1,0,0:0:0:0:
229,104,112314,2,0,B|240:88|240:88|374:76,1,125,8|0,0:1|3:0,0:0:0:0:
398,129,112764,2,0,L|466:141,1,62.5,2|8,0:0|0:0,0:0:0:0:
332,237,113214,101,4,0:1:0:0:
332,237,113289,1,0,0:0:0:0:
256,193,113514,70,0,L|123:178,1,125,0|0,3:0|0:0,0:0:0:0:
76,131,113964,1,0,0:0:0:0:
134,198,114114,2,0,L|258:183,1,125,8|0,3:2|0:0,0:0:0:0:
320,145,114564,1,0,0:0:0:0:
262,196,114714,1,0,3:0:0:0:
324,352,115314,5,8,0:0:0:0:
385,325,115464,1,0,0:0:0:0:
450,334,115614,1,0,0:0:0:0:
198,384,115914,86,0,P|193:340|131:372,1,125,0|0,3:0|0:0,0:0:0:0:
124,362,116514,1,8,0:0:0:0:
83,304,116664,2,0,B|95:294|95:294|116:160,1,125
166,137,117114,54,0,B|163:81|163:81|187:36,2,83.3333333333333,8|2|2,0:1|0:0|0:0,0:0:0:0:
265,118,117714,2,0,B|320:115|320:115|366:139,2,83.3333333333333,8|2|2,0:0|0:0|0:0,0:0:0:0:
234,216,118314,21,0,3:0:0:0:
240,304,118514,1,2,0:0:0:0:
332,297,118714,1,0,0:0:0:0:
325,205,118914,1,10,0:0:0:0:
423,198,119114,1,0,0:0:0:0:
430,291,119314,1,2,0:0:0:0:
336,302,119514,1,8,0:1:0:0:
330,207,119714,1,2,0:0:0:0:
234,215,119914,1,0,0:0:0:0:
242,309,120114,22,0,B|198:283|162:316|162:316|128:348|64:315|64:315|66:273|118:274,1,250,8|0,0:0|0:0,0:0:0:0:
104,273,121314,2,0,P|48:244|112:222,1,125,8|0,0:0|0:0,0:0:0:0:
161,119,121914,53,8,0:1:0:0:
167,31,122114,1,2,0:0:0:0:
259,38,122314,1,0,0:0:0:0:
252,130,122514,1,10,0:0:0:0:
350,137,122714,1,2,0:0:0:0:
357,44,122914,1,0,0:0:0:0:
447,47,123114,70,0,L|480:318,1,250,0|8,3:0|3:2,0:0:0:0:
408,307,123864,1,0,0:0:0:0:
480,304,124014,2,0,L|492:377,1,62.5
412,313,124314,2,0,L|273:334,1,125,0|2,0:0|0:3,0:0:0:0:
175,286,124914,5,8,0:0:0:0:
130,234,125064,1,0,0:0:0:0:
61,214,125214,2,0,B|44:138|44:138|2:95,1,125
343,33,126114,53,8,0:0:0:0:
104,83,127014,1,0,3:0:0:0:
257,49,127314,1,8,0:0:0:0:
470,235,127914,5,0,3:0:0:0:
173,159,128514,1,8,0:0:0:0:
394,218,129414,1,0,3:0:0:0:
246,179,129714,1,8,0:0:0:0:
317,197,129864,1,0,0:0:0:0:
388,216,130014,1,0,0:0:0:0:
409,368,130314,102,0,L|327:348,1,62.5,0|0,3:0|0:0,0:0:0:0:
348,286,130614,2,0,L|273:267,1,62.5
206,344,130914,6,0,L|124:324,1,62.5,8|0,0:0|0:0,0:0:0:0:
145,246,131214,2,0,L|70:227,1,62.5
42,134,131514,102,0,L|124:114,1,62.5
147,32,131814,2,0,L|222:13,1,62.5,0|0,3:0|0:0,0:0:0:0:
301,11,132114,6,0,L|383:31,1,62.5,8|0,0:0|0:0,0:0:0:0:
429,132,132414,2,0,L|504:151,1,62.5
310,195,132714,22,0,L|180:164,1,125,0|0,3:0|0:0,0:0:0:0:
310,171,133314,2,0,L|167:190,1,125,8|0,0:0|0:0,0:0:0:0:
259,110,133764,1,0,0:0:0:0:
255,251,133914,6,0,L|248:380,1,125,8|0,0:1|0:0,0:0:0:0:
177,369,134364,2,0,L|75:358,1,62.5,8|0,0:1|0:0,0:0:0:0:
354,377,134814,1,0,0:0:0:0:
437,244,135114,102,0,L|443:201,3,25,0|0|0|0,1:0|0:0|1:0|0:0,0:0:0:0:
368,234,135714,1,0,1:0:0:0:
304,224,135864,1,0,0:0:0:0:
75,244,137514,6,0,L|69:201,3,25,0|0|0|0,1:0|0:0|1:0|0:0,0:0:0:0:
144,234,138114,1,0,1:0:0:0:
208,224,138264,1,0,0:0:0:0:
465,266,139914,102,0,L|462:295,1,25,0|0,1:0|0:0,0:0:0:0:
397,255,140214,2,0,L|394:284,1,25,0|0,1:0|0:0,0:0:0:0:
408,187,140514,1,0,1:0:0:0:
473,197,140664,1,0,0:0:0:0:
47,266,142314,6,0,L|50:295,1,25,0|0,1:0|0:0,0:0:0:0:
115,255,142614,2,0,L|118:284,1,25,0|0,1:0|0:0,0:0:0:0:
104,187,142914,1,0,1:0:0:0:
39,197,143064,1,0,0:0:0:0:
254,63,143514,86,0,L|256:108,1,25
254,156,143814,2,0,L|258:203,1,25
258,251,144114,2,0,L|259:296,1,25
259,345,144414,2,0,L|261:380,1,25
