osu file format v14

[General]
AudioFilename: audio.mp3
AudioLeadIn: 0
PreviewTime:39114
Countdown: 0
SampleSet: Soft
StackLeniency: 0.7
Mode: 0
LetterboxInBreaks: 0
WidescreenStoryboard: 1

[Editor]
Bookmarks:714,19914,39114,48714,58314,67914,77514,87114,96714,106314,115914,125514,135714,146911
DistanceSpacing: 1.9
BeatDivisor: 4
GridSize: 32
TimelineZoom: 0.7999998

[Metadata]
Title:NULCTRL
TitleUnicode:NULCTRL
Artist:Silentroom
ArtistUnicode:Silentroom
Creator:Nerova Riuz GX
Version:Pattern 01 "EZY"
Source:osu!
Tags:null ctrl control Seville Film Studio MOTION GO BACK 2 YOUR ROOTS G2R2018 FRENZ2018 Climax maimai でらっくす PLUS Deluxe DX+ DX EX BMS MUSYNC MUSYNX N/A Irreversible LMT LMT1996 Nozhomi BOUYAAA Alphabet Zetera Sala- venax Aistre Instrumental Electronic Memory Waves featured artist fa
BeatmapID:1933045
BeatmapSetID:917159

[Difficulty]
HPDrainRate:2.8
CircleSize:2.2
OverallDifficulty:2.6
ApproachRate:2.5
SliderMultiplier:1.28
SliderTickRate:2

[Events]
//Background and Video events
0,0,"stagefile.png"
//Break Periods
2,77714,85614
//Storyboard Layer 0 (Background)
//Storyboard Layer 1 (Fail)
//Storyboard Layer 2 (Pass)
//Storyboard Layer 3 (Foreground)
//Storyboard Layer 4 (Overlay)
//Storyboard Sound Samples

[TimingPoints]
714,600,4,2,1,80,1,0
39114,-100,4,2,1,100,0,1
67914,-100,4,2,1,80,0,0
96714,-100,4,2,1,100,0,1
125514,-100,4,2,1,100,0,0
135114,-100,4,2,1,80,0,0

[Colours]
Combo1 : 65,65,65
Combo2 : 112,43,138
Combo3 : 191,194,67
Combo4 : 85,174,43
Combo5 : 131,61,56
Combo6 : 58,91,177
Combo7 : 255,51,56
Combo8 : 225,225,225

[HitObjects]
352,160,714,101,0,1:0:0:0:
352,256,1314,1,0,1:0:0:0:
352,160,3114,5,0,1:0:0:0:
352,256,3714,1,0,1:0:0:0:
352,160,5514,101,0,1:0:0:0:
352,256,6114,1,0,1:0:0:0:
352,160,7914,5,0,1:0:0:0:
352,256,8514,1,0,1:0:0:0:
256,256,9114,1,0,0:0:0:0:
160,256,9714,1,0,0:0:0:0:
64,256,10314,102,0,L|0:256,2,64,0|0|0,1:0|0:0|1:0,0:0:0:0:
64,256,12714,6,0,L|-32:256,2,64,0|0|0,1:0|0:0|1:0,0:0:0:0:
64,256,15114,102,0,L|-32:256,2,64,0|0|0,1:0|0:0|1:0,0:0:0:0:
64,256,17514,6,0,L|-32:256,2,64,0|0|0,1:0|1:0|1:0,0:0:0:0:
64,160,18714,2,0,L|64:32,1,128
96,32,19614,1,0,0:0:0:0:
128,32,19914,102,0,B|224:32|224:32|224:64,1,128,4|2,3:2|0:0,0:0:0:0:
224,160,21114,1,2,0:0:0:0:
128,160,21714,1,2,0:0:0:0:
128,256,22314,2,0,B|128:320|128:320|192:320,1,128,2|2,0:0|0:0,0:0:0:0:
288,320,23514,2,0,B|287:288|287:288|384:288,1,128,2|2,0:0|0:0,0:0:0:0:
416,288,24414,1,2,3:2:0:0:
448,288,24714,6,0,B|512:288|512:288|512:224,1,128,2|2,3:2|0:0,0:0:0:0:
512,128,25914,1,2,0:0:0:0:
512,32,26514,1,2,0:0:0:0:
416,32,27114,2,0,L|416:160,1,128,2|2,0:0|0:0,0:0:0:0:
416,256,28314,2,0,L|480:256,2,64,2|2|2,0:0|0:0|0:0,0:0:0:0:
384,256,29214,1,0,3:0:0:0:
352,256,29514,102,0,B|352:320|352:320|288:320,2,128,0|0|0,3:0|3:0|3:0,0:0:0:0:
288,192,31314,1,0,3:0:0:0:
224,128,31914,2,0,B|224:64|224:64|288:64,2,128,0|0|0,3:0|3:0|3:0,0:0:0:0:
160,192,33714,1,0,3:0:0:0:
96,256,34314,5,0,3:0:0:0:
256,192,34914,12,0,37314,0:0:0:0:
288,224,38514,101,0,3:0:0:0:
288,320,39114,22,0,B|192:320|192:320|192:288,1,128,4|8,3:2|3:2,0:0:0:0:
192,192,40314,2,0,B|192:96|192:96|160:96,1,128,0|8,3:0|3:2,0:0:0:0:
64,96,41514,1,0,3:0:0:0:
64,192,42114,1,8,3:2:0:0:
64,288,42714,2,0,B|64:320|64:320|160:320,1,128,0|8,3:0|3:2,0:0:0:0:
256,320,43914,22,0,B|352:320|352:320|352:288,1,128,0|8,3:0|3:2,0:0:0:0:
352,256,44814,1,8,0:3:0:0:
352,224,45114,2,0,B|352:192|352:192|448:192,1,128,0|8,3:0|3:2,0:0:0:0:
448,96,46314,54,0,B|448:32|448:32|384:32,3,128,0|0|0|0,3:0|3:0|3:0|0:0,0:0:0:0:
288,32,48714,54,0,L|288:160,1,128,4|8,3:2|0:0,0:0:0:0:
288,256,49914,1,0,0:0:0:0:
288,352,50514,2,0,L|224:352,1,64,8|8,3:2|0:3,0:0:0:0:
192,352,51114,6,0,B|192:320|192:320|96:320,1,128,0|8,3:0|3:2,0:0:0:0:
0,320,52314,2,0,B|0:224|0:224|32:224,1,128,0|8,3:0|3:2,0:0:0:0:
128,224,53514,102,0,L|128:288,2,64,0|2|8,3:0|0:0|3:2,0:0:0:0:
128,128,54714,1,0,3:0:0:0:
128,32,55314,2,0,L|64:32,1,64,8|8,3:2|0:3,0:0:0:0:
32,32,55914,54,0,B|0:32|0:32|0:128,3,128,0|8|0|8,3:0|3:2|0:0|0:0,0:0:0:0:
0,224,58314,38,0,B|64:224|64:224|64:288,1,128,0|8,0:0|0:0,0:0:0:0:
64,320,59214,1,8,0:3:0:0:
64,352,59514,2,0,L|192:352,1,128,0|8,0:0|3:2,0:0:0:0:
192,256,60714,6,0,B|192:224|192:224|288:224,1,128,4|8,3:2|3:2,0:0:0:0:
384,224,61914,1,0,3:0:0:0:
480,224,62514,102,0,B|480:272|480:272|496:288|496:288|496:352,2,128,8|0|8,3:2|3:0|3:2,0:0:0:0:
480,192,64014,1,8,0:3:0:0:
480,160,64314,2,0,B|480:128|480:128|384:128,1,128,0|8,3:0|3:2,0:0:0:0:
288,128,65514,70,0,B|256:128|256:128|256:32,3,128,0|8|0|8,3:0|3:2|3:0|0:0,0:0:0:0:
160,32,67914,21,0,3:0:0:0:
64,32,68514,1,8,0:0:0:0:
160,192,69714,1,8,0:0:0:0:
256,192,70314,53,0,3:0:0:0:
352,192,70914,1,8,0:0:0:0:
448,352,72114,1,8,0:0:0:0:
352,352,72714,54,0,L|352:224,1,128,0|8,3:0|0:0,0:0:0:0:
256,224,73914,2,0,L|256:96,1,128,0|8,0:0|0:0,0:0:0:0:
160,96,75114,86,0,B|160:64|160:64|64:64,2,128,0|8|8,3:0|0:0|0:1,0:0:0:0:
160,128,76614,1,0,0:1:0:0:
160,160,76914,2,0,B|160:192|160:192|256:192,1,128,0|0,0:0|1:0,0:0:0:0:
384,128,87114,6,0,L|384:256,1,128,0|0,3:0|3:0,0:0:0:0:
288,256,88314,1,0,3:0:0:0:
192,256,88914,1,0,3:0:0:0:
96,256,89514,102,0,L|96:128,1,128,0|0,3:0|3:0,0:0:0:0:
192,128,90714,1,0,3:0:0:0:
288,128,91314,1,0,3:0:0:0:
256,192,91914,12,2,95514,0:0:0:0:
448,128,96714,70,0,B|448:160|448:160|352:160,1,128,4|8,3:2|0:0,0:0:0:0:
256,160,97914,2,0,L|256:96,2,64,8|0|8,0:1|3:0|0:0,0:0:0:0:
256,256,99114,22,0,B|256:352|256:352|224:352,1,128,0|8,3:0|0:0,0:0:0:0:
192,352,100014,1,0,3:0:0:0:
160,352,100314,2,0,L|96:352,2,64,8|0|8,0:1|3:0|0:0,0:0:0:0:
160,256,101514,85,0,0:0:0:0:
160,160,102114,2,0,L|224:160,2,64,8|0|8,0:0|3:0|0:1,0:0:0:0:
128,160,103014,1,0,3:0:0:0:
96,160,103314,1,8,0:0:0:0:
0,160,103914,38,0,B|0:64|0:64|32:64,3,128,0|8|0|0,3:0|0:0|0:0|0:0,0:0:0:0:
128,64,106314,54,0,L|128:192,1,128,4|8,0:0|0:0,0:0:0:0:
128,224,107214,1,0,3:0:0:0:
128,256,107514,2,0,L|64:256,2,64,8|0|8,0:1|3:0|0:0,0:0:0:0:
224,256,108714,102,0,B|224:288|224:288|320:288,1,128,0|8,0:0|0:0,0:0:0:0:
352,288,109614,1,0,3:0:0:0:
384,288,109914,1,8,0:1:0:0:
480,288,110514,6,0,B|480:192|480:192|448:192,2,128,8|0|8,0:0|0:0|0:0,0:0:0:0:
480,320,112014,1,0,3:0:0:0:
480,352,112314,2,0,L|352:352,1,128,8|8,0:1|0:0,0:0:0:0:
256,352,113514,54,0,B|256:320|256:320|160:320,3,128,0|8|0|8,3:0|3:2|3:0|0:0,0:0:0:0:
64,320,115914,37,0,3:0:0:0:
64,224,116514,1,8,0:0:0:0:
64,128,117114,2,0,L|0:128,2,64,8|0|8,0:1|3:0|0:0,0:0:0:0:
160,128,118314,22,0,B|160:160|160:160|256:160,1,128,0|10,3:0|0:0,0:0:0:0:
352,160,119514,2,0,L|416:160,1,64,8|0,0:1|3:0,0:0:0:0:
448,160,120114,86,0,B|480:160|480:160|480:256,2,128,8|0|8,0:0|0:0|0:0,0:0:0:0:
352,160,121914,2,0,L|352:96,2,64,8|0|10,0:1|3:0|0:0,0:0:0:0:
352,256,123114,70,0,B|320:256|320:256|320:352,3,128,0|8|0|8,3:0|3:2|0:0|0:0,0:0:0:0:
224,352,125514,85,0,0:0:0:0:
128,352,126114,1,8,0:0:0:0:
160,192,127314,1,8,0:0:0:0:
256,192,127914,101,0,3:0:0:0:
352,192,128514,1,8,0:0:0:0:
384,32,129714,1,8,0:0:0:0:
288,32,130314,6,0,L|288:160,1,128,0|8,3:0|0:0,0:0:0:0:
192,160,131514,2,0,L|192:288,1,128,0|8,0:0|0:0,0:0:0:0:
288,288,132714,38,0,B|288:320|288:320|384:320,2,128,0|8|8,3:0|0:0|0:1,0:0:0:0:
288,256,134214,1,0,0:0:0:0:
288,224,134514,2,0,B|288:192|288:192|192:192,1,128,0|0,0:0|1:0,0:0:0:0:
96,192,135714,101,0,1:0:0:0:
192,192,137514,5,0,1:0:0:0:
96,192,138114,1,0,1:0:0:0:
192,192,139914,101,0,1:0:0:0:
96,192,140514,1,0,1:0:0:0:
192,192,142314,5,0,1:0:0:0:
96,192,142914,1,0,1:0:0:0:
0,192,143514,2,0,L|0:320,1,128
32,320,144414,2,0,L|96:320,1,64,0|0,0:0|1:0,0:0:0:0:
