osu file format v14

[General]
AudioFilename: audio.mp3
AudioLeadIn: 0
PreviewTime: 714
Countdown: 0
SampleSet: Soft
StackLeniency: 0.7
Mode: 0
LetterboxInBreaks: 0
EpilepsyWarning: 1
WidescreenStoryboard: 1

[Editor]
DistanceSpacing: 1
BeatDivisor: 4
GridSize: 8
TimelineZoom: 1.9

[Metadata]
Title:NULCTRL
TitleUnicode:NULCTRL
Artist:Silentroom
ArtistUnicode:Silentroom
Creator:DeviousPanda
Version:NORMAL
Source:
Tags:arcaea mao null control seville film studio motion go back 2 your roots g2r2018 frenz2018 climax maimai でらっくす plus deluxe dx+ dx ex bms musync musynx english instrumental electronic memory waves featured artist fa mbc monthly beatmapping contest #8
BeatmapID:4092805
BeatmapSetID:1969316

[Difficulty]
HPDrainRate:3
CircleSize:3.7
OverallDifficulty:4
ApproachRate:5
SliderMultiplier:1.6
SliderTickRate:1

[Events]
//Background and Video events
0,0,"bg.png",0,0
Video,-1650,"BGA.mp4"
//Break Periods
2,77724,84724
//Storyboard Layer 0 (Background)
//Storyboard Layer 1 (Fail)
//Storyboard Layer 2 (Pass)
//Storyboard Layer 3 (Foreground)
//Storyboard Layer 4 (Overlay)
//Storyboard Sound Samples

[TimingPoints]
724,600,4,2,0,30,1,0
19924,-100,4,2,0,45,0,0
24424,-100,4,2,0,30,0,0
24724,-100,4,2,0,45,0,0
29224,-100,4,2,0,50,0,0
39124,-90.9090909090909,4,2,0,60,0,0
48724,-90.9090909090909,4,2,0,70,0,0
58324,-90.9090909090909,4,2,0,50,0,0
60274,-90.9090909090909,4,2,0,55,0,0
60724,-90.9090909090909,4,2,0,60,0,0
67924,-90.9090909090909,4,2,0,50,0,0
72724,-90.9090909090909,4,2,0,60,0,0
77524,-90.9090909090909,4,2,0,40,0,0
87124,-90.9090909090909,4,2,0,50,0,0
97024,-86.9565217391304,4,2,0,70,0,0
115924,-95.2380952380952,4,2,0,70,0,0
125524,-90.9090909090909,4,2,0,50,0,0
130324,-90.9090909090909,4,2,0,60,0,0
135124,-90.9090909090909,4,2,0,30,0,0
142324,-100,4,2,0,30,0,0

[Colours]
Combo1 : 90,88,88
Combo2 : 221,221,221
Combo3 : 166,166,166
Combo4 : 203,122,197
Combo5 : 224,84,84
Combo6 : 216,169,99
Combo7 : 125,151,210
Combo8 : 111,255,129

[HitObjects]
256,192,10324,21,10,3:2:0:0:
256,192,10474,12,10,17524,3:2:0:0:
0,194,19924,102,0,L|161:164,1,160,4|2,1:0|3:2,0:0:0:0:
224,208,20824,2,0,B|240:246|240:246|211:311,1,80,4|10,1:0|3:2,0:0:0:0:
153,319,21424,1,10,3:2:0:0:
203,380,21724,1,8,1:2:0:0:
349,315,22324,6,0,L|359:265,1,40,10|2,3:2|3:2,0:0:0:0:
340,239,22624,1,10,3:2:0:0:
399,185,22924,1,8,3:2:0:0:
339,131,23224,2,0,B|323:93|323:93|349:41,1,80,4|8,1:0|1:2,0:0:0:0:
406,14,23824,1,8,3:2:0:0:
474,54,24124,1,10,3:2:0:0:
461,138,24424,101,8,1:2:0:0:
461,138,24574,1,8,1:2:0:0:
461,138,24724,2,0,L|489:327,1,160,4|8,1:0|3:2,0:0:0:0:
435,359,25624,2,0,B|400:372|400:372|337:333,1,80,4|8,1:0|3:2,0:0:0:0:
331,276,26224,1,8,3:2:0:0:
271,329,26524,1,8,3:2:0:0:
219,268,26824,2,0,L|209:212,1,40,8|2,3:2|3:2,0:0:0:0:
231,193,27124,1,8,3:2:0:0:
162,151,27424,1,8,3:2:0:0:
206,84,27724,1,8,3:2:0:0:
59,19,28324,5,8,3:2:0:0:
11,83,28624,1,8,3:2:0:0:
70,136,28924,1,8,3:2:0:0:
21,199,29224,1,8,1:2:0:0:
81,251,29524,102,0,L|177:227,1,80,8|8,1:0|0:0,0:0:0:0:
191,255,29974,1,8,0:0:0:0:
191,255,30124,1,8,1:0:0:0:
261,111,30724,2,0,L|355:135,1,80,8|8,1:0|0:0,0:0:0:0:
372,109,31174,1,2,3:2:0:0:
372,109,31324,1,8,1:0:0:0:
434,159,31624,1,8,0:0:0:0:
381,219,31924,1,8,1:0:0:0:
241,296,32524,5,8,1:0:0:0:
288,360,32824,1,8,3:2:0:0:
357,320,33124,2,0,L|341:234,1,80,8|8,1:0|0:0,0:0:0:0:
281,189,33724,2,0,L|229:176,1,40,8|8,1:0|0:0,0:0:0:0:
222,144,34024,2,0,L|165:161,1,40,8|8,0:0|0:0,0:0:0:0:
161,188,34324,1,8,1:0:0:0:
256,192,34474,12,0,36724,3:0:0:0:
269,0,38524,101,8,1:0:0:0:
288,77,38824,1,4,1:3:0:0:
229,142,39124,6,2,B|152:120|152:120|115:149|115:149|129:203,1,176.000005371094,4|8,1:0|3:1,0:1:0:0:
183,263,40024,2,0,L|282:237,1,88.000002685547,2|0,3:2|1:0,0:0:0:0:
306,262,40474,1,8,3:0:0:0:
360,193,40774,1,8,3:0:0:0:
393,221,40924,2,0,L|462:237,1,44.0000013427735,8|0,1:0|3:0,0:0:0:0:
463,197,41224,2,0,L|446:146,1,44.0000013427735,10|4,3:0|3:0,0:0:0:0:
414,127,41524,5,4,1:0:0:0:
472,61,41824,1,2,3:0:0:0:
399,11,42124,1,8,3:1:0:0:
340,76,42424,2,0,L|218:59,1,88.000002685547,2|0,3:2|1:0,0:0:0:0:
227,27,42874,1,8,3:0:0:0:
155,78,43174,1,8,3:0:0:0:
116,57,43324,2,0,L|97:-2,2,44.0000013427735,8|0|4,1:0|3:2|3:0,0:0:0:0:
79,137,43924,102,2,B|48:175|48:175|66:232|66:232|144:248,1,176.000005371094,4|8,1:0|3:1,0:1:0:0:
218,260,44824,2,0,B|241:220|241:220|220:172,1,88.000002685547,2|0,3:2|1:0,0:0:0:0:
181,169,45274,1,8,3:0:0:0:
216,88,45574,1,8,3:0:0:0:
257,101,45724,2,0,L|321:86,1,44.0000013427735,8|0,1:0|3:0,0:0:0:0:
316,50,46024,2,0,L|382:62,1,44.0000013427735,4|8,3:0|3:0,0:0:0:0:
413,107,46324,69,4,1:2:0:0:
413,107,46924,1,4,1:2:0:0:
413,107,47524,1,4,1:2:0:0:
381,275,48724,38,2,B|318:290|318:290|301:346|301:346|251:361,1,176.000005371094,4|8,1:0|3:1,0:1:0:0:
170,323,49624,2,0,L|190:229,1,88.000002685547,2|4,3:2|1:3,0:0:0:0:
159,210,50074,1,8,3:3:0:0:
159,210,50224,2,0,L|150:139,1,44.0000013427735,2|8,3:0|3:3,0:0:0:0:
183,133,50524,1,8,1:0:0:0:
263,168,50824,1,2,3:0:0:0:
289,84,51124,21,4,1:0:0:0:
449,11,51724,1,8,3:1:0:0:
426,96,52024,2,0,L|445:200,1,88.000002685547,2|0,3:2|1:0,0:0:0:0:
475,211,52474,2,0,L|462:270,1,44.0000013427735,2|0,3:0|0:0,0:0:0:0:
425,272,52774,1,2,3:0:0:0:
425,272,52924,1,8,1:0:0:0:
374,344,53224,85,2,3:0:0:0:
306,287,53524,2,0,L|292:218,2,44.0000013427735,4|4|6,1:0|3:0|3:0,0:0:0:0:
241,347,54124,1,8,3:1:0:0:
170,294,54424,2,0,L|194:187,1,88.000002685547,2|0,3:0|1:0,0:0:0:0:
163,172,54874,2,0,B|130:143|130:143|72:159,1,88.000002685547,2|2,3:2|3:2,0:0:0:0:
62,191,55324,1,8,1:2:0:0:
87,275,55624,1,2,3:0:0:0:
28,347,55924,69,4,1:3:0:0:
28,347,56524,1,4,1:3:0:0:
28,347,57124,1,4,1:3:0:0:
50,157,58324,38,2,B|105:147|105:147|129:112|129:112|234:91,1,176.000005371094,2|8,3:2|3:1,0:1:0:0:
252,22,59224,1,2,3:0:0:0:
365,90,59674,1,2,3:0:0:0:
311,159,59974,1,2,3:0:0:0:
344,187,60124,2,0,L|357:246,1,44.0000013427735,10|8,1:2|1:3,0:0:0:0:
331,268,60424,1,0,1:3:0:0:
408,310,60724,38,2,B|476:258|476:258|428:150,1,176.000005371094,4|8,1:0|3:1,0:1:0:0:
486,100,61624,2,0,L|387:77,1,88.000002685547,2|0,3:2|1:0,0:0:0:0:
384,39,62074,2,0,L|331:52,1,44.0000013427735,2|0,3:0|0:0,0:0:0:0:
305,22,62374,1,2,3:0:0:0:
305,22,62524,1,4,1:0:0:0:
218,175,63124,1,0,1:0:0:0:
70,79,63724,1,8,1:0:0:0:
16,148,64024,70,0,L|37:242,1,88.000002685547,2|0,3:2|1:0,0:0:0:0:
16,274,64474,1,2,3:2:0:0:
102,307,64774,1,2,3:2:0:0:
102,307,64924,2,0,B|128:268|128:268|112:210,1,88.000002685547,8|2,3:2|3:0,0:0:0:0:
88,138,65524,69,4,1:2:0:0:
88,138,66124,1,4,1:2:0:0:
88,138,66724,1,4,1:2:0:0:
265,383,67924,101,0,1:0:0:0:
331,219,68524,1,8,3:2:0:0:
167,153,69124,1,0,3:2:0:0:
134,235,69424,1,2,1:2:0:0:
216,268,69724,1,8,3:2:0:0:
282,104,70324,1,0,1:2:0:0:
118,38,70924,1,8,3:2:0:0:
52,202,71524,1,0,3:2:0:0:
134,235,71824,1,2,1:2:0:0:
167,153,72124,1,8,3:2:0:0:
275,14,72724,69,2,1:2:0:0:
359,36,73024,1,2,3:0:0:0:
337,120,73324,1,2,1:2:0:0:
421,142,73624,1,2,3:0:0:0:
399,226,73924,1,2,1:2:0:0:
483,248,74224,1,2,3:0:0:0:
461,332,74524,1,2,1:2:0:0:
377,310,74824,1,2,3:0:0:0:
304,370,75124,53,6,1:2:0:0:
304,370,75724,1,14,1:2:0:0:
304,370,76324,1,6,1:2:0:0:
256,0,77524,21,2,3:2:0:0:
156,118,85924,118,0,L|215:106,1,44.0000013427735,8|8,0:0|0:0,0:0:0:0:
230,78,86224,2,0,L|278:67,1,44.0000013427735,8|8,0:0|0:0,0:0:0:0:
311,89,86524,1,8,0:0:0:0:
349,111,86674,1,8,0:0:0:0:
334,152,86824,1,8,1:0:0:0:
256,193,87124,5,14,1:2:0:0:
256,192,87274,12,8,94324,3:2:0:0:
50,43,96724,101,4,1:3:0:0:
131,0,97024,2,2,B|169:26|169:26|153:84,1,92.0000017547608,6|0,1:2|0:0,0:1:0:0:
184,106,97474,2,0,L|80:148,1,92.0000017547608,6|0,1:2|0:0,0:0:0:0:
55,123,97924,2,0,B|17:149|17:149|42:253,1,138.000002632141,6|2,3:2|3:2,0:0:0:0:
84,271,98524,1,8,1:3:0:0:
84,271,98674,1,8,1:3:0:0:
84,271,98824,2,0,L|74:330,1,46.0000008773804,4|4,1:3|3:0,0:0:0:0:
40,345,99124,1,4,1:3:0:0:
126,384,99424,38,2,B|154:378|154:378|167:363|167:363|220:349,1,92.0000017547608,6|8,1:2|1:0,0:1:0:0:
233,312,99874,1,6,1:2:0:0:
233,312,100024,2,0,L|289:330,1,46.0000008773804,4|0,1:3|0:0,0:0:0:0:
313,297,100324,1,6,1:2:0:0:
386,351,100624,1,4,1:3:0:0:
426,328,100774,1,2,3:2:0:0:
413,283,100924,1,8,3:0:0:0:
250,195,101524,69,8,1:3:0:0:
190,124,101824,2,2,L|94:145,1,92.0000017547608,6|0,1:2|0:0,0:1:0:0:
75,183,102274,2,0,B|54:225|54:225|93:272,1,92.0000017547608,6|0,3:2|0:0,0:0:0:0:
109,297,102724,2,0,L|173:282,1,46.0000008773804,6|0,1:2|0:0,0:0:0:0:
183,252,103024,1,2,3:0:0:0:
183,252,103174,1,6,1:2:0:0:
261,299,103474,1,4,3:0:0:0:
278,341,103624,2,0,L|333:357,1,46.0000008773804,12|8,3:0|3:0,0:0:0:0:
386,335,103924,85,4,1:2:0:0:
386,335,104524,1,4,1:2:0:0:
386,335,105124,1,4,1:2:0:0:
512,121,106324,21,2,1:2:0:0:
441,180,106624,2,2,B|394:188|394:188|354:151,1,92.0000017547608,6|0,1:2|0:0,0:1:0:0:
318,174,107074,2,0,L|302:101,1,46.0000008773804,6|0,3:2|0:0,0:0:0:0:
271,100,107374,1,0,3:0:0:0:
271,100,107524,1,6,1:2:0:0:
201,159,107824,1,4,1:3:0:0:
171,123,107974,2,0,L|194:22,1,92.0000017547608,6|2,1:2|3:2,0:0:0:0:
158,0,108424,1,2,3:0:0:0:
69,26,108724,53,4,1:3:0:0:
8,95,109024,2,2,B|43:125|43:125|108:107,1,92.0000017547608,6|0,1:2|0:0,0:1:0:0:
98,157,109474,2,0,L|65:279,1,92.0000017547608,6|0,3:2|0:0,0:0:0:0:
33,269,109924,1,6,1:2:0:0:
97,334,110224,1,4,1:3:0:0:
139,352,110374,2,0,L|215:328,1,46.0000008773804,6|6,1:2|1:2,0:0:0:0:
315,210,111124,53,8,3:0:0:0:
397,251,111424,2,2,B|422:213|422:213|408:156,1,92.0000017547608,6|0,1:2|0:0,0:1:0:0:
441,133,111874,2,0,L|374:115,1,46.0000008773804,6|0,3:2|0:0,0:0:0:0:
370,82,112174,1,0,3:0:0:0:
370,82,112324,2,0,L|260:108,1,92.0000017547608,6|0,1:2|3:0,0:0:0:0:
244,83,112774,1,6,1:2:0:0:
244,83,112924,1,8,1:0:0:0:
295,6,113224,1,2,3:0:0:0:
400,0,113524,85,4,1:3:0:0:
400,0,114124,1,4,1:3:0:0:
400,0,114724,1,4,1:3:0:0:
310,251,115924,6,0,P|269:235|216:238,1,83.9999974365235,0|2,3:0|3:0,0:0:0:0:
152,269,116524,2,0,P|120:219|130:154,1,111.999996582031,8|2,1:2|3:0,0:0:0:0:
160,126,117124,1,14,1:2:0:0:
238,154,117424,1,0,1:0:0:0:
292,90,117724,2,0,P|302:52|295:18,2,55.9999982910157,14|10|10,1:2|3:2|3:2,0:0:0:0:
329,132,118324,54,0,P|391:117|424:69,1,111.999996582031,8|8,1:3|3:2,0:0:0:0:
470,105,118924,2,0,P|478:140|462:175,1,55.9999982910157,10|2,1:2|3:2,0:0:0:0:
425,189,119324,1,2,3:2:0:0:
453,237,119524,1,10,1:2:0:0:
386,288,119824,1,0,1:0:0:0:
316,241,120124,1,14,1:0:0:0:
52,31,121324,54,0,P|103:42|125:157,1,167.999994873047,14|14,1:0|1:2,0:0:0:0:
84,170,122124,1,8,1:2:0:0:
114,216,122324,1,8,3:2:0:0:
71,252,122524,2,0,P|57:294|53:325,1,55.9999982910157,14|10,1:2|3:2,0:0:0:0:
88,350,122924,1,10,3:2:0:0:
153,333,123124,101,14,1:2:0:0:
153,333,123724,1,14,1:2:0:0:
153,333,124324,1,14,1:2:0:0:
251,383,125524,101,0,1:0:0:0:
185,219,126124,1,8,3:2:0:0:
349,153,126724,1,0,3:2:0:0:
382,235,127024,1,2,1:2:0:0:
300,268,127324,1,8,3:2:0:0:
234,104,127924,1,0,1:2:0:0:
398,38,128524,1,8,3:2:0:0:
464,202,129124,1,0,3:2:0:0:
382,235,129424,1,2,1:2:0:0:
349,153,129724,1,8,3:2:0:0:
241,14,130324,85,2,1:2:0:0:
157,36,130624,1,2,3:0:0:0:
179,120,130924,1,2,1:2:0:0:
95,142,131224,1,2,3:0:0:0:
117,226,131524,1,2,1:2:0:0:
33,248,131824,1,2,3:0:0:0:
55,332,132124,1,2,1:2:0:0:
139,310,132424,1,2,3:0:0:0:
221,368,132724,37,6,1:2:0:0:
221,368,133324,1,14,1:2:0:0:
221,368,133924,1,6,3:2:0:0:
238,111,135124,21,2,3:2:0:0:
256,192,135274,12,0,136924,0:0:0:0:
222,268,137524,5,2,3:2:0:0:
256,192,137674,12,0,139324,0:0:0:0:
327,149,139924,101,2,3:2:0:0:
256,192,140074,12,0,141724,0:0:0:0:
173,184,142324,5,2,3:2:0:0:
289,293,142924,1,8,3:2:0:0:
352,244,143224,1,8,3:2:0:0:
303,180,143524,2,0,L|288:104,1,40,8|8,3:2|3:2,0:0:0:0:
267,111,143824,2,0,L|256:61,1,40,8|8,3:2|3:2,0:0:0:0:
279,37,144124,1,8,3:2:0:0:
354,64,144424,102,0,L|403:78,1,40,8|8,3:2|3:2,0:0:0:0:
