osu file format v14

[General]
AudioFilename: audio.mp3
AudioLeadIn: 0
PreviewTime: 714
Countdown: 0
SampleSet: Soft
StackLeniency: 0.7
Mode: 0
LetterboxInBreaks: 0
EpilepsyWarning: 1
WidescreenStoryboard: 1

[Editor]
DistanceSpacing: 0.9
BeatDivisor: 8
GridSize: 8
TimelineZoom: 1.9

[Metadata]
Title:NULCTRL
TitleUnicode:NULCTRL
Artist:Silentroom
ArtistUnicode:Silentroom
Creator:DeviousPanda
Version:EASY
Source:
Tags:arcaea mao null control seville film studio motion go back 2 your roots g2r2018 frenz2018 climax maimai でらっくす plus deluxe dx+ dx ex bms musync musynx english instrumental electronic memory waves featured artist fa mbc monthly beatmapping contest #8
BeatmapID:4092803
BeatmapSetID:1969316

[Difficulty]
HPDrainRate:2.5
CircleSize:3
OverallDifficulty:3
ApproachRate:4
SliderMultiplier:1.3
SliderTickRate:1

[Events]
//Background and Video events
0,0,"bg.png",0,0
Video,-1650,"BGA.mp4"
//Break Periods
2,77724,79804
//Storyboard Layer 0 (Background)
//Storyboard Layer 1 (Fail)
//Storyboard Layer 2 (Pass)
//Storyboard Layer 3 (Foreground)
//Storyboard Layer 4 (Overlay)
//Storyboard Sound Samples

[TimingPoints]
724,600,4,2,0,30,1,0
19924,-100,4,2,0,45,0,0
24424,-100,4,2,0,30,0,0
24724,-100,4,2,0,45,0,0
29224,-100,4,2,0,50,0,0
39124,-90.9090909090909,4,2,0,60,0,0
48724,-90.9090909090909,4,2,0,70,0,0
58324,-90.9090909090909,4,2,0,50,0,0
60274,-90.9090909090909,4,2,0,55,0,0
60724,-90.9090909090909,4,2,0,60,0,0
67924,-100,4,2,0,50,0,0
72724,-100,4,2,0,60,0,0
77524,-100,4,2,0,40,0,0
87124,-100,4,2,0,50,0,0
96724,-90.9090909090909,4,2,0,50,0,0
97024,-90.9090909090909,4,2,0,70,0,0
125524,-90.9090909090909,4,2,0,50,0,0
130324,-90.9090909090909,4,2,0,60,0,0
135124,-90.9090909090909,4,2,0,30,0,0

[Colours]
Combo1 : 90,88,88
Combo2 : 221,221,221
Combo3 : 166,166,166
Combo4 : 203,122,197
Combo5 : 224,84,84
Combo6 : 216,169,99
Combo7 : 125,151,210
Combo8 : 111,255,129

[HitObjects]
256,192,10324,21,10,3:2:0:0:
256,192,10474,12,10,17524,3:2:0:0:
54,323,19924,102,0,L|204:292,1,130,4|2,1:0|3:2,0:0:0:0:
225,258,20824,1,4,1:0:0:0:
193,208,21124,1,10,3:2:0:0:
248,105,21724,1,8,1:2:0:0:
152,37,22324,1,10,3:2:0:0:
110,78,22624,1,10,3:2:0:0:
138,128,22924,1,8,3:2:0:0:
251,97,23524,2,0,L|383:64,1,130,8|10,1:2|3:2,0:0:0:0:
427,95,24424,1,8,1:2:0:0:
405,149,24724,5,4,1:0:0:0:
485,233,25324,1,8,3:2:0:0:
403,316,25924,1,8,3:2:0:0:
345,306,26224,1,8,3:2:0:0:
286,299,26524,1,8,3:2:0:0:
184,240,27124,2,0,B|150:291|150:291|184:365,1,130,8|8,3:2|3:2,0:0:0:0:
234,370,28024,1,8,0:0:0:0:
270,324,28324,1,8,3:2:0:0:
236,211,28924,1,8,3:2:0:0:
120,230,29524,101,8,1:0:0:0:
91,116,30124,1,8,1:0:0:0:
204,87,30724,1,8,1:0:0:0:
318,65,31324,1,8,1:0:0:0:
348,177,31924,1,8,1:0:0:0:
291,192,32224,1,8,0:0:0:0:
234,207,32524,1,8,1:0:0:0:
266,319,33124,1,8,1:0:0:0:
380,294,33724,2,0,L|358:213,1,65,8|8,1:0|0:0,0:0:0:0:
348,177,34324,1,8,1:0:0:0:
256,192,34624,12,0,36724,3:0:0:0:
75,59,39124,6,2,B|128:15|128:15|212:60,1,143.000004364014,4|8,1:0|3:1,0:1:0:0:
221,107,40024,1,2,3:2:0:0:
158,180,40474,1,8,3:0:0:0:
216,256,40924,2,0,L|292:238,1,71.5000021820069,8|10,1:0|3:0,0:0:0:0:
343,267,41524,2,2,B|379:200|379:200|332:133,1,143.000004364014,4|8,1:0|3:1,0:1:0:0:
289,106,42424,1,2,3:2:0:0:
363,45,42874,1,8,3:0:0:0:
438,105,43324,1,8,1:0:0:0:
386,220,43924,6,2,L|220:261,1,143.000004364014,4|8,1:0|3:1,0:1:0:0:
193,218,44824,1,2,3:2:0:0:
98,235,45274,1,8,3:0:0:0:
119,329,45724,1,8,1:0:0:0:
182,316,46024,1,4,3:0:0:0:
240,352,46324,53,4,1:2:0:0:
248,223,46924,1,4,1:2:0:0:
257,94,47524,1,4,1:2:0:0:
453,8,48724,38,2,B|502:63|502:63|474:130,1,143.000004364014,4|8,1:0|3:1,0:1:0:0:
425,168,49624,2,0,L|331:141,1,71.5000021820069,2|4,3:2|1:3,0:0:0:0:
319,95,50224,1,2,3:0:0:0:
262,126,50524,1,8,1:0:0:0:
315,242,51124,1,4,1:0:0:0:
203,306,51724,2,0,L|131:323,1,71.5000021820069,8|2,3:1|3:2,0:0:0:0:
83,281,52324,1,0,1:0:0:0:
139,165,52924,1,8,1:0:0:0:
98,115,53224,1,2,3:0:0:0:
137,63,53524,22,0,L|225:82,2,71.5000021820069,4|6|8,1:0|3:0|3:1,0:0:0:0:
92,16,54424,1,2,3:0:0:0:
1,46,54874,1,2,3:2:0:0:
32,138,55324,1,8,1:2:0:0:
0,298,55924,37,4,1:3:0:0:
0,298,56524,1,4,1:3:0:0:
0,298,57124,1,4,1:3:0:0:
248,363,58324,38,2,B|296:354|296:354|311:318|311:318|378:302,1,143.000004364014,2|8,3:2|3:1,0:1:0:0:
421,334,59224,1,2,3:0:0:0:
487,264,59674,1,2,3:0:0:0:
432,184,60124,1,10,1:2:0:0:
506,79,60724,2,2,L|360:49,1,143.000004364014,4|8,1:0|3:1,0:1:0:0:
318,5,61624,1,2,3:2:0:0:
270,48,61924,2,0,L|282:126,1,71.5000021820069,0|0,1:0|3:0,0:0:0:0:
244,172,62524,37,4,1:0:0:0:
131,109,63124,1,0,1:0:0:0:
24,180,63724,1,8,1:0:0:0:
49,239,64024,2,0,L|207:277,1,143.000004364014,2|0,3:2|3:0,0:0:0:0:
233,318,64924,1,8,3:2:0:0:
289,287,65224,1,2,3:0:0:0:
338,347,65524,21,4,1:2:0:0:
338,347,66124,1,4,1:2:0:0:
338,347,66724,1,4,1:2:0:0:
482,184,67924,102,0,B|504:121|504:121|452:49,1,130,0|8,1:0|3:2,0:0:0:0:
361,121,69124,1,0,3:2:0:0:
276,40,69724,1,8,3:2:0:0:
205,133,70324,2,0,L|227:275,1,130,0|8,1:2|3:2,0:0:0:0:
133,335,71524,1,0,3:2:0:0:
43,259,72124,1,8,3:2:0:0:
113,165,72724,70,0,L|256:132,1,130,2|2,1:2|1:2,0:0:0:0:
282,175,73624,1,2,3:0:0:0:
328,139,73924,2,0,L|415:161,1,65,2|2,1:2|3:0,0:0:0:0:
442,126,74524,2,0,B|456:94|456:94|440:56,1,65,2|2,1:2|3:0,0:0:0:0:
393,41,75124,53,6,1:2:0:0:
393,41,75724,1,14,1:2:0:0:
393,41,76324,1,6,1:2:0:0:
150,112,77524,21,2,3:2:0:0:
256,192,81124,12,8,85924,0:0:0:0:
104,22,87124,5,14,1:2:0:0:
219,39,87724,1,8,1:2:0:0:
331,58,88324,1,8,1:2:0:0:
441,74,88924,1,8,1:2:0:0:
425,190,89524,101,8,1:2:0:0:
315,174,90124,1,8,1:2:0:0:
203,155,90724,1,8,1:2:0:0:
88,138,91324,1,8,1:2:0:0:
17,231,91924,6,0,B|-14:291|-14:291|16:347,1,130,8|8,1:2|1:2,0:0:0:0:
62,310,92824,1,8,0:2:0:0:
108,344,93124,1,8,0:2:0:0:
201,273,93724,1,8,0:0:0:0:
303,329,94324,2,0,B|329:194,1,130,8|8,3:2|0:0,0:0:0:0:
234,130,95524,1,8,0:0:0:0:
180,106,95824,1,8,0:0:0:0:
137,146,96124,1,8,0:0:0:0:
101,269,96724,101,4,1:3:0:0:
43,297,97024,2,2,B|17:260|17:260|47:185,2,107.25000327301,6|6|6,1:2|1:2|3:2,0:1:0:0:
160,350,98524,2,0,L|242:325,1,71.5000021820069,8|4,1:3|1:3,0:0:0:0:
270,280,99124,1,4,1:3:0:0:
331,299,99424,2,2,B|357:262|357:262|327:187,2,107.25000327301,6|6|6,1:2|1:2|1:2,0:1:0:0:
226,224,100924,37,8,3:0:0:0:
292,114,101524,1,8,1:3:0:0:
258,58,101824,2,2,B|222:35|222:35|135:67,2,107.25000327301,6|6|6,1:2|3:2|1:2,0:1:0:0:
190,167,103324,1,8,1:0:0:0:
58,109,103924,37,4,1:2:0:0:
58,109,104524,1,4,1:2:0:0:
58,109,105124,1,4,1:2:0:0:
175,315,106324,21,2,1:2:0:0:
230,348,106624,2,2,B|260:341|260:341|269:321|269:321|346:301,2,107.25000327301,6|6|6,1:2|3:2|1:2,0:1:0:0:
127,270,108124,1,8,1:0:0:0:
217,178,108724,1,4,1:3:0:0:
166,138,109024,2,2,B|136:131|136:131|127:111|127:111|50:91,2,107.25000327301,6|6|6,1:2|3:2|1:2,0:1:0:0:
264,54,110524,53,6,1:2:0:0:
366,131,111124,1,8,3:0:0:0:
326,181,111424,2,2,L|311:301,2,107.25000327301,6|6|6,1:2|3:2|1:2,0:1:0:0:
421,95,112924,1,8,1:0:0:0:
296,13,113524,21,4,1:3:0:0:
296,13,114124,1,4,1:3:0:0:
296,13,114724,1,4,1:3:0:0:
133,197,115924,6,0,B|202:174|202:174|258:231,1,143.000004364014,0|8,3:0|1:2,0:0:0:0:
212,275,116824,1,0,3:0:0:0:
249,327,117124,1,14,1:2:0:0:
373,293,117724,1,14,1:2:0:0:
342,167,118324,1,8,1:3:0:0:
469,147,118924,1,10,1:2:0:0:
460,83,119224,1,2,3:0:0:0:
452,19,119524,1,10,1:2:0:0:
323,27,120124,1,14,1:0:0:0:
377,278,121324,53,14,1:0:0:0:
252,310,121924,1,14,1:2:0:0:
240,246,122224,1,2,1:3:0:0:
230,182,122524,1,14,1:2:0:0:
276,38,123124,37,14,1:2:0:0:
276,38,123724,1,14,1:2:0:0:
276,38,124324,1,14,1:2:0:0:
37,135,125524,102,0,B|-2:198|-2:198|39:272,1,143.000004364014,0|8,1:0|3:2,0:0:0:0:
149,207,126724,1,0,3:2:0:0:
216,316,127324,1,8,3:2:0:0:
299,217,127924,2,0,L|330:57,1,143.000004364014,0|8,1:2|3:2,0:0:0:0:
440,17,129124,1,0,3:2:0:0:
494,133,129724,1,8,3:2:0:0:
416,235,130324,86,0,L|265:277,1,143.000004364014,2|2,1:2|1:2,0:0:0:0:
232,318,131224,1,2,3:0:0:0:
185,273,131524,2,0,L|209:189,1,71.5000021820069,2|2,1:2|3:0,0:0:0:0:
255,164,132124,1,2,1:2:0:0:
223,107,132424,1,2,3:0:0:0:
286,73,132724,37,6,1:2:0:0:
286,73,133324,1,14,1:2:0:0:
286,73,133924,1,6,3:2:0:0:
341,310,135124,21,2,3:2:0:0:
256,192,135424,12,8,144574,3:2:0:0:
