osu file format v14

[General]
AudioFilename: audio.mp3
AudioLeadIn: 0
PreviewTime: 39366
Countdown: 0
SampleSet: Normal
StackLeniency: 0.7
Mode: 2
LetterboxInBreaks: 0
WidescreenStoryboard: 0

[Editor]
DistanceSpacing: 0.9
BeatDivisor: 4
GridSize: 32
TimelineZoom: 1.7

[Metadata]
Title:NULCTRL
TitleUnicode:NULCTRL
Artist:Silentroom
ArtistUnicode:Silentroom
Creator:-Plus-
Version:Pattern 00
Source:BMS
Tags:go back 2 your roots 2018 g2r2018
BeatmapID:1978075
BeatmapSetID:947078

[Difficulty]
HPDrainRate:0
CircleSize:5
OverallDifficulty:5
ApproachRate:5
SliderMultiplier:3.59999990463257
SliderTickRate:1

[Events]
//Background and Video events
0,0,"stagefile.png",0,0
//Break Periods
//Storyboard Layer 0 (Background)
//Storyboard Layer 1 (Fail)
//Storyboard Layer 2 (Pass)
//Storyboard Layer 3 (Foreground)
//Storyboard Sound Samples

[TimingPoints]
966,600,4,1,0,50,1,0
20166,-12.5,4,1,0,50,0,0
20466,-66.6666666666667,4,1,0,50,0,0
20766,-66.6666666666667,4,1,0,50,0,0
21366,-66.6666666666667,4,1,0,50,0,0
21966,-66.2251655629139,4,1,0,50,0,0
22566,-65.7894736842105,4,1,0,50,0,0
23166,-65.7894736842105,4,1,0,50,0,0
23766,-64.9350649350649,4,1,0,50,0,0
24366,-64.5161290322581,4,1,0,50,0,0
24966,-64.1025641025641,4,1,0,50,0,0
25566,-63.2911392405063,4,1,0,50,0,0
26166,-62.5,4,1,0,50,0,0
26766,-61.7283950617284,4,1,0,50,0,0
27366,-60.9756097560976,4,1,0,50,0,0
27966,-59.8802395209581,4,1,0,50,0,0
28566,-59.1715976331361,4,1,0,50,0,0
29166,-58.1395348837209,4,1,0,50,0,0
29766,-57.1428571428571,4,1,0,50,0,0
37566,300,4,1,0,50,1,0
37566,-12.5,4,1,0,50,0,0
38466,600,4,1,0,50,1,0
38466,-66.6666666666667,4,1,0,50,0,0
38766,588.235294117647,4,1,0,50,1,0
38766,-66.6666666666667,4,1,0,50,0,0
39066,600,4,1,0,50,1,0
39366,294.117647058824,4,1,0,50,1,0
39366,-12.5,4,1,0,50,0,0
39666,294.117647058824,4,1,0,50,1,0
39666,-12.5,4,1,0,50,0,0
39966,600,4,1,0,50,1,0
39966,-66.6666666666667,4,1,0,50,0,0
40566,-57.1428571428571,4,1,0,50,0,0
41766,294.117647058824,4,1,0,50,1,0
41766,-12.5,4,1,0,50,0,0
42066,294.117647058824,4,1,0,50,1,0
42066,-12.5,4,1,0,50,0,0
42366,600,4,1,0,50,1,0
42966,-57.1428571428571,4,1,0,50,0,0
44166,300,4,1,0,50,1,0
44166,-12.5,4,1,0,50,0,0
44466,75,4,1,0,50,1,0
44466,-181.818181818182,4,1,0,50,0,0
44470,296,4,1,0,50,1,0
44470,-12.5,4,1,0,50,0,0
44766,600,4,1,0,50,1,0
45366,-57.1428571428571,4,1,0,50,0,0
46566,600,4,1,0,50,1,0
46566,-12.5,4,1,0,50,0,0
47166,-100,4,1,0,50,0,0
48366,600,4,1,0,50,1,0
48366,-57.1428571428571,4,1,0,50,0,0
48966,2388.05970149254,4,1,0,50,1,0
48966,-10,4,1,0,50,0,0
49266,600,4,1,0,50,1,0
49266,-66.6666666666667,4,1,0,50,0,0
51366,294.117647058824,4,1,0,50,1,0
51366,-12.5,4,1,0,50,0,0
51666,294.117647058824,4,1,0,50,1,0
51666,-12.5,4,1,0,50,0,0
51966,600,4,1,0,50,1,0
52566,-57.1428571428571,4,1,0,50,0,0
53766,150,4,1,0,50,1,0
53766,-66.6666666666667,4,1,0,50,0,0
53776,150,4,1,0,50,1,0
53776,-66.6666666666667,4,1,0,50,0,0
54366,600,4,1,0,50,1,0
54366,-66.6666666666667,4,1,0,50,0,0
54966,-57.1428571428571,4,1,0,50,0,0
56166,300,4,1,0,50,1,0
56166,-25,4,1,0,50,0,0
57366,600,4,1,0,50,1,0
57366,-12.5,4,1,0,50,0,0
57966,600,4,1,0,50,1,0
57966,-66.6666666666667,4,1,0,50,0,0
58266,2100,4,1,0,50,1,0
58266,-10,4,1,0,50,0,0
58566,600,4,1,0,50,1,0
60966,294.117647058824,4,1,0,50,1,0
60966,-12.5,4,1,0,50,0,0
61266,294.117647058824,4,1,0,50,1,0
61266,-12.5,4,1,0,50,0,0
61566,600,4,1,0,50,1,0
61566,-66.6666666666667,4,1,0,50,0,0
62166,-57.1428571428571,4,1,0,50,0,0
65766,-12.5,4,1,0,50,0,0
67566,-57.1428571428571,4,1,0,50,0,0
68166,-100,4,1,0,50,0,0
75366,600,4,1,0,50,1,0
75366,-10,4,1,0,50,0,0
75666,588.235294117647,4,1,0,50,1,0
75666,-66.6666666666667,4,1,0,50,0,0
75966,588.235294117647,4,1,0,50,1,0
75966,-10,4,1,0,50,0,0
76266,600,4,1,0,50,1,0
76266,-66.6666666666667,4,1,0,50,0,0
76416,566.037735849057,4,1,0,50,1,0
76416,-66.6666666666667,4,1,0,50,0,0
76566,1162,4,1,0,50,1,0
76866,824,4,1,0,50,1,0
77166,486,4,1,0,50,1,0
77466,148,4,1,0,50,1,0
77766,600,4,1,0,50,1,0
78666,1500,4,1,0,50,1,0
80166,600,4,1,0,50,1,0
81066,1500,4,1,0,50,1,0
82566,600,4,1,0,50,1,0
83466,1500,4,1,0,50,1,0
84966,600,4,1,0,50,1,0
87366,-100,4,1,0,50,0,0

[Colours]
Combo1 : 128,128,128
Combo2 : 192,192,192

[HitObjects]
348,356,8166,5,0,0:0:0:0:
354,356,8766,5,0,0:0:0:0:
360,356,9366,5,0,0:0:0:0:
366,356,9516,5,0,0:0:0:0:
372,356,9666,5,0,0:0:0:0:
378,356,9816,5,0,0:0:0:0:
384,356,9966,5,0,0:0:0:0:
390,356,10116,5,0,0:0:0:0:
396,356,10266,5,0,0:0:0:0:
402,356,10416,5,0,0:0:0:0:
218,343,10566,6,0,L|208:232,1,89.9999976158143
325,246,10866,6,0,L|315:135,1,89.9999976158143
39,136,11166,6,0,L|129:143,1,89.9999976158143
26,235,11466,5,0,0:0:0:0:
255,225,11766,6,0,P|303:140|228:94,1,179.999995231629
115,99,12216,6,0,L|355:86,1,179.999995231629
156,135,12666,6,0,L|145:247,1,89.9999976158143
294,343,12966,6,0,L|304:232,1,89.9999976158143
187,246,13266,6,0,L|197:135,1,89.9999976158143
472,136,13566,6,0,L|383:143,1,89.9999976158143
486,235,13866,5,0,0:0:0:0:
257,225,14166,6,0,P|209:140|284:94,1,179.999995231629
397,99,14616,6,0,L|157:86,1,179.999995231629
356,135,15066,6,0,L|367:247,1,89.9999976158143
197,253,15366,6,0,L|208:365,1,89.9999976158143
337,277,15666,6,0,L|348:389,1,89.9999976158143
119,175,15966,6,0,L|7:186,1,89.9999976158143
153,253,16266,5,0,0:0:0:0:
362,117,16566,6,0,L|169:101,1,179.999995231629
311,157,17016,6,0,P|335:247|258:291,1,179.999995231629
150,308,17466,6,0,L|41:306,1,89.9999976158143
357,355,17766,5,0,0:0:0:0:
420,325,17916,5,0,0:0:0:0:
420,325,18066,5,0,0:0:0:0:
182,329,18366,5,0,0:0:0:0:
428,371,18516,5,0,0:0:0:0:
420,325,18666,5,0,0:0:0:0:
255,248,18966,5,0,0:0:0:0:
261,247,19003,5,0,0:0:0:0:
267,246,19041,5,0,0:0:0:0:
273,245,19078,5,0,0:0:0:0:
279,244,19116,5,0,0:0:0:0:
285,243,19266,5,0,0:0:0:0:
291,242,19304,5,0,0:0:0:0:
297,241,19341,5,0,0:0:0:0:
303,240,19416,5,0,0:0:0:0:
309,239,19453,5,0,0:0:0:0:
315,238,19491,5,0,0:0:0:0:
318,234,19566,5,0,0:0:0:0:
324,233,19604,5,0,0:0:0:0:
330,232,19641,5,0,0:0:0:0:
336,231,19716,5,0,0:0:0:0:
342,230,19753,5,0,0:0:0:0:
348,229,19791,5,0,0:0:0:0:
351,194,19866,5,0,0:0:0:0:
357,193,19904,5,0,0:0:0:0:
363,192,19941,5,0,0:0:0:0:
366,154,20016,5,0,0:0:0:0:
372,153,20053,5,0,0:0:0:0:
378,152,20091,5,0,0:0:0:0:
384,151,20128,5,0,0:0:0:0:
122,97,20166,6,0,B|405:320|405:320|186:104|186:104|-18:329|-18:329|393:97,1,1439.99996185303
390,99,20466,6,0,L|121:80,1,270.000003147125
121,99,20766,6,0,L|346:82,1,135.000001573563
256,88,20916,6,0,L|121:99,1,135.000001573563
121,99,21066,6,0,L|396:79,1,270.000003147125
391,99,21366,6,0,L|109:79,1,270.000003147125
121,99,21666,6,0,L|390:79,1,270.000003147125
391,99,21966,6,0,L|113:79,1,271.799989689255
121,99,22266,6,0,L|368:84,1,135.899994844628
256,90,22416,6,0,L|107:100,1,135.899994844628
121,99,22566,6,0,L|275:89,1,136.799994706116
257,90,22716,6,0,L|121:99,1,136.799994706116
121,99,22866,6,0,L|400:120,1,273.599989412232
393,119,23166,6,0,L|106:97,1,273.599989412232
121,98,23466,6,0,L|369:118,1,136.799994706116
257,109,23616,6,0,L|101:97,1,136.799994706116
121,98,23766,6,0,L|393:119,1,273.599989412232
393,119,24066,6,0,L|121:98,1,273.599989412232
120,97,24366,6,0,L|261:108,1,139.499997368813
259,107,24516,6,0,L|120:97,1,139.499997368813
120,97,24666,6,0,L|259:107,1,139.499997368813
259,107,24816,6,0,L|120:97,1,139.499997368813
120,97,24966,6,0,L|402:119,1,280.80000198761
399,118,25266,6,0,L|100:111,1,280.80000198761
119,111,25566,6,0,L|370:118,1,142.199999704666
261,115,25716,6,0,L|97:111,1,142.199999704666
119,111,25866,6,0,L|399:118,1,280.80000198761
399,118,26166,6,0,L|96:111,1,287.999992370606
111,111,26466,6,0,L|409:119,1,287.999992370606
398,118,26766,6,0,L|101:111,1,291.599999394379
107,111,27066,6,0,L|357:118,1,145.799999697189
253,115,27216,6,0,L|91:111,1,145.799999697189
107,111,27366,6,0,L|272:116,1,147.599998342133
255,115,27516,6,0,L|92:110,1,147.599998342133
107,110,27666,6,0,L|409:118,1,295.199996684265
402,117,27966,6,0,L|94:110,1,300.599982633897
101,110,28266,6,0,L|360:116,1,150.299991316948
251,113,28416,6,0,L|101:110,1,150.299991316948
101,110,28566,6,0,L|409:118,1,304.199997627564
405,117,28866,6,0,L|86:108,1,304.199997627564
101,108,29166,6,0,L|422:119,1,309.599996522522
411,118,29466,6,0,L|101:108,1,309.599996522522
113,114,29766,6,0,L|89:298,1,157.499997329712
407,41,30066,6,0,L|431:224,1,157.499997329712
248,171,30366,6,0,L|272:354,1,157.499997329712
83,184,30666,5,0,0:0:0:0:
256,193,30816,5,0,0:0:0:0:
407,41,30966,6,0,L|431:224,1,157.499997329712
248,171,31266,6,0,L|272:354,1,157.499997329712
103,41,31566,6,0,L|78:224,1,157.499997329712
262,171,31866,6,0,L|238:354,1,157.499997329712
426,184,32166,5,0,0:0:0:0:
256,193,32316,5,0,0:0:0:0:
83,184,32466,5,0,0:0:0:0:
256,193,32616,5,0,0:0:0:0:
407,41,32766,6,0,L|431:224,1,157.499997329712
262,171,33066,6,0,L|238:354,1,157.499997329712
83,184,33366,5,0,0:0:0:0:
256,193,33516,5,0,0:0:0:0:
103,41,33666,6,0,L|78:224,1,157.499997329712
256,193,33966,5,0,0:0:0:0:
426,184,34116,5,0,0:0:0:0:
256,193,34266,5,0,0:0:0:0:
426,184,34416,5,0,0:0:0:0:
44,357,34566,6,0,L|30:275,1,78.749998664856
249,128,34716,6,0,L|262:50,1,78.749998664856
468,357,34866,6,0,L|482:275,1,78.749998664856
263,128,35016,6,0,L|249:50,1,78.749998664856
91,208,35166,6,0,L|77:126,1,78.749998664856
249,128,35316,6,0,L|262:50,1,78.749998664856
421,208,35466,6,0,L|435:126,1,78.749998664856
263,128,35616,6,0,L|249:50,1,78.749998664856
139,124,35766,6,0,L|125:42,1,78.749998664856
249,128,35916,6,0,L|262:50,1,78.749998664856
373,124,36066,6,0,L|387:42,1,78.749998664856
263,128,36216,6,0,L|249:50,1,78.749998664856
176,100,36366,6,0,L|162:18,1,78.749998664856
249,128,36516,6,0,L|262:50,1,78.749998664856
336,100,36666,6,0,L|350:18,1,78.749998664856
263,128,36816,6,0,L|249:50,1,78.749998664856
0,40,36966,5,0,0:0:0:0:
0,40,37116,5,0,0:0:0:0:
0,40,37266,5,0,0:0:0:0:
0,40,37416,5,0,0:0:0:0:
0,40,37566,6,0,B|569:56|569:56|582:285|582:285|585:92|585:92|599:256|599:256|597:99|597:99|601:251|602:251|590:98|590:98|599:242|599:242|566:58|566:58|598:221|598:221|617:56|617:56|608:194|608:195|603:44|603:44|611:205|611:205|586:34|586:34|599:219,1,2879.99992370606
512,82,37866,5,0,0:0:0:0:
512,82,38016,5,0,0:0:0:0:
512,40,38166,6,0,B|-57:56|-57:56|-70:285|-70:285|-73:92|-73:92|-87:256|-87:256|-85:99|-85:99|-89:251|-90:251|-78:98|-78:98|-87:242|-87:242|-54:58|-54:58|-86:221|-86:221|-105:56|-105:56|-96:194|-96:195|-91:44|-91:44|-99:205|-99:205|-74:34|-74:34|-87:219,1,2879.99992370606
0,82,38466,6,0,L|270:86,1,270.000003147125
242,86,38766,6,0,L|512:82,1,270.000003147125
0,82,39066,5,0,0:0:0:0:
0,82,39366,6,0,B|574:87|574:87|592:349|592:349|573:74|573:74|593:283|593:283|582:26|582:26|571:233|571:233|581:30|581:30|574:294|574:294|151:149|151:149|-46:56,1,2879.99992370606
512,82,39666,6,0,B|-62:87|-62:87|-80:349|-80:349|-61:74|-61:74|-81:283|-81:283|-70:26|-70:26|-59:233|-59:233|-69:30|-69:30|-62:294|-62:294|361:149|361:149|558:56,1,2879.99992370606
512,82,39966,6,0,L|256:170,1,270.000003147125
512,80,40416,5,0,0:0:0:0:
98,312,40566,6,0,L|99:124,1,157.499997329712
256,319,40866,6,0,L|256:128,1,157.499997329712
414,312,41166,5,0,0:0:0:0:
256,320,41316,6,0,L|439:320,1,157.499997329712
99,320,41616,5,0,0:0:0:0:
512,82,41766,6,0,B|-62:87|-62:87|-80:349|-80:349|-61:74|-61:74|-81:283|-81:283|-70:26|-70:26|-59:233|-59:233|-69:30|-69:30|-62:294|-62:294|361:149|361:149|558:56,1,2879.99992370606
0,82,42066,6,0,B|574:87|574:87|592:349|592:349|573:74|573:74|593:283|593:283|582:26|582:26|571:233|571:233|581:30|581:30|574:294|574:294|151:149|151:149|-46:56,1,2879.99992370606
512,52,42366,6,0,P|586:153|608:284,1,179.999995231629
256,232,42816,5,0,0:0:0:0:
414,312,42966,6,0,L|413:124,1,157.499997329712
256,319,43266,6,0,L|256:128,1,157.499997329712
98,312,43566,5,0,0:0:0:0:
414,312,43716,5,0,0:0:0:0:
98,312,43866,6,0,L|289:312,1,157.499997329712
511,76,44166,6,0,B|-74:57|-74:57|-74:321|-74:321|-69:121|-69:121|-39:250|-39:250|-47:268|-47:268|-111:266|-111:266|-116:138|-116:138|-42:180|-42:180|-73:250|-73:250|-97:65|-97:65|-36:98|-36:98|-103:218|-103:218|-176:378|-176:378|-146:132|-146:132|-59:337|-59:337|162:154,1,2879.99992370606
160,155,44466,6,0,B|351:212|351:212|160:154|160:154|351:212|351:212|160:154,1,792.000003189087
160,155,44470,6,0,B|553:156|553:157|563:252|563:252|563:62|563:62|586:311|586:311|582:54|582:54|561:313|561:313|579:2|579:2|585:271|585:271|641:305|641:305|670:69|670:69|152:341,1,2879.99992370606
160,155,44766,6,0,L|378:157,1,179.999995231629
160,155,45216,5,0,0:0:0:0:
414,312,45366,6,0,L|413:124,1,157.499997329712
98,312,45666,6,0,L|99:124,1,157.499997329712
414,312,45966,5,0,0:0:0:0:
256,270,46116,5,0,0:0:0:0:
98,312,46266,5,0,0:0:0:0:
414,312,46416,5,0,0:0:0:0:
98,377,46566,6,0,B|124:198|124:198|137:378|137:378|156:200|156:200|176:378|176:378|197:198|197:198|217:378|217:378|231:201|231:201|255:380|255:380|274:201|274:201|295:379|295:379|311:198|311:198|333:375|333:375|349:194|349:194|373:375|373:375|389:198|389:198|412:375|412:375|122:159|122:159|137:342|137:342|156:168|156:168|176:354|176:354|196:182|196:182|217:362|217:362|231:184|231:184|255:362|255:362|274:180|274:180|293:359|293:359|311:180|311:180|333:361|333:361|349:184|349:184|373:361|373:361|388:182|388:182|109:-43|109:-43|140:138|140:138|153:-40|153:-40|177:137|177:137|191:-45|191:-45|212:132|212:132|231:-46|231:-46|249:137|249:137|271:-41|271:-41|290:134|290:134|304:-49|304:-49|332:127|332:127|348:-51|348:-51|367:132|367:132|391:-45,1,8639.99977111817
98,377,47176,5,0,0:0:0:0:
156,168,47316,5,0,0:0:0:0:
230,184,47466,5,0,0:0:0:0:
311,180,47616,5,0,0:0:0:0:
98,377,47776,5,0,0:0:0:0:
231,6,48066,5,0,0:0:0:0:
391,47,48366,6,0,L|194:47,2,157.499997329712
0,160,48966,6,0,B|-143:-13|-143:-13|-127:301|-127:301|-106:76|-106:76|-91:243|-91:243|-95:122|-95:122|-69:227|-69:227|-85:71|-85:71|-104:227|-104:227|-96:61|-96:61|-103:208|-103:208|-93:80|-95:79|-109:250|-109:250|-109:243|-109:243|-106:130|-106:130|-91:270|-91:270|-115:111|-115:111|-91:320|-91:320|-93:140|-93:140|-106:347|-106:347|-127:156|-127:156|-106:317|-106:317|-82:69,1,3599.99990463257
270,160,49266,6,0,L|0:160,1,270.000003147125
512,160,49866,5,0,0:0:0:0:
512,160,50016,5,0,0:0:0:0:
255,231,50166,6,0,L|256:93,1,135.000001573563
384,191,50466,6,0,L|385:53,1,135.000001573563
512,160,50766,6,0,L|335:160,1,135.000001573563
0,160,51066,6,0,L|177:160,1,135.000001573563
512,82,51366,6,0,B|-62:87|-62:87|-80:349|-80:349|-61:74|-61:74|-81:283|-81:283|-70:26|-70:26|-59:233|-59:233|-69:30|-69:30|-62:294|-62:294|361:149|361:149|558:56,1,2879.99992370606
0,82,51666,6,0,B|574:87|574:87|592:349|592:349|573:74|573:74|593:283|593:283|582:26|582:26|571:233|571:233|581:30|581:30|574:294|574:294|151:149|151:149|-46:56,1,2879.99992370606
512,56,51966,6,0,P|611:165|571:244,1,179.999995231629
256,185,52416,5,0,0:0:0:0:
414,312,52566,6,0,L|413:124,1,157.499997329712
98,312,52866,6,0,L|99:124,1,157.499997329712
256,185,53166,5,0,0:0:0:0:
98,154,53316,5,0,0:0:0:0:
256,185,53466,6,0,L|68:184,1,157.499997329712
452,382,53766,6,0,B|453:-22|453:-22|453:113|453:113|318:113|318:113|318:383|318:383|318:246|318:246|183:246|183:246|183:379|183:379|183:109|183:109|46:108|46:108|46:377|46:377|46:233,1,2160.000025177
452,382,53776,6,0,B|453:-23|453:-23|318:-23|318:-23|318:381|318:381|181:381|181:381|181:-23|181:-23|46:-23|46:-23|46:381|46:381|46:231,1,2160.000025177
46,381,54366,6,0,L|46:144,1,135.000001573563
181,246,54666,6,0,L|46:246,1,135.000001573563
414,312,54966,5,0,0:0:0:0:
256,185,55116,6,0,L|257:-3,1,157.499997329712
97,311,55416,6,0,L|98:123,1,157.499997329712
256,185,55716,5,0,0:0:0:0:
414,312,55866,6,0,L|226:311,1,157.499997329712
511,49,56166,6,0,B|581:245|581:245|565:119|565:119|549:229|549:229|543:84|543:84|541:189|541:189|559:54|559:54|554:173|554:173|535:45|535:45|256:271|256:271|256:88|256:88|256:386|256:386|256:0|256:0|256:212|256:212|-58:36|-58:36|-49:274|-49:274|-78:121|-78:121|-85:229|-85:229|-50:143|-50:143|-53:221|-53:221|-78:89|-78:89|-75:216|-75:216|-59:89|-59:89|256:298|256:298|256:-5|256:-5|256:381|256:381|256:8|256:8|256:26|256:26|597:173,1,5759.99984741211
511,49,56447,5,0,0:0:0:0:
256,298,56747,5,0,0:0:0:0:
1,49,57047,5,0,0:0:0:0:
256,298,57347,5,0,0:0:0:0:
511,382,57366,6,0,B|610:62|610:62|604:328|604:328|508:145|508:145|592:3|592:3|671:404|671:404|575:13|575:13|549:197|549:197|658:319|658:319|644:399|644:399|-18:190,1,2879.99992370606
256,191,57666,5,0,0:0:0:0:
9,198,57966,6,0,L|159:207,2,135.000001573563
9,198,58266,6,0,B|-112:8|-112:8|-90:231|-90:231|-74:303|-74:303|-54:156|-54:156|-98:287|-98:287|-32:291|-32:291|-67:178|-67:178|-96:288|-96:288|-38:271|-38:271|-85:159|-85:159|-80:256|-80:256|-15:268|-15:268|-65:135|-65:135|-126:307|-126:307|-35:74|-35:74|-54:359|-54:359|-99:29|-99:29|-118:371|-118:371|-64:35|-64:35|-83:348,1,3599.99990463257
512,261,58566,6,0,P|498:161|424:122,1,179.999995231629
256,246,59166,6,0,P|242:146|168:107,1,179.999995231629
0,189,59766,6,0,P|9:154|55:119,1,89.9999976158143
256,246,60066,6,0,P|265:211|311:176,1,89.9999976158143
240,261,60516,6,0,P|249:226|295:191,1,89.9999976158143
512,221,60816,5,0,0:0:0:0:
0,82,60966,6,0,B|574:87|574:87|592:349|592:349|573:74|573:74|593:283|593:283|582:26|582:26|571:233|571:233|581:30|581:30|574:294|574:294|151:149|151:149|-46:56,1,2879.99992370606
512,82,61266,6,0,B|-62:87|-62:87|-80:349|-80:349|-61:74|-61:74|-81:283|-81:283|-70:26|-70:26|-59:233|-59:233|-69:30|-69:30|-62:294|-62:294|361:149|361:149|558:56,1,2879.99992370606
0,84,61566,6,0,L|288:84,1,270.000003147125
0,84,62016,5,0,0:0:0:0:
414,312,62166,6,0,L|413:124,1,157.499997329712
98,312,62466,6,0,L|99:124,1,157.499997329712
440,135,62766,5,0,0:0:0:0:
448,135,62766,5,0,0:0:0:0:
362,187,62866,5,0,0:0:0:0:
379,187,62866,5,0,0:0:0:0:
287,238,62966,5,0,0:0:0:0:
318,238,62966,5,0,0:0:0:0:
224,238,63066,5,0,0:0:0:0:
193,238,63066,5,0,0:0:0:0:
132,187,63166,5,0,0:0:0:0:
149,187,63166,5,0,0:0:0:0:
71,135,63266,5,0,0:0:0:0:
63,135,63266,5,0,0:0:0:0:
409,135,63366,5,0,0:0:0:0:
440,135,63366,5,0,0:0:0:0:
362,187,63466,5,0,0:0:0:0:
379,187,63466,5,0,0:0:0:0:
295,238,63566,5,0,0:0:0:0:
287,238,63566,5,0,0:0:0:0:
224,238,63666,5,0,0:0:0:0:
216,238,63666,5,0,0:0:0:0:
149,187,63766,5,0,0:0:0:0:
132,187,63766,5,0,0:0:0:0:
102,135,63866,5,0,0:0:0:0:
71,135,63866,5,0,0:0:0:0:
440,135,63966,6,0,B|440:341|440:341|440:233,1,314.999994659424
256,125,64416,5,0,0:0:0:0:
98,312,64566,6,0,L|99:124,1,157.499997329712
256,282,64866,6,0,L|255:94,1,157.499997329712
414,312,65166,5,0,0:0:0:0:
98,312,65316,6,0,L|286:311,1,157.499997329712
98,312,65616,5,0,0:0:0:0:
414,377,65766,6,0,B|388:198|388:198|375:378|375:378|356:200|356:200|336:378|336:378|315:198|315:198|295:378|295:378|281:201|281:201|257:380|257:380|238:201|238:201|217:379|217:379|201:198|201:198|179:375|179:375|163:194|163:194|139:375|139:375|123:198|123:198|100:375|100:375|390:159|390:159|375:342|375:342|356:168|356:168|336:354|336:354|316:182|316:182|295:362|295:362|281:184|281:184|257:362|257:362|238:180|238:180|219:359|219:359|201:180|201:180|179:361|179:361|163:184|163:184|139:361|139:361|124:182|124:182|403:-43|403:-43|372:138|372:138|359:-40|359:-40|335:137|335:137|321:-45|321:-45|300:132|300:132|281:-46|281:-46|263:137|263:137|241:-41|241:-41|222:134|222:134|208:-49|208:-49|180:127|180:127|164:-51|164:-51|145:132|145:132|121:-45,1,8639.99977111817
414,377,66376,5,0,0:0:0:0:
356,168,66516,5,0,0:0:0:0:
282,184,66666,5,0,0:0:0:0:
201,180,66816,5,0,0:0:0:0:
414,377,66976,5,0,0:0:0:0:
281,6,67266,5,0,0:0:0:0:
121,47,67566,5,0,0:0:0:0:
121,47,67603,5,0,0:0:0:0:
121,47,67641,5,0,0:0:0:0:
121,47,67678,5,0,0:0:0:0:
121,47,67716,5,0,0:0:0:0:
391,47,67866,6,0,L|234:47,1,157.499997329712
430,300,68166,5,0,0:0:0:0:
434,273,68316,5,0,0:0:0:0:
438,246,68466,5,0,0:0:0:0:
252,192,68766,5,0,0:0:0:0:
256,165,68916,5,0,0:0:0:0:
260,138,69066,5,0,0:0:0:0:
82,300,69366,5,0,0:0:0:0:
78,273,69516,5,0,0:0:0:0:
74,246,69666,5,0,0:0:0:0:
260,192,69966,5,0,0:0:0:0:
256,165,70116,5,0,0:0:0:0:
252,138,70266,5,0,0:0:0:0:
430,300,70566,5,0,0:0:0:0:
434,273,70716,5,0,0:0:0:0:
438,246,70866,5,0,0:0:0:0:
54,179,71166,5,0,0:0:0:0:
50,152,71316,5,0,0:0:0:0:
46,125,71466,5,0,0:0:0:0:
458,179,71766,5,0,0:0:0:0:
462,152,71916,5,0,0:0:0:0:
466,125,72066,5,0,0:0:0:0:
82,300,72366,5,0,0:0:0:0:
78,273,72516,5,0,0:0:0:0:
74,246,72666,5,0,0:0:0:0:
430,300,72966,5,0,0:0:0:0:
434,273,73116,5,0,0:0:0:0:
252,192,73266,5,0,0:0:0:0:
256,165,73416,5,0,0:0:0:0:
82,300,73566,5,0,0:0:0:0:
78,273,73716,5,0,0:0:0:0:
260,192,73866,5,0,0:0:0:0:
256,165,74016,5,0,0:0:0:0:
430,300,74166,5,0,0:0:0:0:
434,273,74316,5,0,0:0:0:0:
54,179,74466,5,0,0:0:0:0:
50,152,74616,5,0,0:0:0:0:
458,179,74766,5,0,0:0:0:0:
462,152,74916,5,0,0:0:0:0:
82,300,75066,5,0,0:0:0:0:
78,273,75216,5,0,0:0:0:0:
512,86,75366,6,0,B|594:271|594:271|605:56|605:56|555:324|555:321|553:54|553:54|586:250|587:252|589:52|589:52|554:247|554:247|580:76|580:76|572:220|572:220|560:111|560:111|570:349|570:349|570:70|570:70|537:317|537:317|539:124|539:124|579:206|579:206|666:293|666:293|-13:204|-13:204|-166:377|-166:377|-86:57|-86:57|-15:305|-15:305|-128:235|-128:235|-43:111|-43:111|-53:310|-53:310|-128:111|-128:111|-38:54|-38:54|-81:316|-81:317|-85:28|-85:28|-35:257|-35:257|-134:311|-134:311|-80:155|-80:155|-37:346|-37:346|-11:47|-11:47|533:36,1,7199.99980926514
120,190,75666,6,0,L|389:168,1,270.000003147125
390,168,76266,6,0,L|146:187,1,135.000001573563
255,178,76416,6,0,L|11:197,1,135.000001573563
512,2,76566,6,0,P|624:146|594:354,1,359.999990463257
512,2,76603,5,0,0:0:0:0:
512,2,76641,5,0,0:0:0:0:
512,2,76678,5,0,0:0:0:0:
512,2,76716,5,0,0:0:0:0:
343,0,76866,6,0,L|344:362,1,359.999990463257
343,0,76903,5,0,0:0:0:0:
343,0,77015,5,0,0:0:0:0:
343,0,77053,5,0,0:0:0:0:
169,0,77166,6,0,L|169:378,1,359.999990463257
169,0,77203,5,0,0:0:0:0:
169,0,77315,5,0,0:0:0:0:
169,0,77353,5,0,0:0:0:0:
0,0,77466,6,0,L|-120:358,1,359.999990463257
0,0,77503,5,0,0:0:0:0:
256,353,77766,6,0,L|94:342,1,89.9999976158143
56,268,78066,6,0,L|218:257,1,89.9999976158143
291,237,78366,5,0,0:0:0:0:
168,183,78516,5,0,0:0:0:0:
328,120,78666,6,0,P|377:243|206:365,1,359.999990463257
220,367,80166,6,0,L|382:356,1,89.9999976158143
420,282,80466,6,0,L|258:271,1,89.9999976158143
185,251,80766,5,0,0:0:0:0:
308,197,80916,5,0,0:0:0:0:
148,134,81066,6,0,P|99:257|270:379,1,359.999990463257
255,381,82566,6,0,L|261:251,1,89.9999976158143
124,197,82866,6,0,L|129:66,1,89.9999976158143
282,73,83166,5,0,0:0:0:0:
157,43,83316,5,0,0:0:0:0:
43,32,83466,6,0,L|486:43,1,359.999990463257
402,40,84966,6,0,L|288:51,1,89.9999976158143
206,168,85266,6,0,L|320:178,1,89.9999976158143
36,262,85566,5,0,0:0:0:0:
136,277,85716,5,0,0:0:0:0:
21,329,85866,5,0,0:0:0:0:
474,343,86166,5,0,0:0:0:0:
475,330,86316,5,0,0:0:0:0:
476,317,86466,5,0,0:0:0:0:
477,304,86616,5,0,0:0:0:0:
478,291,86766,5,0,0:0:0:0:
463,294,86803,5,0,0:0:0:0:
441,275,86841,5,0,0:0:0:0:
460,248,86878,5,0,0:0:0:0:
479,278,86916,5,0,0:0:0:0:
463,294,86953,5,0,0:0:0:0:
441,275,86991,5,0,0:0:0:0:
460,248,87028,5,0,0:0:0:0:
480,265,87066,5,0,0:0:0:0:
463,294,87103,5,0,0:0:0:0:
441,275,87141,5,0,0:0:0:0:
460,248,87178,5,0,0:0:0:0:
481,252,87216,5,0,0:0:0:0:
463,294,87253,5,0,0:0:0:0:
441,275,87291,5,0,0:0:0:0:
460,248,87328,5,0,0:0:0:0:
121,192,87366,5,0,0:0:0:0:
210,191,87516,5,0,0:0:0:0:
300,191,87666,5,0,0:0:0:0:
390,191,87816,5,0,0:0:0:0:
114,192,87966,5,0,0:0:0:0:
208,191,88116,5,0,0:0:0:0:
303,191,88266,5,0,0:0:0:0:
397,190,88416,5,0,0:0:0:0:
107,192,88566,5,0,0:0:0:0:
206,191,88716,5,0,0:0:0:0:
305,191,88866,5,0,0:0:0:0:
404,190,89016,5,0,0:0:0:0:
100,192,89166,5,0,0:0:0:0:
204,191,89316,5,0,0:0:0:0:
307,191,89466,5,0,0:0:0:0:
411,190,89616,5,0,0:0:0:0:
92,192,89766,5,0,0:0:0:0:
201,191,89916,5,0,0:0:0:0:
310,191,90066,5,0,0:0:0:0:
419,190,90216,5,0,0:0:0:0:
84,192,90366,5,0,0:0:0:0:
198,191,90516,5,0,0:0:0:0:
313,191,90666,5,0,0:0:0:0:
427,190,90816,5,0,0:0:0:0:
76,192,90966,5,0,0:0:0:0:
196,191,91116,5,0,0:0:0:0:
315,191,91266,5,0,0:0:0:0:
435,190,91416,5,0,0:0:0:0:
67,192,91566,5,0,0:0:0:0:
193,191,91716,5,0,0:0:0:0:
318,191,91866,5,0,0:0:0:0:
318,191,91903,5,0,0:0:0:0:
318,191,91941,5,0,0:0:0:0:
318,191,91978,5,0,0:0:0:0:
444,190,92016,5,0,0:0:0:0:
445,190,92053,5,0,0:0:0:0:
445,190,92091,5,0,0:0:0:0:
445,190,92128,5,0,0:0:0:0:
57,193,92166,6,0,L|66:119,1,59.9999984105428
189,190,92316,6,0,L|180:116,1,59.9999984105428
321,190,92466,6,0,L|330:116,1,59.9999984105428
453,189,92616,6,0,L|444:115,1,59.9999984105428
48,192,92766,6,0,L|57:118,1,59.9999984105428
186,190,92916,6,0,L|177:116,1,59.9999984105428
324,190,93066,6,0,L|333:116,1,59.9999984105428
462,189,93216,6,0,L|453:115,1,59.9999984105428
37,192,93366,6,0,L|46:118,1,59.9999984105428
183,190,93516,6,0,L|174:116,1,59.9999984105428
327,190,93666,6,0,L|336:116,1,59.9999984105428
473,189,93816,6,0,L|464:115,1,59.9999984105428
27,192,93966,6,0,L|36:118,1,59.9999984105428
179,190,94116,6,0,L|170:116,1,59.9999984105428
331,190,94266,6,0,L|340:116,1,59.9999984105428
483,189,94416,6,0,L|474:115,1,59.9999984105428
27,192,94566,6,0,L|34:125,1,44.9999988079071
179,190,94716,6,0,L|172:123,1,44.9999988079071
331,190,94866,6,0,L|338:123,1,44.9999988079071
483,189,95016,6,0,L|476:122,1,44.9999988079071
84,192,95166,6,0,L|89:125,1,44.9999988079071
198,190,95316,6,0,L|193:123,1,44.9999988079071
312,190,95466,6,0,L|317:123,1,44.9999988079071
426,189,95616,6,0,L|421:122,1,44.9999988079071
127,192,95766,6,0,L|131:124,1,44.9999988079071
212,190,95916,6,0,L|208:123,1,44.9999988079071
298,190,96066,6,0,L|302:123,1,44.9999988079071
383,189,96216,6,0,L|379:121,1,44.9999988079071
159,192,96366,6,0,L|162:124,1,44.9999988079071
223,190,96516,6,0,L|220:123,1,44.9999988079071
287,190,96666,6,0,L|290:123,1,44.9999988079071
351,189,96816,6,0,L|348:121,1,44.9999988079071
