osu file format v14

[General]
AudioFilename: audio.mp3
AudioLeadIn: 0
PreviewTime: 75026
Countdown: 0
SampleSet: Normal
StackLeniency: 0.7
Mode: 1
LetterboxInBreaks: 0
WidescreenStoryboard: 1

[Editor]
Bookmarks: 11098,21765,32431,43098,53765,64431,75098,85765,96431,107098
DistanceSpacing: 1
BeatDivisor: 2
GridSize: 32
TimelineZoom: 1.000001

[Metadata]
Title:GLITCH SWITCH
TitleUnicode:GLITCH SWITCH
Artist:Silentroom
ArtistUnicode:Silentroom
Creator:komasy
Version:tasuke's Futsuu
Source:osu!
Tags:Mappers' Guild MG Featured Artist FA Instrumental Electronic HYBRID J-CORE Hardcore Trap GRASSEZ BOFU2017 THE BMS OF FIGHTERS ULTIMATE LEGENDA EST A MYTH Employ "Zero-Origin" Memory Waves Rainbow Frontier tasuke912
BeatmapID:2580712
BeatmapSetID:1225733

[Difficulty]
HPDrainRate:7
CircleSize:2
OverallDifficulty:3.8
ApproachRate:5
SliderMultiplier:1.4
SliderTickRate:1

[Events]
//Background and Video events
0,0,"glitch-2717630_1920.jpg",0,0
//Break Periods
2,53976,57909
//Storyboard Layer 0 (Background)
//Storyboard Layer 1 (Fail)
//Storyboard Layer 2 (Pass)
//Storyboard Layer 3 (Foreground)
//Storyboard Layer 4 (Overlay)
//Storyboard Sound Samples

[TimingPoints]
443,333.333333333333,4,1,0,80,1,0
53859,-100,4,1,0,40,0,0
64359,-100,4,1,0,80,0,0
75109,-100,4,1,0,80,0,1
95109,-100,4,1,0,80,0,0

[HitObjects]
256,192,443,5,0,0:0:0:0:
256,192,776,1,2,0:0:0:0:
256,192,1109,1,0,0:0:0:0:
256,192,1442,1,2,0:0:0:0:
256,192,1776,1,0,0:0:0:0:
256,192,2109,1,2,0:0:0:0:
256,192,2442,1,0,0:0:0:0:
256,192,3109,1,0,0:0:0:0:
256,192,3442,1,2,0:0:0:0:
256,192,3776,1,0,0:0:0:0:
256,192,4109,1,2,0:0:0:0:
256,192,4442,1,0,0:0:0:0:
256,192,4776,1,2,0:0:0:0:
256,192,5109,1,2,0:0:0:0:
256,192,5776,1,0,0:0:0:0:
256,192,6442,1,2,0:0:0:0:
256,192,6776,1,0,0:0:0:0:
256,192,7442,1,0,0:0:0:0:
256,192,7776,1,2,0:0:0:0:
256,192,7942,1,0,0:0:0:0:
256,192,8442,1,0,0:0:0:0:
256,192,8942,1,0,0:0:0:0:
256,192,9109,1,2,0:0:0:0:
256,192,9442,1,0,0:0:0:0:
256,192,9776,1,0,0:0:0:0:
256,192,11109,1,6,0:0:0:0:
256,192,11442,1,0,0:0:0:0:
256,192,11776,1,2,0:0:0:0:
256,192,12109,1,0,0:0:0:0:
256,192,12442,1,2,0:0:0:0:
256,192,12776,1,0,0:0:0:0:
256,192,13109,1,2,0:0:0:0:
256,192,13276,1,2,0:0:0:0:
256,192,13442,1,0,0:0:0:0:
256,192,13776,1,0,0:0:0:0:
256,192,14109,1,2,0:0:0:0:
256,192,14442,1,0,0:0:0:0:
256,192,14609,1,0,0:0:0:0:
256,192,14776,1,2,0:0:0:0:
256,192,15109,1,0,0:0:0:0:
256,192,15442,1,2,0:0:0:0:
256,192,15776,1,0,0:0:0:0:
256,192,16442,1,0,0:0:0:0:
256,192,16776,1,2,0:0:0:0:
256,192,17109,1,0,0:0:0:0:
256,192,17276,1,0,0:0:0:0:
256,192,17442,1,2,0:0:0:0:
256,192,17776,1,0,0:0:0:0:
256,192,18109,1,2,0:0:0:0:
256,192,18442,1,0,0:0:0:0:
256,192,18609,1,2,0:0:0:0:
256,192,18776,1,2,0:0:0:0:
256,192,19109,1,0,0:0:0:0:
256,192,19442,1,2,0:0:0:0:
256,192,19776,1,2,0:0:0:0:
256,192,19942,1,2,0:0:0:0:
256,192,20109,1,0,0:0:0:0:
256,192,20442,1,4,0:0:0:0:
256,192,20942,1,4,0:0:0:0:
256,192,21776,1,2,0:0:0:0:
256,192,22109,1,6,0:0:0:0:
256,192,22442,1,0,0:0:0:0:
256,192,22776,1,2,0:0:0:0:
256,192,23109,1,0,0:0:0:0:
256,192,23442,1,0,0:0:0:0:
256,192,23776,1,2,0:0:0:0:
256,192,23942,1,2,0:0:0:0:
256,192,24109,1,2,0:0:0:0:
256,192,24442,1,0,0:0:0:0:
256,192,24609,1,2,0:0:0:0:
256,192,24776,1,0,0:0:0:0:
256,192,25109,1,2,0:0:0:0:
256,192,25442,1,0,0:0:0:0:
256,192,25776,1,2,0:0:0:0:
256,192,26109,1,2,0:0:0:0:
256,192,26442,1,0,0:0:0:0:
256,192,27109,1,0,0:0:0:0:
256,192,27776,1,2,0:0:0:0:
256,192,28109,1,0,0:0:0:0:
256,192,28276,1,2,0:0:0:0:
256,192,28442,1,2,0:0:0:0:
256,192,28776,1,0,0:0:0:0:
256,192,29109,1,2,0:0:0:0:
256,192,29276,1,0,0:0:0:0:
256,192,29776,1,0,0:0:0:0:
256,192,30276,1,0,0:0:0:0:
256,192,30442,1,2,0:0:0:0:
256,192,30776,1,0,0:0:0:0:
256,192,31109,1,0,0:0:0:0:
256,192,31776,1,2,0:0:0:0:
256,192,32109,1,2,0:0:0:0:
256,192,32442,1,6,0:0:0:0:
256,192,32776,1,0,0:0:0:0:
256,192,33109,1,2,0:0:0:0:
256,192,33442,1,2,0:0:0:0:
256,192,33776,1,0,0:0:0:0:
256,192,34109,1,2,0:0:0:0:
256,192,34442,1,0,0:0:0:0:
256,192,34609,1,0,0:0:0:0:
256,192,34776,1,2,0:0:0:0:
256,192,35109,1,0,0:0:0:0:
256,192,35276,1,2,0:0:0:0:
256,192,35442,1,2,0:0:0:0:
256,192,35776,1,2,0:0:0:0:
256,192,36109,1,0,0:0:0:0:
256,192,36442,1,0,0:0:0:0:
256,192,36776,1,2,0:0:0:0:
256,192,37109,1,0,0:0:0:0:
256,192,37776,1,0,0:0:0:0:
256,192,38109,1,2,0:0:0:0:
256,192,38442,1,0,0:0:0:0:
256,192,38776,1,2,0:0:0:0:
256,192,39109,1,0,0:0:0:0:
256,192,39276,1,2,0:0:0:0:
256,192,39442,1,2,0:0:0:0:
256,192,39776,1,0,0:0:0:0:
256,192,40109,1,2,0:0:0:0:
256,192,40442,1,0,0:0:0:0:
256,192,40609,1,0,0:0:0:0:
256,192,40776,1,2,0:0:0:0:
256,192,41109,1,2,0:0:0:0:
256,192,41276,1,2,0:0:0:0:
256,192,41442,1,0,0:0:0:0:
256,192,41776,1,4,0:0:0:0:
256,192,42276,1,4,0:0:0:0:
256,192,43109,1,2,0:0:0:0:
256,192,43442,1,6,0:0:0:0:
256,192,43776,1,0,0:0:0:0:
256,192,44109,1,2,0:0:0:0:
256,192,44442,1,0,0:0:0:0:
256,192,44776,1,2,0:0:0:0:
256,192,44942,1,2,0:0:0:0:
256,192,45109,1,0,0:0:0:0:
256,192,45442,1,0,0:0:0:0:
256,192,45609,1,2,0:0:0:0:
256,192,45776,1,0,0:0:0:0:
256,192,46109,1,2,0:0:0:0:
256,192,46442,1,0,0:0:0:0:
256,192,46609,1,0,0:0:0:0:
256,192,46776,1,2,0:0:0:0:
256,192,47109,1,2,0:0:0:0:
256,192,47442,1,2,0:0:0:0:
256,192,47776,1,0,0:0:0:0:
256,192,48442,1,0,0:0:0:0:
256,192,49109,1,2,0:0:0:0:
256,192,49442,1,0,0:0:0:0:
256,192,49609,1,2,0:0:0:0:
256,192,49776,1,2,0:0:0:0:
256,192,50109,1,0,0:0:0:0:
256,192,50442,1,2,0:0:0:0:
256,192,50609,1,0,0:0:0:0:
256,192,51109,1,0,0:0:0:0:
256,192,51609,1,0,0:0:0:0:
256,192,51776,1,2,0:0:0:0:
256,192,52109,1,0,0:0:0:0:
256,192,52276,1,2,0:0:0:0:
256,192,52442,1,0,0:0:0:0:
256,192,53109,1,2,0:0:0:0:
256,192,53776,1,0,0:0:0:0:
256,192,59109,12,0,64109,0:0:0:0:
256,192,64442,5,4,0:0:0:0:
256,192,64776,1,2,0:0:0:0:
256,192,65109,1,2,0:0:0:0:
256,192,65442,1,2,0:0:0:0:
256,192,65776,1,2,0:0:0:0:
256,192,66109,1,2,0:0:0:0:
256,192,66442,1,2,0:0:0:0:
256,192,66776,1,2,0:0:0:0:
256,192,66942,1,2,0:0:0:0:
256,192,67109,1,2,0:0:0:0:
256,192,67442,1,2,0:0:0:0:
256,192,67776,1,2,0:0:0:0:
256,192,68109,1,2,0:0:0:0:
256,192,68442,1,2,0:0:0:0:
256,192,68776,1,2,0:0:0:0:
256,192,69109,1,2,0:0:0:0:
256,192,69276,1,2,0:0:0:0:
256,192,69442,1,2,0:0:0:0:
256,192,69776,1,0,0:0:0:0:
256,192,70109,1,2,0:0:0:0:
256,192,70442,1,0,0:0:0:0:
256,192,70609,1,0,0:0:0:0:
256,192,70776,1,2,0:0:0:0:
256,192,71109,1,0,0:0:0:0:
256,192,71442,1,2,0:0:0:0:
256,192,71776,1,0,0:0:0:0:
256,192,71942,1,2,0:0:0:0:
256,192,72109,1,2,0:0:0:0:
256,192,72442,1,0,0:0:0:0:
256,192,72609,1,0,0:0:0:0:
256,192,72776,1,2,0:0:0:0:
256,192,72942,1,2,0:0:0:0:
256,192,73109,1,0,0:0:0:0:
256,192,73276,1,0,0:0:0:0:
256,192,73442,1,2,0:0:0:0:
256,192,73776,1,0,0:0:0:0:
256,192,74776,1,6,0:0:0:0:
256,192,75109,1,4,0:0:0:0:
256,192,75442,1,2,0:0:0:0:
256,192,75776,1,0,0:0:0:0:
256,192,75942,1,0,0:0:0:0:
256,192,76109,1,2,0:0:0:0:
256,192,76442,1,0,0:0:0:0:
256,192,76776,1,2,0:0:0:0:
256,192,77109,1,0,0:0:0:0:
256,192,77276,1,2,0:0:0:0:
256,192,77442,1,2,0:0:0:0:
256,192,77776,1,0,0:0:0:0:
256,192,78109,1,2,0:0:0:0:
256,192,78442,1,2,0:0:0:0:
256,192,78609,1,0,0:0:0:0:
256,192,78776,1,2,0:0:0:0:
256,192,78942,1,2,0:0:0:0:
256,192,79109,1,0,0:0:0:0:
256,192,79442,1,0,0:0:0:0:
256,192,79776,1,2,0:0:0:0:
256,192,80442,1,0,0:0:0:0:
256,192,80776,1,2,0:0:0:0:
256,192,81109,1,0,0:0:0:0:
256,192,81276,1,0,0:0:0:0:
256,192,81442,1,2,0:0:0:0:
256,192,81776,1,0,0:0:0:0:
256,192,82109,1,2,0:0:0:0:
256,192,82442,1,0,0:0:0:0:
256,192,82609,1,2,0:0:0:0:
256,192,82776,1,2,0:0:0:0:
256,192,83109,1,0,0:0:0:0:
256,192,83442,1,2,0:0:0:0:
256,192,83776,1,0,0:0:0:0:
256,192,84109,1,0,0:0:0:0:
256,192,84276,1,2,0:0:0:0:
256,192,84526,1,2,0:0:0:0:
256,192,84776,1,0,0:0:0:0:
256,192,85026,1,0,0:0:0:0:
256,192,85276,1,2,0:0:0:0:
256,192,85776,1,4,0:0:0:0:
256,192,86109,1,2,0:0:0:0:
256,192,86442,1,0,0:0:0:0:
256,192,86609,1,0,0:0:0:0:
256,192,86776,1,2,0:0:0:0:
256,192,87109,1,0,0:0:0:0:
256,192,87442,1,2,0:0:0:0:
256,192,87776,1,0,0:0:0:0:
256,192,87942,1,2,0:0:0:0:
256,192,88109,1,2,0:0:0:0:
256,192,88442,1,0,0:0:0:0:
256,192,88776,1,2,0:0:0:0:
256,192,89109,1,2,0:0:0:0:
256,192,89276,1,0,0:0:0:0:
256,192,89442,1,2,0:0:0:0:
256,192,89609,1,2,0:0:0:0:
256,192,89776,1,0,0:0:0:0:
256,192,90109,1,0,0:0:0:0:
256,192,90442,1,2,0:0:0:0:
256,192,91109,1,0,0:0:0:0:
256,192,91442,1,2,0:0:0:0:
256,192,91776,1,0,0:0:0:0:
256,192,91942,1,2,0:0:0:0:
256,192,92109,1,0,0:0:0:0:
256,192,92442,1,0,0:0:0:0:
256,192,92776,1,2,0:0:0:0:
256,192,93109,1,2,0:0:0:0:
256,192,93276,1,0,0:0:0:0:
256,192,93442,1,2,0:0:0:0:
256,192,93776,1,0,0:0:0:0:
256,192,94109,1,2,0:0:0:0:
256,192,94442,1,2,0:0:0:0:
256,192,94609,1,2,0:0:0:0:
256,192,94776,1,2,0:0:0:0:
256,192,94942,1,2,0:0:0:0:
256,192,95776,1,2,0:0:0:0:
256,192,95942,1,0,0:0:0:0:
256,192,96109,1,2,0:0:0:0:
256,192,96442,1,6,0:0:0:0:
256,192,96776,1,4,0:0:0:0:
256,192,97109,1,2,0:0:0:0:
256,192,97442,1,0,0:0:0:0:
256,192,97776,1,2,0:0:0:0:
256,192,98109,1,0,0:0:0:0:
256,192,98442,1,2,0:0:0:0:
256,192,98609,1,2,0:0:0:0:
256,192,98776,1,0,0:0:0:0:
256,192,99109,1,0,0:0:0:0:
256,192,99276,1,2,0:0:0:0:
256,192,99442,1,2,0:0:0:0:
256,192,99776,1,2,0:0:0:0:
256,192,100109,1,0,0:0:0:0:
256,192,100442,1,2,0:0:0:0:
256,192,100776,1,2,0:0:0:0:
256,192,101109,1,0,0:0:0:0:
256,192,101776,1,0,0:0:0:0:
256,192,102442,1,2,0:0:0:0:
256,192,102776,1,0,0:0:0:0:
256,192,102942,1,2,0:0:0:0:
256,192,103109,1,2,0:0:0:0:
256,192,103442,1,0,0:0:0:0:
256,192,103776,1,2,0:0:0:0:
256,192,103942,1,0,0:0:0:0:
256,192,104276,1,2,0:0:0:0:
256,192,104442,1,0,0:0:0:0:
256,192,104942,1,0,0:0:0:0:
256,192,105109,1,2,0:0:0:0:
256,192,105442,1,0,0:0:0:0:
256,192,105776,1,0,0:0:0:0:
256,192,106109,1,2,0:0:0:0:
256,192,106276,1,2,0:0:0:0:
256,192,106442,1,0,0:0:0:0:
256,192,107109,1,4,0:0:0:0:
