osu file format v14

[General]
AudioFilename: audio.mp3
AudioLeadIn: 0
PreviewTime: 75026
Countdown: 0
SampleSet: Normal
StackLeniency: 0.7
Mode: 1
LetterboxInBreaks: 0
WidescreenStoryboard: 0

[Editor]
Bookmarks: 11098,21765,32431,43098,53765,64431,75098,85765,96431,107098,107612
DistanceSpacing: 1
BeatDivisor: 2
GridSize: 32
TimelineZoom: 0.7000009

[Metadata]
Title:GLITCH SWITCH
TitleUnicode:GLITCH SWITCH
Artist:Silentroom
ArtistUnicode:Silentroom
Creator:komasy
Version:Kantan
Source:osu!
Tags:Mappers' Guild MG Featured Artist FA Instrumental Electronic HYBRID J-CORE Hardcore Trap GRASSEZ BOFU2017 THE BMS OF FIGHTERS ULTIMATE LEGENDA EST A MYTH Employ "Zero-Origin" Memory Waves Rainbow Frontier tasuke912
BeatmapID:2601198
BeatmapSetID:1225733

[Difficulty]
HPDrainRate:8
CircleSize:2
OverallDifficulty:3
ApproachRate:5
SliderMultiplier:1.4
SliderTickRate:1

[Events]
//Background and Video events
0,0,"glitch-2717630_1920.jpg",0,0
//Break Periods
2,53976,57909
//Storyboard Layer 0 (Background)
//Storyboard Layer 1 (Fail)
//Storyboard Layer 2 (Pass)
//Storyboard Layer 3 (Foreground)
//Storyboard Layer 4 (Overlay)
//Storyboard Sound Samples

[TimingPoints]
443,333.333333333333,4,1,0,80,1,0
53855,-100,4,1,0,20,0,0
60359,-100,4,1,0,30,0,0
61692,-100,4,1,0,40,0,0
63026,-100,4,1,0,80,0,0
75109,-100,4,1,0,80,0,1
95109,-100,4,1,0,80,0,0

[HitObjects]
160,96,443,5,0,0:0:0:0:
352,96,776,1,8,0:0:0:0:
352,96,1442,1,8,0:0:0:0:
352,96,2109,1,8,0:0:0:0:
352,96,2776,1,8,0:0:0:0:
160,96,3109,1,0,0:0:0:0:
352,96,3442,1,8,0:0:0:0:
160,96,3776,1,0,0:0:0:0:
352,96,4442,1,8,0:0:0:0:
352,96,4776,1,8,0:0:0:0:
160,96,5109,1,0,0:0:0:0:
160,96,5776,1,0,0:0:0:0:
352,96,6442,1,8,0:0:0:0:
160,96,7442,1,0,0:0:0:0:
352,96,7776,1,8,0:0:0:0:
160,96,8442,1,0,0:0:0:0:
352,96,9109,1,8,0:0:0:0:
160,96,9442,1,0,0:0:0:0:
160,288,9776,1,4,0:0:0:0:
352,288,11109,1,12,0:0:0:0:
160,96,11442,1,0,0:0:0:0:
160,96,11776,1,8,0:0:0:0:
438,138,12442,1,0,0:0:0:0:
352,96,13109,1,8,0:0:0:0:
160,96,13442,1,8,0:0:0:0:
160,96,13776,1,0,0:0:0:0:
352,96,14442,1,8,0:0:0:0:
160,96,15109,1,0,0:0:0:0:
352,96,15442,1,0,0:0:0:0:
160,96,15776,1,8,0:0:0:0:
160,96,16442,1,4,0:0:0:0:
160,96,17442,1,8,0:0:0:0:
160,96,17776,1,0,0:0:0:0:
160,96,18442,1,8,0:0:0:0:
160,96,19109,1,0,0:0:0:0:
352,96,19442,1,0,0:0:0:0:
352,96,19776,1,8,0:0:0:0:
160,96,20109,1,8,0:0:0:0:
160,288,20442,1,4,0:0:0:0:
160,288,20942,1,4,0:0:0:0:
352,96,21776,1,8,0:0:0:0:
352,288,22109,1,12,0:0:0:0:
160,96,22776,1,8,0:0:0:0:
160,96,23109,1,0,0:0:0:0:
352,96,23776,1,8,0:0:0:0:
160,96,24442,1,0,0:0:0:0:
160,96,24776,1,0,0:0:0:0:
352,96,25109,1,8,0:0:0:0:
352,96,25776,1,0,0:0:0:0:
218,137,26109,1,8,0:0:0:0:
160,96,26442,1,0,0:0:0:0:
160,96,27109,1,4,0:0:0:0:
352,96,27776,1,8,0:0:0:0:
160,96,28776,1,0,0:0:0:0:
352,96,29109,1,8,0:0:0:0:
160,96,29776,1,0,0:0:0:0:
352,96,30442,1,8,0:0:0:0:
160,96,30776,1,0,0:0:0:0:
160,96,31109,1,4,0:0:0:0:
352,288,32442,1,12,0:0:0:0:
160,96,32776,1,0,0:0:0:0:
352,96,33109,1,8,0:0:0:0:
160,96,33776,1,0,0:0:0:0:
160,96,34442,1,8,0:0:0:0:
352,96,34776,1,8,0:0:0:0:
160,96,35109,1,0,0:0:0:0:
251,202,35442,1,0,0:0:0:0:
352,96,35776,1,8,0:0:0:0:
160,96,36442,1,0,0:0:0:0:
352,96,36776,1,8,0:0:0:0:
160,96,37109,1,0,0:0:0:0:
160,96,37776,1,4,0:0:0:0:
352,96,38776,1,8,0:0:0:0:
160,96,39109,1,0,0:0:0:0:
160,96,39776,1,8,0:0:0:0:
160,96,40442,1,0,0:0:0:0:
352,96,40776,1,0,0:0:0:0:
352,96,41109,1,8,0:0:0:0:
160,96,41442,1,8,0:0:0:0:
160,288,41776,1,4,0:0:0:0:
160,288,42276,1,4,0:0:0:0:
352,96,43109,1,0,0:0:0:0:
352,288,43442,1,12,0:0:0:0:
352,96,44109,1,8,0:0:0:0:
160,96,44442,1,0,0:0:0:0:
352,96,44776,1,8,0:0:0:0:
160,96,45109,1,0,0:0:0:0:
160,96,45776,1,0,0:0:0:0:
352,96,46109,1,8,0:0:0:0:
160,96,46442,1,0,0:0:0:0:
352,96,47109,1,8,0:0:0:0:
352,96,47442,1,8,0:0:0:0:
160,96,47776,1,0,0:0:0:0:
160,96,48442,1,4,0:0:0:0:
352,96,49109,1,8,0:0:0:0:
160,96,50109,1,0,0:0:0:0:
160,96,50442,1,8,0:0:0:0:
160,96,51109,1,0,0:0:0:0:
352,96,51776,1,8,0:0:0:0:
160,96,52109,1,0,0:0:0:0:
160,96,52442,1,4,0:0:0:0:
352,96,53109,1,4,0:0:0:0:
160,96,53776,1,12,0:0:0:0:
256,192,59109,12,0,64109,0:0:0:0:
160,288,64442,5,4,0:0:0:0:
352,96,64776,1,8,0:0:0:0:
352,96,65442,1,8,0:0:0:0:
352,96,66109,1,8,0:0:0:0:
352,96,66776,1,8,0:0:0:0:
352,96,67109,1,8,0:0:0:0:
352,96,67442,1,8,0:0:0:0:
352,96,68109,1,8,0:0:0:0:
352,96,68776,1,8,0:0:0:0:
352,96,69442,1,8,0:0:0:0:
160,96,69776,1,4,0:0:0:0:
289,62,70109,1,8,0:0:0:0:
352,96,70776,1,8,0:0:0:0:
160,96,71109,1,4,0:0:0:0:
352,96,71442,1,8,0:0:0:0:
352,96,72109,1,8,0:0:0:0:
293,214,72442,2,8,L|369:160,7,70
352,288,74776,1,12,0:0:0:0:
160,288,75109,1,4,0:0:0:0:
271,249,75442,1,8,0:0:0:0:
352,96,76109,1,8,0:0:0:0:
160,96,76442,1,0,0:0:0:0:
160,96,76776,1,0,0:0:0:0:
352,96,77109,1,8,0:0:0:0:
160,96,77776,1,0,0:0:0:0:
278,176,78109,1,8,0:0:0:0:
352,96,78776,1,8,0:0:0:0:
160,96,79109,1,0,0:0:0:0:
160,96,79442,1,8,0:0:0:0:
352,96,80109,1,8,0:0:0:0:
160,96,80442,1,0,0:0:0:0:
352,96,81442,1,8,0:0:0:0:
160,96,81776,1,0,0:0:0:0:
352,96,82109,1,0,0:0:0:0:
160,96,82442,1,8,0:0:0:0:
160,96,83109,1,0,0:0:0:0:
352,96,83442,1,8,0:0:0:0:
230,88,83776,1,0,0:0:0:0:
352,96,84276,1,12,0:0:0:0:
338,126,85442,1,8,0:0:0:0:
160,288,85776,1,4,0:0:0:0:
352,96,86109,1,8,0:0:0:0:
352,96,86776,1,8,0:0:0:0:
160,96,87109,1,0,0:0:0:0:
295,108,87442,1,8,0:0:0:0:
352,96,87776,1,8,0:0:0:0:
160,96,88442,1,4,0:0:0:0:
352,96,88776,1,8,0:0:0:0:
352,96,89442,1,8,0:0:0:0:
160,96,89776,1,0,0:0:0:0:
289,126,90109,1,8,0:0:0:0:
352,96,90776,1,8,0:0:0:0:
160,96,91109,1,4,0:0:0:0:
160,96,92109,1,8,0:0:0:0:
160,96,92442,1,4,0:0:0:0:
352,96,92776,1,8,0:0:0:0:
352,96,93109,1,8,0:0:0:0:
160,96,93776,1,4,0:0:0:0:
352,96,94109,1,0,0:0:0:0:
352,96,94442,1,8,0:0:0:0:
352,96,94776,1,8,0:0:0:0:
160,96,96442,5,8,0:0:0:0:
352,96,96775,1,12,0:0:0:0:
352,96,97441,1,8,0:0:0:0:
352,231,97776,1,0,0:0:0:0:
352,96,98108,1,8,0:0:0:0:
352,96,98775,1,8,0:0:0:0:
160,96,99108,1,0,0:0:0:0:
352,96,99441,1,8,0:0:0:0:
160,96,99775,1,0,0:0:0:0:
352,96,100441,1,8,0:0:0:0:
352,96,100775,5,8,0:0:0:0:
160,96,101108,1,0,0:0:0:0:
160,96,101776,5,4,0:0:0:0:
352,96,102442,1,8,0:0:0:0:
160,96,103442,1,0,0:0:0:0:
160,96,103776,1,8,0:0:0:0:
160,96,104442,1,0,0:0:0:0:
352,96,105109,1,8,0:0:0:0:
160,96,105442,1,0,0:0:0:0:
160,96,105776,1,0,0:0:0:0:
275,112,106109,1,8,0:0:0:0:
275,112,106442,1,0,0:0:0:0:
160,288,107109,1,4,0:0:0:0:
