osu file format v14

[General]
AudioFilename: audio.mp3
AudioLeadIn: 0
PreviewTime: 108542
Countdown: 0
SampleSet: Normal
StackLeniency: 0.7
Mode: 1
LetterboxInBreaks: 0
WidescreenStoryboard: 0

[Editor]
Bookmarks: 22271,43844,65417,86990,108563,130136,151709
DistanceSpacing: 1.2
BeatDivisor: 4
GridSize: 32
TimelineZoom: 2.7

[Metadata]
Title:F1055
TitleUnicode:F1055
Artist:Silentroom
ArtistUnicode:Silentroom
Creator:HiroK
Version:komasy's Oni
Source:Tone Sphere
Tags:osu! fa featured artist dnb drum and bass electronic instrumental video game genjuro komasy ulqui memory waves
BeatmapID:2604450
BeatmapSetID:1224716

[Difficulty]
HPDrainRate:6
CircleSize:2
OverallDifficulty:6
ApproachRate:10
SliderMultiplier:1.4
SliderTickRate:1

[Events]
//Background and Video events
0,0,"bg.jpg",0,0
//Break Periods
//Storyboard Layer 0 (Background)
//Storyboard Layer 1 (Fail)
//Storyboard Layer 2 (Pass)
//Storyboard Layer 3 (Foreground)
//Storyboard Layer 4 (Overlay)
//Storyboard Sound Samples

[TimingPoints]
698,337.078651685393,4,1,0,50,1,0
698,-125,4,1,0,50,0,0
22227,-100,4,1,0,75,0,0
22859,-102.409638554217,4,1,0,50,0,0
23533,-103.658536585366,4,1,0,50,0,0
24207,-104.938271604938,4,1,0,50,0,0
24881,-106.25,4,1,0,50,0,0
25555,-107.594936708861,4,1,0,50,0,0
26229,-108.974358974359,4,1,0,50,0,0
26904,-110.38961038961,4,1,0,50,0,0
27578,-111.842105263158,4,1,0,50,0,0
28252,-113.333333333333,4,1,0,50,0,0
28926,-114.864864864865,4,1,0,50,0,0
29600,-116.438356164384,4,1,0,50,0,0
30274,-118.055555555556,4,1,0,50,0,0
30949,-119.718309859155,4,1,0,50,0,0
31623,-121.428571428571,4,1,0,50,0,0
32297,-123.188405797101,4,1,0,50,0,0
32971,-125,4,1,0,50,0,0
43843,-100,4,1,0,100,0,0
66048,-100,4,1,0,75,0,0
66764,-106.666666666667,4,1,0,75,0,0
67438,-100,4,1,0,75,0,0
68112,-114.285714285714,4,1,0,75,0,0
68786,-100,4,1,0,75,0,0
69461,-123.076923076923,4,1,0,75,0,0
70135,-100,4,1,0,75,0,0
70809,-133.333333333333,4,1,0,75,0,0
71483,-100,4,1,0,75,0,0
72157,-145.454545454545,4,1,0,75,0,0
72831,-100,4,1,0,75,0,0
73505,-160,4,1,0,75,0,0
74180,-100,4,1,0,75,0,0
74854,-177.777777777778,4,1,0,75,0,0
75528,-100,4,1,0,75,0,0
76160,-100,4,1,0,100,0,0
87073,-133.333333333333,4,1,0,40,0,0
97733,-125,4,1,0,100,0,0
107508,-100,4,1,0,100,0,0
108223,-66.6666666666667,4,1,0,100,0,0
108563,-86.9565217391304,4,1,0,100,0,1
129462,-86.9565217391304,4,1,0,100,0,0
130136,-80,4,1,0,100,0,1
151709,-80,4,1,0,100,0,0
151792,-80.5194805194805,4,1,0,100,0,0
151876,-80.7817589576547,4,1,0,100,0,0
151960,-81.0457516339869,4,1,0,100,0,0
152045,-81.3114754098361,4,1,0,100,0,0
152129,-81.5789473684211,4,1,0,100,0,0
152213,-81.8481848184819,4,1,0,100,0,0
152297,-82.1192052980132,4,1,0,100,0,0
152382,-82.3920265780731,4,1,0,100,0,0
152466,-82.6666666666667,4,1,0,100,0,0
152550,-82.943143812709,4,1,0,100,0,0
152634,-83.2214765100671,4,1,0,100,0,0
152719,-83.5016835016835,4,1,0,100,0,0
152803,-83.7837837837838,4,1,0,100,0,0
152887,-84.0677966101695,4,1,0,100,0,0
152972,-84.3537414965986,4,1,0,100,0,0
153056,-84.641638225256,4,1,0,100,0,0
153140,-84.9315068493151,4,1,0,100,0,0
153224,-85.2233676975945,4,1,0,100,0,0
153309,-85.5172413793103,4,1,0,100,0,0
153393,-85.8131487889273,4,1,0,100,0,0
153477,-86.1111111111111,4,1,0,100,0,0
153561,-86.411149825784,4,1,0,100,0,0
153646,-86.7132867132867,4,1,0,100,0,0
153730,-87.0175438596491,4,1,0,100,0,0
153814,-87.3239436619718,4,1,0,100,0,0
153899,-87.6325088339223,4,1,0,100,0,0
153983,-87.9432624113475,4,1,0,100,0,0
154067,-88.2562277580071,4,1,0,100,0,0
154151,-88.5714285714286,4,1,0,100,0,0
154236,-88.8888888888889,4,1,0,100,0,0
154320,-89.2086330935252,4,1,0,100,0,0
154404,-89.5306859205776,4,1,0,100,0,0
154488,-89.8550724637681,4,1,0,100,0,0
154573,-90.1818181818182,4,1,0,100,0,0
154657,-90.5109489051095,4,1,0,100,0,0
154741,-90.8424908424908,4,1,0,100,0,0
154825,-91.1764705882353,4,1,0,100,0,0
154910,-91.5129151291513,4,1,0,100,0,0
154994,-91.8518518518519,4,1,0,100,0,0
155078,-92.1933085501859,4,1,0,100,0,0
155163,-92.5373134328358,4,1,0,100,0,0
155247,-92.8838951310861,4,1,0,100,0,0
155331,-93.2330827067669,4,1,0,100,0,0
155415,-93.5849056603773,4,1,0,100,0,0
155500,-93.9393939393939,4,1,0,100,0,0
155584,-94.2965779467681,4,1,0,100,0,0
155668,-94.6564885496183,4,1,0,100,0,0
155752,-95.0191570881226,4,1,0,100,0,0
155837,-95.3846153846154,4,1,0,100,0,0
155921,-95.7528957528958,4,1,0,100,0,0
156005,-96.1240310077519,4,1,0,100,0,0
156090,-96.4980544747082,4,1,0,100,0,0
156174,-96.875,4,1,0,100,0,0
156258,-97.2549019607843,4,1,0,100,0,0
156342,-97.6377952755905,4,1,0,100,0,0
156427,-98.0237154150198,4,1,0,100,0,0
156511,-98.4126984126984,4,1,0,100,0,0
156595,-98.804780876494,4,1,0,100,0,0
156679,-99.2,4,1,0,100,0,0
156764,-99.5983935742972,4,1,0,100,0,0
156848,-100,4,1,0,100,0,0
157185,-98.4615384615385,4,1,0,100,0,0
157437,-96.969696969697,4,1,0,100,0,0
157690,-95.5223880597015,4,1,0,100,0,0
157943,-94.1176470588235,4,1,0,100,0,0
158196,-92.7536231884058,4,1,0,100,0,0
158449,-91.4285714285714,4,1,0,100,0,0
158701,-90.1408450704225,4,1,0,100,0,0
158954,-88.8888888888889,4,1,0,100,0,0
159207,-87.6712328767123,4,1,0,100,0,0
159460,-86.4864864864865,4,1,0,100,0,0
159629,-85.3333333333333,4,1,0,100,0,0
159880,-84.2105263157895,4,1,0,100,0,0
160133,-83.1168831168831,4,1,0,100,0,0
160386,-82.051282051282,4,1,0,100,0,0
160639,-81.0126582278481,4,1,0,100,0,0
160892,-80,4,1,0,100,0,0
161062,-78.7401574803149,4,1,0,100,0,0

[HitObjects]
352,96,698,5,8,0:0:0:0:
352,96,1372,1,8,0:0:0:0:
352,96,2046,1,8,0:0:0:0:
352,96,2214,1,8,0:0:0:0:
352,96,2383,1,8,0:0:0:0:
352,96,2720,1,8,0:0:0:0:
352,96,3057,1,8,0:0:0:0:
352,96,3394,5,8,0:0:0:0:
352,96,3900,1,8,0:0:0:0:
352,96,4068,1,8,0:0:0:0:
352,96,4405,1,8,0:0:0:0:
352,96,4742,1,8,0:0:0:0:
352,96,4911,1,8,0:0:0:0:
352,96,5080,1,8,0:0:0:0:
352,96,5417,1,8,0:0:0:0:
352,96,5754,1,8,0:0:0:0:
352,96,6091,1,8,0:0:0:0:
352,96,6765,1,8,0:0:0:0:
352,96,7439,1,8,0:0:0:0:
352,96,7608,1,8,0:0:0:0:
352,96,7776,1,8,0:0:0:0:
352,96,8113,1,8,0:0:0:0:
352,96,8450,1,8,0:0:0:0:
352,96,8787,5,8,0:0:0:0:
352,96,9293,1,8,0:0:0:0:
352,96,9462,1,8,0:0:0:0:
352,96,9799,1,8,0:0:0:0:
352,96,10136,1,8,0:0:0:0:
352,96,10304,1,8,0:0:0:0:
352,96,10473,1,8,0:0:0:0:
352,96,10641,1,8,0:0:0:0:
352,96,10810,1,8,0:0:0:0:
352,96,11147,1,8,0:0:0:0:
160,96,11484,1,0,0:0:0:0:
352,96,11821,1,8,0:0:0:0:
160,96,11990,1,0,0:0:0:0:
352,96,12158,1,8,0:0:0:0:
352,96,12495,1,8,0:0:0:0:
160,96,12832,1,0,0:0:0:0:
160,96,13001,1,0,0:0:0:0:
352,96,13169,1,8,0:0:0:0:
352,96,13506,1,8,0:0:0:0:
352,96,13844,1,8,0:0:0:0:
160,96,14181,1,0,0:0:0:0:
352,96,14518,1,8,0:0:0:0:
160,96,14686,1,0,0:0:0:0:
352,96,14855,1,8,0:0:0:0:
352,96,15192,1,8,0:0:0:0:
160,96,15529,1,0,0:0:0:0:
352,96,15697,1,8,0:0:0:0:
352,96,15866,1,8,0:0:0:0:
352,96,16203,1,8,0:0:0:0:
352,96,16540,1,8,0:0:0:0:
352,96,16709,1,8,0:0:0:0:
160,96,16877,1,0,0:0:0:0:
352,96,17214,1,8,0:0:0:0:
160,96,17383,1,0,0:0:0:0:
352,96,17551,1,8,0:0:0:0:
352,96,17889,1,8,0:0:0:0:
160,96,18226,1,0,0:0:0:0:
160,96,18394,1,0,0:0:0:0:
352,96,18563,1,8,0:0:0:0:
352,96,18900,1,8,0:0:0:0:
352,96,19237,1,8,0:0:0:0:
160,96,19574,1,0,0:0:0:0:
352,96,19911,1,8,0:0:0:0:
160,96,20080,1,0,0:0:0:0:
352,96,20248,1,8,0:0:0:0:
352,96,20585,1,8,0:0:0:0:
160,96,20922,1,0,0:0:0:0:
352,96,21091,1,8,0:0:0:0:
352,96,21259,1,8,0:0:0:0:
160,96,21428,1,0,0:0:0:0:
352,96,21596,1,8,0:0:0:0:
160,96,22271,1,0,0:0:0:0:
352,96,22945,1,8,0:0:0:0:
352,96,24293,1,8,0:0:0:0:
352,96,25641,1,8,0:0:0:0:
352,96,26990,1,8,0:0:0:0:
352,96,28338,1,8,0:0:0:0:
352,96,29686,1,8,0:0:0:0:
352,96,31035,1,8,0:0:0:0:
352,96,32383,1,8,0:0:0:0:
160,96,33057,1,0,0:0:0:0:
160,96,33394,1,0,0:0:0:0:
160,96,33478,1,0,0:0:0:0:
160,96,33563,1,0,0:0:0:0:
352,96,33731,1,8,0:0:0:0:
160,96,33815,1,0,0:0:0:0:
160,96,34068,1,0,0:0:0:0:
160,96,34405,1,0,0:0:0:0:
352,96,34490,1,8,0:0:0:0:
160,96,34742,1,0,0:0:0:0:
160,96,34911,1,0,0:0:0:0:
352,96,35080,1,8,0:0:0:0:
160,96,35248,1,0,0:0:0:0:
160,96,35501,1,0,0:0:0:0:
352,96,35754,1,8,0:0:0:0:
160,96,35838,1,0,0:0:0:0:
160,96,36091,1,0,0:0:0:0:
352,96,36428,1,8,0:0:0:0:
160,96,36681,1,0,0:0:0:0:
352,96,36765,1,8,0:0:0:0:
160,96,36933,1,0,0:0:0:0:
352,96,37102,1,8,0:0:0:0:
160,96,37439,1,0,0:0:0:0:
160,96,37608,1,0,0:0:0:0:
160,96,37692,1,0,0:0:0:0:
352,96,37776,1,8,0:0:0:0:
352,96,38029,1,8,0:0:0:0:
352,96,38113,1,8,0:0:0:0:
352,96,38282,1,8,0:0:0:0:
160,96,38450,1,0,0:0:0:0:
160,96,38787,1,0,0:0:0:0:
160,96,38872,1,0,0:0:0:0:
160,96,38956,1,0,0:0:0:0:
352,96,39124,1,8,0:0:0:0:
160,96,39209,1,0,0:0:0:0:
160,96,39462,1,0,0:0:0:0:
160,96,39799,1,0,0:0:0:0:
352,96,39883,1,8,0:0:0:0:
160,96,40136,1,0,0:0:0:0:
160,96,40304,1,0,0:0:0:0:
352,96,40473,1,8,0:0:0:0:
160,96,40641,1,0,0:0:0:0:
160,96,40894,1,0,0:0:0:0:
352,96,41147,1,8,0:0:0:0:
160,96,41231,1,0,0:0:0:0:
160,96,41484,1,0,0:0:0:0:
352,96,41821,1,8,0:0:0:0:
160,96,42074,1,0,0:0:0:0:
352,96,42158,1,8,0:0:0:0:
160,96,42327,1,0,0:0:0:0:
352,96,42495,1,8,0:0:0:0:
352,96,42608,1,8,0:0:0:0:
352,96,42720,1,8,0:0:0:0:
160,96,42832,1,0,0:0:0:0:
352,96,43169,1,8,0:0:0:0:
160,288,43844,1,4,0:0:0:0:
352,96,44181,1,8,0:0:0:0:
160,96,44349,1,0,0:0:0:0:
352,96,44518,1,8,0:0:0:0:
160,96,44771,1,0,0:0:0:0:
352,96,44855,1,8,0:0:0:0:
160,96,45023,1,0,0:0:0:0:
160,96,45192,1,0,0:0:0:0:
160,96,45445,1,0,0:0:0:0:
160,96,45697,1,0,0:0:0:0:
352,96,45866,1,8,0:0:0:0:
352,96,46035,1,8,0:0:0:0:
160,96,46119,1,0,0:0:0:0:
160,96,46372,1,0,0:0:0:0:
160,96,46540,1,0,0:0:0:0:
160,96,46793,1,0,0:0:0:0:
352,96,46877,1,8,0:0:0:0:
160,96,47046,1,0,0:0:0:0:
352,96,47214,1,8,0:0:0:0:
160,96,47467,1,0,0:0:0:0:
160,96,47720,1,0,0:0:0:0:
160,96,47889,1,0,0:0:0:0:
352,96,48057,1,8,0:0:0:0:
160,96,48141,1,0,0:0:0:0:
352,96,48226,1,8,0:0:0:0:
160,96,48394,1,0,0:0:0:0:
352,96,48563,1,8,0:0:0:0:
352,96,48731,1,8,0:0:0:0:
160,96,48815,1,0,0:0:0:0:
160,96,49068,1,0,0:0:0:0:
160,96,49237,1,0,0:0:0:0:
352,96,49574,1,8,0:0:0:0:
160,96,49742,1,0,0:0:0:0:
352,96,49911,1,8,0:0:0:0:
160,96,50164,1,0,0:0:0:0:
352,96,50248,1,8,0:0:0:0:
160,96,50417,1,0,0:0:0:0:
160,96,50585,1,0,0:0:0:0:
160,96,50838,1,0,0:0:0:0:
160,96,51091,1,0,0:0:0:0:
352,96,51259,1,8,0:0:0:0:
352,96,51428,1,8,0:0:0:0:
160,96,51512,1,0,0:0:0:0:
160,96,51765,1,0,0:0:0:0:
160,96,51933,1,0,0:0:0:0:
160,96,52186,1,0,0:0:0:0:
352,96,52271,1,8,0:0:0:0:
160,96,52439,1,0,0:0:0:0:
352,96,52608,1,8,0:0:0:0:
160,96,52860,1,0,0:0:0:0:
160,96,53113,1,0,0:0:0:0:
160,96,53282,1,0,0:0:0:0:
352,96,53450,1,8,0:0:0:0:
160,96,53535,1,0,0:0:0:0:
352,96,53619,1,8,0:0:0:0:
160,96,53787,1,0,0:0:0:0:
352,96,53956,1,8,0:0:0:0:
352,96,54124,1,8,0:0:0:0:
160,96,54209,1,0,0:0:0:0:
352,96,54377,1,8,0:0:0:0:
160,96,54462,1,0,0:0:0:0:
160,288,54630,1,4,0:0:0:0:
352,96,54967,1,8,0:0:0:0:
160,96,55136,1,0,0:0:0:0:
352,96,55304,1,8,0:0:0:0:
160,96,55557,1,0,0:0:0:0:
352,96,55641,1,8,0:0:0:0:
160,96,55810,1,0,0:0:0:0:
160,96,55978,1,0,0:0:0:0:
352,96,56147,1,8,0:0:0:0:
160,96,56231,1,0,0:0:0:0:
160,96,56484,1,0,0:0:0:0:
352,96,56653,1,8,0:0:0:0:
352,96,56821,1,8,0:0:0:0:
160,96,56905,1,0,0:0:0:0:
352,96,57074,1,8,0:0:0:0:
160,96,57158,1,0,0:0:0:0:
160,96,57327,1,0,0:0:0:0:
160,96,57580,1,0,0:0:0:0:
352,96,57664,1,8,0:0:0:0:
160,96,57832,1,0,0:0:0:0:
352,96,58001,1,8,0:0:0:0:
352,96,58169,1,8,0:0:0:0:
160,96,58254,1,0,0:0:0:0:
160,96,58506,1,0,0:0:0:0:
160,96,58675,1,0,0:0:0:0:
352,96,58844,1,8,0:0:0:0:
160,96,58928,1,0,0:0:0:0:
352,96,59012,1,8,0:0:0:0:
160,96,59181,1,0,0:0:0:0:
352,96,59349,1,8,0:0:0:0:
352,96,59518,1,8,0:0:0:0:
160,96,59602,1,0,0:0:0:0:
352,96,59771,1,8,0:0:0:0:
160,96,59855,1,0,0:0:0:0:
160,96,60023,1,0,0:0:0:0:
352,96,60360,1,8,0:0:0:0:
160,96,60529,1,0,0:0:0:0:
352,96,60697,1,8,0:0:0:0:
160,96,60950,1,0,0:0:0:0:
352,96,61035,1,8,0:0:0:0:
160,96,61203,1,0,0:0:0:0:
160,96,61372,1,0,0:0:0:0:
352,96,61540,1,8,0:0:0:0:
160,96,61624,1,0,0:0:0:0:
160,96,61877,1,0,0:0:0:0:
352,96,62046,1,8,0:0:0:0:
352,96,62214,1,8,0:0:0:0:
160,96,62299,1,0,0:0:0:0:
352,96,62467,1,8,0:0:0:0:
160,96,62551,1,0,0:0:0:0:
160,96,62720,1,0,0:0:0:0:
160,96,62973,1,0,0:0:0:0:
352,96,63057,1,8,0:0:0:0:
160,96,63226,1,0,0:0:0:0:
352,96,63394,1,8,0:0:0:0:
352,96,63563,1,8,0:0:0:0:
160,96,63647,1,0,0:0:0:0:
160,96,63900,1,0,0:0:0:0:
160,96,64068,1,0,0:0:0:0:
352,96,64237,1,8,0:0:0:0:
160,96,64321,1,0,0:0:0:0:
352,96,64405,1,8,0:0:0:0:
160,96,64574,1,0,0:0:0:0:
352,96,64742,1,8,0:0:0:0:
160,96,64911,1,0,0:0:0:0:
160,96,64995,1,0,0:0:0:0:
352,96,65080,1,8,0:0:0:0:
352,96,65164,1,8,0:0:0:0:
352,96,65248,1,8,0:0:0:0:
160,96,65417,1,4,0:0:0:0:
352,96,66091,5,8,0:0:0:0:
352,96,67439,1,8,0:0:0:0:
352,96,68787,1,8,0:0:0:0:
352,96,70136,1,8,0:0:0:0:
352,96,71484,1,8,0:0:0:0:
352,96,72832,1,8,0:0:0:0:
352,96,74181,1,8,0:0:0:0:
352,96,75529,1,8,0:0:0:0:
160,288,76203,1,4,0:0:0:0:
160,96,76456,1,0,0:0:0:0:
160,96,76709,1,0,0:0:0:0:
352,96,76877,1,8,0:0:0:0:
160,96,77130,1,0,0:0:0:0:
352,96,77214,1,8,0:0:0:0:
160,96,77383,1,0,0:0:0:0:
160,96,77551,1,0,0:0:0:0:
160,96,77804,1,0,0:0:0:0:
352,96,77889,1,8,0:0:0:0:
352,96,77973,1,8,0:0:0:0:
160,96,78057,1,0,0:0:0:0:
352,96,78226,1,8,0:0:0:0:
352,96,78394,1,8,0:0:0:0:
160,96,78478,1,0,0:0:0:0:
352,96,78563,1,8,0:0:0:0:
160,96,78731,1,0,0:0:0:0:
160,96,78900,1,0,0:0:0:0:
352,96,79012,1,8,0:0:0:0:
352,96,79124,1,8,0:0:0:0:
160,96,79237,1,0,0:0:0:0:
160,96,79405,1,0,0:0:0:0:
352,96,79574,1,8,0:0:0:0:
160,96,79827,1,0,0:0:0:0:
352,96,79911,1,8,0:0:0:0:
160,96,80080,1,0,0:0:0:0:
160,96,80248,1,0,0:0:0:0:
352,96,80417,1,8,0:0:0:0:
160,96,80501,1,0,0:0:0:0:
160,96,80754,1,0,0:0:0:0:
352,96,80922,1,8,0:0:0:0:
352,96,81006,1,8,0:0:0:0:
160,96,81175,1,0,0:0:0:0:
160,96,81259,1,0,0:0:0:0:
160,96,81428,1,0,0:0:0:0:
160,96,81596,1,0,0:0:0:0:
352,96,81933,1,8,0:0:0:0:
160,96,82102,1,0,0:0:0:0:
160,96,82186,1,0,0:0:0:0:
352,96,82271,1,8,0:0:0:0:
160,96,82523,1,0,0:0:0:0:
352,96,82608,1,8,0:0:0:0:
352,96,82692,1,8,0:0:0:0:
160,96,82776,1,0,0:0:0:0:
160,96,82945,1,0,0:0:0:0:
352,96,83113,1,8,0:0:0:0:
160,96,83197,1,0,0:0:0:0:
160,96,83450,1,0,0:0:0:0:
160,96,83535,1,0,0:0:0:0:
352,96,83619,1,8,0:0:0:0:
160,96,83872,1,0,0:0:0:0:
352,96,83956,1,8,0:0:0:0:
160,96,84124,1,0,0:0:0:0:
160,96,84293,1,0,0:0:0:0:
160,96,84377,1,0,0:0:0:0:
160,96,84546,1,0,0:0:0:0:
352,96,84630,1,8,0:0:0:0:
160,96,84799,1,0,0:0:0:0:
160,96,84883,1,0,0:0:0:0:
352,96,84967,1,8,0:0:0:0:
160,96,85220,1,0,0:0:0:0:
352,96,85389,1,8,0:0:0:0:
160,96,85473,1,0,0:0:0:0:
160,96,85641,1,0,0:0:0:0:
160,96,85894,1,0,0:0:0:0:
352,96,85978,1,8,0:0:0:0:
160,96,86147,1,0,0:0:0:0:
352,96,86315,1,8,0:0:0:0:
352,96,86484,1,8,0:0:0:0:
352,96,86568,1,8,0:0:0:0:
352,96,86653,1,0,0:0:0:0:
352,96,86737,1,8,0:0:0:0:
352,96,86821,1,8,0:0:0:0:
160,96,86990,1,4,0:0:0:0:
352,96,89686,1,8,0:0:0:0:
352,96,92383,1,8,0:0:0:0:
352,96,95080,1,8,0:0:0:0:
352,96,96428,1,8,0:0:0:0:
160,288,97776,1,4,0:0:0:0:
352,96,98450,1,8,0:0:0:0:
352,96,99799,1,8,0:0:0:0:
352,96,101147,1,8,0:0:0:0:
352,96,102495,1,8,0:0:0:0:
352,96,103844,1,8,0:0:0:0:
352,96,105192,1,8,0:0:0:0:
160,96,105866,1,0,0:0:0:0:
352,96,106540,1,8,0:0:0:0:
379,110,107551,2,4,L|418:103,4,35
352,288,108226,1,12,0:0:0:0:
160,288,108563,1,4,0:0:0:0:
160,96,108731,1,0,0:0:0:0:
160,96,108815,1,0,0:0:0:0:
352,96,108900,1,8,0:0:0:0:
352,96,109068,1,8,0:0:0:0:
160,96,109153,1,0,0:0:0:0:
160,96,109405,1,0,0:0:0:0:
352,96,109574,1,8,0:0:0:0:
160,96,109827,1,0,0:0:0:0:
160,96,109995,1,0,0:0:0:0:
160,96,110080,1,0,0:0:0:0:
352,96,110248,1,8,0:0:0:0:
160,96,110501,1,0,0:0:0:0:
352,96,110669,1,8,0:0:0:0:
160,96,110754,1,0,0:0:0:0:
352,96,110922,1,8,0:0:0:0:
160,96,111259,1,0,0:0:0:0:
352,96,111596,1,8,0:0:0:0:
352,96,111765,1,8,0:0:0:0:
160,96,111849,1,0,0:0:0:0:
160,96,112018,1,0,0:0:0:0:
352,96,112271,1,8,0:0:0:0:
160,96,112523,1,0,0:0:0:0:
160,96,112692,1,0,0:0:0:0:
160,96,112776,1,0,0:0:0:0:
352,96,112945,1,8,0:0:0:0:
160,96,113197,1,0,0:0:0:0:
352,96,113282,1,8,0:0:0:0:
160,96,113366,1,0,0:0:0:0:
160,96,113450,1,0,0:0:0:0:
352,96,113619,1,8,0:0:0:0:
160,96,113956,1,0,0:0:0:0:
160,96,114040,1,0,0:0:0:0:
160,96,114209,1,0,0:0:0:0:
352,96,114293,1,8,0:0:0:0:
352,96,114462,1,8,0:0:0:0:
160,96,114546,1,0,0:0:0:0:
160,96,114799,1,0,0:0:0:0:
352,96,114967,1,8,0:0:0:0:
160,96,115220,1,0,0:0:0:0:
160,96,115389,1,0,0:0:0:0:
160,96,115473,1,0,0:0:0:0:
352,96,115641,1,8,0:0:0:0:
160,96,115894,1,0,0:0:0:0:
352,96,116063,1,8,0:0:0:0:
160,96,116147,1,0,0:0:0:0:
352,96,116315,1,8,0:0:0:0:
160,96,116568,1,0,0:0:0:0:
160,96,116653,1,0,0:0:0:0:
352,96,116990,1,8,0:0:0:0:
352,96,117158,1,8,0:0:0:0:
160,96,117242,1,0,0:0:0:0:
160,96,117411,1,0,0:0:0:0:
352,96,117664,1,8,0:0:0:0:
160,96,117917,1,0,0:0:0:0:
160,96,118085,1,0,0:0:0:0:
160,96,118169,1,0,0:0:0:0:
352,96,118338,1,8,0:0:0:0:
352,96,118506,1,8,0:0:0:0:
160,96,118591,1,0,0:0:0:0:
352,96,118675,1,8,0:0:0:0:
160,96,118759,1,0,0:0:0:0:
160,96,118844,1,0,0:0:0:0:
352,96,119012,5,8,0:0:0:0:
160,288,119349,5,4,0:0:0:0:
160,96,119518,1,0,0:0:0:0:
160,96,119602,1,0,0:0:0:0:
352,96,119686,1,8,0:0:0:0:
352,96,119855,1,8,0:0:0:0:
160,96,119939,1,0,0:0:0:0:
160,96,120192,1,0,0:0:0:0:
352,96,120360,1,8,0:0:0:0:
352,96,120529,1,8,0:0:0:0:
160,96,120613,1,0,0:0:0:0:
160,96,120782,1,0,0:0:0:0:
160,96,120950,1,0,0:0:0:0:
352,96,121035,1,8,0:0:0:0:
352,96,121203,1,8,0:0:0:0:
160,96,121287,1,0,0:0:0:0:
352,96,121456,1,8,0:0:0:0:
160,96,121540,1,0,0:0:0:0:
352,96,121709,1,8,0:0:0:0:
160,96,122046,1,0,0:0:0:0:
352,96,122383,1,8,0:0:0:0:
352,96,122551,1,8,0:0:0:0:
160,96,122636,1,0,0:0:0:0:
160,96,122804,1,0,0:0:0:0:
160,96,122973,1,0,0:0:0:0:
352,96,123057,1,8,0:0:0:0:
352,96,123226,1,8,0:0:0:0:
160,96,123310,1,0,0:0:0:0:
160,96,123478,1,0,0:0:0:0:
160,96,123563,1,0,0:0:0:0:
352,96,123731,1,8,0:0:0:0:
352,96,123900,1,8,0:0:0:0:
160,96,123984,1,0,0:0:0:0:
352,96,124153,1,8,0:0:0:0:
160,96,124237,1,0,0:0:0:0:
352,96,124405,1,8,0:0:0:0:
160,96,124742,1,0,0:0:0:0:
160,96,124911,1,0,0:0:0:0:
160,96,124995,1,0,0:0:0:0:
352,96,125080,1,8,0:0:0:0:
352,96,125248,1,8,0:0:0:0:
160,96,125332,1,0,0:0:0:0:
160,96,125585,1,0,0:0:0:0:
352,96,125754,1,8,0:0:0:0:
352,96,125922,1,8,0:0:0:0:
160,96,126006,1,0,0:0:0:0:
160,96,126175,1,0,0:0:0:0:
160,96,126344,1,0,0:0:0:0:
352,96,126428,1,8,0:0:0:0:
352,96,126596,1,8,0:0:0:0:
160,96,126681,1,0,0:0:0:0:
352,96,126849,1,8,0:0:0:0:
160,96,126933,1,0,0:0:0:0:
352,96,127102,1,8,0:0:0:0:
160,96,127355,1,0,0:0:0:0:
160,96,127439,1,0,0:0:0:0:
352,96,127776,1,8,0:0:0:0:
352,96,127945,1,8,0:0:0:0:
160,96,128029,1,0,0:0:0:0:
160,96,128197,1,0,0:0:0:0:
160,96,128366,1,0,0:0:0:0:
352,96,128450,1,8,0:0:0:0:
352,96,128619,1,8,0:0:0:0:
160,96,128703,1,0,0:0:0:0:
160,96,128872,1,0,0:0:0:0:
160,96,128956,1,0,0:0:0:0:
352,96,129124,1,8,0:0:0:0:
352,96,129293,1,8,0:0:0:0:
160,96,129377,1,0,0:0:0:0:
256,192,129462,8,0,129799,0:0:0:0:
160,288,130136,5,4,0:0:0:0:
352,96,130473,1,8,0:0:0:0:
352,96,130641,1,8,0:0:0:0:
160,96,130726,1,0,0:0:0:0:
160,96,130894,1,0,0:0:0:0:
352,96,130978,1,8,0:0:0:0:
160,96,131063,1,0,0:0:0:0:
352,96,131147,1,8,0:0:0:0:
160,96,131400,1,0,0:0:0:0:
352,96,131568,1,8,0:0:0:0:
160,96,131653,1,0,0:0:0:0:
352,96,131821,1,8,0:0:0:0:
352,96,131905,1,8,0:0:0:0:
352,96,131990,1,8,0:0:0:0:
160,96,132074,1,0,0:0:0:0:
160,96,132242,1,0,0:0:0:0:
160,96,132411,1,0,0:0:0:0:
352,96,132495,1,8,0:0:0:0:
352,96,132580,1,8,0:0:0:0:
160,96,132748,1,0,0:0:0:0:
160,96,132832,1,0,0:0:0:0:
160,96,133085,1,0,0:0:0:0:
352,96,133169,1,8,0:0:0:0:
352,96,133338,1,8,0:0:0:0:
160,96,133422,1,0,0:0:0:0:
160,96,133591,1,0,0:0:0:0:
160,96,133759,1,0,0:0:0:0:
352,96,133844,1,8,0:0:0:0:
352,96,134012,1,8,0:0:0:0:
160,96,134096,1,0,0:0:0:0:
352,96,134181,1,8,0:0:0:0:
160,96,134265,1,0,0:0:0:0:
160,96,134349,1,0,0:0:0:0:
352,96,134518,1,8,0:0:0:0:
352,96,134602,1,8,0:0:0:0:
352,96,134686,1,8,0:0:0:0:
160,96,134771,1,0,0:0:0:0:
160,96,134939,1,0,0:0:0:0:
160,96,135108,1,0,0:0:0:0:
352,96,135192,1,8,0:0:0:0:
352,96,135360,1,8,0:0:0:0:
160,96,135445,1,0,0:0:0:0:
160,96,135529,5,0,0:0:0:0:
352,96,135866,1,8,0:0:0:0:
352,96,136035,1,8,0:0:0:0:
160,96,136119,1,0,0:0:0:0:
160,96,136287,1,0,0:0:0:0:
352,96,136372,1,8,0:0:0:0:
160,96,136456,1,0,0:0:0:0:
352,96,136540,1,8,0:0:0:0:
160,96,136793,1,0,0:0:0:0:
352,96,136962,1,8,0:0:0:0:
160,96,137046,1,0,0:0:0:0:
352,96,137214,1,8,0:0:0:0:
352,96,137299,1,8,0:0:0:0:
352,96,137383,1,8,0:0:0:0:
160,96,137467,1,0,0:0:0:0:
160,96,137636,1,0,0:0:0:0:
160,96,137804,1,0,0:0:0:0:
352,96,137889,1,8,0:0:0:0:
352,96,137973,1,8,0:0:0:0:
160,96,138141,1,0,0:0:0:0:
160,96,138226,1,0,0:0:0:0:
160,96,138394,1,0,0:0:0:0:
160,96,138478,1,0,0:0:0:0:
352,96,138563,1,8,0:0:0:0:
352,96,138815,1,0,0:0:0:0:
160,96,138984,1,0,0:0:0:0:
160,96,139153,1,0,0:0:0:0:
352,96,139237,1,8,0:0:0:0:
352,96,139405,1,8,0:0:0:0:
160,96,139490,1,0,0:0:0:0:
352,96,139574,1,8,0:0:0:0:
160,96,139658,1,0,0:0:0:0:
160,96,139742,1,0,0:0:0:0:
352,96,139911,1,8,0:0:0:0:
352,96,139995,1,8,0:0:0:0:
352,96,140080,1,8,0:0:0:0:
160,96,140164,1,0,0:0:0:0:
160,96,140332,1,0,0:0:0:0:
160,96,140501,1,0,0:0:0:0:
352,96,140585,1,8,0:0:0:0:
352,96,140754,1,8,0:0:0:0:
160,96,140838,5,0,0:0:0:0:
160,96,140922,1,0,0:0:0:0:
352,96,141259,1,8,0:0:0:0:
352,96,141428,1,8,0:0:0:0:
160,96,141512,1,0,0:0:0:0:
352,96,141596,1,8,0:0:0:0:
352,96,141681,1,8,0:0:0:0:
160,96,141765,1,0,0:0:0:0:
352,96,141933,1,8,0:0:0:0:
160,96,142186,1,0,0:0:0:0:
160,96,142355,1,0,0:0:0:0:
160,96,142439,1,0,0:0:0:0:
352,96,142608,1,8,0:0:0:0:
160,96,142692,1,0,0:0:0:0:
160,96,142860,1,0,0:0:0:0:
352,96,142945,1,8,0:0:0:0:
352,96,143029,1,8,0:0:0:0:
160,96,143113,1,0,0:0:0:0:
352,96,143282,1,8,0:0:0:0:
352,96,143366,1,8,0:0:0:0:
352,96,143450,1,8,0:0:0:0:
160,96,143535,1,0,0:0:0:0:
160,96,143619,1,0,0:0:0:0:
160,96,143787,1,0,0:0:0:0:
160,96,143872,1,0,0:0:0:0:
352,96,143956,1,8,0:0:0:0:
160,96,144209,1,0,0:0:0:0:
160,96,144377,1,0,0:0:0:0:
160,96,144462,1,0,0:0:0:0:
352,96,144630,1,8,0:0:0:0:
352,96,144799,1,8,0:0:0:0:
160,96,144883,1,0,0:0:0:0:
160,96,145051,1,0,0:0:0:0:
160,96,145220,1,0,0:0:0:0:
352,96,145304,1,8,0:0:0:0:
352,96,145389,1,8,0:0:0:0:
352,96,145473,1,8,0:0:0:0:
160,96,145557,1,0,0:0:0:0:
160,96,145726,1,0,0:0:0:0:
160,96,145894,1,0,0:0:0:0:
352,96,145978,1,8,0:0:0:0:
352,96,146063,1,8,0:0:0:0:
160,96,146147,1,0,0:0:0:0:
237,61,146231,1,8,0:0:0:0:
160,288,146315,1,0,0:0:0:0:
160,96,146653,1,8,0:0:0:0:
352,96,146821,1,8,0:0:0:0:
160,96,146905,1,0,0:0:0:0:
352,96,146990,1,8,0:0:0:0:
352,96,147074,1,8,0:0:0:0:
160,96,147158,1,0,0:0:0:0:
352,96,147327,1,8,0:0:0:0:
352,96,147495,1,8,0:0:0:0:
160,96,147580,1,0,0:0:0:0:
352,96,147664,1,8,0:0:0:0:
160,96,147748,1,0,0:0:0:0:
160,96,147917,1,0,0:0:0:0:
352,96,148001,1,8,0:0:0:0:
352,96,148169,1,8,0:0:0:0:
160,96,148254,1,0,0:0:0:0:
352,96,148338,1,8,0:0:0:0:
352,96,148422,1,8,0:0:0:0:
160,96,148506,1,0,0:0:0:0:
352,96,148675,1,8,0:0:0:0:
352,96,148844,1,8,0:0:0:0:
160,96,148928,1,0,0:0:0:0:
160,96,149012,1,0,0:0:0:0:
352,96,149349,1,8,0:0:0:0:
352,96,149433,1,8,0:0:0:0:
352,96,149518,1,8,0:0:0:0:
160,96,149602,1,0,0:0:0:0:
160,96,149771,1,0,0:0:0:0:
352,96,149855,1,8,0:0:0:0:
160,96,149939,1,0,0:0:0:0:
352,96,150023,1,8,0:0:0:0:
352,96,150192,1,8,0:0:0:0:
160,96,150276,1,0,0:0:0:0:
160,96,150445,1,0,0:0:0:0:
352,96,150697,1,8,0:0:0:0:
160,96,150950,1,0,0:0:0:0:
160,96,151119,1,0,0:0:0:0:
160,96,151203,1,0,0:0:0:0:
352,96,151372,1,8,0:0:0:0:
160,288,151709,1,4,0:0:0:0:
352,96,151877,1,8,0:0:0:0:
160,96,151962,1,0,0:0:0:0:
352,96,152046,1,8,0:0:0:0:
160,96,152214,1,0,0:0:0:0:
352,96,152383,1,8,0:0:0:0:
160,96,152467,1,0,0:0:0:0:
352,96,152720,1,8,0:0:0:0:
160,96,153057,1,0,0:0:0:0:
352,96,153226,1,8,0:0:0:0:
160,96,153310,1,0,0:0:0:0:
160,96,153563,1,0,0:0:0:0:
352,96,153731,1,8,0:0:0:0:
160,96,153815,1,0,0:0:0:0:
352,96,154068,1,8,0:0:0:0:
160,96,154405,1,0,0:0:0:0:
160,96,154658,1,0,0:0:0:0:
352,96,154742,1,8,0:0:0:0:
160,96,154911,1,0,0:0:0:0:
352,96,155080,1,8,0:0:0:0:
160,96,155164,1,0,0:0:0:0:
352,96,155417,1,8,0:0:0:0:
352,96,155585,1,8,0:0:0:0:
160,96,155754,1,0,0:0:0:0:
352,96,155922,1,8,0:0:0:0:
160,96,156006,1,0,0:0:0:0:
352,96,156091,1,8,0:0:0:0:
160,96,156259,1,0,0:0:0:0:
352,96,156428,1,8,0:0:0:0:
160,96,156512,1,0,0:0:0:0:
160,96,156681,1,0,0:0:0:0:
352,96,156765,1,8,0:0:0:0:
352,96,156933,1,0,0:0:0:0:
160,288,157186,1,4,0:0:0:0:
160,288,157439,1,4,0:0:0:0:
160,288,157692,1,4,0:0:0:0:
160,288,157945,1,4,0:0:0:0:
160,288,158197,1,4,0:0:0:0:
352,288,158450,1,12,0:0:0:0:
352,288,158703,1,12,0:0:0:0:
352,288,158956,1,12,0:0:0:0:
352,288,159209,1,12,0:0:0:0:
352,288,159462,1,12,0:0:0:0:
160,288,159630,1,4,0:0:0:0:
352,288,159883,1,12,0:0:0:0:
352,288,160136,1,12,0:0:0:0:
352,288,160389,1,12,0:0:0:0:
352,288,160641,1,12,0:0:0:0:
352,288,160894,1,12,0:0:0:0:
352,288,161063,1,12,0:0:0:0:
