osu file format v14

[General]
AudioFilename: audio.mp3
AudioLeadIn: 0
PreviewTime: 108542
Countdown: 0
SampleSet: Normal
StackLeniency: 0.7
Mode: 1
LetterboxInBreaks: 0
WidescreenStoryboard: 1

[Editor]
Bookmarks: 22271,43844,65417,86990,108563,130136,151709
DistanceSpacing: 1.2
BeatDivisor: 4
GridSize: 32
TimelineZoom: 2.7

[Metadata]
Title:F1055
TitleUnicode:F1055
Artist:Silentroom
ArtistUnicode:Silentroom
Creator:HiroK
Version:Ulqui's Muzukashii
Source:Tone Sphere
Tags:osu! fa featured artist dnb drum and bass electronic instrumental video game genjuro komasy ulqui memory waves
BeatmapID:2604633
BeatmapSetID:1224716

[Difficulty]
HPDrainRate:5
CircleSize:2
OverallDifficulty:5
ApproachRate:10
SliderMultiplier:1.4
SliderTickRate:1

[Events]
//Background and Video events
0,0,"bg.jpg",0,0
//Break Periods
//Storyboard Layer 0 (Background)
//Storyboard Layer 1 (Fail)
//Storyboard Layer 2 (Pass)
//Storyboard Layer 3 (Foreground)
//Storyboard Layer 4 (Overlay)
//Storyboard Sound Samples

[TimingPoints]
698,337.078651685393,4,1,0,50,1,0
698,-125,4,1,0,50,0,0
22271,-33.3333333333333,4,1,0,50,0,0
22355,-166.666666666667,4,1,0,50,0,0
32971,-111.111111111111,4,1,0,50,0,0
43843,-100,4,1,0,100,0,0
65417,-166.666666666667,4,1,0,75,0,0
76160,-100,4,1,0,100,0,0
87073,-166.666666666667,4,1,0,40,0,0
97733,-33.3333333333333,4,1,0,100,0,0
97860,-125,4,1,0,100,0,0
105866,-66.6666666666667,4,1,0,100,0,0
105950,-125,4,1,0,100,0,0
107508,-125,4,1,0,100,0,0
108563,-86.9565217391304,4,1,0,100,0,1
129462,-86.9565217391304,4,1,0,100,0,0
130136,-80,4,1,0,100,0,1
151709,-80,4,1,0,100,0,0
151792,-80.5194805194805,4,1,0,100,0,0
151876,-80.7817589576547,4,1,0,100,0,0
151960,-81.0457516339869,4,1,0,100,0,0
152045,-81.3114754098361,4,1,0,100,0,0
152129,-81.5789473684211,4,1,0,100,0,0
152213,-81.8481848184819,4,1,0,100,0,0
152297,-82.1192052980132,4,1,0,100,0,0
152382,-82.3920265780731,4,1,0,100,0,0
152466,-82.6666666666667,4,1,0,100,0,0
152550,-82.943143812709,4,1,0,100,0,0
152634,-83.2214765100671,4,1,0,100,0,0
152719,-83.5016835016835,4,1,0,100,0,0
152803,-83.7837837837838,4,1,0,100,0,0
152887,-84.0677966101695,4,1,0,100,0,0
152972,-84.3537414965986,4,1,0,100,0,0
153056,-84.641638225256,4,1,0,100,0,0
153140,-84.9315068493151,4,1,0,100,0,0
153224,-85.2233676975945,4,1,0,100,0,0
153309,-85.5172413793103,4,1,0,100,0,0
153393,-85.8131487889273,4,1,0,100,0,0
153477,-86.1111111111111,4,1,0,100,0,0
153561,-86.411149825784,4,1,0,100,0,0
153646,-86.7132867132867,4,1,0,100,0,0
153730,-87.0175438596491,4,1,0,100,0,0
153814,-87.3239436619718,4,1,0,100,0,0
153899,-87.6325088339223,4,1,0,100,0,0
153983,-87.9432624113475,4,1,0,100,0,0
154067,-88.2562277580071,4,1,0,100,0,0
154151,-88.5714285714286,4,1,0,100,0,0
154236,-88.8888888888889,4,1,0,100,0,0
154320,-89.2086330935252,4,1,0,100,0,0
154404,-89.5306859205776,4,1,0,100,0,0
154488,-89.8550724637681,4,1,0,100,0,0
154573,-90.1818181818182,4,1,0,100,0,0
154657,-90.5109489051095,4,1,0,100,0,0
154741,-90.8424908424908,4,1,0,100,0,0
154825,-91.1764705882353,4,1,0,100,0,0
154910,-91.5129151291513,4,1,0,100,0,0
154994,-91.8518518518519,4,1,0,100,0,0
155078,-92.1933085501859,4,1,0,100,0,0
155163,-92.5373134328358,4,1,0,100,0,0
155247,-92.8838951310861,4,1,0,100,0,0
155331,-93.2330827067669,4,1,0,100,0,0
155415,-93.5849056603773,4,1,0,100,0,0
155500,-93.9393939393939,4,1,0,100,0,0
155584,-94.2965779467681,4,1,0,100,0,0
155668,-94.6564885496183,4,1,0,100,0,0
155752,-95.0191570881226,4,1,0,100,0,0
155837,-95.3846153846154,4,1,0,100,0,0
155921,-95.7528957528958,4,1,0,100,0,0
156005,-96.1240310077519,4,1,0,100,0,0
156090,-96.4980544747082,4,1,0,100,0,0
156174,-96.875,4,1,0,100,0,0
156258,-97.2549019607843,4,1,0,100,0,0
156342,-97.6377952755905,4,1,0,100,0,0
156427,-98.0237154150198,4,1,0,100,0,0
156511,-98.4126984126984,4,1,0,100,0,0
156595,-98.804780876494,4,1,0,100,0,0
156679,-99.2,4,1,0,100,0,0
156764,-99.5983935742972,4,1,0,100,0,0
156848,-100,4,1,0,100,0,0
157185,-98.4615384615385,4,1,0,100,0,0
157437,-96.969696969697,4,1,0,100,0,0
157690,-95.5223880597015,4,1,0,100,0,0
157943,-94.1176470588235,4,1,0,100,0,0
158196,-92.7536231884058,4,1,0,100,0,0
158449,-91.4285714285714,4,1,0,100,0,0
158701,-90.1408450704225,4,1,0,100,0,0
158954,-88.8888888888889,4,1,0,100,0,0
159207,-87.6712328767123,4,1,0,100,0,0
159460,-86.4864864864865,4,1,0,100,0,0
159629,-85.3333333333333,4,1,0,100,0,0
159880,-84.2105263157895,4,1,0,100,0,0
160133,-83.1168831168831,4,1,0,100,0,0
160386,-82.051282051282,4,1,0,100,0,0
160639,-81.0126582278481,4,1,0,100,0,0
160892,-80,4,1,0,100,0,0
161062,-78.7401574803149,4,1,0,100,0,0

[HitObjects]
190,119,698,5,0,0:0:0:0:
181,123,1035,1,8,0:0:0:0:
179,121,1540,1,8,0:0:0:0:
179,121,1709,1,8,0:0:0:0:
156,127,2046,1,0,0:0:0:0:
205,122,2214,1,8,0:0:0:0:
245,223,2383,1,8,0:0:0:0:
205,122,2889,1,8,0:0:0:0:
205,122,3057,1,8,0:0:0:0:
205,122,3394,1,0,0:0:0:0:
205,122,3731,1,8,0:0:0:0:
205,122,4237,1,8,0:0:0:0:
205,122,4405,1,8,0:0:0:0:
205,122,4742,1,0,0:0:0:0:
205,122,4911,1,8,0:0:0:0:
205,122,5080,1,8,0:0:0:0:
205,122,5585,1,8,0:0:0:0:
205,122,5754,1,8,0:0:0:0:
205,122,6091,1,0,0:0:0:0:
205,122,6428,1,8,0:0:0:0:
205,122,6933,1,8,0:0:0:0:
205,122,7102,1,8,0:0:0:0:
205,122,7439,1,0,0:0:0:0:
205,122,7608,1,8,0:0:0:0:
205,122,7776,1,8,0:0:0:0:
205,122,8282,1,8,0:0:0:0:
205,122,8450,1,8,0:0:0:0:
205,122,8787,1,0,0:0:0:0:
205,122,9124,1,8,0:0:0:0:
205,122,9630,1,8,0:0:0:0:
205,122,9799,1,8,0:0:0:0:
205,122,10136,1,0,0:0:0:0:
205,122,10304,1,8,0:0:0:0:
205,122,10473,1,8,0:0:0:0:
205,122,10978,1,8,0:0:0:0:
205,122,11147,1,8,0:0:0:0:
205,122,11484,1,0,0:0:0:0:
193,120,11821,1,8,0:0:0:0:
193,120,11990,1,0,0:0:0:0:
177,76,12327,1,8,0:0:0:0:
177,76,12495,1,8,0:0:0:0:
215,69,13001,1,8,0:0:0:0:
215,69,13169,1,8,0:0:0:0:
215,69,13338,1,0,0:0:0:0:
215,69,13675,1,8,0:0:0:0:
215,69,13844,1,8,0:0:0:0:
215,69,14181,1,0,0:0:0:0:
215,69,14518,1,8,0:0:0:0:
215,69,14686,1,0,0:0:0:0:
215,69,15023,1,8,0:0:0:0:
215,69,15192,1,8,0:0:0:0:
193,70,15697,1,8,0:0:0:0:
193,70,15866,1,8,0:0:0:0:
192,70,16035,1,0,0:0:0:0:
193,70,16372,1,8,0:0:0:0:
193,70,16540,1,8,0:0:0:0:
193,109,16877,1,0,0:0:0:0:
181,114,17214,1,8,0:0:0:0:
181,114,17383,1,0,0:0:0:0:
181,114,17720,1,8,0:0:0:0:
181,114,17889,1,8,0:0:0:0:
181,114,18394,1,8,0:0:0:0:
181,114,18563,1,8,0:0:0:0:
181,114,18731,1,0,0:0:0:0:
181,114,19068,1,8,0:0:0:0:
181,114,19237,1,8,0:0:0:0:
181,114,19574,1,0,0:0:0:0:
181,114,19911,1,8,0:0:0:0:
181,114,20080,1,0,0:0:0:0:
181,114,20417,1,8,0:0:0:0:
181,114,20585,1,8,0:0:0:0:
181,114,21091,1,8,0:0:0:0:
181,114,21259,1,8,0:0:0:0:
181,114,21428,1,0,0:0:0:0:
189,88,21596,1,8,0:0:0:0:
190,91,22945,1,8,0:0:0:0:
173,104,24293,1,8,0:0:0:0:
170,105,25641,1,8,0:0:0:0:
170,105,26990,1,8,0:0:0:0:
170,105,28338,1,8,0:0:0:0:
170,105,29686,1,8,0:0:0:0:
170,105,31035,1,8,0:0:0:0:
170,105,32383,1,8,0:0:0:0:
170,105,33057,1,0,0:0:0:0:
175,135,33563,1,8,0:0:0:0:
176,133,33731,1,0,0:0:0:0:
175,135,33815,1,0,0:0:0:0:
175,135,34068,1,8,0:0:0:0:
175,135,34405,1,0,0:0:0:0:
160,96,34742,1,8,0:0:0:0:
167,158,34911,1,0,0:0:0:0:
167,158,35080,1,8,0:0:0:0:
176,83,35164,1,8,0:0:0:0:
172,73,35417,1,8,0:0:0:0:
183,45,35754,1,0,0:0:0:0:
182,93,36259,1,8,0:0:0:0:
182,93,36428,1,0,0:0:0:0:
182,93,36512,1,0,0:0:0:0:
193,75,36765,1,8,0:0:0:0:
193,75,37102,1,0,0:0:0:0:
193,75,37439,1,8,0:0:0:0:
193,75,37608,1,0,0:0:0:0:
193,75,37776,1,8,0:0:0:0:
193,75,37860,1,8,0:0:0:0:
193,75,38113,1,8,0:0:0:0:
193,75,38450,1,0,0:0:0:0:
173,90,38956,1,8,0:0:0:0:
161,88,39124,1,0,0:0:0:0:
161,88,39209,1,0,0:0:0:0:
160,90,39462,1,8,0:0:0:0:
160,90,39799,1,0,0:0:0:0:
161,88,40136,1,8,0:0:0:0:
160,90,40304,1,0,0:0:0:0:
160,90,40473,1,8,0:0:0:0:
160,90,40557,1,8,0:0:0:0:
185,89,40810,1,8,0:0:0:0:
185,89,41147,1,0,0:0:0:0:
183,104,41653,1,8,0:0:0:0:
183,104,41821,1,0,0:0:0:0:
183,104,41905,1,0,0:0:0:0:
183,104,42158,1,8,0:0:0:0:
190,98,42495,1,0,0:0:0:0:
188,46,42664,1,8,0:0:0:0:
188,46,42832,1,8,0:0:0:0:
202,129,43001,1,0,0:0:0:0:
202,129,43169,1,8,0:0:0:0:
202,129,43844,1,4,0:0:0:0:
104,266,44349,1,8,0:0:0:0:
104,266,44518,1,8,0:0:0:0:
84,189,44771,1,8,0:0:0:0:
84,189,45023,1,8,0:0:0:0:
84,189,45192,1,0,0:0:0:0:
84,189,45445,1,0,0:0:0:0:
84,189,45697,1,0,0:0:0:0:
193,42,45782,1,0,0:0:0:0:
84,189,45866,1,8,0:0:0:0:
193,49,46372,1,8,0:0:0:0:
106,88,46540,1,0,0:0:0:0:
175,45,46793,1,8,0:0:0:0:
175,63,47046,1,0,0:0:0:0:
175,64,47214,1,8,0:0:0:0:
175,65,47467,1,8,0:0:0:0:
175,65,47720,1,0,0:0:0:0:
175,63,47889,1,0,0:0:0:0:
175,64,48141,1,8,0:0:0:0:
175,65,48394,1,0,0:0:0:0:
160,102,48478,1,8,0:0:0:0:
175,65,48563,1,8,0:0:0:0:
196,57,49068,1,8,0:0:0:0:
175,65,49237,1,0,0:0:0:0:
175,65,49490,1,0,0:0:0:0:
175,65,49742,1,8,0:0:0:0:
175,65,49911,1,8,0:0:0:0:
180,104,50164,1,8,0:0:0:0:
180,104,50417,1,8,0:0:0:0:
180,104,50585,1,0,0:0:0:0:
180,104,50838,1,0,0:0:0:0:
180,104,51091,1,0,0:0:0:0:
167,88,51175,1,0,0:0:0:0:
180,104,51259,1,8,0:0:0:0:
225,147,51765,1,8,0:0:0:0:
180,104,51933,1,0,0:0:0:0:
180,104,52186,1,8,0:0:0:0:
180,104,52439,1,0,0:0:0:0:
180,104,52608,1,8,0:0:0:0:
180,104,52860,1,8,0:0:0:0:
180,104,53113,1,0,0:0:0:0:
180,104,53282,1,0,0:0:0:0:
180,104,53535,1,8,0:0:0:0:
180,104,53787,1,0,0:0:0:0:
177,93,53872,1,8,0:0:0:0:
214,77,53956,1,8,0:0:0:0:
123,92,54293,1,8,0:0:0:0:
180,104,54630,1,4,0:0:0:0:
176,165,55136,1,8,0:0:0:0:
176,165,55304,1,8,0:0:0:0:
176,165,55557,1,8,0:0:0:0:
176,165,55810,1,0,0:0:0:0:
176,165,55978,1,0,0:0:0:0:
186,120,56231,1,0,0:0:0:0:
186,120,56484,1,0,0:0:0:0:
201,89,56568,1,0,0:0:0:0:
186,120,56653,1,8,0:0:0:0:
163,76,57158,1,0,0:0:0:0:
193,98,57327,1,8,0:0:0:0:
193,98,57580,1,8,0:0:0:0:
193,98,57832,1,8,0:0:0:0:
193,98,58001,1,8,0:0:0:0:
160,78,58254,1,8,0:0:0:0:
160,78,58506,1,8,0:0:0:0:
160,78,58675,1,0,0:0:0:0:
160,78,58928,1,8,0:0:0:0:
194,77,59181,1,0,0:0:0:0:
194,77,59265,1,8,0:0:0:0:
193,78,59349,1,8,0:0:0:0:
187,56,59855,1,8,0:0:0:0:
155,117,60023,1,0,0:0:0:0:
155,117,60276,1,8,0:0:0:0:
185,109,60529,1,8,0:0:0:0:
185,109,60697,1,8,0:0:0:0:
163,62,60950,1,8,0:0:0:0:
163,62,61203,1,0,0:0:0:0:
163,62,61372,1,0,0:0:0:0:
163,62,61624,1,0,0:0:0:0:
163,62,61877,1,0,0:0:0:0:
170,61,61962,1,0,0:0:0:0:
163,62,62046,1,8,0:0:0:0:
197,77,62551,1,0,0:0:0:0:
175,70,62720,1,0,0:0:0:0:
174,76,62973,1,8,0:0:0:0:
196,124,63226,1,0,0:0:0:0:
196,124,63394,1,8,0:0:0:0:
205,131,63647,1,8,0:0:0:0:
205,131,63900,1,0,0:0:0:0:
205,131,64068,1,0,0:0:0:0:
165,104,64321,1,8,0:0:0:0:
165,104,64574,1,0,0:0:0:0:
256,192,64742,12,0,65417,0:0:0:0:
165,50,66091,5,8,0:0:0:0:
124,114,67439,1,8,0:0:0:0:
160,151,68787,1,8,0:0:0:0:
161,141,70136,1,8,0:0:0:0:
162,144,71484,1,8,0:0:0:0:
162,144,72832,1,8,0:0:0:0:
162,144,74181,1,8,0:0:0:0:
162,144,75529,1,8,0:0:0:0:
162,144,76203,1,0,0:0:0:0:
154,161,76456,1,0,0:0:0:0:
154,161,76709,1,0,0:0:0:0:
153,161,76877,1,8,0:0:0:0:
172,132,77130,1,0,0:0:0:0:
172,132,77383,1,8,0:0:0:0:
172,132,77551,1,0,0:0:0:0:
172,132,77804,1,0,0:0:0:0:
172,132,78057,1,0,0:0:0:0:
205,76,78141,1,0,0:0:0:0:
172,132,78226,1,8,0:0:0:0:
152,82,78731,1,8,0:0:0:0:
175,107,78900,1,0,0:0:0:0:
175,107,79153,1,0,0:0:0:0:
175,107,79405,1,8,0:0:0:0:
175,107,79574,1,8,0:0:0:0:
155,79,79827,1,0,0:0:0:0:
155,79,80080,1,8,0:0:0:0:
155,79,80248,1,0,0:0:0:0:
155,79,80501,1,0,0:0:0:0:
155,79,80754,1,0,0:0:0:0:
200,69,80838,1,8,0:0:0:0:
155,79,80922,1,8,0:0:0:0:
200,69,81428,1,8,0:0:0:0:
155,79,81596,1,0,0:0:0:0:
155,79,81849,1,0,0:0:0:0:
155,79,82102,1,0,0:0:0:0:
155,79,82271,1,8,0:0:0:0:
155,79,82523,1,8,0:0:0:0:
155,79,82776,1,8,0:0:0:0:
155,79,82945,1,8,0:0:0:0:
208,107,83197,1,0,0:0:0:0:
208,107,83450,1,0,0:0:0:0:
195,74,83535,1,0,0:0:0:0:
208,107,83619,1,8,0:0:0:0:
203,72,84124,1,8,0:0:0:0:
208,107,84293,1,0,0:0:0:0:
208,107,84546,1,0,0:0:0:0:
208,107,84799,1,0,0:0:0:0:
208,107,84967,1,8,0:0:0:0:
208,107,85220,1,0,0:0:0:0:
208,107,85473,1,0,0:0:0:0:
208,107,85641,1,0,0:0:0:0:
208,107,85894,1,0,0:0:0:0:
208,107,86147,1,0,0:0:0:0:
217,63,86231,1,8,0:0:0:0:
208,107,86315,1,8,0:0:0:0:
203,41,86653,1,8,0:0:0:0:
121,89,86990,5,4,0:0:0:0:
103,124,89686,5,8,0:0:0:0:
105,162,92383,1,8,0:0:0:0:
129,92,95080,1,8,0:0:0:0:
86,121,96428,1,8,0:0:0:0:
180,157,98450,1,8,0:0:0:0:
187,145,99799,1,8,0:0:0:0:
187,144,101147,1,8,0:0:0:0:
181,145,102495,1,8,0:0:0:0:
181,144,103844,1,8,0:0:0:0:
190,143,105192,1,8,0:0:0:0:
256,192,105866,12,0,107383,0:0:0:0:
171,75,107551,5,0,0:0:0:0:
171,75,107889,1,8,0:0:0:0:
198,73,108141,1,8,0:0:0:0:
198,73,108226,1,8,0:0:0:0:
26,82,108563,1,4,0:0:0:0:
122,150,108815,1,8,0:0:0:0:
122,150,108900,1,8,0:0:0:0:
141,104,109153,1,0,0:0:0:0:
144,112,109405,1,0,0:0:0:0:
141,114,109574,1,8,0:0:0:0:
177,96,109827,1,0,0:0:0:0:
177,96,109995,1,0,0:0:0:0:
177,96,110248,1,8,0:0:0:0:
202,83,110501,1,0,0:0:0:0:
201,82,110754,1,0,0:0:0:0:
177,96,110922,1,8,0:0:0:0:
220,61,111006,1,8,0:0:0:0:
213,56,111091,1,8,0:0:0:0:
204,76,111596,1,8,0:0:0:0:
224,77,111765,1,0,0:0:0:0:
204,76,111849,1,0,0:0:0:0:
204,76,112018,1,0,0:0:0:0:
204,76,112271,1,8,0:0:0:0:
204,76,112523,1,0,0:0:0:0:
204,76,112692,1,0,0:0:0:0:
204,76,112945,1,8,0:0:0:0:
204,76,113197,1,0,0:0:0:0:
204,76,113366,1,0,0:0:0:0:
209,81,113535,1,8,0:0:0:0:
204,76,113619,1,8,0:0:0:0:
162,65,113956,1,0,0:0:0:0:
154,83,114209,1,8,0:0:0:0:
154,83,114293,1,8,0:0:0:0:
155,92,114546,1,0,0:0:0:0:
155,92,114799,1,0,0:0:0:0:
155,92,114967,1,8,0:0:0:0:
181,82,115220,1,0,0:0:0:0:
181,82,115389,1,0,0:0:0:0:
180,84,115641,1,8,0:0:0:0:
180,84,115894,1,0,0:0:0:0:
181,82,116147,1,0,0:0:0:0:
200,88,116315,1,8,0:0:0:0:
186,71,116484,1,0,0:0:0:0:
186,71,116568,1,0,0:0:0:0:
186,71,116653,1,0,0:0:0:0:
198,84,116990,1,8,0:0:0:0:
181,82,117158,1,0,0:0:0:0:
181,88,117242,1,0,0:0:0:0:
181,88,117411,1,0,0:0:0:0:
181,88,117664,1,8,0:0:0:0:
186,55,117917,1,0,0:0:0:0:
186,55,118085,1,0,0:0:0:0:
181,88,118338,1,8,0:0:0:0:
160,67,118591,1,0,0:0:0:0:
182,65,118675,1,0,0:0:0:0:
200,100,119349,1,4,0:0:0:0:
170,108,119602,1,8,0:0:0:0:
169,114,119686,1,8,0:0:0:0:
171,146,119939,1,0,0:0:0:0:
171,146,120192,1,0,0:0:0:0:
171,146,120360,1,8,0:0:0:0:
186,123,120613,1,0,0:0:0:0:
186,123,120782,1,0,0:0:0:0:
186,123,121035,1,8,0:0:0:0:
186,123,121287,1,0,0:0:0:0:
186,123,121540,1,0,0:0:0:0:
186,123,121709,1,8,0:0:0:0:
186,123,121793,1,8,0:0:0:0:
186,123,121877,1,8,0:0:0:0:
185,131,122383,1,8,0:0:0:0:
192,88,122551,1,0,0:0:0:0:
185,131,122636,1,0,0:0:0:0:
185,131,122804,1,0,0:0:0:0:
185,131,123057,1,8,0:0:0:0:
185,131,123310,1,0,0:0:0:0:
185,131,123478,1,0,0:0:0:0:
185,131,123731,1,8,0:0:0:0:
185,131,123984,1,0,0:0:0:0:
185,131,124153,1,0,0:0:0:0:
205,80,124321,1,8,0:0:0:0:
205,80,124405,1,8,0:0:0:0:
192,107,124742,1,0,0:0:0:0:
186,108,124995,1,8,0:0:0:0:
186,107,125080,1,8,0:0:0:0:
188,117,125332,1,0,0:0:0:0:
185,119,125585,1,0,0:0:0:0:
185,119,125754,1,8,0:0:0:0:
185,119,126006,1,0,0:0:0:0:
188,117,126175,1,0,0:0:0:0:
185,119,126428,1,8,0:0:0:0:
195,100,126681,1,0,0:0:0:0:
195,98,126933,1,0,0:0:0:0:
195,98,127102,1,8,0:0:0:0:
195,98,127271,1,0,0:0:0:0:
195,98,127355,1,0,0:0:0:0:
175,57,127439,1,0,0:0:0:0:
195,98,127776,1,8,0:0:0:0:
169,125,127945,1,0,0:0:0:0:
169,125,128029,1,0,0:0:0:0:
169,125,128197,1,0,0:0:0:0:
169,125,128450,1,8,0:0:0:0:
169,125,128703,1,0,0:0:0:0:
169,125,128872,1,0,0:0:0:0:
169,125,129124,1,8,0:0:0:0:
118,91,129377,1,0,0:0:0:0:
188,61,129462,1,8,0:0:0:0:
182,164,130136,1,4,0:0:0:0:
142,133,130473,1,8,0:0:0:0:
202,128,130641,1,0,0:0:0:0:
202,128,130726,1,0,0:0:0:0:
202,128,130894,1,0,0:0:0:0:
202,128,131147,1,8,0:0:0:0:
189,88,131400,1,0,0:0:0:0:
189,88,131484,1,0,0:0:0:0:
189,88,131568,1,0,0:0:0:0:
174,60,131821,1,8,0:0:0:0:
188,80,131990,1,0,0:0:0:0:
188,80,132074,1,0,0:0:0:0:
189,88,132242,1,0,0:0:0:0:
196,56,132495,1,8,0:0:0:0:
196,56,132832,1,0,0:0:0:0:
219,57,133001,1,8,0:0:0:0:
206,101,133169,1,8,0:0:0:0:
234,69,133338,1,0,0:0:0:0:
190,104,133422,1,0,0:0:0:0:
190,104,133591,1,0,0:0:0:0:
190,104,133844,1,8,0:0:0:0:
191,103,134181,1,0,0:0:0:0:
202,73,134349,1,8,0:0:0:0:
195,42,134433,1,8,0:0:0:0:
190,104,134518,1,8,0:0:0:0:
176,83,134686,1,0,0:0:0:0:
176,83,134771,1,0,0:0:0:0:
176,83,134939,1,0,0:0:0:0:
200,49,135108,1,8,0:0:0:0:
191,103,135192,1,8,0:0:0:0:
191,103,135866,1,8,0:0:0:0:
187,94,136035,1,0,0:0:0:0:
184,97,136119,1,0,0:0:0:0:
184,97,136287,1,0,0:0:0:0:
184,97,136540,1,8,0:0:0:0:
187,94,136793,1,0,0:0:0:0:
187,94,136877,1,0,0:0:0:0:
187,94,136962,1,0,0:0:0:0:
157,59,137214,1,8,0:0:0:0:
179,65,137383,1,0,0:0:0:0:
157,59,137467,1,0,0:0:0:0:
157,59,137636,1,0,0:0:0:0:
157,59,137889,1,8,0:0:0:0:
174,69,138226,1,0,0:0:0:0:
173,76,138394,1,8,0:0:0:0:
173,76,138563,1,8,0:0:0:0:
171,78,138731,1,8,0:0:0:0:
171,78,138815,1,8,0:0:0:0:
171,78,138984,1,0,0:0:0:0:
171,79,139237,1,8,0:0:0:0:
194,101,139574,1,0,0:0:0:0:
194,101,139742,1,8,0:0:0:0:
194,101,139827,1,8,0:0:0:0:
194,101,139911,1,8,0:0:0:0:
194,104,140080,1,0,0:0:0:0:
194,104,140164,1,0,0:0:0:0:
194,101,140248,1,0,0:0:0:0:
190,52,140332,1,0,0:0:0:0:
184,119,140922,1,4,0:0:0:0:
179,138,141259,1,8,0:0:0:0:
202,67,141428,1,0,0:0:0:0:
179,138,141512,1,0,0:0:0:0:
179,138,141681,1,0,0:0:0:0:
179,138,141933,1,8,0:0:0:0:
179,138,142186,1,0,0:0:0:0:
202,67,142271,1,0,0:0:0:0:
179,138,142355,1,0,0:0:0:0:
165,83,142608,1,8,0:0:0:0:
165,83,142860,1,0,0:0:0:0:
207,56,143029,1,0,0:0:0:0:
165,83,143113,1,0,0:0:0:0:
165,83,143282,1,8,0:0:0:0:
186,73,143619,1,4,0:0:0:0:
179,82,143956,1,8,0:0:0:0:
176,82,144124,1,0,0:0:0:0:
176,82,144209,1,0,0:0:0:0:
176,82,144377,1,0,0:0:0:0:
176,85,144630,1,8,0:0:0:0:
195,82,144967,1,0,0:0:0:0:
195,82,145136,1,8,0:0:0:0:
195,82,145220,1,8,0:0:0:0:
195,82,145304,1,8,0:0:0:0:
157,79,145473,1,0,0:0:0:0:
157,79,145557,1,0,0:0:0:0:
157,79,145726,1,0,0:0:0:0:
192,30,145810,1,0,0:0:0:0:
192,30,146315,1,4,0:0:0:0:
163,110,146653,1,8,0:0:0:0:
160,117,146821,1,0,0:0:0:0:
160,117,146905,1,0,0:0:0:0:
136,99,147158,1,0,0:0:0:0:
160,117,147327,1,8,0:0:0:0:
181,82,147664,1,0,0:0:0:0:
181,82,147748,1,0,0:0:0:0:
181,82,147832,1,0,0:0:0:0:
173,79,148001,1,8,0:0:0:0:
167,107,148169,1,0,0:0:0:0:
167,101,148254,1,0,0:0:0:0:
167,101,148506,1,0,0:0:0:0:
167,101,148675,1,8,0:0:0:0:
168,107,149012,1,4,0:0:0:0:
167,107,149349,1,8,0:0:0:0:
165,114,149518,1,0,0:0:0:0:
212,24,149602,1,0,0:0:0:0:
175,94,149855,1,0,0:0:0:0:
175,94,150023,1,8,0:0:0:0:
198,55,150192,1,8,0:0:0:0:
198,55,150276,1,8,0:0:0:0:
187,81,150697,1,8,0:0:0:0:
188,29,150866,1,0,0:0:0:0:
188,29,150950,1,0,0:0:0:0:
194,74,151119,1,0,0:0:0:0:
194,74,151372,1,8,0:0:0:0:
192,34,151709,1,0,0:0:0:0:
175,102,152214,1,0,0:0:0:0:
168,104,152383,1,0,0:0:0:0:
168,104,152467,1,0,0:0:0:0:
169,88,152720,1,8,0:0:0:0:
169,88,153057,1,0,0:0:0:0:
169,88,153563,1,0,0:0:0:0:
169,88,153731,1,0,0:0:0:0:
165,62,153900,1,0,0:0:0:0:
165,62,154068,1,8,0:0:0:0:
170,81,154405,1,0,0:0:0:0:
170,81,154911,1,0,0:0:0:0:
170,81,155080,1,0,0:0:0:0:
170,81,155164,1,0,0:0:0:0:
170,81,155417,1,8,0:0:0:0:
170,81,155754,1,0,0:0:0:0:
170,81,156259,1,0,0:0:0:0:
170,81,156428,1,8,0:0:0:0:
152,61,156681,1,8,0:0:0:0:
253,190,156765,1,8,0:0:0:0:
266,197,156933,1,8,0:0:0:0:
154,61,157186,1,4,0:0:0:0:
154,61,157439,1,4,0:0:0:0:
152,61,157692,1,4,0:0:0:0:
154,61,157945,1,4,0:0:0:0:
154,61,158197,1,4,0:0:0:0:
154,61,158450,1,12,0:0:0:0:
152,61,158703,1,12,0:0:0:0:
154,61,158956,1,12,0:0:0:0:
154,61,159209,1,12,0:0:0:0:
154,61,159462,1,12,0:0:0:0:
152,61,159630,1,4,0:0:0:0:
154,61,159883,1,12,0:0:0:0:
154,61,160136,1,12,0:0:0:0:
151,67,160389,1,12,0:0:0:0:
152,61,160641,1,12,0:0:0:0:
151,67,160894,1,12,0:0:0:0:
151,67,161063,1,12,0:0:0:0:
