osu file format v14

[General]
AudioFilename: audio.mp3
AudioLeadIn: 0
PreviewTime: 108542
Countdown: 0
SampleSet: None
StackLeniency: 0.7
Mode: 1
LetterboxInBreaks: 0
WidescreenStoryboard: 1

[Editor]
Bookmarks: 22271,43844,65417,86990,108563,130136,151709
DistanceSpacing: 1
BeatDivisor: 4
GridSize: 32
TimelineZoom: 2.8

[Metadata]
Title:F1055
TitleUnicode:F1055
Artist:Silentroom
ArtistUnicode:Silentroom
Creator:HiroK
Version:Kantan
Source:Tone Sphere
Tags:osu! fa featured artist dnb drum and bass electronic instrumental video game genjuro komasy ulqui memory waves
BeatmapID:2613378
BeatmapSetID:1224716

[Difficulty]
HPDrainRate:7
CircleSize:2
OverallDifficulty:3
ApproachRate:10
SliderMultiplier:1.4
SliderTickRate:1

[Events]
//Background and Video events
0,0,"bg.jpg",0,0
//Break Periods
//Storyboard Layer 0 (Background)
//Storyboard Layer 1 (Fail)
//Storyboard Layer 2 (Pass)
//Storyboard Layer 3 (Foreground)
//Storyboard Layer 4 (Overlay)
//Storyboard Sound Samples

[TimingPoints]
698,337.078651685393,4,1,0,70,1,0
32889,-100,4,1,0,80,0,0
43675,-100,4,1,0,90,0,0
65501,-100,4,1,0,80,0,0
76035,-100,4,1,0,90,0,0
86821,-100,4,1,0,70,0,0
97608,-100,4,1,0,80,0,0
108478,-100,4,1,0,90,0,0
108563,-100,4,1,0,90,0,1
129462,-100,4,1,0,90,0,0
130136,-100,4,1,0,90,0,1
151540,-100,4,1,0,80,0,1
151709,-100,4,1,0,80,0,0

[HitObjects]
256,192,698,5,0,0:0:0:0:
256,192,1372,1,8,0:0:0:0:
256,192,2046,1,8,0:0:0:0:
256,192,2383,1,8,0:0:0:0:
256,192,2720,1,8,0:0:0:0:
256,192,3394,1,0,0:0:0:0:
256,192,4068,1,8,0:0:0:0:
256,192,4742,1,8,0:0:0:0:
256,192,6091,1,0,0:0:0:0:
256,192,6765,1,8,0:0:0:0:
256,192,7439,1,0,0:0:0:0:
256,192,7776,1,8,0:0:0:0:
256,192,8113,1,8,0:0:0:0:
256,192,8787,1,0,0:0:0:0:
256,192,9462,1,8,0:0:0:0:
256,192,10136,1,0,0:0:0:0:
256,192,11484,1,0,0:0:0:0:
256,192,12158,1,8,0:0:0:0:
256,192,12832,1,8,0:0:0:0:
256,192,13169,1,0,0:0:0:0:
256,192,13506,1,8,0:0:0:0:
256,192,14181,1,0,0:0:0:0:
256,192,14855,1,8,0:0:0:0:
256,192,15529,1,0,0:0:0:0:
256,192,16877,1,0,0:0:0:0:
256,192,17551,1,8,0:0:0:0:
256,192,18226,1,8,0:0:0:0:
256,192,18563,1,0,0:0:0:0:
256,192,18900,1,8,0:0:0:0:
256,192,19574,1,0,0:0:0:0:
256,192,20248,1,8,0:0:0:0:
256,192,20922,1,0,0:0:0:0:
256,192,22271,1,0,0:0:0:0:
256,192,22945,1,8,0:0:0:0:
256,192,24293,1,8,0:0:0:0:
256,192,25641,1,8,0:0:0:0:
256,192,26990,1,8,0:0:0:0:
256,192,28338,1,8,0:0:0:0:
256,192,29686,1,8,0:0:0:0:
256,192,31035,1,8,0:0:0:0:
256,192,32383,1,8,0:0:0:0:
256,192,33057,1,0,0:0:0:0:
256,192,33731,1,8,0:0:0:0:
256,192,34405,1,0,0:0:0:0:
256,192,35080,1,8,0:0:0:0:
256,192,35754,1,0,0:0:0:0:
256,192,36428,1,8,0:0:0:0:
256,192,37102,1,0,0:0:0:0:
256,192,38450,1,0,0:0:0:0:
256,192,39124,1,8,0:0:0:0:
256,192,39799,1,0,0:0:0:0:
256,192,40473,1,8,0:0:0:0:
256,192,41147,1,0,0:0:0:0:
256,192,41821,1,8,0:0:0:0:
256,192,42495,1,0,0:0:0:0:
256,192,43844,1,0,0:0:0:0:
256,192,44518,1,8,0:0:0:0:
256,192,45192,1,8,0:0:0:0:
256,192,45866,1,0,0:0:0:0:
256,192,46203,1,0,0:0:0:0:
256,192,46540,1,8,0:0:0:0:
256,192,47214,1,0,0:0:0:0:
256,192,47889,1,8,0:0:0:0:
256,192,49237,1,0,0:0:0:0:
256,192,49911,1,8,0:0:0:0:
256,192,50585,1,8,0:0:0:0:
256,192,51259,1,0,0:0:0:0:
256,192,51596,5,0,0:0:0:0:
256,192,51933,1,8,0:0:0:0:
256,192,52608,1,8,0:0:0:0:
256,192,53282,1,0,0:0:0:0:
256,192,54630,1,0,0:0:0:0:
256,192,55304,1,8,0:0:0:0:
256,192,55978,1,8,0:0:0:0:
256,192,56653,1,0,0:0:0:0:
256,192,56990,1,0,0:0:0:0:
256,192,57327,1,8,0:0:0:0:
256,192,58001,1,0,0:0:0:0:
256,192,58675,1,8,0:0:0:0:
256,192,60023,1,0,0:0:0:0:
256,192,60697,1,8,0:0:0:0:
256,192,61372,1,8,0:0:0:0:
256,192,62046,1,0,0:0:0:0:
256,192,62383,1,8,0:0:0:0:
256,192,62720,1,0,0:0:0:0:
256,192,63394,1,8,0:0:0:0:
256,192,64068,1,0,0:0:0:0:
256,192,65417,1,0,0:0:0:0:
256,192,66091,1,8,0:0:0:0:
256,192,67439,1,8,0:0:0:0:
256,192,68787,1,8,0:0:0:0:
256,192,70136,1,8,0:0:0:0:
256,192,71484,1,8,0:0:0:0:
256,192,72832,1,8,0:0:0:0:
256,192,74181,1,8,0:0:0:0:
256,192,75529,1,8,0:0:0:0:
256,192,76203,1,0,0:0:0:0:
256,192,76877,1,8,0:0:0:0:
256,192,77551,1,8,0:0:0:0:
256,192,77889,1,0,0:0:0:0:
256,192,78226,1,8,0:0:0:0:
256,192,78900,1,0,0:0:0:0:
256,192,79574,1,8,0:0:0:0:
256,192,80922,1,0,0:0:0:0:
256,192,81259,1,8,0:0:0:0:
256,192,81596,1,0,0:0:0:0:
256,192,82271,1,8,0:0:0:0:
256,192,82945,1,0,0:0:0:0:
256,192,83619,1,0,0:0:0:0:
256,192,84293,1,8,0:0:0:0:
256,192,84967,1,8,0:0:0:0:
256,192,85641,1,0,0:0:0:0:
256,192,86990,1,0,0:0:0:0:
256,192,89686,1,8,0:0:0:0:
256,192,92383,1,8,0:0:0:0:
256,192,95080,1,8,0:0:0:0:
256,192,97776,1,0,0:0:0:0:
256,192,98450,1,8,0:0:0:0:
256,192,99799,1,8,0:0:0:0:
256,192,101147,1,8,0:0:0:0:
256,192,102495,1,8,0:0:0:0:
256,192,103169,1,0,0:0:0:0:
256,192,103844,1,8,0:0:0:0:
256,192,105192,1,8,0:0:0:0:
256,192,105866,12,0,107551,0:0:0:0:
256,192,108563,5,0,0:0:0:0:
256,192,109237,1,0,0:0:0:0:
256,192,109911,1,0,0:0:0:0:
256,192,110585,1,8,0:0:0:0:
256,192,110922,1,8,0:0:0:0:
256,192,111259,1,0,0:0:0:0:
256,192,111933,1,0,0:0:0:0:
256,192,112608,1,0,0:0:0:0:
256,192,113619,1,8,0:0:0:0:
256,192,113956,1,0,0:0:0:0:
256,192,114630,1,0,0:0:0:0:
256,192,115304,1,0,0:0:0:0:
256,192,115978,1,8,0:0:0:0:
256,192,116315,1,8,0:0:0:0:
256,192,116653,1,0,0:0:0:0:
256,192,117327,1,8,0:0:0:0:
256,192,118001,1,0,0:0:0:0:
256,192,119012,1,8,0:0:0:0:
256,192,119349,1,0,0:0:0:0:
256,192,120023,1,0,0:0:0:0:
256,192,120697,1,0,0:0:0:0:
256,192,121372,1,8,0:0:0:0:
256,192,121709,1,8,0:0:0:0:
256,192,122046,1,0,0:0:0:0:
256,192,122720,1,0,0:0:0:0:
256,192,123394,1,0,0:0:0:0:
256,192,124405,1,8,0:0:0:0:
256,192,124742,1,0,0:0:0:0:
256,192,125417,1,0,0:0:0:0:
256,192,126091,1,0,0:0:0:0:
256,192,126765,1,8,0:0:0:0:
256,192,127102,1,8,0:0:0:0:
256,192,127439,1,0,0:0:0:0:
256,192,128113,1,8,0:0:0:0:
256,192,128787,1,0,0:0:0:0:
256,192,130136,1,0,0:0:0:0:
256,192,130810,1,0,0:0:0:0:
256,192,131147,1,8,0:0:0:0:
256,192,132158,1,0,0:0:0:0:
256,192,132832,5,8,0:0:0:0:
256,192,133169,1,0,0:0:0:0:
256,192,133844,1,0,0:0:0:0:
256,192,134181,1,0,0:0:0:0:
256,192,134518,1,8,0:0:0:0:
256,192,135529,1,0,0:0:0:0:
256,192,136203,1,0,0:0:0:0:
256,192,136540,1,8,0:0:0:0:
256,192,137551,1,0,0:0:0:0:
256,192,138226,1,0,0:0:0:0:
256,192,138563,1,0,0:0:0:0:
256,192,139237,1,8,0:0:0:0:
256,192,139574,1,0,0:0:0:0:
256,192,139911,1,8,0:0:0:0:
256,192,140922,1,0,0:0:0:0:
256,192,141596,1,0,0:0:0:0:
256,192,141933,1,8,0:0:0:0:
256,192,142945,1,0,0:0:0:0:
256,192,143619,1,8,0:0:0:0:
256,192,143956,1,8,0:0:0:0:
256,192,144630,1,8,0:0:0:0:
256,192,144967,1,0,0:0:0:0:
256,192,145304,1,8,0:0:0:0:
256,192,146315,1,0,0:0:0:0:
256,192,146990,1,8,0:0:0:0:
256,192,147664,1,8,0:0:0:0:
256,192,148338,1,0,0:0:0:0:
256,192,148675,1,8,0:0:0:0:
256,192,149349,1,8,0:0:0:0:
256,192,149686,1,0,0:0:0:0:
256,192,150023,1,8,0:0:0:0:
256,192,150360,12,8,151035,0:0:0:0:
256,192,151709,5,0,0:0:0:0:
256,192,152214,1,0,0:0:0:0:
256,192,153057,1,0,0:0:0:0:
256,192,153563,1,0,0:0:0:0:
256,192,154405,1,0,0:0:0:0:
256,192,154911,1,0,0:0:0:0:
256,192,155754,1,0,0:0:0:0:
256,192,157186,1,0,0:0:0:0:
256,192,157439,1,0,0:0:0:0:
256,192,157692,1,0,0:0:0:0:
256,192,158450,1,8,0:0:0:0:
256,192,158703,1,8,0:0:0:0:
256,192,158956,1,8,0:0:0:0:
256,192,159630,1,0,0:0:0:0:
256,192,159883,1,8,0:0:0:0:
256,192,160136,1,8,0:0:0:0:
256,192,160641,1,8,0:0:0:0:
256,192,161063,1,8,0:0:0:0:
