osu file format v14

[General]
AudioFilename: audio.mp3
AudioLeadIn: 0
PreviewTime: 108542
Countdown: 0
SampleSet: Normal
StackLeniency: 0.7
Mode: 1
LetterboxInBreaks: 0
WidescreenStoryboard: 0

[Editor]
Bookmarks: 11484,22271,33057,43844,54630,65417,76203,86990
DistanceSpacing: 1
BeatDivisor: 4
GridSize: 32
TimelineZoom: 3.499999

[Metadata]
Title:F1055
TitleUnicode:F1055
Artist:Silentroom
ArtistUnicode:Silentroom
Creator:HiroK
Version:Flowness
Source:Tone Sphere
Tags:osu! fa featured artist dnb drum and bass electronic instrumental video game genjuro komasy ulqui memory waves
BeatmapID:2547165
BeatmapSetID:1224716

[Difficulty]
HPDrainRate:5
CircleSize:2
OverallDifficulty:7
ApproachRate:5
SliderMultiplier:1.4
SliderTickRate:1

[Events]
//Background and Video events
0,0,"bg.jpg",0,0
//Break Periods
//Storyboard Layer 0 (Background)
//Storyboard Layer 1 (Fail)
//Storyboard Layer 2 (Pass)
//Storyboard Layer 3 (Foreground)
//Storyboard Layer 4 (Overlay)
//Storyboard Sound Samples

[TimingPoints]
698,337.078651685393,4,1,0,70,1,0
698,-125,4,1,0,70,0,0
11737,-123.456790123457,4,1,0,70,0,0
11905,-121.951219512195,4,1,0,70,0,0
12074,-120.481927710843,4,1,0,70,0,0
12200,-119.760479041916,4,1,0,70,0,0
12285,-119.047619047619,4,1,0,70,0,0
12411,-117.647058823529,4,1,0,70,0,0
12748,-116.279069767442,4,1,0,70,0,0
12917,-114.942528735632,4,1,0,70,0,0
13085,-113.636363636364,4,1,0,70,0,0
13254,-112.359550561798,4,1,0,70,0,0
13380,-111.731843575419,4,1,0,70,0,0
13464,-111.111111111111,4,1,0,70,0,0
13591,-109.89010989011,4,1,0,70,0,0
13759,-108.695652173913,4,1,0,70,0,0
14012,-107.52688172043,4,1,0,70,0,0
14433,-106.382978723404,4,1,0,70,0,0
14602,-105.263157894737,4,1,0,70,0,0
14771,-104.166666666667,4,1,0,70,0,0
14897,-103.626943005181,4,1,0,70,0,0
14981,-103.092783505155,4,1,0,70,0,0
15108,-102.040816326531,4,1,0,70,0,0
15445,-101.010101010101,4,1,0,70,0,0
15613,-100,4,1,0,70,0,0
15782,-99.009900990099,4,1,0,70,0,0
15950,-98.0392156862745,4,1,0,70,0,0
16077,-97.5609756097561,4,1,0,70,0,0
16161,-97.0873786407767,4,1,0,70,0,0
16287,-96.1538461538461,4,1,0,70,0,0
16456,-95.2380952380952,4,1,0,70,0,0
16624,-94.3396226415094,4,1,0,70,0,0
16793,-93.4579439252336,4,1,0,70,0,0
17130,-92.5925925925926,4,1,0,70,0,0
17299,-91.743119266055,4,1,0,70,0,0
17467,-90.9090909090909,4,1,0,70,0,0
17594,-90.4977375565611,4,1,0,70,0,0
17678,-90.0900900900901,4,1,0,70,0,0
17804,-89.2857142857143,4,1,0,70,0,0
18141,-88.4955752212389,4,1,0,70,0,0
18310,-87.719298245614,4,1,0,70,0,0
18436,-87.3362445414847,4,1,0,70,0,0
18521,-86.9565217391304,4,1,0,70,0,0
18647,-86.2068965517241,4,1,0,70,0,0
18773,-85.8369098712446,4,1,0,70,0,0
18858,-85.4700854700855,4,1,0,70,0,0
18984,-84.7457627118644,4,1,0,70,0,0
19153,-84.0336134453781,4,1,0,70,0,0
19490,-83.3333333333333,4,1,0,70,0,0
19658,-82.6446280991736,4,1,0,70,0,0
19827,-81.9672131147541,4,1,0,70,0,0
19995,-81.3008130081301,4,1,0,70,0,0
20164,-80.6451612903226,4,1,0,70,0,0
20290,-80.3212851405623,4,1,0,70,0,0
20374,-80,4,1,0,70,0,0
20501,-79.3650793650794,4,1,0,70,0,0
20838,-78.7401574803149,4,1,0,70,0,0
21006,-78.125,4,1,0,70,0,0
21175,-77.5193798449612,4,1,0,70,0,0
21344,-76.9230769230769,4,1,0,70,0,0
21512,-76.3358778625954,4,1,0,70,0,0
22186,-71.4285714285714,4,1,0,70,0,0
22860,-68.9655172413793,4,1,0,70,0,0
23029,-200,4,1,0,70,0,0
24209,-68.9655172413793,4,1,0,70,0,0
24377,-200,4,1,0,70,0,0
25557,-68.9655172413793,4,1,0,70,0,0
25726,-200,4,1,0,70,0,0
26905,-68.9655172413793,4,1,0,70,0,0
27074,-200,4,1,0,70,0,0
28254,-68.9655172413793,4,1,0,70,0,0
28423,-200,4,1,0,70,0,0
29602,-68.9655172413793,4,1,0,70,0,0
29771,-200,4,1,0,70,0,0
30950,-68.9655172413793,4,1,0,70,0,0
31119,-200,4,1,0,70,0,0
32299,-68.9655172413793,4,1,0,70,0,0
32468,-200,4,1,0,70,0,0
33015,-64.7935779816514,4,1,0,70,0,0
33099,-65.0734235531241,4,1,0,70,0,0
33183,-65.3556969346443,4,1,0,70,0,0
33267,-65.6404298576823,4,1,0,70,0,0
33352,-65.9276546091015,4,1,0,70,0,0
33436,-66.2174040433636,4,1,0,70,0,0
33520,-66.5097115950559,4,1,0,70,0,0
33604,-66.8046112917529,4,1,0,70,0,0
33689,-67.1021377672209,4,1,0,70,0,0
33773,-67.4023262749776,4,1,0,70,0,0
33857,-67.7052127022169,4,1,0,70,0,0
33941,-68.0108335841107,4,1,0,70,0,0
34026,-68.3192261185006,4,1,0,70,0,0
34110,-68.63042818099,4,1,0,70,0,0
34194,-68.9444783404515,4,1,0,70,0,0
34279,-69.2614158749617,4,1,0,70,0,0
34363,-69.5812807881773,4,1,0,70,0,0
34447,-69.9041138261676,4,1,0,70,0,0
34531,-70.2299564947172,4,1,0,70,0,0
34616,-70.5588510771152,4,1,0,70,0,0
34700,-70.8908406524467,4,1,0,70,0,0
34784,-71.2259691144028,4,1,0,70,0,0
34868,-71.564281190627,4,1,0,70,0,0
34953,-71.9058224626153,4,1,0,70,0,0
35037,-72.2506393861892,4,1,0,70,0,0
35121,-72.5987793125602,4,1,0,70,0,0
35206,-72.9502905100065,4,1,0,70,0,0
35290,-73.3052221861823,4,1,0,70,0,0
35374,-73.6636245110821,4,1,0,70,0,0
35458,-74.0255486406813,4,1,0,70,0,0
35543,-74.3910467412772,4,1,0,70,0,0
35627,-74.7601720145551,4,1,0,70,0,0
35711,-75.1329787234043,4,1,0,70,0,0
35795,-75.5095222185098,4,1,0,70,0,0
35880,-75.8898589657488,4,1,0,70,0,0
35964,-76.2740465744178,4,1,0,70,0,0
36048,-76.6621438263229,4,1,0,70,0,0
36132,-77.054210705762,4,1,0,70,0,0
36217,-77.4503084304318,4,1,0,70,0,0
36301,-77.8504994832931,4,1,0,70,0,0
36385,-78.2548476454294,4,1,0,70,0,0
36470,-78.6634180299339,4,1,0,70,0,0
36554,-79.0762771168649,4,1,0,70,0,0
36638,-79.4934927893071,4,1,0,70,0,0
36722,-79.9151343705799,4,1,0,70,0,0
36807,-80.3412726626377,4,1,0,70,0,0
36891,-80.7719799857041,4,1,0,70,0,0
36975,-81.2073302191879,4,1,0,70,0,0
37059,-81.6473988439306,4,1,0,70,0,0
37144,-82.0922629858336,4,1,0,70,0,0
37228,-82.5420014609204,4,1,0,70,0,0
37312,-82.9966948218876,4,1,0,70,0,0
37397,-83.4564254062038,4,1,0,70,0,0
37481,-83.9212773858151,4,1,0,70,0,0
37565,-84.3913368185213,4,1,0,70,0,0
37649,-84.866691701089,4,1,0,70,0,0
37734,-85.3474320241692,4,1,0,70,0,0
37818,-85.8336498290923,4,1,0,70,0,0
37902,-86.3254392666157,4,1,0,70,0,0
37986,-86.8228966577026,4,1,0,70,0,0
38071,-87.3261205564142,4,1,0,70,0,0
38155,-87.8352118150019,4,1,0,70,0,0
38239,-88.3502736512901,4,1,0,70,0,0
38323,-88.8714117184428,4,1,0,70,0,0
38408,-89.3987341772152,4,1,0,70,0,0
38492,-89.9323517707919,4,1,0,70,0,0
38576,-90.4723779023219,4,1,0,70,0,0
38661,-91.0189287152638,4,1,0,70,0,0
38745,-91.5721231766613,4,1,0,70,0,0
38829,-92.1320831634733,4,1,0,70,0,0
38913,-92.6989335520919,4,1,0,70,0,0
38998,-93.2728023111845,4,1,0,70,0,0
39082,-93.8538205980066,4,1,0,70,0,0
39166,-94.4421228583368,4,1,0,70,0,0
39250,-95.0378469301934,4,1,0,70,0,0
39335,-95.6411341515023,4,1,0,70,0,0
39419,-96.252129471891,4,1,0,70,0,0
39503,-96.8709815687955,4,1,0,70,0,0
39588,-97.4978429680759,4,1,0,70,0,0
39672,-98.1328701693443,4,1,0,70,0,0
39756,-98.7762237762238,4,1,0,70,0,0
39840,-99.4280686317642,4,1,0,70,0,0
39925,-100.088573959256,4,1,0,70,0,0
40009,-100.757913508694,4,1,0,70,0,0
40093,-101.436265709156,4,1,0,70,0,0
40177,-102.123813827384,4,1,0,70,0,0
40262,-102.820746132848,4,1,0,70,0,0
40346,-103.527256069629,4,1,0,70,0,0
40430,-104.243542435424,4,1,0,70,0,0
40514,-104.969809568045,4,1,0,70,0,0
40599,-105.706267539757,4,1,0,70,0,0
40683,-106.453132359868,4,1,0,70,0,0
40767,-107.210626185958,4,1,0,70,0,0
40852,-107.978977544195,4,1,0,70,0,0
40936,-108.758421559192,4,1,0,70,0,0
41020,-109.549200193892,4,1,0,70,0,0
41104,-110.3515625,4,1,0,70,0,0
41189,-111.165764879488,4,1,0,70,0,0
41273,-111.99207135778,4,1,0,70,0,0
41357,-112.830753869196,4,1,0,70,0,0
41441,-113.682092555332,4,1,0,70,0,0
41526,-114.54637607704,4,1,0,70,0,0
41610,-115.423901940756,4,1,0,70,0,0
41694,-116.314976839938,4,1,0,70,0,0
41779,-117.219917012448,4,1,0,70,0,0
41863,-118.139048614741,4,1,0,70,0,0
41947,-119.072708113804,4,1,0,70,0,0
42031,-120.021242697823,4,1,0,70,0,0
42116,-120.985010706638,4,1,0,70,0,0
42200,-121.964382083108,4,1,0,70,0,0
42284,-122.959738846572,4,1,0,70,0,0
42368,-123.971475589687,4,1,0,70,0,0
42453,-125,4,1,0,70,0,0
42551,-125.786163522013,4,1,0,70,0,0
42664,-126.582278481013,4,1,0,70,0,0
42776,-127.388535031847,4,1,0,70,0,0
42889,-128.205128205128,4,1,0,70,0,0
43001,-129.032258064516,4,1,0,70,0,0
43127,-73.1707317073206,4,1,0,60,0,0
43212,-75.0000000001875,4,1,0,60,0,0
43296,-76.9230769230769,4,1,0,60,0,0
43380,-78.9473684210568,4,1,0,60,0,0
43464,-81.0810810832725,4,1,0,60,0,0
43549,-83.3333333333333,4,1,0,60,0,0
43633,-85.7142857143347,4,1,0,60,0,0
43717,-88.2352941202422,4,1,0,60,0,0
43801,-90.9090909090909,4,1,0,80,0,0
45824,-90.293453724605,4,1,0,80,0,0
45894,-89.6860986547085,4,1,0,80,0,0
45950,-89.086859688196,4,1,0,80,0,0
46006,-88.4955752212389,4,1,0,80,0,0
46091,-87.9120879120879,4,1,0,80,0,0
46147,-87.3362445414847,4,1,0,80,0,0
46203,-86.7678958785249,4,1,0,80,0,0
46259,-86.2068965517241,4,1,0,80,0,0
46344,-85.6531049250535,4,1,0,80,0,0
46400,-85.1063829787234,4,1,0,80,0,0
46456,-84.5665961945032,4,1,0,80,0,0
46512,-84.0336134453781,4,1,0,80,0,0
48591,-84.5665961945032,4,1,0,80,0,0
48647,-85.6531049250535,4,1,0,80,0,0
48703,-86.2068965517241,4,1,0,80,0,0
48773,-86.7678958785249,4,1,0,80,0,0
48844,-87.3362445414847,4,1,0,80,0,0
48900,-87.9120879120879,4,1,0,80,0,0
48956,-88.4955752212389,4,1,0,80,0,0
49040,-89.086859688196,4,1,0,80,0,0
49096,-89.6860986547085,4,1,0,80,0,0
49153,-90.293453724605,4,1,0,80,0,0
49209,-90.9090909090909,4,1,0,80,0,0
51217,-90.293453724605,4,1,0,80,0,0
51287,-89.6860986547085,4,1,0,80,0,0
51343,-89.086859688196,4,1,0,80,0,0
51399,-88.4955752212389,4,1,0,80,0,0
51484,-87.9120879120879,4,1,0,80,0,0
51540,-87.3362445414847,4,1,0,80,0,0
51596,-86.7678958785249,4,1,0,80,0,0
51652,-86.2068965517241,4,1,0,80,0,0
51737,-85.6531049250535,4,1,0,80,0,0
51793,-85.1063829787234,4,1,0,80,0,0
51849,-84.5665961945032,4,1,0,80,0,0
51905,-84.0336134453781,4,1,0,80,0,0
53984,-84.5665961945032,4,1,0,80,0,0
54040,-85.6531049250535,4,1,0,80,0,0
54096,-86.2068965517241,4,1,0,80,0,0
54166,-86.7678958785249,4,1,0,80,0,0
54237,-87.3362445414847,4,1,0,80,0,0
54293,-87.9120879120879,4,1,0,80,0,0
54349,-88.4955752212389,4,1,0,80,0,0
54433,-89.086859688196,4,1,0,80,0,0
54489,-89.6860986547085,4,1,0,80,0,0
54546,-90.293453724605,4,1,0,80,0,0
54602,-90.9090909090909,4,1,0,80,0,0
56610,-90.293453724605,4,1,0,80,0,0
56680,-89.6860986547085,4,1,0,80,0,0
56736,-89.086859688196,4,1,0,80,0,0
56792,-88.4955752212389,4,1,0,80,0,0
56877,-87.9120879120879,4,1,0,80,0,0
56933,-87.3362445414847,4,1,0,80,0,0
56989,-86.7678958785249,4,1,0,80,0,0
57045,-86.2068965517241,4,1,0,80,0,0
57130,-85.6531049250535,4,1,0,80,0,0
57186,-85.1063829787234,4,1,0,80,0,0
57242,-84.5665961945032,4,1,0,80,0,0
57298,-84.0336134453781,4,1,0,80,0,0
59377,-84.5665961945032,4,1,0,80,0,0
59433,-85.6531049250535,4,1,0,80,0,0
59489,-86.2068965517241,4,1,0,80,0,0
59559,-86.7678958785249,4,1,0,80,0,0
59630,-87.3362445414847,4,1,0,80,0,0
59686,-87.9120879120879,4,1,0,80,0,0
59742,-88.4955752212389,4,1,0,80,0,0
59826,-89.086859688196,4,1,0,80,0,0
59882,-89.6860986547085,4,1,0,80,0,0
59939,-90.293453724605,4,1,0,80,0,0
59995,-90.9090909090909,4,1,0,80,0,0
62004,-90.293453724605,4,1,0,80,0,0
62074,-89.6860986547085,4,1,0,80,0,0
62130,-89.086859688196,4,1,0,80,0,0
62186,-88.4955752212389,4,1,0,80,0,0
62271,-87.9120879120879,4,1,0,80,0,0
62327,-87.3362445414847,4,1,0,80,0,0
62383,-86.7678958785249,4,1,0,80,0,0
62439,-86.2068965517241,4,1,0,80,0,0
62524,-85.6531049250535,4,1,0,80,0,0
62580,-85.1063829787234,4,1,0,80,0,0
62636,-84.5665961945032,4,1,0,80,0,0
62692,-84.0336134453781,4,1,0,80,0,0
64700,-84.7457627118644,4,1,0,80,0,0
64771,-85.8369098712446,4,1,0,80,0,0
64827,-86.9565217391304,4,1,0,80,0,0
64883,-88.1057268722467,4,1,0,80,0,0
64939,-89.2857142857143,4,1,0,80,0,0
64995,-90.4977375565611,4,1,0,80,0,0
65051,-91.743119266055,4,1,0,80,0,0
65108,-93.0232558139535,4,1,0,80,0,0
65164,-94.3396226415094,4,1,0,80,0,0
65220,-95.6937799043062,4,1,0,80,0,0
65276,-97.0873786407767,4,1,0,80,0,0
65332,-98.5221674876847,4,1,0,80,0,0
65389,-100,4,1,0,80,0,0
66006,-68.9655172413793,4,1,0,70,0,0
66175,-200,4,1,0,70,0,0
67355,-68.9655172413793,4,1,0,70,0,0
67524,-200,4,1,0,70,0,0
68703,-68.9655172413793,4,1,0,70,0,0
68872,-200,4,1,0,70,0,0
70051,-68.9655172413793,4,1,0,70,0,0
70220,-200,4,1,0,70,0,0
71400,-68.9655172413793,4,1,0,70,0,0
71569,-200,4,1,0,70,0,0
72748,-68.9655172413793,4,1,0,70,0,0
72917,-200,4,1,0,70,0,0
74096,-68.9655172413793,4,1,0,70,0,0
74265,-200,4,1,0,70,0,0
75445,-68.9655172413793,4,1,0,70,0,0
75614,-80,4,1,0,70,0,0
75740,-81.6326530612245,4,1,0,70,0,0
75824,-83.3333333333333,4,1,0,70,0,0
75908,-85.1063829787234,4,1,0,70,0,0
75992,-86.9565217391304,4,1,0,70,0,0
76077,-88.8888888888889,4,1,0,70,0,0
76161,-90.9090909090908,4,1,0,80,0,0
78183,-90.293453724605,4,1,0,80,0,0
78253,-89.6860986547085,4,1,0,80,0,0
78309,-89.086859688196,4,1,0,80,0,0
78365,-88.4955752212389,4,1,0,80,0,0
78450,-87.9120879120879,4,1,0,80,0,0
78506,-87.3362445414847,4,1,0,80,0,0
78562,-86.7678958785249,4,1,0,80,0,0
78618,-86.2068965517241,4,1,0,80,0,0
78703,-85.6531049250535,4,1,0,80,0,0
78759,-85.1063829787234,4,1,0,80,0,0
78815,-84.5665961945032,4,1,0,80,0,0
78871,-84.0336134453781,4,1,0,80,0,0
80950,-84.5665961945032,4,1,0,80,0,0
81006,-85.6531049250535,4,1,0,80,0,0
81062,-86.2068965517241,4,1,0,80,0,0
81132,-86.7678958785249,4,1,0,80,0,0
81203,-87.3362445414847,4,1,0,80,0,0
81259,-87.9120879120879,4,1,0,80,0,0
81315,-88.4955752212389,4,1,0,80,0,0
81399,-89.086859688196,4,1,0,80,0,0
81455,-89.6860986547085,4,1,0,80,0,0
81512,-90.293453724605,4,1,0,80,0,0
81568,-90.9090909090909,4,1,0,80,0,0
83577,-90.293453724605,4,1,0,80,0,0
83647,-89.6860986547085,4,1,0,80,0,0
83703,-89.086859688196,4,1,0,80,0,0
83759,-88.4955752212389,4,1,0,80,0,0
83844,-87.9120879120879,4,1,0,80,0,0
83900,-87.3362445414847,4,1,0,80,0,0
83956,-86.7678958785249,4,1,0,80,0,0
84012,-86.2068965517241,4,1,0,80,0,0
84097,-85.6531049250535,4,1,0,80,0,0
84153,-85.1063829787234,4,1,0,80,0,0
84209,-84.5665961945032,4,1,0,80,0,0
84265,-84.0336134453781,4,1,0,80,0,0
86273,-84.7457627118644,4,1,0,80,0,0
86344,-85.8369098712446,4,1,0,80,0,0
86400,-86.9565217391304,4,1,0,80,0,0
86456,-88.1057268722467,4,1,0,80,0,0
86512,-89.2857142857143,4,1,0,80,0,0
86568,-90.4977375565611,4,1,0,80,0,0
86624,-91.743119266055,4,1,0,80,0,0
86681,-93.0232558139535,4,1,0,80,0,0
86737,-94.3396226415094,4,1,0,80,0,0
86793,-95.6937799043062,4,1,0,80,0,0
86849,-97.0873786407767,4,1,0,80,0,0
86905,-98.5221674876847,4,1,0,80,0,0
86962,-100,4,1,0,80,0,0
87074,-125,4,1,0,60,0,0
97692,-123.456790123457,4,1,0,70,0,0
98366,-121.951219512195,4,1,0,70,0,0
99040,-121.951219512195,4,1,0,70,0,0
99546,-120.481927710843,4,1,0,70,0,0
99714,-119.760479041916,4,1,0,70,0,0
100009,-119.047619047619,4,1,0,70,0,0
100262,-118.343195266272,4,1,0,70,0,0
100389,-117.647058823529,4,1,0,70,0,0
101063,-116.279069767442,4,1,0,70,0,0
101737,-114.942528735632,4,1,0,70,0,0
102411,-113.636363636364,4,1,0,70,0,0
103085,-111.111111111111,4,1,0,70,0,0
103422,-109.289617486339,4,1,0,70,0,0
103759,-107.52688172043,4,1,0,70,0,0
104096,-105.820105820106,4,1,0,70,0,0
104433,-104.166666666667,4,1,0,70,0,0
104771,-102.564102564103,4,1,0,70,0,0
105108,-101.010101010101,4,1,0,70,0,0
105445,-99.502487562189,4,1,0,70,0,0
105782,-98.0392156862745,4,1,0,70,0,0
105922,-97.0873786407767,4,1,0,70,0,0
106035,-96.1538461538461,4,1,0,70,0,0
106147,-95.2380952380952,4,1,0,70,0,0
106245,-94.3396226415094,4,1,0,70,0,0
106330,-93.4579439252336,4,1,0,70,0,0
106414,-92.5925925925926,4,1,0,70,0,0
106498,-91.743119266055,4,1,0,70,0,0
106582,-90.9090909090909,4,1,0,70,0,0
106667,-90.0900900900901,4,1,0,70,0,0
106751,-89.2857142857143,4,1,0,70,0,0
106835,-88.4955752212389,4,1,0,70,0,0
106919,-87.719298245614,4,1,0,70,0,0
107004,-86.9565217391304,4,1,0,70,0,0
107088,-86.2068965517241,4,1,0,70,0,0
107172,-85.4700854700855,4,1,0,70,0,0
107256,-84.7457627118644,4,1,0,75,0,0
107341,-84.0336134453781,4,1,0,75,0,0
107425,-83.3333333333333,4,1,0,75,0,0
107509,-82.6446280991736,4,1,0,75,0,0
107594,-81.9672131147541,4,1,0,75,0,0
107678,-81.3008130081301,4,1,0,75,0,0
107846,-43.4782608695652,4,1,0,75,0,0
108099,-66.6666666666667,4,1,0,75,0,0
108478,-80,4,1,0,80,0,0
108563,-80,4,1,0,80,0,1
129440,-76.9230769230769,4,1,0,70,0,1
129462,-83.3333333333333,4,1,0,70,0,0
129504,-84.7457627118644,4,1,0,70,0,0
129567,-86.2068965517241,4,1,0,70,0,0
129630,-87.719298245614,4,1,0,70,0,0
129693,-89.2857142857143,4,1,0,70,0,0
129756,-90.9090909090909,4,1,0,70,0,0
130072,-90.9090909090909,4,1,0,80,0,0
130136,-76.9230769230769,4,1,0,80,0,1
134153,-72.7272727272727,4,1,0,80,0,1
134209,-73.5294117647059,4,1,0,80,0,1
134265,-74.3494423791822,4,1,0,80,0,1
134321,-75.187969924812,4,1,0,80,0,1
134377,-76.0456273764259,4,1,0,80,0,1
134433,-76.9230769230769,4,1,0,80,0,1
134490,-63.6942675159236,4,1,0,80,0,1
134546,-64.3086816720257,4,1,0,80,0,1
134602,-64.9350649350649,4,1,0,80,0,1
134658,-65.5737704918033,4,1,0,80,0,1
134714,-66.2251655629139,4,1,0,80,0,1
134771,-66.8896321070234,4,1,0,80,0,1
134827,-67.5675675675676,4,1,0,80,0,1
134883,-68.259385665529,4,1,0,80,0,1
134939,-68.9655172413793,4,1,0,80,0,1
134995,-69.6864111498258,4,1,0,80,0,1
135051,-70.4225352112676,4,1,0,80,0,1
135108,-71.1743772241993,4,1,0,80,0,1
135164,-71.9424460431655,4,1,0,80,0,1
135220,-72.7272727272727,4,1,0,80,0,1
135276,-73.5294117647059,4,1,0,80,0,1
135332,-74.3494423791822,4,1,0,80,0,1
135389,-75.187969924812,4,1,0,80,0,1
135445,-76.0456273764259,4,1,0,80,0,1
135501,-76.9230769230769,4,1,0,80,0,1
139546,-72.7272727272727,4,1,0,80,0,1
139602,-73.5294117647059,4,1,0,80,0,1
139658,-74.3494423791822,4,1,0,80,0,1
139714,-75.187969924812,4,1,0,80,0,1
139770,-76.0456273764259,4,1,0,80,0,1
139826,-76.9230769230769,4,1,0,80,0,1
139883,-63.6942675159236,4,1,0,80,0,1
139939,-64.3086816720257,4,1,0,80,0,1
139995,-64.9350649350649,4,1,0,80,0,1
140051,-65.5737704918033,4,1,0,80,0,1
140107,-66.2251655629139,4,1,0,80,0,1
140164,-66.8896321070234,4,1,0,80,0,1
140220,-67.5675675675676,4,1,0,80,0,1
140276,-68.259385665529,4,1,0,80,0,1
140332,-68.9655172413793,4,1,0,80,0,1
140388,-69.6864111498258,4,1,0,80,0,1
140444,-70.4225352112676,4,1,0,80,0,1
140501,-71.1743772241993,4,1,0,80,0,1
140557,-71.9424460431655,4,1,0,80,0,1
140613,-72.7272727272727,4,1,0,80,0,1
140669,-73.5294117647059,4,1,0,80,0,1
140725,-74.3494423791822,4,1,0,80,0,1
140782,-75.187969924812,4,1,0,80,0,1
140838,-76.0456273764259,4,1,0,80,0,1
140894,-76.9230769230769,4,1,0,80,0,1
144433,-66.8896321070234,4,1,0,80,0,1
144490,-67.5675675675676,4,1,0,80,0,1
144546,-68.259385665529,4,1,0,80,0,1
144602,-68.9655172413793,4,1,0,80,0,1
144658,-69.6864111498258,4,1,0,80,0,1
144714,-70.4225352112676,4,1,0,80,0,1
144771,-71.1743772241993,4,1,0,80,0,1
144827,-71.9424460431655,4,1,0,80,0,1
144883,-72.7272727272727,4,1,0,80,0,1
144939,-73.5294117647059,4,1,0,80,0,1
144995,-74.3494423791822,4,1,0,80,0,1
145051,-75.187969924812,4,1,0,80,0,1
145108,-76.0456273764259,4,1,0,80,0,1
145164,-76.9230769230769,4,1,0,80,0,1
145276,-63.6942675159236,4,1,0,80,0,1
145332,-64.3086816720257,4,1,0,80,0,1
145388,-64.9350649350649,4,1,0,80,0,1
145444,-65.5737704918033,4,1,0,80,0,1
145500,-66.2251655629139,4,1,0,80,0,1
145557,-66.8896321070234,4,1,0,80,0,1
145613,-67.5675675675676,4,1,0,80,0,1
145669,-68.259385665529,4,1,0,80,0,1
145725,-68.9655172413793,4,1,0,80,0,1
145781,-69.6864111498258,4,1,0,80,0,1
145837,-70.4225352112676,4,1,0,80,0,1
145894,-71.1743772241993,4,1,0,80,0,1
145950,-71.9424460431655,4,1,0,80,0,1
146006,-72.7272727272727,4,1,0,80,0,1
146062,-73.5294117647059,4,1,0,80,0,1
146118,-74.3494423791822,4,1,0,80,0,1
146175,-75.187969924812,4,1,0,80,0,1
146231,-76.0456273764259,4,1,0,80,0,1
146287,-76.9230769230769,4,1,0,80,0,1
151006,-77.8210116731517,4,1,0,80,0,1
151063,-78.7401574803149,4,1,0,80,0,1
151119,-79.6812749003984,4,1,0,80,0,1
151175,-80.6451612903226,4,1,0,80,0,1
151231,-81.6326530612245,4,1,0,80,0,1
151287,-82.6446280991736,4,1,0,80,0,1
151344,-83.6820083682008,4,1,0,80,0,1
151400,-84.7457627118644,4,1,0,80,0,1
151456,-85.8369098712446,4,1,0,80,0,1
151512,-86.9565217391304,4,1,0,80,0,1
151568,-88.1057268722467,4,1,0,80,0,1
151624,-89.2857142857143,4,1,0,80,0,1
151681,-90.4977375565611,4,1,0,70,0,1
151709,-90.4977375565611,4,1,0,70,0,0
151793,-90.9090909090909,4,1,0,70,0,0
151905,-91.324200913242,4,1,0,70,0,0
152004,-91.743119266055,4,1,0,70,0,0
152088,-92.1658986175115,4,1,0,70,0,0
152172,-92.5925925925926,4,1,0,70,0,0
152256,-93.0232558139535,4,1,0,70,0,0
152341,-93.4579439252336,4,1,0,70,0,0
152425,-93.8967136150235,4,1,0,70,0,0
152509,-94.3396226415094,4,1,0,70,0,0
152594,-94.7867298578199,4,1,0,70,0,0
152678,-95.2380952380952,4,1,0,70,0,0
152762,-95.6937799043062,4,1,0,70,0,0
152846,-96.1538461538461,4,1,0,70,0,0
152931,-96.6183574879227,4,1,0,70,0,0
153015,-97.0873786407767,4,1,0,70,0,0
153099,-97.5609756097561,4,1,0,70,0,0
153183,-98.0392156862745,4,1,0,70,0,0
153268,-98.5221674876847,4,1,0,70,0,0
153352,-99.009900990099,4,1,0,70,0,0
153436,-99.502487562189,4,1,0,70,0,0
153521,-100,4,1,0,70,0,0
153605,-100.502512562814,4,1,0,70,0,0
153689,-101.010101010101,4,1,0,70,0,0
153773,-101.522842639594,4,1,0,70,0,0
153858,-102.040816326531,4,1,0,70,0,0
153942,-102.564102564103,4,1,0,70,0,0
154026,-103.092783505155,4,1,0,70,0,0
154110,-103.626943005181,4,1,0,70,0,0
154195,-104.166666666667,4,1,0,70,0,0
154265,-104.529616724812,4,1,0,70,0,0
154321,-104.895104895105,4,1,0,70,0,0
154377,-105.263157894737,4,1,0,70,0,0
154462,-105.820105820106,4,1,0,70,0,0
154574,-106.382978723404,4,1,0,70,0,0
154686,-106.951871657754,4,1,0,70,0,0
154785,-107.52688172043,4,1,0,70,0,0
154869,-108.108108108108,4,1,0,70,0,0
154953,-108.695652173913,4,1,0,70,0,0
155037,-109.289617486339,4,1,0,70,0,0
155122,-109.89010989011,4,1,0,70,0,0
155206,-110.497237569061,4,1,0,70,0,0
155290,-111.111111111111,4,1,0,70,0,0
155374,-111.731843575419,4,1,0,70,0,0
155459,-112.359550561798,4,1,0,70,0,0
155543,-112.994350282486,4,1,0,70,0,0
155627,-113.636363636364,4,1,0,70,0,0
155712,-114.285714285714,4,1,0,70,0,0
155796,-114.942528735632,4,1,0,70,0,0
155880,-115.606936416185,4,1,0,70,0,0
155964,-116.279069767442,4,1,0,70,0,0
156049,-116.959064327485,4,1,0,70,0,0
156133,-117.647058823529,4,1,0,70,0,0
156217,-118.343195266272,4,1,0,70,0,0
156301,-119.047619047619,4,1,0,70,0,0
156456,-117.647058823529,4,1,0,70,0,0
156512,-116.279069767442,4,1,0,70,0,0
156568,-114.942528735632,4,1,0,70,0,0
156624,-113.636363636364,4,1,0,70,0,0
156681,-112.359550561798,4,1,0,70,0,0
156737,-111.111111111111,4,1,0,70,0,0
156793,-109.89010989011,4,1,0,70,0,0
156849,-108.695652173913,4,1,0,70,0,0
156905,-107.52688172043,4,1,0,70,0,0
156962,-106.382978723404,4,1,0,70,0,0
157018,-105.263157894737,4,1,0,70,0,0
157144,-95.2380952380952,4,1,0,70,0,0
157397,-93.0232558139535,4,1,0,70,0,0
157650,-90.9090909090909,4,1,0,70,0,0
157903,-88.8888888888889,4,1,0,70,0,0
158155,-86.9565217391304,4,1,0,70,0,0
158408,-85.1063829787234,4,1,0,70,0,0
158661,-83.3333333333333,4,1,0,70,0,0
158914,-81.6326530612245,4,1,0,70,0,0
159167,-80,4,1,0,70,0,0
159377,-78.4313725490196,4,1,0,70,0,0
159546,-76.9230769230769,4,1,0,70,0,0
159799,-75.0000000000019,4,1,0,70,0,0
160094,-73.1707317430101,4,1,0,70,0,0
160346,-71.4285714285714,4,1,0,70,0,0
160599,-69.7674418604813,4,1,0,70,0,0
160852,-68.1818181818182,4,1,0,70,0,0
161021,-66.6666666666667,4,1,0,70,0,0

[HitObjects]
256,192,698,5,0,0:0:0:0:
256,192,1035,1,8,0:0:0:0:
256,192,1203,1,0,0:0:0:0:
256,192,1540,1,0,0:0:0:0:
256,192,1709,1,8,0:0:0:0:
256,192,2046,1,0,0:0:0:0:
256,192,2214,1,0,0:0:0:0:
256,192,2383,1,8,0:0:0:0:
256,192,2551,1,0,0:0:0:0:
256,192,2889,1,0,0:0:0:0:
256,192,3057,1,8,0:0:0:0:
256,192,3394,1,0,0:0:0:0:
256,192,3731,1,8,0:0:0:0:
256,192,3900,1,0,0:0:0:0:
256,192,4237,1,0,0:0:0:0:
256,192,4405,1,8,0:0:0:0:
256,192,4742,1,0,0:0:0:0:
256,192,4911,1,0,0:0:0:0:
256,192,5080,1,8,0:0:0:0:
256,192,5248,1,0,0:0:0:0:
256,192,5585,1,0,0:0:0:0:
256,192,5754,1,8,0:0:0:0:
256,192,5922,1,8,0:0:0:0:
256,192,6091,1,0,0:0:0:0:
256,192,6428,1,8,0:0:0:0:
256,192,6596,1,0,0:0:0:0:
256,192,6933,1,0,0:0:0:0:
256,192,7102,1,8,0:0:0:0:
256,192,7439,1,0,0:0:0:0:
256,192,7608,1,0,0:0:0:0:
256,192,7776,1,8,0:0:0:0:
256,192,7945,1,0,0:0:0:0:
256,192,8282,1,0,0:0:0:0:
256,192,8450,1,8,0:0:0:0:
256,192,8787,1,0,0:0:0:0:
256,192,9124,1,8,0:0:0:0:
256,192,9293,1,0,0:0:0:0:
256,192,9630,1,0,0:0:0:0:
256,192,9799,1,8,0:0:0:0:
256,192,10136,1,0,0:0:0:0:
256,192,10304,1,0,0:0:0:0:
256,192,10473,1,8,0:0:0:0:
256,192,10641,1,0,0:0:0:0:
256,192,10810,1,8,0:0:0:0:
256,192,11147,1,8,0:0:0:0:
256,192,11315,1,0,0:0:0:0:
256,192,11484,1,0,0:0:0:0:
256,192,11821,1,8,0:0:0:0:
256,192,11990,1,0,0:0:0:0:
256,192,12158,1,8,0:0:0:0:
256,192,12242,1,8,0:0:0:0:
256,192,12327,1,0,0:0:0:0:
256,192,12495,1,8,0:0:0:0:
256,192,12832,1,0,0:0:0:0:
256,192,13001,1,8,0:0:0:0:
256,192,13169,1,8,0:0:0:0:
256,192,13338,1,0,0:0:0:0:
256,192,13422,1,0,0:0:0:0:
256,192,13506,1,8,0:0:0:0:
256,192,13675,1,0,0:0:0:0:
256,192,13844,1,8,0:0:0:0:
256,192,14181,1,0,0:0:0:0:
256,192,14518,1,8,0:0:0:0:
256,192,14686,1,0,0:0:0:0:
256,192,14855,1,8,0:0:0:0:
256,192,14939,1,8,0:0:0:0:
256,192,15023,1,0,0:0:0:0:
256,192,15192,1,8,0:0:0:0:
256,192,15529,1,0,0:0:0:0:
256,192,15697,1,8,0:0:0:0:
256,192,15866,1,8,0:0:0:0:
256,192,16035,1,0,0:0:0:0:
256,192,16119,1,0,0:0:0:0:
256,192,16203,1,8,0:0:0:0:
256,192,16372,1,0,0:0:0:0:
256,192,16540,1,8,0:0:0:0:
256,192,16709,1,0,0:0:0:0:
256,192,16877,1,0,0:0:0:0:
256,192,17214,1,8,0:0:0:0:
256,192,17383,1,0,0:0:0:0:
256,192,17551,1,8,0:0:0:0:
256,192,17636,1,8,0:0:0:0:
256,192,17720,1,0,0:0:0:0:
256,192,17889,1,8,0:0:0:0:
256,192,18226,1,0,0:0:0:0:
256,192,18394,1,8,0:0:0:0:
256,192,18478,1,8,0:0:0:0:
256,192,18563,1,8,0:0:0:0:
256,192,18731,1,0,0:0:0:0:
256,192,18815,1,0,0:0:0:0:
256,192,18900,1,8,0:0:0:0:
256,192,19068,1,0,0:0:0:0:
256,192,19237,1,8,0:0:0:0:
256,192,19574,1,0,0:0:0:0:
256,192,19742,1,0,0:0:0:0:
256,192,19911,1,8,0:0:0:0:
256,192,20080,1,0,0:0:0:0:
256,192,20248,1,8,0:0:0:0:
256,192,20332,1,8,0:0:0:0:
256,192,20417,1,0,0:0:0:0:
256,192,20585,1,8,0:0:0:0:
256,192,20922,1,0,0:0:0:0:
256,192,21091,1,8,0:0:0:0:
256,192,21259,1,8,0:0:0:0:
256,192,21428,1,0,0:0:0:0:
256,192,21596,1,8,0:0:0:0:
256,192,22271,1,4,0:0:0:0:
256,192,22945,1,8,0:0:0:0:
256,192,24293,1,8,0:0:0:0:
256,192,25641,1,8,0:0:0:0:
256,192,26990,1,8,0:0:0:0:
256,192,28338,1,8,0:0:0:0:
256,192,29686,1,8,0:0:0:0:
256,192,31035,5,8,0:0:0:0:
256,192,32383,1,8,0:0:0:0:
256,192,33057,5,0,0:0:0:0:
256,192,33141,5,8,0:0:0:0:
256,192,33226,1,8,0:0:0:0:
256,192,33310,1,0,0:0:0:0:
256,192,33394,1,8,0:0:0:0:
256,192,33478,1,8,0:0:0:0:
256,192,33563,1,0,0:0:0:0:
256,192,33647,1,8,0:0:0:0:
256,192,33731,1,0,0:0:0:0:
256,192,33815,1,8,0:0:0:0:
256,192,33900,1,8,0:0:0:0:
256,192,33984,1,0,0:0:0:0:
256,192,34068,1,8,0:0:0:0:
256,192,34153,1,8,0:0:0:0:
256,192,34237,1,0,0:0:0:0:
256,192,34321,1,8,0:0:0:0:
256,192,34405,1,0,0:0:0:0:
256,192,34490,1,8,0:0:0:0:
256,192,34574,1,8,0:0:0:0:
256,192,34658,1,0,0:0:0:0:
256,192,34742,1,8,0:0:0:0:
256,192,34827,1,8,0:0:0:0:
256,192,34911,1,0,0:0:0:0:
256,192,34995,1,8,0:0:0:0:
256,192,35080,1,0,0:0:0:0:
256,192,35164,1,8,0:0:0:0:
256,192,35248,1,8,0:0:0:0:
256,192,35332,1,0,0:0:0:0:
256,192,35417,1,8,0:0:0:0:
256,192,35501,1,8,0:0:0:0:
256,192,35585,1,8,0:0:0:0:
256,192,35669,1,8,0:0:0:0:
256,192,35754,1,0,0:0:0:0:
256,192,35838,1,8,0:0:0:0:
256,192,35922,1,8,0:0:0:0:
256,192,36006,1,0,0:0:0:0:
256,192,36091,1,8,0:0:0:0:
256,192,36175,1,8,0:0:0:0:
256,192,36259,1,0,0:0:0:0:
256,192,36344,1,8,0:0:0:0:
256,192,36428,1,0,0:0:0:0:
256,192,36512,1,8,0:0:0:0:
256,192,36596,1,8,0:0:0:0:
256,192,36681,1,0,0:0:0:0:
256,192,36765,1,8,0:0:0:0:
256,192,36849,1,8,0:0:0:0:
256,192,36933,1,0,0:0:0:0:
256,192,37018,1,8,0:0:0:0:
256,192,37102,1,0,0:0:0:0:
256,192,37186,1,8,0:0:0:0:
256,192,37271,1,8,0:0:0:0:
256,192,37355,1,0,0:0:0:0:
256,192,37439,1,8,0:0:0:0:
256,192,37523,1,8,0:0:0:0:
256,192,37608,1,0,0:0:0:0:
256,192,37692,1,8,0:0:0:0:
256,192,37776,1,0,0:0:0:0:
256,192,37860,1,8,0:0:0:0:
256,192,37945,1,8,0:0:0:0:
256,192,38029,1,0,0:0:0:0:
256,192,38113,1,8,0:0:0:0:
256,192,38197,1,8,0:0:0:0:
256,192,38282,1,0,0:0:0:0:
256,192,38366,1,0,0:0:0:0:
256,192,38450,1,0,0:0:0:0:
256,192,38535,1,8,0:0:0:0:
256,192,38619,1,8,0:0:0:0:
256,192,38703,1,0,0:0:0:0:
256,192,38787,1,8,0:0:0:0:
256,192,38872,1,8,0:0:0:0:
256,192,38956,1,0,0:0:0:0:
256,192,39040,1,8,0:0:0:0:
256,192,39124,1,0,0:0:0:0:
256,192,39209,1,8,0:0:0:0:
256,192,39293,1,8,0:0:0:0:
256,192,39377,1,0,0:0:0:0:
256,192,39462,1,8,0:0:0:0:
256,192,39546,1,8,0:0:0:0:
256,192,39630,1,0,0:0:0:0:
256,192,39714,1,8,0:0:0:0:
256,192,39799,1,0,0:0:0:0:
256,192,39883,1,8,0:0:0:0:
256,192,39967,1,8,0:0:0:0:
256,192,40051,1,0,0:0:0:0:
256,192,40136,1,8,0:0:0:0:
256,192,40220,1,8,0:0:0:0:
256,192,40304,1,0,0:0:0:0:
256,192,40389,1,8,0:0:0:0:
256,192,40473,1,0,0:0:0:0:
256,192,40557,1,8,0:0:0:0:
256,192,40641,1,8,0:0:0:0:
256,192,40726,1,0,0:0:0:0:
256,192,40810,1,8,0:0:0:0:
256,192,40894,1,8,0:0:0:0:
256,192,40978,1,8,0:0:0:0:
256,192,41063,1,8,0:0:0:0:
256,192,41147,1,0,0:0:0:0:
256,192,41231,1,8,0:0:0:0:
256,192,41315,1,8,0:0:0:0:
256,192,41400,1,0,0:0:0:0:
256,192,41484,1,8,0:0:0:0:
256,192,41568,1,8,0:0:0:0:
256,192,41653,1,0,0:0:0:0:
256,192,41737,1,8,0:0:0:0:
256,192,41821,1,0,0:0:0:0:
256,192,41905,1,8,0:0:0:0:
256,192,41990,1,8,0:0:0:0:
256,192,42074,1,0,0:0:0:0:
256,192,42158,1,8,0:0:0:0:
256,192,42242,1,8,0:0:0:0:
256,192,42327,1,0,0:0:0:0:
256,192,42411,1,8,0:0:0:0:
256,192,42495,1,0,0:0:0:0:
256,192,42608,1,8,0:0:0:0:
256,192,42720,5,8,0:0:0:0:
256,192,42832,1,0,0:0:0:0:
256,192,42945,1,8,0:0:0:0:
256,192,43057,1,8,0:0:0:0:
256,192,43169,1,0,0:0:0:0:
256,192,43254,1,8,0:0:0:0:
256,192,43338,1,8,0:0:0:0:
256,192,43422,1,8,0:0:0:0:
256,192,43506,1,8,0:0:0:0:
256,192,43591,1,8,0:0:0:0:
256,192,43675,1,8,0:0:0:0:
256,192,43759,1,8,0:0:0:0:
256,192,43844,5,0,0:0:0:0:
256,192,43956,1,0,0:0:0:0:
256,192,44068,1,8,0:0:0:0:
256,192,44181,1,0,0:0:0:0:
256,192,44265,1,8,0:0:0:0:
256,192,44349,1,8,0:0:0:0:
256,192,44433,1,8,0:0:0:0:
256,192,44518,1,0,0:0:0:0:
256,192,44602,1,8,0:0:0:0:
256,192,44686,1,0,0:0:0:0:
256,192,44771,1,0,0:0:0:0:
256,192,44855,1,8,0:0:0:0:
256,192,44939,1,8,0:0:0:0:
256,192,45023,1,0,0:0:0:0:
256,192,45108,1,8,0:0:0:0:
256,192,45192,1,0,0:0:0:0:
256,192,45276,1,8,0:0:0:0:
256,192,45360,1,8,0:0:0:0:
256,192,45445,1,8,0:0:0:0:
256,192,45529,1,0,0:0:0:0:
256,192,45613,1,0,0:0:0:0:
256,192,45697,1,8,0:0:0:0:
256,192,45782,1,8,0:0:0:0:
256,192,45866,1,0,0:0:0:0:
256,192,45922,1,0,0:0:0:0:
256,192,45978,1,0,0:0:0:0:
256,192,46035,1,8,0:0:0:0:
256,192,46119,1,0,0:0:0:0:
256,192,46175,1,0,0:0:0:0:
256,192,46231,1,0,0:0:0:0:
256,192,46287,1,8,0:0:0:0:
256,192,46372,1,0,0:0:0:0:
256,192,46428,1,0,0:0:0:0:
256,192,46484,1,0,0:0:0:0:
256,192,46540,1,8,0:0:0:0:
256,192,46653,1,0,0:0:0:0:
256,192,46765,1,8,0:0:0:0:
256,192,46877,1,0,0:0:0:0:
256,192,46962,1,8,0:0:0:0:
256,192,47046,1,8,0:0:0:0:
256,192,47130,1,8,0:0:0:0:
256,192,47214,1,0,0:0:0:0:
256,192,47299,1,0,0:0:0:0:
256,192,47383,1,8,0:0:0:0:
256,192,47467,1,8,0:0:0:0:
256,192,47551,1,0,0:0:0:0:
256,192,47636,1,8,0:0:0:0:
256,192,47720,1,0,0:0:0:0:
256,192,47804,1,0,0:0:0:0:
256,192,47889,1,8,0:0:0:0:
256,192,47973,1,0,0:0:0:0:
256,192,48057,1,8,0:0:0:0:
256,192,48141,1,8,0:0:0:0:
256,192,48226,1,0,0:0:0:0:
256,192,48310,1,8,0:0:0:0:
256,192,48394,1,8,0:0:0:0:
256,192,48478,1,0,0:0:0:0:
256,192,48563,1,8,0:0:0:0:
256,192,48619,1,8,0:0:0:0:
256,192,48675,1,0,0:0:0:0:
256,192,48731,1,0,0:0:0:0:
256,192,48815,1,8,0:0:0:0:
256,192,48872,1,8,0:0:0:0:
256,192,48928,1,0,0:0:0:0:
256,192,48984,1,0,0:0:0:0:
256,192,49068,1,8,0:0:0:0:
256,192,49124,1,8,0:0:0:0:
256,192,49181,1,0,0:0:0:0:
256,192,49237,1,0,0:0:0:0:
256,192,49349,1,8,0:0:0:0:
256,192,49462,1,8,0:0:0:0:
256,192,49574,1,0,0:0:0:0:
256,192,49658,1,8,0:0:0:0:
256,192,49742,1,8,0:0:0:0:
256,192,49827,1,8,0:0:0:0:
256,192,49911,1,0,0:0:0:0:
256,192,49995,1,8,0:0:0:0:
256,192,50080,1,0,0:0:0:0:
256,192,50164,1,0,0:0:0:0:
256,192,50248,1,8,0:0:0:0:
256,192,50332,1,8,0:0:0:0:
256,192,50417,1,0,0:0:0:0:
256,192,50501,1,0,0:0:0:0:
256,192,50585,1,8,0:0:0:0:
256,192,50669,1,0,0:0:0:0:
256,192,50754,1,8,0:0:0:0:
256,192,50838,1,8,0:0:0:0:
256,192,50922,1,0,0:0:0:0:
256,192,51006,1,0,0:0:0:0:
256,192,51091,1,8,0:0:0:0:
256,192,51175,1,8,0:0:0:0:
256,192,51259,1,0,0:0:0:0:
256,192,51315,1,0,0:0:0:0:
256,192,51372,1,0,0:0:0:0:
256,192,51428,1,8,0:0:0:0:
256,192,51512,1,0,0:0:0:0:
256,192,51568,1,0,0:0:0:0:
256,192,51624,1,0,0:0:0:0:
256,192,51681,1,8,0:0:0:0:
256,192,51765,1,0,0:0:0:0:
256,192,51821,1,0,0:0:0:0:
256,192,51877,1,0,0:0:0:0:
256,192,51933,1,8,0:0:0:0:
256,192,52046,1,8,0:0:0:0:
256,192,52158,1,8,0:0:0:0:
256,192,52271,1,0,0:0:0:0:
256,192,52355,1,8,0:0:0:0:
256,192,52439,1,8,0:0:0:0:
256,192,52523,1,8,0:0:0:0:
256,192,52608,1,0,0:0:0:0:
256,192,52692,1,8,0:0:0:0:
256,192,52776,1,0,0:0:0:0:
256,192,52860,1,0,0:0:0:0:
256,192,52945,1,8,0:0:0:0:
256,192,53029,1,8,0:0:0:0:
256,192,53113,1,0,0:0:0:0:
256,192,53197,1,8,0:0:0:0:
256,192,53282,1,0,0:0:0:0:
256,192,53366,1,0,0:0:0:0:
256,192,53450,1,8,0:0:0:0:
256,192,53535,1,8,0:0:0:0:
256,192,53619,1,0,0:0:0:0:
256,192,53703,1,8,0:0:0:0:
256,192,53787,1,8,0:0:0:0:
256,192,53872,1,0,0:0:0:0:
256,192,53956,1,8,0:0:0:0:
256,192,54012,1,8,0:0:0:0:
256,192,54068,1,0,0:0:0:0:
256,192,54124,1,0,0:0:0:0:
256,192,54209,1,8,0:0:0:0:
256,192,54265,1,8,0:0:0:0:
256,192,54321,1,0,0:0:0:0:
256,192,54377,1,0,0:0:0:0:
256,192,54462,1,8,0:0:0:0:
256,192,54518,1,8,0:0:0:0:
256,192,54574,1,0,0:0:0:0:
256,192,54630,5,0,0:0:0:0:
256,192,54742,1,8,0:0:0:0:
256,192,54855,1,8,0:0:0:0:
256,192,54967,1,0,0:0:0:0:
256,192,55051,1,8,0:0:0:0:
256,192,55136,1,8,0:0:0:0:
256,192,55220,1,8,0:0:0:0:
256,192,55304,1,0,0:0:0:0:
256,192,55389,1,8,0:0:0:0:
256,192,55473,1,0,0:0:0:0:
256,192,55557,1,0,0:0:0:0:
256,192,55641,1,8,0:0:0:0:
256,192,55726,1,8,0:0:0:0:
256,192,55810,1,0,0:0:0:0:
256,192,55894,1,8,0:0:0:0:
256,192,55978,1,0,0:0:0:0:
256,192,56063,1,8,0:0:0:0:
256,192,56147,1,8,0:0:0:0:
256,192,56231,1,8,0:0:0:0:
256,192,56315,1,0,0:0:0:0:
256,192,56400,1,0,0:0:0:0:
256,192,56484,1,8,0:0:0:0:
256,192,56568,1,8,0:0:0:0:
256,192,56653,1,0,0:0:0:0:
256,192,56709,1,0,0:0:0:0:
256,192,56765,1,0,0:0:0:0:
256,192,56821,1,8,0:0:0:0:
256,192,56905,1,0,0:0:0:0:
256,192,56962,1,0,0:0:0:0:
256,192,57018,1,0,0:0:0:0:
256,192,57074,1,8,0:0:0:0:
256,192,57158,1,0,0:0:0:0:
256,192,57214,1,0,0:0:0:0:
256,192,57271,1,0,0:0:0:0:
256,192,57327,1,8,0:0:0:0:
256,192,57439,1,0,0:0:0:0:
256,192,57551,1,8,0:0:0:0:
256,192,57664,1,0,0:0:0:0:
256,192,57748,1,0,0:0:0:0:
256,192,57832,1,8,0:0:0:0:
256,192,57917,1,8,0:0:0:0:
256,192,58001,1,0,0:0:0:0:
256,192,58085,1,8,0:0:0:0:
256,192,58169,1,0,0:0:0:0:
256,192,58254,1,0,0:0:0:0:
256,192,58338,1,8,0:0:0:0:
256,192,58422,1,8,0:0:0:0:
256,192,58506,1,0,0:0:0:0:
256,192,58591,1,8,0:0:0:0:
256,192,58675,1,0,0:0:0:0:
256,192,58759,1,0,0:0:0:0:
256,192,58844,1,0,0:0:0:0:
256,192,58928,1,8,0:0:0:0:
256,192,59012,1,8,0:0:0:0:
256,192,59096,1,0,0:0:0:0:
256,192,59181,1,8,0:0:0:0:
256,192,59265,1,0,0:0:0:0:
256,192,59349,1,8,0:0:0:0:
256,192,59405,1,8,0:0:0:0:
256,192,59462,1,8,0:0:0:0:
256,192,59518,1,0,0:0:0:0:
256,192,59602,1,8,0:0:0:0:
256,192,59658,1,8,0:0:0:0:
256,192,59714,1,8,0:0:0:0:
256,192,59771,1,0,0:0:0:0:
256,192,59855,1,8,0:0:0:0:
256,192,59911,1,8,0:0:0:0:
256,192,59967,1,8,0:0:0:0:
256,192,60023,1,0,0:0:0:0:
256,192,60136,1,8,0:0:0:0:
256,192,60248,1,8,0:0:0:0:
256,192,60360,1,0,0:0:0:0:
256,192,60445,1,8,0:0:0:0:
256,192,60529,1,8,0:0:0:0:
256,192,60613,1,8,0:0:0:0:
256,192,60697,1,0,0:0:0:0:
256,192,60782,1,0,0:0:0:0:
256,192,60866,1,8,0:0:0:0:
256,192,60950,1,0,0:0:0:0:
256,192,61035,1,8,0:0:0:0:
256,192,61119,1,8,0:0:0:0:
256,192,61203,1,0,0:0:0:0:
256,192,61287,1,8,0:0:0:0:
256,192,61372,1,0,0:0:0:0:
256,192,61456,1,0,0:0:0:0:
256,192,61540,1,8,0:0:0:0:
256,192,61624,1,8,0:0:0:0:
256,192,61709,1,0,0:0:0:0:
256,192,61793,1,8,0:0:0:0:
256,192,61877,1,8,0:0:0:0:
256,192,61962,1,8,0:0:0:0:
256,192,62046,1,0,0:0:0:0:
256,192,62102,1,0,0:0:0:0:
256,192,62158,1,0,0:0:0:0:
256,192,62214,1,8,0:0:0:0:
256,192,62299,1,0,0:0:0:0:
256,192,62355,1,0,0:0:0:0:
256,192,62411,1,0,0:0:0:0:
256,192,62467,1,8,0:0:0:0:
256,192,62551,1,0,0:0:0:0:
256,192,62608,1,0,0:0:0:0:
256,192,62664,1,0,0:0:0:0:
256,192,62720,1,8,0:0:0:0:
256,192,62832,1,0,0:0:0:0:
256,192,62945,1,8,0:0:0:0:
256,192,63057,1,0,0:0:0:0:
256,192,63141,1,0,0:0:0:0:
256,192,63226,1,8,0:0:0:0:
256,192,63310,1,0,0:0:0:0:
256,192,63394,1,8,0:0:0:0:
256,192,63478,1,0,0:0:0:0:
256,192,63563,1,0,0:0:0:0:
256,192,63647,1,8,0:0:0:0:
256,192,63731,1,8,0:0:0:0:
256,192,63815,1,8,0:0:0:0:
256,192,63900,1,0,0:0:0:0:
256,192,63984,1,8,0:0:0:0:
256,192,64068,1,0,0:0:0:0:
256,192,64153,1,0,0:0:0:0:
256,192,64237,1,8,0:0:0:0:
256,192,64321,1,8,0:0:0:0:
256,192,64405,1,0,0:0:0:0:
256,192,64490,1,8,0:0:0:0:
256,192,64574,1,8,0:0:0:0:
256,192,64658,1,8,0:0:0:0:
256,192,64742,1,0,0:0:0:0:
256,192,64799,1,0,0:0:0:0:
256,192,64855,1,0,0:0:0:0:
256,192,64911,1,8,0:0:0:0:
256,192,64967,1,0,0:0:0:0:
256,192,65023,1,0,0:0:0:0:
256,192,65080,1,8,0:0:0:0:
256,192,65136,1,0,0:0:0:0:
256,192,65192,1,0,0:0:0:0:
256,192,65248,1,8,0:0:0:0:
256,192,65304,1,8,0:0:0:0:
256,192,65360,1,8,0:0:0:0:
256,192,65417,1,0,0:0:0:0:
256,192,66091,1,8,0:0:0:0:
256,192,66765,1,0,0:0:0:0:
256,192,67439,1,8,0:0:0:0:
256,192,68113,1,0,0:0:0:0:
256,192,68787,1,8,0:0:0:0:
256,192,69462,1,0,0:0:0:0:
256,192,70136,1,8,0:0:0:0:
256,192,70810,1,0,0:0:0:0:
256,224,71484,1,8,0:0:0:0:
256,192,72158,1,0,0:0:0:0:
256,192,72832,1,8,0:0:0:0:
256,192,73506,1,0,0:0:0:0:
256,192,74181,1,8,0:0:0:0:
256,192,74855,1,0,0:0:0:0:
256,192,75529,1,8,0:0:0:0:
256,192,75697,1,0,0:0:0:0:
256,192,75782,1,0,0:0:0:0:
256,192,75866,1,8,0:0:0:0:
256,192,75950,1,8,0:0:0:0:
256,192,76035,1,8,0:0:0:0:
256,192,76119,1,8,0:0:0:0:
256,192,76203,1,0,0:0:0:0:
256,192,76315,1,8,0:0:0:0:
256,192,76428,1,8,0:0:0:0:
256,192,76540,1,0,0:0:0:0:
256,192,76624,1,0,0:0:0:0:
256,192,76709,1,8,0:0:0:0:
256,192,76793,1,8,0:0:0:0:
256,192,76877,1,0,0:0:0:0:
256,192,76962,1,0,0:0:0:0:
256,192,77046,1,8,0:0:0:0:
256,192,77130,1,0,0:0:0:0:
256,192,77214,1,8,0:0:0:0:
256,192,77299,1,8,0:0:0:0:
256,192,77383,1,0,0:0:0:0:
256,192,77467,1,8,0:0:0:0:
256,192,77551,1,0,0:0:0:0:
256,192,77664,1,8,0:0:0:0:
256,192,77776,1,8,0:0:0:0:
256,192,77889,1,0,0:0:0:0:
256,192,77973,1,0,0:0:0:0:
256,192,78057,1,8,0:0:0:0:
256,192,78141,1,8,0:0:0:0:
256,192,78226,1,0,0:0:0:0:
256,192,78282,1,0,0:0:0:0:
256,192,78338,1,0,0:0:0:0:
256,192,78394,1,8,0:0:0:0:
256,192,78478,1,0,0:0:0:0:
256,192,78535,1,0,0:0:0:0:
256,192,78591,1,0,0:0:0:0:
256,192,78647,1,8,0:0:0:0:
256,192,78731,1,0,0:0:0:0:
256,192,78787,1,0,0:0:0:0:
256,192,78844,1,0,0:0:0:0:
256,192,78900,1,8,0:0:0:0:
256,192,79012,1,0,0:0:0:0:
256,192,79124,1,8,0:0:0:0:
256,192,79237,1,0,0:0:0:0:
256,192,79321,1,8,0:0:0:0:
256,192,79405,1,8,0:0:0:0:
256,192,79490,1,8,0:0:0:0:
256,192,79574,1,0,0:0:0:0:
256,192,79658,1,0,0:0:0:0:
256,192,79742,1,8,0:0:0:0:
256,192,79827,1,0,0:0:0:0:
256,192,79911,1,8,0:0:0:0:
256,192,79995,1,8,0:0:0:0:
256,192,80080,1,0,0:0:0:0:
256,192,80164,1,8,0:0:0:0:
256,192,80248,1,0,0:0:0:0:
256,192,80360,1,8,0:0:0:0:
256,192,80473,1,8,0:0:0:0:
256,192,80585,1,0,0:0:0:0:
256,192,80669,1,0,0:0:0:0:
256,192,80754,1,8,0:0:0:0:
256,192,80838,1,0,0:0:0:0:
256,192,80922,1,8,0:0:0:0:
256,192,80978,1,8,0:0:0:0:
256,192,81035,1,0,0:0:0:0:
256,192,81091,1,0,0:0:0:0:
256,192,81175,1,8,0:0:0:0:
256,192,81231,1,8,0:0:0:0:
256,192,81287,1,0,0:0:0:0:
256,192,81344,1,0,0:0:0:0:
256,192,81428,1,8,0:0:0:0:
256,192,81484,1,8,0:0:0:0:
256,192,81540,1,0,0:0:0:0:
256,192,81596,1,0,0:0:0:0:
256,192,81709,1,8,0:0:0:0:
256,192,81821,1,8,0:0:0:0:
256,192,81933,1,0,0:0:0:0:
256,192,82018,1,0,0:0:0:0:
256,192,82102,1,8,0:0:0:0:
256,192,82186,1,8,0:0:0:0:
256,192,82271,1,0,0:0:0:0:
256,192,82355,1,8,0:0:0:0:
256,192,82439,1,0,0:0:0:0:
256,192,82523,1,0,0:0:0:0:
256,192,82608,1,8,0:0:0:0:
256,192,82692,1,8,0:0:0:0:
256,192,82776,1,0,0:0:0:0:
256,192,82860,1,8,0:0:0:0:
256,192,82945,1,0,0:0:0:0:
256,192,83057,1,8,0:0:0:0:
256,192,83169,1,8,0:0:0:0:
256,192,83282,1,0,0:0:0:0:
256,192,83366,1,0,0:0:0:0:
256,192,83450,1,8,0:0:0:0:
256,192,83535,1,8,0:0:0:0:
256,192,83619,1,0,0:0:0:0:
256,192,83675,1,0,0:0:0:0:
256,192,83731,1,0,0:0:0:0:
256,192,83787,1,8,0:0:0:0:
256,192,83872,1,0,0:0:0:0:
256,192,83928,1,0,0:0:0:0:
256,192,83984,1,0,0:0:0:0:
256,192,84040,1,8,0:0:0:0:
256,192,84124,1,0,0:0:0:0:
256,192,84181,1,0,0:0:0:0:
256,192,84237,1,0,0:0:0:0:
256,192,84293,1,8,0:0:0:0:
256,192,84405,1,8,0:0:0:0:
256,192,84518,1,8,0:0:0:0:
256,192,84630,1,0,0:0:0:0:
256,192,84714,1,0,0:0:0:0:
256,192,84799,1,8,0:0:0:0:
256,192,84883,1,8,0:0:0:0:
256,192,84967,1,0,0:0:0:0:
256,192,85051,1,8,0:0:0:0:
256,192,85136,1,0,0:0:0:0:
256,192,85220,1,0,0:0:0:0:
256,192,85304,1,8,0:0:0:0:
256,192,85389,1,8,0:0:0:0:
256,192,85473,1,0,0:0:0:0:
256,192,85557,1,8,0:0:0:0:
256,192,85641,1,0,0:0:0:0:
256,192,85754,1,8,0:0:0:0:
256,192,85866,1,8,0:0:0:0:
256,192,85978,1,0,0:0:0:0:
256,192,86063,1,8,0:0:0:0:
256,192,86147,1,8,0:0:0:0:
256,192,86231,1,8,0:0:0:0:
256,192,86315,1,0,0:0:0:0:
256,192,86372,1,0,0:0:0:0:
256,192,86428,1,8,0:0:0:0:
256,192,86484,1,8,0:0:0:0:
256,192,86540,1,0,0:0:0:0:
256,192,86596,1,0,0:0:0:0:
256,192,86653,1,8,0:0:0:0:
256,192,86709,1,8,0:0:0:0:
256,192,86765,1,0,0:0:0:0:
256,192,86821,1,8,0:0:0:0:
256,192,86877,1,8,0:0:0:0:
256,192,86933,1,8,0:0:0:0:
256,192,86990,1,0,0:0:0:0:
256,192,88001,1,0,0:0:0:0:
256,192,88085,5,0,0:0:0:0:
256,192,88169,1,0,0:0:0:0:
256,192,88254,1,8,0:0:0:0:
256,192,88338,1,8,0:0:0:0:
256,192,88844,1,8,0:0:0:0:
256,192,89012,1,8,0:0:0:0:
256,192,89265,1,8,0:0:0:0:
256,192,89518,1,8,0:0:0:0:
256,192,89686,1,0,0:0:0:0:
256,192,90697,1,0,0:0:0:0:
256,192,90810,1,8,0:0:0:0:
256,192,90922,1,8,0:0:0:0:
256,192,91035,1,0,0:0:0:0:
256,192,92158,1,0,0:0:0:0:
256,192,92271,1,0,0:0:0:0:
256,192,92383,1,8,0:0:0:0:
256,192,93394,1,0,0:0:0:0:
256,192,93478,1,0,0:0:0:0:
256,192,93563,1,0,0:0:0:0:
256,192,93647,1,8,0:0:0:0:
256,192,93731,1,8,0:0:0:0:
256,192,94237,1,8,0:0:0:0:
256,192,94405,1,8,0:0:0:0:
256,192,94658,1,8,0:0:0:0:
256,192,94911,1,8,0:0:0:0:
256,192,95080,1,0,0:0:0:0:
256,192,96091,1,0,0:0:0:0:
256,192,96203,1,8,0:0:0:0:
256,192,96315,1,8,0:0:0:0:
256,192,96428,1,0,0:0:0:0:
256,192,97439,1,8,0:0:0:0:
256,192,97776,1,4,0:0:0:0:
256,192,98450,1,8,0:0:0:0:
256,192,99124,1,0,0:0:0:0:
256,192,99630,1,8,0:0:0:0:
256,192,99799,1,8,0:0:0:0:
256,192,100051,1,8,0:0:0:0:
256,192,100304,1,8,0:0:0:0:
256,192,100473,1,0,0:0:0:0:
256,192,101147,1,8,0:0:0:0:
256,192,101821,1,0,0:0:0:0:
256,192,102495,1,8,0:0:0:0:
256,192,103169,1,0,0:0:0:0:
256,192,103506,1,0,0:0:0:0:
256,192,103844,1,8,0:0:0:0:
256,192,104181,1,0,0:0:0:0:
256,192,104518,1,0,0:0:0:0:
256,192,104855,5,0,0:0:0:0:
256,192,105192,1,8,0:0:0:0:
256,192,105529,1,0,0:0:0:0:
256,192,105866,1,0,0:0:0:0:
256,192,105978,1,8,0:0:0:0:
256,192,106091,1,8,0:0:0:0:
256,192,106203,1,0,0:0:0:0:
256,192,106287,1,0,0:0:0:0:
256,192,106372,1,8,0:0:0:0:
256,192,106456,1,8,0:0:0:0:
256,192,106540,1,0,0:0:0:0:
256,192,106624,1,8,0:0:0:0:
256,192,106709,1,0,0:0:0:0:
256,192,106793,1,0,0:0:0:0:
256,192,106877,1,8,0:0:0:0:
256,192,106962,1,8,0:0:0:0:
256,192,107046,1,0,0:0:0:0:
256,192,107130,1,8,0:0:0:0:
256,192,107214,1,0,0:0:0:0:
256,192,107299,1,0,0:0:0:0:
256,192,107383,1,8,0:0:0:0:
256,192,107467,1,8,0:0:0:0:
256,192,107551,1,8,0:0:0:0:
256,192,107636,1,0,0:0:0:0:
256,192,107720,1,8,0:0:0:0:
256,192,107889,12,0,108057,0:0:0:0:
256,192,108141,5,14,0:0:0:0:
256,192,108309,1,14,0:0:0:0:
256,192,108563,1,4,0:0:0:0:
256,192,108731,1,0,0:0:0:0:
256,192,108815,1,0,0:0:0:0:
256,192,108900,1,8,0:0:0:0:
256,192,109068,1,0,0:0:0:0:
256,192,109153,1,0,0:0:0:0:
256,192,109321,1,8,0:0:0:0:
256,192,109405,1,0,0:0:0:0:
256,192,109574,1,8,0:0:0:0:
256,192,109742,1,0,0:0:0:0:
256,192,109827,1,0,0:0:0:0:
256,192,109911,1,8,0:0:0:0:
256,192,109995,1,8,0:0:0:0:
256,192,110080,1,0,0:0:0:0:
256,192,110248,1,8,0:0:0:0:
256,192,110417,1,0,0:0:0:0:
256,192,110501,1,8,0:0:0:0:
256,192,110669,1,8,0:0:0:0:
256,192,110754,1,0,0:0:0:0:
256,192,110922,1,8,0:0:0:0:
256,192,111091,1,8,0:0:0:0:
256,192,111175,1,8,0:0:0:0:
256,192,111259,1,0,0:0:0:0:
256,192,111344,1,0,0:0:0:0:
256,192,111428,1,0,0:0:0:0:
256,192,111596,1,8,0:0:0:0:
256,192,111765,1,0,0:0:0:0:
256,192,111849,1,0,0:0:0:0:
256,192,112018,1,8,0:0:0:0:
256,192,112102,1,0,0:0:0:0:
256,192,112271,1,8,0:0:0:0:
256,192,112439,1,0,0:0:0:0:
256,192,112523,1,0,0:0:0:0:
256,192,112608,1,8,0:0:0:0:
256,192,112692,1,8,0:0:0:0:
256,192,112776,1,0,0:0:0:0:
256,192,112945,1,8,0:0:0:0:
256,192,113113,1,0,0:0:0:0:
256,192,113197,1,0,0:0:0:0:
256,192,113282,1,8,0:0:0:0:
256,192,113366,1,0,0:0:0:0:
256,192,113535,1,0,0:0:0:0:
256,192,113619,1,8,0:0:0:0:
256,192,113703,1,8,0:0:0:0:
256,192,113787,1,8,0:0:0:0:
256,192,113872,1,8,0:0:0:0:
256,192,113956,1,0,0:0:0:0:
256,192,114124,1,0,0:0:0:0:
256,192,114209,1,0,0:0:0:0:
256,192,114293,1,8,0:0:0:0:
256,192,114462,1,0,0:0:0:0:
256,192,114546,1,0,0:0:0:0:
256,192,114714,1,8,0:0:0:0:
256,192,114799,1,0,0:0:0:0:
256,192,114967,1,8,0:0:0:0:
256,192,115136,1,0,0:0:0:0:
256,192,115220,1,0,0:0:0:0:
256,192,115304,1,8,0:0:0:0:
256,192,115389,1,8,0:0:0:0:
256,192,115473,1,0,0:0:0:0:
256,192,115641,1,8,0:0:0:0:
256,192,115810,1,0,0:0:0:0:
256,192,115894,1,8,0:0:0:0:
256,192,116063,1,8,0:0:0:0:
256,192,116147,1,0,0:0:0:0:
256,192,116315,1,8,0:0:0:0:
256,192,116484,1,8,0:0:0:0:
256,192,116568,1,8,0:0:0:0:
256,192,116653,1,0,0:0:0:0:
256,192,116737,1,0,0:0:0:0:
256,192,116821,1,0,0:0:0:0:
256,192,116990,1,8,0:0:0:0:
256,192,117158,1,0,0:0:0:0:
256,192,117242,1,0,0:0:0:0:
256,192,117411,1,8,0:0:0:0:
256,192,117495,1,0,0:0:0:0:
256,192,117664,1,8,0:0:0:0:
256,192,117832,1,0,0:0:0:0:
256,192,117917,1,0,0:0:0:0:
256,192,118001,1,8,0:0:0:0:
256,192,118085,1,8,0:0:0:0:
256,192,118169,1,0,0:0:0:0:
256,192,118338,1,8,0:0:0:0:
256,192,118506,1,0,0:0:0:0:
256,192,118591,1,8,0:0:0:0:
256,192,118675,1,0,0:0:0:0:
256,192,118759,1,0,0:0:0:0:
256,192,118844,1,8,0:0:0:0:
256,192,118928,1,0,0:0:0:0:
256,192,119012,1,8,0:0:0:0:
256,192,119096,1,8,0:0:0:0:
256,192,119181,1,8,0:0:0:0:
256,192,119265,1,8,0:0:0:0:
256,192,119349,1,0,0:0:0:0:
256,192,119518,1,0,0:0:0:0:
256,192,119602,1,0,0:0:0:0:
256,192,119686,1,8,0:0:0:0:
256,192,119855,1,0,0:0:0:0:
256,192,119939,1,0,0:0:0:0:
256,192,120108,1,8,0:0:0:0:
256,192,120192,1,0,0:0:0:0:
256,192,120360,1,8,0:0:0:0:
256,192,120529,1,0,0:0:0:0:
256,192,120613,1,0,0:0:0:0:
256,192,120697,1,8,0:0:0:0:
256,192,120782,1,8,0:0:0:0:
256,192,120866,1,0,0:0:0:0:
256,192,121035,1,8,0:0:0:0:
256,192,121203,1,0,0:0:0:0:
256,192,121287,1,8,0:0:0:0:
256,192,121456,1,8,0:0:0:0:
256,192,121540,1,0,0:0:0:0:
256,192,121709,1,8,0:0:0:0:
256,192,121877,1,8,0:0:0:0:
256,192,121962,1,8,0:0:0:0:
256,192,122046,1,0,0:0:0:0:
256,192,122130,1,0,0:0:0:0:
256,192,122214,1,0,0:0:0:0:
256,192,122383,1,8,0:0:0:0:
256,192,122551,1,0,0:0:0:0:
256,192,122636,1,0,0:0:0:0:
256,192,122804,1,8,0:0:0:0:
256,192,122889,1,0,0:0:0:0:
256,192,123057,1,8,0:0:0:0:
256,192,123226,1,0,0:0:0:0:
256,192,123310,1,0,0:0:0:0:
256,192,123394,1,8,0:0:0:0:
256,192,123478,1,8,0:0:0:0:
256,192,123563,1,0,0:0:0:0:
256,192,123731,1,8,0:0:0:0:
256,192,123900,1,0,0:0:0:0:
256,192,123984,1,0,0:0:0:0:
256,192,124068,1,8,0:0:0:0:
256,192,124153,1,0,0:0:0:0:
256,192,124321,1,0,0:0:0:0:
256,192,124405,1,8,0:0:0:0:
256,192,124490,1,8,0:0:0:0:
256,192,124574,1,8,0:0:0:0:
256,192,124658,1,8,0:0:0:0:
256,192,124742,1,0,0:0:0:0:
256,192,124911,1,0,0:0:0:0:
256,192,124995,1,0,0:0:0:0:
256,192,125080,1,8,0:0:0:0:
256,192,125248,1,0,0:0:0:0:
256,192,125332,1,0,0:0:0:0:
256,192,125501,1,8,0:0:0:0:
256,192,125585,1,0,0:0:0:0:
256,192,125754,1,8,0:0:0:0:
256,192,125922,1,0,0:0:0:0:
256,192,126006,1,0,0:0:0:0:
256,192,126091,1,8,0:0:0:0:
256,192,126175,1,8,0:0:0:0:
256,192,126259,1,0,0:0:0:0:
256,192,126428,1,8,0:0:0:0:
256,192,126596,1,0,0:0:0:0:
256,192,126681,1,8,0:0:0:0:
256,192,126849,1,8,0:0:0:0:
256,192,126933,1,0,0:0:0:0:
256,192,127102,1,8,0:0:0:0:
256,192,127271,1,8,0:0:0:0:
256,192,127355,1,8,0:0:0:0:
256,192,127439,1,0,0:0:0:0:
256,192,127523,1,0,0:0:0:0:
256,192,127608,1,0,0:0:0:0:
256,192,127776,1,8,0:0:0:0:
256,192,127945,1,0,0:0:0:0:
256,192,128029,1,0,0:0:0:0:
256,192,128197,1,8,0:0:0:0:
256,192,128282,1,0,0:0:0:0:
256,192,128450,1,8,0:0:0:0:
256,192,128619,1,0,0:0:0:0:
256,192,128703,1,0,0:0:0:0:
256,192,128787,1,8,0:0:0:0:
256,192,128872,1,8,0:0:0:0:
256,192,128956,1,0,0:0:0:0:
256,192,129124,1,8,0:0:0:0:
256,192,129209,1,0,0:0:0:0:
256,192,129293,1,8,0:0:0:0:
256,192,129462,1,0,0:0:0:0:
256,192,129529,1,8,0:0:0:0:
256,192,129596,1,0,0:0:0:0:
256,192,129664,1,8,0:0:0:0:
256,192,129731,1,8,0:0:0:0:
256,192,129799,1,0,0:0:0:0:
256,192,130136,1,0,0:0:0:0:
256,192,130248,1,0,0:0:0:0:
256,192,130360,1,8,0:0:0:0:
256,192,130473,1,0,0:0:0:0:
256,192,130557,1,0,0:0:0:0:
256,192,130641,1,8,0:0:0:0:
256,192,130726,1,8,0:0:0:0:
256,192,130810,1,0,0:0:0:0:
256,192,130894,1,0,0:0:0:0:
256,192,130978,1,8,0:0:0:0:
256,192,131063,1,8,0:0:0:0:
256,192,131147,1,8,0:0:0:0:
256,192,131231,1,0,0:0:0:0:
256,192,131315,1,8,0:0:0:0:
256,192,131400,1,8,0:0:0:0:
256,192,131484,1,0,0:0:0:0:
256,192,131568,1,8,0:0:0:0:
256,192,131653,1,0,0:0:0:0:
256,192,131737,1,0,0:0:0:0:
256,192,131821,1,0,0:0:0:0:
256,192,131905,1,8,0:0:0:0:
256,192,131990,1,8,0:0:0:0:
256,192,132074,1,0,0:0:0:0:
256,192,132158,1,8,0:0:0:0:
256,192,132242,1,0,0:0:0:0:
256,192,132327,1,8,0:0:0:0:
256,192,132411,1,8,0:0:0:0:
256,192,132495,1,0,0:0:0:0:
256,192,132580,1,8,0:0:0:0:
256,192,132664,1,0,0:0:0:0:
256,192,132748,1,0,0:0:0:0:
256,192,132832,1,0,0:0:0:0:
256,192,132917,1,8,0:0:0:0:
256,192,133001,1,8,0:0:0:0:
256,192,133085,1,0,0:0:0:0:
256,192,133169,1,8,0:0:0:0:
256,192,133254,1,8,0:0:0:0:
256,192,133338,1,8,0:0:0:0:
256,192,133422,1,8,0:0:0:0:
256,160,133506,1,0,0:0:0:0:
256,160,133591,1,8,0:0:0:0:
256,160,133675,1,0,0:0:0:0:
256,160,133759,1,0,0:0:0:0:
256,160,133844,1,8,0:0:0:0:
256,160,133928,1,0,0:0:0:0:
256,160,134012,1,8,0:0:0:0:
256,160,134096,1,8,0:0:0:0:
256,192,134181,1,0,0:0:0:0:
256,192,134237,1,8,0:0:0:0:
256,192,134293,1,8,0:0:0:0:
256,192,134349,1,8,0:0:0:0:
256,192,134405,1,0,0:0:0:0:
256,192,134462,1,0,0:0:0:0:
256,192,134518,1,8,0:0:0:0:
256,192,134574,1,8,0:0:0:0:
256,192,134630,1,8,0:0:0:0:
256,192,134686,1,8,0:0:0:0:
256,192,134742,1,0,0:0:0:0:
256,192,134799,1,0,0:0:0:0:
256,192,134855,1,8,0:0:0:0:
256,192,134911,1,0,0:0:0:0:
256,192,134967,1,8,0:0:0:0:
256,192,135023,1,8,0:0:0:0:
256,192,135080,1,0,0:0:0:0:
256,192,135136,1,8,0:0:0:0:
256,192,135192,1,0,0:0:0:0:
256,192,135248,1,0,0:0:0:0:
256,192,135304,1,8,0:0:0:0:
256,192,135360,1,0,0:0:0:0:
256,192,135417,1,8,0:0:0:0:
256,192,135473,1,8,0:0:0:0:
256,192,135529,1,0,0:0:0:0:
256,192,135641,1,8,0:0:0:0:
256,192,135754,1,8,0:0:0:0:
256,192,135866,1,0,0:0:0:0:
256,192,135950,1,0,0:0:0:0:
256,192,136035,1,8,0:0:0:0:
256,192,136119,1,8,0:0:0:0:
256,192,136203,1,0,0:0:0:0:
256,192,136287,1,0,0:0:0:0:
256,192,136372,1,8,0:0:0:0:
256,192,136456,1,0,0:0:0:0:
256,192,136540,1,8,0:0:0:0:
256,192,136624,1,8,0:0:0:0:
256,192,136709,1,8,0:0:0:0:
256,192,136793,1,0,0:0:0:0:
256,192,136877,1,8,0:0:0:0:
256,192,136962,1,0,0:0:0:0:
256,192,137046,1,8,0:0:0:0:
256,192,137130,1,8,0:0:0:0:
256,192,137214,1,0,0:0:0:0:
256,192,137299,1,8,0:0:0:0:
256,192,137383,1,8,0:0:0:0:
256,192,137467,1,8,0:0:0:0:
256,192,137551,1,0,0:0:0:0:
256,192,137636,1,0,0:0:0:0:
256,192,137720,1,8,0:0:0:0:
256,192,137804,1,8,0:0:0:0:
256,192,137889,1,0,0:0:0:0:
256,192,137973,1,0,0:0:0:0:
256,192,138057,1,8,0:0:0:0:
256,192,138141,1,0,0:0:0:0:
256,192,138226,1,0,0:0:0:0:
256,192,138310,1,8,0:0:0:0:
256,192,138394,1,8,0:0:0:0:
256,192,138478,1,0,0:0:0:0:
256,192,138563,1,8,0:0:0:0:
256,192,138647,1,8,0:0:0:0:
256,192,138731,1,8,0:0:0:0:
256,192,138815,1,0,0:0:0:0:
256,192,138900,1,8,0:0:0:0:
256,192,138984,1,0,0:0:0:0:
256,192,139068,1,8,0:0:0:0:
256,192,139153,1,8,0:0:0:0:
256,192,139237,1,0,0:0:0:0:
256,192,139321,1,8,0:0:0:0:
256,192,139405,1,8,0:0:0:0:
256,192,139490,1,0,0:0:0:0:
256,192,139574,1,8,0:0:0:0:
256,192,139630,1,8,0:0:0:0:
256,192,139686,1,8,0:0:0:0:
256,192,139742,1,0,0:0:0:0:
256,192,139799,1,0,0:0:0:0:
256,192,139855,1,0,0:0:0:0:
256,192,139911,1,8,0:0:0:0:
256,192,139967,1,8,0:0:0:0:
256,192,140023,1,8,0:0:0:0:
256,192,140080,1,8,0:0:0:0:
256,192,140136,1,0,0:0:0:0:
256,192,140192,1,0,0:0:0:0:
256,192,140248,1,8,0:0:0:0:
256,192,140304,1,0,0:0:0:0:
256,192,140360,1,8,0:0:0:0:
256,192,140417,1,8,0:0:0:0:
256,192,140473,1,0,0:0:0:0:
256,192,140529,1,0,0:0:0:0:
256,192,140585,1,8,0:0:0:0:
256,192,140641,1,0,0:0:0:0:
256,192,140697,1,0,0:0:0:0:
256,192,140754,1,8,0:0:0:0:
256,192,140810,1,8,0:0:0:0:
256,192,140866,1,8,0:0:0:0:
256,192,140922,1,0,0:0:0:0:
256,192,141035,1,8,0:0:0:0:
256,192,141147,1,8,0:0:0:0:
256,192,141259,1,0,0:0:0:0:
256,192,141344,1,0,0:0:0:0:
256,192,141428,1,8,0:0:0:0:
256,192,141512,1,8,0:0:0:0:
256,192,141596,1,0,0:0:0:0:
256,192,141681,1,0,0:0:0:0:
256,192,141765,1,0,0:0:0:0:
256,192,141849,1,8,0:0:0:0:
256,192,141933,1,8,0:0:0:0:
256,192,142018,1,8,0:0:0:0:
256,192,142102,1,0,0:0:0:0:
256,192,142186,1,8,0:0:0:0:
256,192,142271,1,0,0:0:0:0:
256,192,142355,1,0,0:0:0:0:
256,192,142439,1,8,0:0:0:0:
256,192,142523,1,8,0:0:0:0:
256,192,142608,1,0,0:0:0:0:
256,192,142692,1,8,0:0:0:0:
256,192,142776,1,8,0:0:0:0:
256,192,142860,1,8,0:0:0:0:
256,192,142945,1,0,0:0:0:0:
256,192,143029,1,0,0:0:0:0:
256,192,143113,1,8,0:0:0:0:
256,192,143197,1,0,0:0:0:0:
256,192,143282,1,8,0:0:0:0:
256,192,143366,1,8,0:0:0:0:
256,192,143450,1,0,0:0:0:0:
256,192,143535,1,8,0:0:0:0:
256,192,143619,1,0,0:0:0:0:
256,192,143703,1,0,0:0:0:0:
256,192,143787,1,0,0:0:0:0:
256,192,143872,1,8,0:0:0:0:
256,192,143956,1,8,0:0:0:0:
256,192,144040,1,8,0:0:0:0:
256,192,144124,1,8,0:0:0:0:
256,192,144209,1,0,0:0:0:0:
256,192,144293,1,8,0:0:0:0:
256,192,144377,1,0,0:0:0:0:
256,192,144462,1,8,0:0:0:0:
256,192,144518,1,0,0:0:0:0:
256,192,144574,1,0,0:0:0:0:
256,192,144630,1,8,0:0:0:0:
256,192,144686,1,8,0:0:0:0:
256,192,144742,1,0,0:0:0:0:
256,192,144799,1,8,0:0:0:0:
256,192,144855,1,0,0:0:0:0:
256,192,144911,1,0,0:0:0:0:
256,192,144967,1,8,0:0:0:0:
256,192,145023,1,8,0:0:0:0:
256,192,145080,1,8,0:0:0:0:
256,192,145136,1,0,0:0:0:0:
256,192,145220,1,0,0:0:0:0:
256,192,145304,1,8,0:0:0:0:
256,192,145360,1,8,0:0:0:0:
256,192,145417,1,8,0:0:0:0:
256,192,145473,1,8,0:0:0:0:
256,192,145529,1,0,0:0:0:0:
256,192,145585,1,0,0:0:0:0:
256,192,145641,1,8,0:0:0:0:
256,192,145697,1,0,0:0:0:0:
256,192,145754,1,0,0:0:0:0:
256,192,145810,1,8,0:0:0:0:
256,192,145866,1,8,0:0:0:0:
256,192,145922,1,0,0:0:0:0:
256,192,145978,1,8,0:0:0:0:
256,192,146035,1,0,0:0:0:0:
256,192,146091,1,0,0:0:0:0:
256,192,146147,1,8,0:0:0:0:
256,192,146203,1,8,0:0:0:0:
256,192,146259,1,8,0:0:0:0:
256,192,146315,1,0,0:0:0:0:
256,192,146428,1,8,0:0:0:0:
256,192,146540,1,8,0:0:0:0:
256,192,146653,1,0,0:0:0:0:
256,192,146737,1,0,0:0:0:0:
256,192,146821,1,8,0:0:0:0:
256,192,146905,1,0,0:0:0:0:
256,192,146990,1,8,0:0:0:0:
256,192,147074,1,8,0:0:0:0:
256,192,147158,1,0,0:0:0:0:
256,192,147242,1,8,0:0:0:0:
256,192,147327,1,0,0:0:0:0:
256,192,147411,1,0,0:0:0:0:
256,192,147495,1,8,0:0:0:0:
256,192,147580,1,8,0:0:0:0:
256,192,147664,1,0,0:0:0:0:
256,192,147720,1,8,0:0:0:0:
256,192,147776,1,8,0:0:0:0:
256,192,147832,1,0,0:0:0:0:
256,192,147917,1,8,0:0:0:0:
256,192,148001,1,8,0:0:0:0:
256,192,148085,1,0,0:0:0:0:
256,192,148169,1,8,0:0:0:0:
256,192,148254,1,0,0:0:0:0:
256,192,148338,1,8,0:0:0:0:
256,192,148394,1,0,0:0:0:0:
256,192,148450,1,0,0:0:0:0:
256,192,148506,1,8,0:0:0:0:
256,192,148591,1,8,0:0:0:0:
256,192,148675,1,0,0:0:0:0:
256,192,148759,1,0,0:0:0:0:
256,192,148844,1,8,0:0:0:0:
256,192,148928,1,8,0:0:0:0:
256,192,149012,1,0,0:0:0:0:
256,192,149124,1,8,0:0:0:0:
256,192,149237,1,8,0:0:0:0:
256,192,149349,1,0,0:0:0:0:
256,192,149433,1,8,0:0:0:0:
256,192,149518,1,0,0:0:0:0:
256,192,149602,1,0,0:0:0:0:
256,192,149686,1,8,0:0:0:0:
256,192,149771,1,0,0:0:0:0:
256,192,149855,1,8,0:0:0:0:
256,192,149939,1,8,0:0:0:0:
256,192,150023,1,8,0:0:0:0:
256,192,150108,1,0,0:0:0:0:
256,192,150192,1,8,0:0:0:0:
256,192,150276,1,8,0:0:0:0:
256,192,150360,1,0,0:0:0:0:
256,192,150445,1,0,0:0:0:0:
256,192,150529,1,8,0:0:0:0:
256,192,150613,1,8,0:0:0:0:
256,192,150697,1,0,0:0:0:0:
256,192,150782,1,8,0:0:0:0:
256,192,150866,1,8,0:0:0:0:
256,192,150950,1,8,0:0:0:0:
256,192,151035,1,0,0:0:0:0:
256,192,151091,1,0,0:0:0:0:
256,192,151147,1,0,0:0:0:0:
256,192,151203,1,8,0:0:0:0:
256,192,151259,1,0,0:0:0:0:
256,192,151315,1,0,0:0:0:0:
256,192,151372,1,8,0:0:0:0:
256,192,151428,1,0,0:0:0:0:
256,192,151484,1,0,0:0:0:0:
256,192,151540,1,8,0:0:0:0:
256,192,151596,1,8,0:0:0:0:
256,192,151653,1,8,0:0:0:0:
256,192,151709,1,0,0:0:0:0:
256,192,151821,1,8,0:0:0:0:
256,192,151933,1,8,0:0:0:0:
256,192,152046,1,0,0:0:0:0:
256,192,152130,1,8,0:0:0:0:
256,192,152214,1,0,0:0:0:0:
256,192,152299,1,8,0:0:0:0:
256,192,152383,1,8,0:0:0:0:
256,192,152467,1,0,0:0:0:0:
256,192,152551,1,8,0:0:0:0:
256,192,152636,1,8,0:0:0:0:
256,192,152720,1,0,0:0:0:0:
256,192,152804,1,8,0:0:0:0:
256,192,152889,1,8,0:0:0:0:
256,192,152973,1,8,0:0:0:0:
256,192,153057,1,0,0:0:0:0:
256,192,153141,1,8,0:0:0:0:
256,192,153226,1,8,0:0:0:0:
256,192,153310,1,0,0:0:0:0:
256,192,153394,1,8,0:0:0:0:
256,192,153478,1,8,0:0:0:0:
256,192,153563,1,0,0:0:0:0:
256,192,153647,1,8,0:0:0:0:
256,192,153731,1,8,0:0:0:0:
256,192,153815,1,0,0:0:0:0:
256,192,153900,1,8,0:0:0:0:
256,192,153984,1,8,0:0:0:0:
256,192,154068,1,0,0:0:0:0:
256,192,154153,1,8,0:0:0:0:
256,192,154237,1,0,0:0:0:0:
256,192,154293,1,8,0:0:0:0:
256,192,154349,1,8,0:0:0:0:
256,192,154405,1,0,0:0:0:0:
256,192,154518,1,8,0:0:0:0:
256,192,154630,1,8,0:0:0:0:
256,192,154742,1,0,0:0:0:0:
256,192,154827,1,8,0:0:0:0:
256,192,154911,1,0,0:0:0:0:
256,192,154995,1,8,0:0:0:0:
256,192,155080,1,8,0:0:0:0:
256,192,155164,1,0,0:0:0:0:
256,192,155248,1,8,0:0:0:0:
256,192,155332,1,8,0:0:0:0:
256,192,155417,1,0,0:0:0:0:
256,192,155501,1,8,0:0:0:0:
256,192,155585,1,8,0:0:0:0:
256,192,155669,1,8,0:0:0:0:
256,192,155754,1,0,0:0:0:0:
256,192,155838,1,8,0:0:0:0:
256,192,155922,1,8,0:0:0:0:
256,192,156006,1,0,0:0:0:0:
256,192,156091,1,8,0:0:0:0:
256,192,156175,1,8,0:0:0:0:
256,192,156259,1,0,0:0:0:0:
256,192,156344,1,0,0:0:0:0:
256,192,156428,1,8,0:0:0:0:
256,192,156484,1,8,0:0:0:0:
256,192,156540,1,0,0:0:0:0:
256,192,156596,1,0,0:0:0:0:
256,192,156653,1,8,0:0:0:0:
256,192,156709,1,8,0:0:0:0:
256,192,156765,1,0,0:0:0:0:
256,192,156821,1,0,0:0:0:0:
256,192,156877,1,8,0:0:0:0:
256,192,156933,1,8,0:0:0:0:
256,192,156990,1,0,0:0:0:0:
256,192,157046,1,8,0:0:0:0:
256,192,157186,1,4,0:0:0:0:
256,192,157439,1,4,0:0:0:0:
256,192,157692,1,4,0:0:0:0:
256,192,157945,1,4,0:0:0:0:
256,192,158197,1,4,0:0:0:0:
256,192,158450,1,12,0:0:0:0:
256,192,158703,1,4,0:0:0:0:
256,192,158956,1,12,0:0:0:0:
256,192,159209,1,4,0:0:0:0:
256,192,159462,1,12,0:0:0:0:
256,192,159630,1,4,0:0:0:0:
256,192,159883,1,12,0:0:0:0:
256,192,160136,1,12,0:0:0:0:
256,192,160389,1,12,0:0:0:0:
256,192,160641,1,12,0:0:0:0:
256,192,160894,1,12,0:0:0:0:
256,192,161063,1,12,0:0:0:0:
