osu file format v14

[General]
AudioFilename: audio.mp3
AudioLeadIn: 0
PreviewTime: 44043
Countdown: 0
SampleSet: Soft
StackLeniency: 0.7
Mode: 3
LetterboxInBreaks: 0
SpecialStyle: 0
WidescreenStoryboard: 1

[Editor]
Bookmarks: 788,11950,23113,34276,45439,67764,78927,90090,112415,134741
DistanceSpacing: 0.9
BeatDivisor: 4
GridSize: 8
TimelineZoom: 2.2

[Metadata]
Title:Aulture
TitleUnicode:Aulture
Artist:Silentroom
ArtistUnicode:Silentroom
Creator:Geo_ooo
Version:Normal
Source:Lanota
Tags:Neurofunk Jack Dump Famoss Memory Waves Electronic Neurostep Feylos Ampharos Noxy Games inc Ritmo's Secret Library Chapter ∞ SLRM-0002 mobile rhythm game
BeatmapID:3189129
BeatmapSetID:1561522

[Difficulty]
HPDrainRate:7.5
CircleSize:4
OverallDifficulty:7.5
ApproachRate:5
SliderMultiplier:1.4
SliderTickRate:1

[Events]
//Background and Video events
0,0,"TkvYGSj-min.png",0,0
//Break Periods
//Storyboard Layer 0 (Background)
//Storyboard Layer 1 (Fail)
//Storyboard Layer 2 (Pass)
//Storyboard Layer 3 (Foreground)
//Storyboard Layer 4 (Overlay)
//Storyboard Sound Samples
Sample,13346,0,"LR_J Hit Edge F.wav",50
Sample,16136,0,"LR_J Hit Edge F.wav",50
Sample,18927,0,"LR_J Hit Edge F.wav",50
Sample,21892,0,"LR_J Hit Edge F.wav",50

[TimingPoints]
788,348.837209302326,4,2,1,30,1,0
23113,-100.0,4,2,1,40,0,0
34276,-100.0,4,2,1,45,0,0
45439,-100.0,4,2,1,50,0,1
67067,-100.0,4,2,1,45,0,0
90090,-100.0,4,2,1,50,0,1
112415,-100.0,4,2,1,45,0,0

[HitObjects]
64,192,788,1,2,0:0:0:0:
192,192,788,1,0,0:0:0:0:
192,192,1136,1,0,0:0:0:50:Drum_Rim.wav
320,192,1311,1,2,0:0:0:0:
64,192,1485,1,0,0:0:0:50:LR_J Hit Edge F.wav
448,192,1660,1,2,0:0:0:0:
192,192,1834,1,0,0:0:0:50:Drum_Rim.wav
64,192,2183,1,0,0:0:0:50:LR_J Hit Edge F.wav
320,192,2357,1,2,0:0:0:0:
192,192,2532,1,0,0:0:0:50:Drum_Rim.wav
448,192,2706,1,2,0:0:0:0:
64,192,2881,1,0,0:0:0:50:LR_J Hit Edge F.wav
192,192,3229,1,0,0:0:0:70:LR_J Hit Drum_Reverb.wav
320,192,3578,1,2,0:0:0:0:
448,192,3578,1,0,0:0:0:0:
320,192,3927,1,0,0:0:0:50:Drum_Rim.wav
64,192,4101,1,2,0:0:0:0:
448,192,4276,1,0,0:0:0:50:LR_J Hit Edge F.wav
192,192,4450,1,2,0:0:0:0:
320,192,4625,1,0,0:0:0:50:Drum_Rim.wav
64,192,4974,1,0,0:0:0:50:LR_J Hit Edge F.wav
448,192,5148,1,2,0:0:0:0:
192,192,5322,1,0,0:0:0:50:Drum_Rim.wav
320,192,5497,1,2,0:0:0:0:
64,192,5671,1,0,0:0:0:50:LR_J Hit Edge F.wav
448,192,6020,1,0,0:0:0:70:LR_J Hit Drum_Reverb.wav
64,192,6369,1,2,0:0:0:0:
192,192,6369,1,0,0:0:0:0:
192,192,6718,1,0,0:0:0:50:Drum_Rim.wav
320,192,6892,1,2,0:0:0:0:
64,192,7067,1,0,0:0:0:50:LR_J Hit Edge F.wav
448,192,7241,1,2,0:0:0:0:
192,192,7415,1,0,0:0:0:50:Drum_Rim.wav
64,192,7764,1,0,0:0:0:50:LR_J Hit Edge F.wav
448,192,7939,1,2,0:0:0:0:
192,192,8113,1,0,0:0:0:50:Drum_Rim.wav
320,192,8288,1,2,0:0:0:0:
64,192,8462,1,0,0:0:0:50:LR_J Hit Edge F.wav
192,192,8811,1,0,0:0:0:70:LR_J Hit Drum_Reverb.wav
320,192,9160,1,2,0:0:0:0:
448,192,9160,1,0,0:0:0:0:
64,192,9508,1,0,0:0:0:50:Drum_Rim.wav
320,192,9683,1,2,0:0:0:0:
192,192,9857,1,0,0:0:0:50:LR_J Hit Edge F.wav
448,192,10032,1,2,0:0:0:0:
64,192,10206,1,0,0:0:0:50:Drum_Rim.wav
192,192,10555,1,0,0:0:0:50:LR_J Hit Edge F.wav
448,192,10729,1,2,0:0:0:0:
64,192,10904,1,0,0:0:0:50:Drum_Rim.wav
320,192,11078,1,2,0:0:0:0:
192,192,11253,1,0,0:0:0:50:LR_J Hit Edge F.wav
448,192,11601,1,0,0:0:0:70:LR_J Hit Drum_Reverb.wav
64,192,11950,128,2,14043:0:0:0:0:
192,192,11950,1,0,0:0:0:0:
320,192,12299,1,8,0:0:0:0:
192,192,12474,1,2,0:0:0:0:
448,192,12648,1,0,0:0:0:50:LR_J Hit Edge F.wav
320,192,12822,1,2,0:0:0:0:
192,192,12997,1,8,0:0:0:0:
320,192,13346,1,2,0:0:0:0:
448,192,13520,1,2,0:0:0:0:
192,192,13694,1,8,0:0:0:0:
320,192,13869,1,2,0:0:0:0:
448,192,14043,1,0,0:0:0:50:LR_J Hit Edge F.wav
192,192,14392,1,8,0:0:0:0:
320,192,14741,1,2,0:0:0:0:
448,192,14741,1,0,0:0:0:0:
64,192,15090,1,8,0:0:0:0:
320,192,15264,1,2,0:0:0:0:
192,192,15439,1,0,0:0:0:50:LR_J Hit Edge F.wav
448,192,15613,1,2,0:0:0:0:
64,192,15788,1,8,0:0:0:0:
192,192,16136,1,2,0:0:0:0:
320,192,16311,1,2,0:0:0:0:
448,192,16485,1,8,0:0:0:0:
64,192,16660,1,2,0:0:0:0:
320,192,16834,1,0,0:0:0:50:LR_J Hit Edge F.wav
192,192,17183,1,8,0:0:0:0:
320,192,17532,1,2,0:0:0:0:
448,192,17532,128,0,19625:0:0:0:0:
64,192,17881,1,8,0:0:0:0:
320,192,18055,1,2,0:0:0:0:
192,192,18229,1,0,0:0:0:50:LR_J Hit Edge F.wav
64,192,18404,1,2,0:0:0:0:
320,192,18578,1,8,0:0:0:0:
64,192,18927,1,2,0:0:0:0:
192,192,19101,1,2,0:0:0:0:
320,192,19276,1,8,0:0:0:0:
64,192,19450,1,2,0:0:0:0:
192,192,19625,1,0,0:0:0:50:LR_J Hit Edge F.wav
448,192,19974,1,8,0:0:0:0:
64,192,20322,1,2,0:0:0:0:
192,192,20322,1,0,0:0:0:0:
448,192,20671,1,8,0:0:0:0:
192,192,20846,1,2,0:0:0:0:
64,192,21020,1,0,0:0:0:50:LR_J Hit Edge F.wav
320,192,21194,1,2,0:0:0:0:
192,192,21369,1,8,0:0:0:0:
64,192,21718,1,2,0:0:0:0:
192,192,21892,1,2,0:0:0:0:
448,192,22067,1,8,0:0:0:0:
320,192,22241,1,2,0:0:0:0:
64,192,22415,1,0,0:0:0:50:LR_J Hit Edge F.wav
448,192,22590,1,0,0:0:0:0:
64,192,22764,1,8,0:0:0:0:
448,192,22939,1,0,0:0:0:0:
64,192,23113,1,2,0:0:0:0:
192,192,23200,1,0,0:0:0:0:
448,192,23462,1,8,0:0:0:0:
320,192,23724,1,0,0:0:0:0:
192,192,23985,1,0,0:0:0:0:
64,192,24160,1,8,0:0:0:0:
448,192,24160,1,0,0:0:0:0:
192,192,24508,1,2,0:0:0:0:
448,192,24683,1,0,0:0:0:0:
320,192,24857,1,2,0:0:0:0:
192,192,25032,1,0,0:0:0:0:
64,192,25206,1,8,0:0:0:0:
448,192,25206,1,0,0:0:0:0:
320,192,25381,1,0,0:0:0:0:
192,192,25555,1,2,0:0:0:0:
448,192,25729,1,0,0:0:0:0:
320,192,25904,1,2,0:0:0:0:
64,192,25991,1,0,0:0:0:0:
448,192,26253,1,8,0:0:0:0:
320,192,26514,1,0,0:0:0:0:
64,192,26689,1,2,0:0:0:0:
192,192,26776,1,0,0:0:0:0:
320,192,26950,1,8,0:0:0:0:
448,192,26950,1,0,0:0:0:0:
64,192,27299,1,2,0:0:0:0:
192,192,27474,1,2,0:0:0:0:
448,192,27648,1,2,0:0:0:0:
64,192,27822,1,0,0:0:0:0:
192,192,27997,1,0,0:0:0:50:LR_J Hit Drum_Reverb.wav
320,192,27997,1,0,0:0:0:0:
448,192,28171,1,0,0:0:0:0:
64,192,28346,1,2,0:0:0:0:
320,192,28520,1,0,0:0:0:0:
192,192,28694,1,2,0:0:0:0:
64,192,28782,1,0,0:0:0:0:
448,192,29043,1,8,0:0:0:0:
320,192,29305,1,0,0:0:0:0:
192,192,29567,1,0,0:0:0:0:
64,192,29741,1,8,0:0:0:0:
448,192,29741,1,0,0:0:0:0:
320,192,30090,1,2,0:0:0:0:
192,192,30264,1,0,0:0:0:0:
64,192,30439,1,2,0:0:0:0:
448,192,30613,1,0,0:0:0:0:
192,192,30788,1,0,0:0:0:50:LR_J Hit Drum_Reverb.wav
320,192,30788,1,0,0:0:0:0:
64,192,30962,1,0,0:0:0:0:
448,192,31136,1,2,0:0:0:0:
192,192,31311,1,0,0:0:0:0:
64,192,31485,1,2,0:0:0:0:
320,192,31572,1,0,0:0:0:0:
448,192,31834,1,8,0:0:0:0:
320,192,32096,1,0,0:0:0:0:
64,192,32270,1,2,0:0:0:0:
192,192,32357,1,0,0:0:0:0:
320,192,32532,1,8,0:0:0:0:
448,192,32532,1,0,0:0:0:0:
64,192,32881,1,2,0:0:0:0:
192,192,33055,1,0,0:0:0:0:
320,192,33229,1,2,0:0:0:0:
448,192,33404,1,0,0:0:0:0:
64,192,33578,1,0,0:0:0:50:LR_J Hit Drum_Reverb.wav
192,192,33578,1,0,0:0:0:0:
320,192,33753,1,0,0:0:0:0:
448,192,33927,128,2,34276:0:0:0:0:
64,192,34276,1,2,0:0:0:0:
320,192,34450,1,0,0:0:0:0:
192,192,34625,1,8,0:0:0:0:
448,192,34625,1,0,0:0:0:0:
64,192,34799,1,2,0:0:0:0:
448,192,34974,1,2,0:0:0:0:
320,192,35148,1,0,0:0:0:0:
64,192,35322,1,8,0:0:0:0:
192,192,35322,1,0,0:0:0:0:
64,192,35671,1,2,0:0:0:0:
192,192,35846,1,0,0:0:0:0:
320,192,36020,1,8,0:0:0:0:
448,192,36020,1,0,0:0:0:0:
64,192,36194,1,2,0:0:0:0:
448,192,36369,1,2,0:0:0:0:
192,192,36543,1,0,0:0:0:0:
64,192,36718,1,8,0:0:0:0:
320,192,36718,1,0,0:0:0:0:
448,192,37067,1,2,0:0:0:0:
320,192,37241,1,0,0:0:0:0:
64,192,37415,1,8,0:0:0:0:
192,192,37415,1,0,0:0:0:0:
448,192,37590,1,2,0:0:0:0:
192,192,37764,1,2,0:0:0:0:
64,192,37939,1,0,0:0:0:0:
320,192,38113,1,8,0:0:0:0:
448,192,38113,1,0,0:0:0:0:
192,192,38462,1,2,0:0:0:0:
320,192,38636,1,0,0:0:0:0:
64,192,38811,1,8,0:0:0:0:
448,192,38811,1,0,0:0:0:0:
192,192,38985,1,2,0:0:0:0:
320,192,39160,1,2,0:0:0:0:
64,192,39334,1,0,0:0:0:0:
192,192,39508,1,8,0:0:0:0:
448,192,39508,1,0,0:0:0:0:
448,192,39857,1,2,0:0:0:0:
320,192,40032,1,2,0:0:0:0:
192,192,40206,1,2,0:0:0:0:
448,192,40381,1,2,0:0:0:0:
64,192,40555,1,2,0:0:0:0:
192,192,40729,1,2,0:0:0:0:
320,192,40904,1,2,0:0:0:0:
64,192,41078,1,2,0:0:0:0:
448,192,41253,1,2,0:0:0:0:
320,192,41427,1,2,0:0:0:0:
192,192,41601,1,2,0:0:0:0:
448,192,41776,1,2,0:0:0:0:
64,192,41950,1,2,0:0:0:0:
192,192,42125,1,2,0:0:0:0:
320,192,42299,1,2,0:0:0:0:
64,192,42474,1,2,0:0:0:0:
448,192,42648,1,2,0:0:0:0:
448,192,42822,1,2,0:0:0:0:
64,192,42997,1,2,0:0:0:0:
64,192,43171,1,2,0:0:0:0:
448,192,43346,1,2,0:0:0:0:
448,192,43520,1,2,0:0:0:0:
64,192,43694,1,2,0:0:0:0:
64,192,43869,1,2,0:0:0:0:
320,192,44131,1,0,0:0:0:0:
448,192,44392,1,0,0:0:0:0:
192,192,44654,1,0,0:0:0:0:
64,192,44915,1,0,0:0:0:0:
448,192,45439,128,2,45788:0:0:0:0:
320,192,45613,1,0,0:0:0:0:
64,192,45788,1,8,0:0:0:0:
192,192,45788,1,0,0:0:0:0:
448,192,46049,1,2,0:0:0:0:
192,192,46311,1,2,0:0:0:0:
64,192,46485,1,8,0:0:0:0:
448,192,46485,1,0,0:0:0:0:
192,192,46834,128,2,47183:0:0:0:0:
320,192,47008,1,0,0:0:0:0:
64,192,47183,1,8,0:0:0:0:
448,192,47183,1,0,0:0:0:0:
192,192,47444,1,2,0:0:0:0:
320,192,47619,1,2,0:0:0:0:
64,192,47706,1,2,0:0:0:0:
320,192,47881,1,8,0:0:0:0:
448,192,47881,1,0,0:0:0:0:
192,192,48055,1,0,0:0:0:0:
448,192,48229,128,2,48578:0:0:0:0:
320,192,48404,1,0,0:0:0:0:
64,192,48578,1,8,0:0:0:0:
192,192,48578,1,0,0:0:0:0:
320,192,48840,1,2,0:0:0:0:
64,192,49101,1,2,0:0:0:0:
192,192,49276,1,8,0:0:0:0:
448,192,49276,128,0,49625:0:0:0:0:
64,192,49538,1,0,0:0:0:0:
192,192,49625,1,2,0:0:0:0:
320,192,49712,1,0,0:0:0:0:
64,192,49974,1,8,0:0:0:0:
448,192,49974,1,0,0:0:0:0:
192,192,50235,1,2,0:0:0:0:
448,192,50410,1,2,0:0:0:0:
64,192,50497,1,2,0:0:0:0:
320,192,50671,1,8,0:0:0:0:
448,192,50671,1,0,0:0:0:0:
192,192,50846,1,0,0:0:0:0:
64,192,51020,128,2,51369:0:0:0:0:
192,192,51194,1,0,0:0:0:0:
320,192,51369,1,8,0:0:0:0:
448,192,51369,1,0,0:0:0:0:
64,192,51631,1,2,0:0:0:0:
320,192,51892,1,2,0:0:0:0:
64,192,52067,1,8,0:0:0:0:
448,192,52067,128,0,52415:0:0:0:0:
320,192,52415,128,2,52764:0:0:0:0:
192,192,52590,1,0,0:0:0:0:
64,192,52764,1,8,0:0:0:0:
448,192,52764,1,0,0:0:0:0:
320,192,53026,1,2,0:0:0:0:
192,192,53200,1,2,0:0:0:0:
448,192,53288,1,2,0:0:0:0:
64,192,53462,1,8,0:0:0:0:
192,192,53462,1,0,0:0:0:0:
320,192,53636,1,0,0:0:0:0:
64,192,53811,128,2,54160:0:0:0:0:
192,192,53985,1,0,0:0:0:0:
320,192,54160,1,8,0:0:0:0:
448,192,54160,1,0,0:0:0:0:
192,192,54421,1,2,0:0:0:0:
448,192,54683,1,2,0:0:0:0:
64,192,54857,128,8,55206:0:0:0:0:
320,192,54857,1,0,0:0:0:0:
448,192,55119,1,0,0:0:0:0:
320,192,55206,1,2,0:0:0:0:
192,192,55293,1,0,0:0:0:0:
64,192,55555,1,8,0:0:0:0:
448,192,55555,1,0,0:0:0:0:
320,192,55817,1,2,0:0:0:0:
64,192,55904,1,2,0:0:0:0:
448,192,56078,1,2,0:0:0:0:
64,192,56253,1,8,0:0:0:0:
192,192,56253,128,0,56601:0:0:0:0:
448,192,56601,128,2,56950:0:0:0:0:
320,192,56776,1,0,0:0:0:0:
64,192,56950,1,8,0:0:0:0:
192,192,56950,1,0,0:0:0:0:
448,192,57212,1,2,0:0:0:0:
192,192,57474,1,2,0:0:0:0:
64,192,57648,1,8,0:0:0:0:
448,192,57648,128,0,57997:0:0:0:0:
192,192,57997,128,2,58346:0:0:0:0:
320,192,58171,1,0,0:0:0:0:
64,192,58346,1,8,0:0:0:0:
448,192,58346,1,0,0:0:0:0:
192,192,58607,1,2,0:0:0:0:
320,192,58782,1,2,0:0:0:0:
64,192,58869,1,2,0:0:0:0:
320,192,59043,1,8,0:0:0:0:
448,192,59043,1,0,0:0:0:0:
192,192,59218,1,0,0:0:0:0:
448,192,59392,128,2,59741:0:0:0:0:
320,192,59567,1,0,0:0:0:0:
64,192,59741,1,8,0:0:0:0:
192,192,59741,1,0,0:0:0:0:
320,192,60003,1,2,0:0:0:0:
64,192,60264,1,2,0:0:0:0:
192,192,60439,1,8,0:0:0:0:
448,192,60439,128,0,60788:0:0:0:0:
64,192,60700,1,0,0:0:0:0:
192,192,60788,1,2,0:0:0:0:
320,192,60875,1,0,0:0:0:0:
64,192,61136,1,8,0:0:0:0:
448,192,61136,1,0,0:0:0:0:
192,192,61398,1,2,0:0:0:0:
448,192,61572,1,2,0:0:0:0:
64,192,61660,1,2,0:0:0:0:
320,192,61834,1,8,0:0:0:0:
448,192,61834,1,0,0:0:0:0:
192,192,62008,1,0,0:0:0:0:
64,192,62183,128,2,62532:0:0:0:0:
192,192,62357,1,0,0:0:0:0:
320,192,62532,1,8,0:0:0:0:
448,192,62532,1,0,0:0:0:0:
64,192,62793,1,2,0:0:0:0:
320,192,63055,1,2,0:0:0:0:
64,192,63229,1,8,0:0:0:0:
448,192,63229,128,0,63578:0:0:0:0:
320,192,63578,128,2,63927:0:0:0:0:
192,192,63753,1,0,0:0:0:0:
64,192,63927,1,8,0:0:0:0:
448,192,63927,1,0,0:0:0:0:
320,192,64189,1,2,0:0:0:0:
192,192,64363,1,2,0:0:0:0:
448,192,64450,1,2,0:0:0:0:
64,192,64625,1,8,0:0:0:0:
192,192,64625,1,0,0:0:0:0:
320,192,64799,1,0,0:0:0:0:
64,192,64974,128,2,65322:0:0:0:0:
192,192,65148,1,0,0:0:0:0:
320,192,65322,1,8,0:0:0:0:
448,192,65322,1,0,0:0:0:0:
192,192,65584,1,2,0:0:0:0:
448,192,65846,1,2,0:0:0:0:
64,192,66020,128,8,66369:0:0:0:0:
320,192,66020,1,0,0:0:0:0:
448,192,66282,1,0,0:0:0:0:
320,192,66369,1,2,0:0:0:0:
192,192,66456,1,0,0:0:0:0:
64,192,66718,1,8,0:0:0:0:
448,192,66718,1,0,0:0:0:0:
320,192,66979,1,2,0:0:0:0:
192,192,67067,1,0,0:0:0:0:
448,192,67764,1,2,0:0:0:0:
320,192,67939,1,0,0:0:0:0:
64,192,68113,1,8,0:0:0:0:
192,192,68113,1,0,0:0:0:0:
448,192,68288,1,0,0:0:0:0:
320,192,68462,1,0,0:0:0:0:
64,192,68636,1,0,0:0:0:0:
192,192,68811,1,8,0:0:0:0:
448,192,68811,1,0,0:0:0:0:
64,192,69160,1,2,0:0:0:0:
320,192,69334,1,0,0:0:0:0:
192,192,69508,1,8,0:0:0:0:
448,192,69508,1,0,0:0:0:0:
64,192,69683,1,0,0:0:0:0:
320,192,69857,1,0,0:0:0:0:
192,192,70032,1,0,0:0:0:0:
64,192,70206,1,8,0:0:0:0:
448,192,70206,1,0,0:0:0:0:
64,192,70555,1,2,0:0:0:0:
320,192,70729,1,0,0:0:0:0:
192,192,70904,1,8,0:0:0:0:
448,192,70904,1,0,0:0:0:0:
64,192,71078,1,0,0:0:0:0:
320,192,71253,1,0,0:0:0:0:
192,192,71427,1,0,0:0:0:0:
64,192,71601,1,8,0:0:0:0:
320,192,71601,1,0,0:0:0:0:
192,192,71950,1,2,0:0:0:0:
320,192,72125,1,0,0:0:0:0:
64,192,72299,1,8,0:0:0:0:
448,192,72299,1,0,0:0:0:0:
192,192,72474,1,0,0:0:0:0:
320,192,72648,1,0,0:0:0:0:
448,192,72822,1,0,0:0:0:0:
64,192,72997,1,8,0:0:0:0:
192,192,72997,1,0,0:0:0:0:
320,192,73346,1,2,0:0:0:0:
448,192,73520,1,0,0:0:0:0:
64,192,73694,1,8,0:0:0:0:
192,192,73694,1,0,0:0:0:0:
320,192,73869,1,0,0:0:0:0:
448,192,74043,1,0,0:0:0:0:
64,192,74218,1,0,0:0:0:0:
320,192,74392,1,8,0:0:0:0:
448,192,74392,1,0,0:0:0:0:
192,192,74741,1,2,0:0:0:0:
64,192,74915,1,0,0:0:0:0:
320,192,75090,1,8,0:0:0:0:
448,192,75090,1,0,0:0:0:0:
192,192,75264,1,0,0:0:0:0:
64,192,75439,1,0,0:0:0:0:
448,192,75613,1,0,0:0:0:0:
192,192,75788,1,8,0:0:0:0:
320,192,75788,1,0,0:0:0:0:
64,192,76136,1,2,0:0:0:0:
192,192,76311,1,0,0:0:0:0:
320,192,76485,1,8,0:0:0:0:
448,192,76485,1,0,0:0:0:0:
64,192,76660,1,0,0:0:0:0:
192,192,76834,1,0,0:0:0:0:
448,192,77008,1,0,0:0:0:0:
64,192,77183,1,8,0:0:0:0:
320,192,77183,1,0,0:0:0:0:
448,192,77532,1,2,0:0:0:0:
320,192,77706,1,0,0:0:0:0:
64,192,77881,1,8,0:0:0:0:
192,192,77881,1,0,0:0:0:0:
448,192,78055,1,0,0:0:0:0:
320,192,78229,1,0,0:0:0:0:
64,192,78404,1,0,0:0:0:0:
192,192,78578,1,8,0:0:0:0:
448,192,78578,1,0,0:0:0:0:
64,192,78927,1,2,0:0:0:0:
320,192,79101,1,0,0:0:0:0:
192,192,79276,1,8,0:0:0:0:
448,192,79276,1,0,0:0:0:0:
64,192,79450,1,2,0:0:0:0:
448,192,79625,1,2,0:0:0:0:
320,192,79799,1,0,0:0:0:0:
64,192,79974,1,8,0:0:0:0:
192,192,79974,1,0,0:0:0:0:
64,192,80322,1,2,0:0:0:0:
192,192,80497,1,0,0:0:0:0:
320,192,80671,1,8,0:0:0:0:
448,192,80671,1,0,0:0:0:0:
64,192,80846,1,2,0:0:0:0:
192,192,81020,1,2,0:0:0:0:
448,192,81194,1,0,0:0:0:0:
64,192,81369,1,8,0:0:0:0:
320,192,81369,1,0,0:0:0:0:
192,192,81718,1,2,0:0:0:0:
320,192,81892,1,0,0:0:0:0:
64,192,82067,1,8,0:0:0:0:
448,192,82067,1,0,0:0:0:0:
192,192,82241,1,2,0:0:0:0:
320,192,82415,1,2,0:0:0:0:
64,192,82590,1,0,0:0:0:0:
192,192,82764,1,8,0:0:0:0:
448,192,82764,1,0,0:0:0:0:
320,192,83113,1,2,0:0:0:0:
64,192,83288,1,0,0:0:0:0:
192,192,83462,1,8,0:0:0:0:
448,192,83462,1,0,0:0:0:0:
320,192,83636,1,2,0:0:0:0:
64,192,83811,1,2,0:0:0:0:
448,192,83985,1,0,0:0:0:0:
192,192,84160,1,8,0:0:0:0:
320,192,84160,1,0,0:0:0:0:
448,192,84508,1,2,0:0:0:0:
320,192,84683,1,2,0:0:0:0:
192,192,84857,1,2,0:0:0:0:
448,192,85032,1,2,0:0:0:0:
64,192,85206,1,2,0:0:0:0:
192,192,85381,1,2,0:0:0:0:
320,192,85555,1,2,0:0:0:0:
64,192,85729,1,2,0:0:0:0:
448,192,85904,1,2,0:0:0:0:
320,192,86078,1,2,0:0:0:0:
192,192,86253,1,2,0:0:0:0:
448,192,86427,1,2,0:0:0:0:
64,192,86601,1,2,0:0:0:0:
192,192,86776,1,2,0:0:0:0:
320,192,86950,1,2,0:0:0:0:
64,192,87125,1,2,0:0:0:0:
448,192,87299,1,2,0:0:0:0:
448,192,87474,1,2,0:0:0:0:
64,192,87648,1,2,0:0:0:0:
64,192,87822,1,2,0:0:0:0:
448,192,87997,1,2,0:0:0:0:
448,192,88171,1,2,0:0:0:0:
64,192,88346,1,2,0:0:0:0:
64,192,88520,1,2,0:0:0:0:
320,192,88782,1,0,0:0:0:0:
448,192,89043,1,0,0:0:0:0:
320,192,89305,1,0,0:0:0:0:
64,192,89392,128,2,90090:0:0:0:0:
192,192,89567,128,0,90090:0:0:0:0:
448,192,90090,128,2,90439:0:0:0:0:
320,192,90264,1,0,0:0:0:0:
64,192,90439,1,8,0:0:0:0:
192,192,90439,1,0,0:0:0:0:
448,192,90700,1,2,0:0:0:0:
192,192,90962,1,2,0:0:0:0:
64,192,91136,1,8,0:0:0:0:
448,192,91136,128,0,91485:0:0:0:0:
192,192,91485,128,2,91834:0:0:0:0:
320,192,91660,1,0,0:0:0:0:
64,192,91834,1,8,0:0:0:0:
448,192,91834,1,0,0:0:0:0:
192,192,92096,1,2,0:0:0:0:
320,192,92270,1,2,0:0:0:0:
64,192,92357,1,2,0:0:0:0:
320,192,92532,1,8,0:0:0:0:
448,192,92532,1,0,0:0:0:0:
192,192,92706,1,0,0:0:0:0:
448,192,92881,128,2,93229:0:0:0:0:
320,192,93055,1,0,0:0:0:0:
64,192,93229,1,8,0:0:0:0:
192,192,93229,1,0,0:0:0:0:
320,192,93491,1,2,0:0:0:0:
64,192,93753,1,2,0:0:0:0:
192,192,93927,1,8,0:0:0:0:
448,192,93927,128,0,94276:0:0:0:0:
64,192,94189,1,0,0:0:0:0:
192,192,94276,1,2,0:0:0:0:
320,192,94363,1,0,0:0:0:0:
64,192,94625,1,8,0:0:0:0:
448,192,94625,1,0,0:0:0:0:
192,192,94886,1,2,0:0:0:0:
448,192,94974,1,0,0:0:0:0:
64,192,95148,1,0,0:0:0:0:
320,192,95322,1,8,0:0:0:0:
448,192,95322,1,0,0:0:0:0:
192,192,95497,1,0,0:0:0:0:
64,192,95671,128,2,96020:0:0:0:0:
192,192,95846,1,0,0:0:0:0:
320,192,96020,1,8,0:0:0:0:
448,192,96020,1,0,0:0:0:0:
64,192,96282,1,2,0:0:0:0:
320,192,96543,1,2,0:0:0:0:
64,192,96718,1,8,0:0:0:0:
448,192,96718,1,0,0:0:0:0:
320,192,97067,128,2,97415:0:0:0:0:
192,192,97241,1,0,0:0:0:0:
64,192,97415,1,8,0:0:0:0:
448,192,97415,1,0,0:0:0:0:
320,192,97677,1,2,0:0:0:0:
192,192,97851,1,2,0:0:0:0:
448,192,97939,1,2,0:0:0:0:
64,192,98113,1,8,0:0:0:0:
192,192,98113,1,0,0:0:0:0:
320,192,98288,1,0,0:0:0:0:
64,192,98462,128,2,98811:0:0:0:0:
192,192,98636,1,0,0:0:0:0:
320,192,98811,1,8,0:0:0:0:
448,192,98811,1,0,0:0:0:0:
192,192,99072,1,2,0:0:0:0:
448,192,99334,1,2,0:0:0:0:
64,192,99508,128,8,99857:0:0:0:0:
320,192,99508,1,0,0:0:0:0:
448,192,99770,1,0,0:0:0:0:
320,192,99857,1,2,0:0:0:0:
192,192,99944,1,0,0:0:0:0:
64,192,100206,1,8,0:0:0:0:
448,192,100206,1,0,0:0:0:0:
320,192,100468,1,2,0:0:0:0:
64,192,100555,1,2,0:0:0:0:
448,192,100729,1,2,0:0:0:0:
64,192,100904,128,8,101253:0:0:0:0:
192,192,100904,1,0,0:0:0:0:
448,192,101253,128,2,101601:0:0:0:0:
320,192,101427,1,0,0:0:0:0:
64,192,101601,1,8,0:0:0:0:
192,192,101601,1,0,0:0:0:0:
448,192,101863,1,2,0:0:0:0:
192,192,102125,1,2,0:0:0:0:
64,192,102299,1,8,0:0:0:0:
448,192,102299,128,0,102648:0:0:0:0:
192,192,102648,128,2,102997:0:0:0:0:
320,192,102822,1,0,0:0:0:0:
64,192,102997,1,8,0:0:0:0:
448,192,102997,1,0,0:0:0:0:
192,192,103258,1,2,0:0:0:0:
320,192,103433,1,2,0:0:0:0:
64,192,103520,1,2,0:0:0:0:
320,192,103694,1,8,0:0:0:0:
448,192,103694,1,0,0:0:0:0:
192,192,103869,1,0,0:0:0:0:
448,192,104043,128,2,104392:0:0:0:0:
320,192,104218,1,0,0:0:0:0:
64,192,104392,1,8,0:0:0:0:
192,192,104392,1,0,0:0:0:0:
320,192,104654,1,2,0:0:0:0:
64,192,104915,1,2,0:0:0:0:
192,192,105090,1,8,0:0:0:0:
448,192,105090,128,0,105439:0:0:0:0:
64,192,105351,1,0,0:0:0:0:
192,192,105439,1,2,0:0:0:0:
320,192,105526,1,0,0:0:0:0:
64,192,105788,1,8,0:0:0:0:
448,192,105788,1,0,0:0:0:0:
192,192,106049,1,2,0:0:0:0:
448,192,106224,1,2,0:0:0:0:
64,192,106311,1,2,0:0:0:0:
320,192,106485,1,8,0:0:0:0:
448,192,106485,1,0,0:0:0:0:
192,192,106660,1,0,0:0:0:0:
64,192,106834,128,2,107183:0:0:0:0:
192,192,107008,1,0,0:0:0:0:
320,192,107183,1,8,0:0:0:0:
448,192,107183,1,0,0:0:0:0:
64,192,107444,1,2,0:0:0:0:
192,192,107532,1,0,0:0:0:0:
320,192,107706,1,2,0:0:0:0:
64,192,107881,1,8,0:0:0:0:
448,192,107881,1,0,0:0:0:0:
192,192,108055,1,0,0:0:0:0:
320,192,108229,128,2,108578:0:0:0:0:
192,192,108404,1,0,0:0:0:0:
64,192,108578,1,8,0:0:0:0:
448,192,108578,1,0,0:0:0:0:
320,192,108840,1,2,0:0:0:0:
192,192,109014,1,2,0:0:0:0:
448,192,109101,1,2,0:0:0:0:
64,192,109276,1,8,0:0:0:0:
192,192,109276,1,0,0:0:0:0:
320,192,109450,1,0,0:0:0:0:
64,192,109625,128,2,109974:0:0:0:0:
192,192,109799,1,0,0:0:0:0:
320,192,109974,1,8,0:0:0:0:
448,192,109974,1,0,0:0:0:0:
192,192,110235,1,2,0:0:0:0:
320,192,110497,1,2,0:0:0:0:
192,192,110671,1,8,0:0:0:0:
448,192,110671,1,0,0:0:0:0:
64,192,110933,1,0,0:0:0:0:
192,192,111020,1,2,0:0:0:0:
320,192,111107,1,0,0:0:0:0:
64,192,111369,1,8,0:0:0:0:
448,192,111369,1,0,0:0:0:0:
320,192,111631,1,2,0:0:0:0:
64,192,111718,1,2,0:0:0:0:
448,192,111892,1,2,0:0:0:0:
64,192,112067,1,8,0:0:0:0:
192,192,112067,1,0,0:0:0:0:
448,192,112241,1,0,0:0:0:0:
192,192,112415,1,2,0:0:0:0:
320,192,112590,1,0,0:0:0:0:
64,192,112764,1,8,0:0:0:0:
448,192,112764,1,0,0:0:0:0:
192,192,112939,1,0,0:0:0:0:
320,192,113113,1,0,0:0:0:0:
64,192,113288,1,2,0:0:0:0:
320,192,113462,1,8,0:0:0:0:
448,192,113462,1,0,0:0:0:0:
64,192,113811,1,2,0:0:0:0:
192,192,113985,1,0,0:0:0:0:
320,192,114160,1,8,0:0:0:0:
448,192,114160,1,0,0:0:0:0:
64,192,114334,1,0,0:0:0:0:
192,192,114508,1,0,0:0:0:0:
320,192,114683,1,2,0:0:0:0:
64,192,114857,1,8,0:0:0:0:
448,192,114857,1,0,0:0:0:0:
320,192,115206,1,2,0:0:0:0:
192,192,115381,1,0,0:0:0:0:
64,192,115555,1,8,0:0:0:0:
448,192,115555,1,0,0:0:0:0:
320,192,115729,1,0,0:0:0:0:
192,192,115904,1,0,0:0:0:0:
64,192,116078,1,2,0:0:0:0:
320,192,116253,1,8,0:0:0:0:
448,192,116253,1,0,0:0:0:0:
320,192,116601,1,2,0:0:0:0:
448,192,116776,1,0,0:0:0:0:
64,192,116950,1,8,0:0:0:0:
192,192,116950,1,0,0:0:0:0:
320,192,117125,1,0,0:0:0:0:
448,192,117299,1,0,0:0:0:0:
64,192,117474,1,0,0:0:0:0:
192,192,117648,1,8,0:0:0:0:
448,192,117648,1,0,0:0:0:0:
320,192,117997,1,2,0:0:0:0:
192,192,118171,1,0,0:0:0:0:
64,192,118346,1,8,0:0:0:0:
448,192,118346,1,0,0:0:0:0:
320,192,118520,1,0,0:0:0:0:
192,192,118694,1,0,0:0:0:0:
448,192,118869,1,2,0:0:0:0:
64,192,119043,1,8,0:0:0:0:
320,192,119043,1,0,0:0:0:0:
192,192,119392,1,2,0:0:0:0:
448,192,119567,1,0,0:0:0:0:
64,192,119741,1,8,0:0:0:0:
192,192,119741,1,0,0:0:0:0:
320,192,119915,1,0,0:0:0:0:
448,192,120090,1,0,0:0:0:0:
64,192,120264,1,2,0:0:0:0:
192,192,120439,1,8,0:0:0:0:
320,192,120439,1,0,0:0:0:0:
448,192,120788,1,2,0:0:0:0:
320,192,120962,1,0,0:0:0:0:
64,192,121136,1,8,0:0:0:0:
192,192,121136,1,0,0:0:0:0:
448,192,121311,1,0,0:0:0:0:
320,192,121485,1,0,0:0:0:0:
192,192,121660,1,2,0:0:0:0:
64,192,121834,1,8,0:0:0:0:
448,192,121834,1,0,0:0:0:0:
192,192,122183,1,2,0:0:0:0:
320,192,122357,1,0,0:0:0:0:
64,192,122532,1,8,0:0:0:0:
448,192,122532,1,0,0:0:0:0:
192,192,122706,1,0,0:0:0:0:
320,192,122881,1,0,0:0:0:0:
448,192,123055,1,2,0:0:0:0:
64,192,123229,1,8,0:0:0:0:
192,192,123229,1,0,0:0:0:0:
448,192,123578,1,2,0:0:0:0:
192,192,123753,1,0,0:0:0:0:
64,192,123927,1,8,0:0:0:0:
448,192,123927,1,0,0:0:0:0:
320,192,124101,1,0,0:0:0:0:
192,192,124276,1,0,0:0:0:0:
64,192,124450,1,2,0:0:0:0:
320,192,124625,1,8,0:0:0:0:
448,192,124625,1,0,0:0:0:0:
64,192,124974,1,2,0:0:0:0:
192,192,125148,1,0,0:0:0:0:
320,192,125322,1,8,0:0:0:0:
448,192,125322,1,0,0:0:0:0:
64,192,125497,1,0,0:0:0:0:
320,192,125671,1,0,0:0:0:0:
192,192,125846,1,2,0:0:0:0:
64,192,126020,1,8,0:0:0:0:
448,192,126020,1,0,0:0:0:0:
320,192,126369,1,2,0:0:0:0:
192,192,126543,1,0,0:0:0:0:
64,192,126718,1,8,0:0:0:0:
448,192,126718,1,0,0:0:0:0:
320,192,126892,1,0,0:0:0:0:
192,192,127067,1,0,0:0:0:0:
64,192,127241,1,2,0:0:0:0:
320,192,127415,1,8,0:0:0:0:
448,192,127415,1,0,0:0:0:0:
448,192,127764,1,2,0:0:0:0:
320,192,127939,1,0,0:0:0:0:
64,192,128113,1,8,0:0:0:0:
192,192,128113,1,0,0:0:0:0:
448,192,128288,1,0,0:0:0:0:
320,192,128462,1,0,0:0:0:0:
64,192,128636,1,2,0:0:0:0:
192,192,128811,1,8,0:0:0:0:
448,192,128811,1,0,0:0:0:0:
320,192,129160,1,2,0:0:0:0:
192,192,129334,1,0,0:0:0:0:
64,192,129508,1,8,0:0:0:0:
448,192,129508,1,0,0:0:0:0:
320,192,129683,1,0,0:0:0:0:
192,192,129857,1,0,0:0:0:0:
448,192,130032,1,2,0:0:0:0:
64,192,130206,1,8,0:0:0:0:
320,192,130206,1,0,0:0:0:0:
192,192,130555,1,2,0:0:0:0:
448,192,130729,1,0,0:0:0:0:
64,192,130904,1,8,0:0:0:0:
192,192,130904,1,0,0:0:0:0:
320,192,131078,1,0,0:0:0:0:
448,192,131253,1,0,0:0:0:0:
64,192,131427,1,2,0:0:0:0:
192,192,131601,1,8,0:0:0:0:
320,192,131601,1,0,0:0:0:0:
448,192,131950,1,2,0:0:0:0:
320,192,132125,1,0,0:0:0:0:
64,192,132299,1,8,0:0:0:0:
192,192,132299,1,0,0:0:0:0:
448,192,132474,1,0,0:0:0:0:
320,192,132648,1,0,0:0:0:0:
192,192,132822,1,2,0:0:0:0:
64,192,132997,1,8,0:0:0:0:
448,192,132997,1,0,0:0:0:0:
192,192,133346,1,2,0:0:0:0:
320,192,133520,1,0,0:0:0:0:
64,192,133694,1,8,0:0:0:0:
448,192,133694,1,0,0:0:0:0:
192,192,133869,1,0,0:0:0:0:
320,192,134043,1,0,0:0:0:0:
448,192,134218,1,2,0:0:0:0:
64,192,134392,1,8,0:0:0:0:
192,192,134392,1,0,0:0:0:0:
320,192,134567,1,0,0:0:0:0:
448,192,134654,1,0,0:0:0:0:
