osu file format v14

[General]
AudioFilename: audio.mp3
AudioLeadIn: 0
PreviewTime: 44043
Countdown: 0
SampleSet: Soft
StackLeniency: 0.7
Mode: 3
LetterboxInBreaks: 0
SpecialStyle: 0
WidescreenStoryboard: 1

[Editor]
Bookmarks: 788,11950,23113,34276,45439,67764,78927,90090,112415,134741
DistanceSpacing: 0.9
BeatDivisor: 12
GridSize: 8
TimelineZoom: 3.499999

[Metadata]
Title:Aulture
TitleUnicode:Aulture
Artist:Silentroom
ArtistUnicode:Silentroom
Creator:Geo_ooo
Version:Hard
Source:Lanota
Tags:Neurofunk Jack Dump Famoss Memory Waves Electronic Neurostep Feylos Ampharos Noxy Games inc Ritmo's Secret Library Chapter ∞ SLRM-0002 mobile rhythm game
BeatmapID:3189126
BeatmapSetID:1561522

[Difficulty]
HPDrainRate:7.5
CircleSize:4
OverallDifficulty:8
ApproachRate:5
SliderMultiplier:1.4
SliderTickRate:1

[Events]
//Background and Video events
0,0,"TkvYGSj-min.png",0,0
//Break Periods
//Storyboard Layer 0 (Background)
//Storyboard Layer 1 (Fail)
//Storyboard Layer 2 (Pass)
//Storyboard Layer 3 (Foreground)
//Storyboard Layer 4 (Overlay)
//Storyboard Sound Samples
Sample,13346,0,"LR_J Hit Edge F.wav",50
Sample,16136,0,"LR_J Hit Edge F.wav",50
Sample,18927,0,"LR_J Hit Edge F.wav",50
Sample,21892,0,"LR_J Hit Edge F.wav",50

[TimingPoints]
788,348.837209302326,4,2,1,30,1,0
23113,-100,4,2,1,40,0,0
34276,-100,4,2,1,45,0,0
45439,-100,4,2,1,50,0,1
67067,-100,4,2,1,45,0,0
90090,-100,4,2,1,50,0,1
112415,-100,4,2,1,45,0,0

[HitObjects]
64,192,788,5,2,0:0:0:0:
192,192,788,1,0,0:0:0:0:
448,192,962,1,0,0:0:0:0:
192,192,1049,1,0,0:0:0:0:
64,192,1136,1,0,0:0:0:50:Drum_Rim.wav
320,192,1224,1,0,0:0:0:0:
448,192,1311,1,2,0:0:0:0:
64,192,1485,1,0,0:0:0:50:LR_J Hit Edge F.wav
320,192,1660,1,2,0:0:0:0:
192,192,1834,1,0,0:0:0:50:Drum_Rim.wav
320,192,1921,1,0,0:0:0:0:
448,192,2008,1,0,0:0:0:0:
64,192,2183,1,0,0:0:0:50:LR_J Hit Edge F.wav
320,192,2270,1,0,0:0:0:0:
192,192,2357,1,2,0:0:0:0:
448,192,2532,1,0,0:0:0:50:Drum_Rim.wav
64,192,2619,1,0,0:0:0:0:
192,192,2706,1,2,0:0:0:0:
320,192,2881,1,0,0:0:0:50:LR_J Hit Edge F.wav
448,192,3229,1,0,0:0:0:70:LR_J Hit Drum_Reverb.wav
192,192,3404,1,0,0:0:0:0:
64,192,3491,1,0,0:0:0:0:
320,192,3578,1,2,0:0:0:0:
448,192,3578,1,0,0:0:0:0:
192,192,3753,1,0,0:0:0:0:
320,192,3840,1,0,0:0:0:0:
64,192,3927,1,0,0:0:0:50:Drum_Rim.wav
448,192,4101,1,2,0:0:0:0:
320,192,4189,1,0,0:0:0:0:
64,192,4276,1,0,0:0:0:50:LR_J Hit Edge F.wav
448,192,4450,1,2,0:0:0:0:
64,192,4625,1,0,0:0:0:50:Drum_Rim.wav
192,192,4712,1,0,0:0:0:0:
320,192,4799,1,0,0:0:0:0:
64,192,4886,1,0,0:0:0:0:
448,192,4974,1,0,0:0:0:50:LR_J Hit Edge F.wav
192,192,5061,1,0,0:0:0:0:
320,192,5148,1,2,0:0:0:0:
448,192,5235,1,0,0:0:0:0:
64,192,5322,1,0,0:0:0:50:Drum_Rim.wav
320,192,5410,1,0,0:0:0:0:
192,192,5497,1,2,0:0:0:0:
448,192,5671,1,0,0:0:0:50:LR_J Hit Edge F.wav
192,192,5846,1,0,0:0:0:0:
64,192,6020,1,0,0:0:0:70:LR_J Hit Drum_Reverb.wav
320,192,6194,1,0,0:0:0:0:
448,192,6282,1,0,0:0:0:0:
64,192,6369,1,2,0:0:0:0:
192,192,6369,1,0,0:0:0:0:
320,192,6543,1,0,0:0:0:0:
192,192,6631,1,0,0:0:0:0:
448,192,6718,1,0,0:0:0:50:Drum_Rim.wav
64,192,6805,1,0,0:0:0:0:
192,192,6892,1,2,0:0:0:0:
320,192,7067,1,0,0:0:0:50:LR_J Hit Edge F.wav
64,192,7241,1,2,0:0:0:0:
448,192,7415,1,0,0:0:0:50:Drum_Rim.wav
320,192,7503,1,0,0:0:0:0:
192,192,7590,1,0,0:0:0:0:
64,192,7764,1,0,0:0:0:50:LR_J Hit Edge F.wav
192,192,7851,1,0,0:0:0:0:
448,192,7939,1,2,0:0:0:0:
64,192,8113,1,0,0:0:0:50:Drum_Rim.wav
320,192,8200,1,0,0:0:0:0:
448,192,8288,1,2,0:0:0:0:
192,192,8462,1,0,0:0:0:50:LR_J Hit Edge F.wav
448,192,8811,1,0,0:0:0:70:LR_J Hit Drum_Reverb.wav
192,192,8985,1,0,0:0:0:0:
64,192,9072,1,0,0:0:0:0:
320,192,9160,1,2,0:0:0:0:
448,192,9160,1,0,0:0:0:0:
64,192,9334,1,0,0:0:0:0:
192,192,9421,1,0,0:0:0:0:
448,192,9508,1,0,0:0:0:50:Drum_Rim.wav
320,192,9683,1,2,0:0:0:0:
192,192,9770,1,0,0:0:0:0:
448,192,9857,1,0,0:0:0:50:LR_J Hit Edge F.wav
64,192,10032,1,2,0:0:0:0:
320,192,10206,1,0,0:0:0:50:Drum_Rim.wav
192,192,10293,1,0,0:0:0:0:
64,192,10381,1,0,0:0:0:0:
448,192,10468,1,0,0:0:0:0:
192,192,10555,1,0,0:0:0:50:LR_J Hit Edge F.wav
320,192,10642,1,0,0:0:0:0:
64,192,10729,1,2,0:0:0:0:
192,192,10817,1,0,0:0:0:0:
448,192,10904,1,0,0:0:0:50:Drum_Rim.wav
320,192,10991,1,0,0:0:0:0:
192,192,11078,1,2,0:0:0:0:
64,192,11253,1,0,0:0:0:50:LR_J Hit Edge F.wav
320,192,11427,1,0,0:0:0:0:
192,192,11601,1,0,0:0:0:70:LR_J Hit Drum_Reverb.wav
448,192,11776,1,0,0:0:0:0:
320,192,11863,1,0,0:0:0:0:
64,192,11950,128,2,14131:0:0:0:0:
192,192,11950,1,0,0:0:0:0:
448,192,12125,1,0,0:0:0:0:
192,192,12212,1,0,0:0:0:0:
320,192,12299,1,8,0:0:0:0:
448,192,12474,1,2,0:0:0:0:
320,192,12648,1,0,0:0:0:50:LR_J Hit Edge F.wav
192,192,12822,1,2,0:0:0:0:
448,192,12997,1,8,0:0:0:0:
320,192,13084,1,2,0:0:0:0:
192,192,13346,1,2,0:0:0:0:
320,192,13520,1,2,0:0:0:0:
192,192,13607,1,0,0:0:0:0:
448,192,13694,1,8,0:0:0:0:
192,192,13869,1,2,0:0:0:0:
448,192,14043,1,0,0:0:0:50:LR_J Hit Edge F.wav
320,192,14131,1,2,0:0:0:0:
320,192,14392,1,8,0:0:0:0:
192,192,14479,1,2,0:0:0:0:
64,192,14741,1,2,0:0:0:0:
448,192,14741,1,0,0:0:0:0:
320,192,14915,1,0,0:0:0:0:
192,192,15003,1,0,0:0:0:0:
448,192,15090,1,8,0:0:0:0:
64,192,15264,1,2,0:0:0:0:
320,192,15439,1,0,0:0:0:50:LR_J Hit Edge F.wav
64,192,15613,1,2,0:0:0:0:
192,192,15788,1,8,0:0:0:0:
448,192,15875,1,2,0:0:0:0:
320,192,16136,1,2,0:0:0:0:
64,192,16311,1,2,0:0:0:0:
192,192,16398,1,0,0:0:0:0:
448,192,16485,1,8,0:0:0:0:
320,192,16660,1,2,0:0:0:0:
448,192,16834,1,0,0:0:0:50:LR_J Hit Edge F.wav
64,192,16921,1,2,0:0:0:0:
320,192,17183,1,8,0:0:0:0:
192,192,17270,1,2,0:0:0:0:
64,192,17444,1,0,0:0:0:0:
320,192,17532,1,2,0:0:0:0:
448,192,17532,128,0,19712:0:0:0:0:
64,192,17706,1,0,0:0:0:0:
192,192,17793,1,0,0:0:0:0:
320,192,17881,1,8,0:0:0:0:
192,192,18055,1,2,0:0:0:0:
320,192,18229,1,0,0:0:0:50:LR_J Hit Edge F.wav
64,192,18404,1,2,0:0:0:0:
320,192,18578,1,8,0:0:0:0:
192,192,18665,1,2,0:0:0:0:
64,192,18927,1,2,0:0:0:0:
192,192,19101,1,2,0:0:0:0:
64,192,19189,1,0,0:0:0:0:
320,192,19276,1,8,0:0:0:0:
192,192,19450,1,2,0:0:0:0:
320,192,19625,1,0,0:0:0:50:LR_J Hit Edge F.wav
192,192,19712,1,2,0:0:0:0:
64,192,19799,1,0,0:0:0:0:
320,192,19974,1,8,0:0:0:0:
192,192,20061,1,2,0:0:0:0:
64,192,20322,1,2,0:0:0:0:
448,192,20322,1,0,0:0:0:0:
320,192,20497,1,0,0:0:0:0:
64,192,20584,1,0,0:0:0:0:
192,192,20671,1,8,0:0:0:0:
448,192,20846,1,2,0:0:0:0:
64,192,21020,1,0,0:0:0:50:LR_J Hit Edge F.wav
320,192,21194,1,2,0:0:0:0:
192,192,21369,1,8,0:0:0:0:
448,192,21456,1,2,0:0:0:0:
320,192,21718,1,2,0:0:0:0:
64,192,21805,1,0,0:0:0:0:
320,192,21892,1,2,0:0:0:0:
64,192,21979,1,0,0:0:0:0:
448,192,22067,1,8,0:0:0:0:
192,192,22154,1,0,0:0:0:0:
448,192,22241,1,2,0:0:0:0:
192,192,22328,1,0,0:0:0:0:
320,192,22415,1,0,0:0:0:50:LR_J Hit Edge F.wav
64,192,22503,1,2,0:0:0:0:
320,192,22590,1,0,0:0:0:0:
64,192,22677,1,0,0:0:0:0:
448,192,22764,1,8,0:0:0:0:
192,192,22851,1,2,0:0:0:0:
448,192,22939,1,0,0:0:0:0:
192,192,23026,1,0,0:0:0:0:
64,192,23113,1,2,0:0:0:0:
320,192,23200,128,0,23317:0:0:0:0:
64,192,23462,1,8,0:0:0:0:
448,192,23462,128,0,23578:0:0:0:0:
192,192,23724,128,0,23840:0:0:0:0:
64,192,23985,128,0,24101:0:0:0:0:
320,192,24160,1,8,0:0:0:0:
448,192,24160,1,0,0:0:0:0:
192,192,24247,1,2,0:0:0:0:
64,192,24334,1,0,0:0:0:0:
448,192,24421,1,0,0:0:0:0:
192,192,24508,1,2,0:0:0:0:
320,192,24596,1,0,0:0:0:0:
448,192,24683,1,0,0:0:0:0:
64,192,24770,1,0,0:0:0:0:
320,192,24857,1,2,0:0:0:0:
192,192,24944,1,0,0:0:0:0:
64,192,25032,1,0,0:0:0:0:
448,192,25119,1,2,0:0:0:0:
64,192,25206,1,8,0:0:0:0:
192,192,25206,1,0,0:0:0:0:
448,192,25381,1,0,0:0:0:0:
64,192,25468,1,2,0:0:0:0:
320,192,25555,1,2,0:0:0:0:
192,192,25642,1,0,0:0:0:0:
64,192,25729,1,0,0:0:0:0:
448,192,25817,1,0,0:0:0:0:
192,192,25904,1,2,0:0:0:0:
320,192,25991,128,0,26107:0:0:0:0:
64,192,26253,128,8,26689:0:0:0:0:
448,192,26253,128,0,26369:0:0:0:0:
192,192,26514,128,0,26631:0:0:0:0:
448,192,26689,1,2,0:0:0:0:
64,192,26776,128,0,26892:0:0:0:0:
320,192,26950,1,8,0:0:0:0:
448,192,26950,1,0,0:0:0:0:
192,192,27038,1,2,0:0:0:0:
64,192,27125,1,0,0:0:0:0:
320,192,27212,1,0,0:0:0:0:
192,192,27299,1,2,0:0:0:0:
448,192,27386,1,0,0:0:0:0:
64,192,27474,1,2,0:0:0:0:
320,192,27561,1,0,0:0:0:0:
448,192,27648,1,2,0:0:0:0:
64,192,27735,1,0,0:0:0:0:
320,192,27822,1,0,0:0:0:0:
192,192,27910,1,2,0:0:0:0:
320,192,27997,1,0,0:0:0:50:LR_J Hit Drum_Reverb.wav
448,192,27997,1,0,0:0:0:0:
64,192,28171,1,0,0:0:0:0:
320,192,28258,1,2,0:0:0:0:
448,192,28346,1,2,0:0:0:0:
192,192,28433,1,0,0:0:0:0:
64,192,28520,1,0,0:0:0:0:
448,192,28607,1,0,0:0:0:0:
192,192,28694,1,2,0:0:0:0:
320,192,28782,128,0,28898:0:0:0:0:
64,192,29043,1,8,0:0:0:0:
448,192,29043,128,0,29160:0:0:0:0:
192,192,29305,128,0,29421:0:0:0:0:
64,192,29567,128,0,29683:0:0:0:0:
320,192,29741,1,8,0:0:0:0:
448,192,29741,1,0,0:0:0:0:
64,192,29828,1,2,0:0:0:0:
448,192,29915,1,0,0:0:0:0:
320,192,30003,1,0,0:0:0:0:
64,192,30090,1,2,0:0:0:0:
192,192,30177,1,0,0:0:0:0:
448,192,30264,1,0,0:0:0:0:
64,192,30351,1,0,0:0:0:0:
320,192,30439,1,2,0:0:0:0:
448,192,30526,1,0,0:0:0:0:
192,192,30613,1,0,0:0:0:0:
320,192,30700,1,2,0:0:0:0:
64,192,30788,1,0,0:0:0:50:LR_J Hit Drum_Reverb.wav
192,192,30788,1,0,0:0:0:0:
448,192,30962,1,0,0:0:0:0:
64,192,31049,1,2,0:0:0:0:
320,192,31136,1,2,0:0:0:0:
192,192,31224,1,0,0:0:0:0:
64,192,31311,1,0,0:0:0:0:
448,192,31398,1,0,0:0:0:0:
192,192,31485,1,2,0:0:0:0:
320,192,31572,128,0,31689:0:0:0:0:
64,192,31834,128,8,32270:0:0:0:0:
448,192,31834,128,0,31950:0:0:0:0:
192,192,32096,128,0,32212:0:0:0:0:
320,192,32270,1,2,0:0:0:0:
64,192,32357,128,0,32474:0:0:0:0:
320,192,32532,1,8,0:0:0:0:
448,192,32532,1,0,0:0:0:0:
64,192,32619,1,2,0:0:0:0:
320,192,32706,1,0,0:0:0:0:
448,192,32793,1,0,0:0:0:0:
64,192,32881,1,2,0:0:0:0:
192,192,32968,1,0,0:0:0:0:
320,192,33055,1,0,0:0:0:0:
64,192,33142,1,0,0:0:0:0:
448,192,33229,1,2,0:0:0:0:
320,192,33317,1,0,0:0:0:0:
192,192,33404,1,0,0:0:0:0:
448,192,33491,1,2,0:0:0:0:
64,192,33578,1,0,0:0:0:50:LR_J Hit Drum_Reverb.wav
320,192,33578,1,0,0:0:0:0:
192,192,33665,1,0,0:0:0:0:
448,192,33753,1,0,0:0:0:0:
64,192,33840,1,2,0:0:0:0:
320,192,33927,128,2,34276:0:0:0:0:
448,192,33927,128,0,34276:0:0:0:0:
192,192,34276,1,2,0:0:0:0:
64,192,34363,1,0,0:0:0:0:
448,192,34450,1,0,0:0:0:0:
320,192,34538,1,2,0:0:0:0:
192,192,34625,1,8,0:0:0:0:
448,192,34625,1,0,0:0:0:0:
64,192,34799,1,2,0:0:0:0:
448,192,34886,1,0,0:0:0:0:
320,192,34974,1,2,0:0:0:0:
192,192,35061,1,0,0:0:0:0:
64,192,35148,1,0,0:0:0:0:
448,192,35235,1,2,0:0:0:0:
64,192,35322,1,8,0:0:0:0:
320,192,35322,1,0,0:0:0:0:
448,192,35497,1,2,0:0:0:0:
64,192,35584,1,0,0:0:0:0:
320,192,35671,1,2,0:0:0:0:
192,192,35758,1,0,0:0:0:0:
448,192,35846,1,0,0:0:0:0:
64,192,35933,1,2,0:0:0:0:
320,192,36020,1,8,0:0:0:0:
448,192,36020,1,0,0:0:0:0:
192,192,36194,1,2,0:0:0:0:
64,192,36282,1,0,0:0:0:0:
320,192,36369,1,2,0:0:0:0:
448,192,36456,1,0,0:0:0:0:
192,192,36543,1,0,0:0:0:0:
320,192,36631,1,2,0:0:0:0:
64,192,36718,1,8,0:0:0:0:
192,192,36718,1,0,0:0:0:0:
448,192,36892,1,2,0:0:0:0:
192,192,36979,1,8,0:0:0:0:
320,192,37067,1,2,0:0:0:0:
448,192,37154,1,0,0:0:0:0:
64,192,37241,1,0,0:0:0:0:
192,192,37328,1,2,0:0:0:0:
64,192,37415,1,8,0:0:0:0:
448,192,37415,1,0,0:0:0:0:
320,192,37590,1,2,0:0:0:0:
448,192,37677,1,0,0:0:0:0:
64,192,37764,1,2,0:0:0:0:
192,192,37851,1,0,0:0:0:0:
320,192,37939,1,0,0:0:0:0:
64,192,38026,1,2,0:0:0:0:
320,192,38113,1,8,0:0:0:0:
448,192,38113,1,0,0:0:0:0:
192,192,38288,1,2,0:0:0:0:
320,192,38375,1,0,0:0:0:0:
64,192,38462,1,2,0:0:0:0:
192,192,38549,1,0,0:0:0:0:
448,192,38636,1,0,0:0:0:0:
320,192,38724,1,2,0:0:0:0:
64,192,38811,1,8,0:0:0:0:
448,192,38811,1,0,0:0:0:0:
192,192,38985,1,2,0:0:0:0:
64,192,39072,1,0,0:0:0:0:
320,192,39160,1,2,0:0:0:0:
192,192,39247,1,0,0:0:0:0:
64,192,39334,1,0,0:0:0:0:
320,192,39421,1,2,0:0:0:0:
64,192,39508,1,8,0:0:0:0:
448,192,39508,1,0,0:0:0:0:
320,192,39683,1,2,0:0:0:0:
192,192,39770,1,8,0:0:0:0:
448,192,39857,1,2,0:0:0:0:
64,192,39944,1,0,0:0:0:0:
448,192,40032,1,2,0:0:0:0:
192,192,40119,1,0,0:0:0:0:
448,192,40206,1,2,0:0:0:0:
448,192,40381,1,2,0:0:0:0:
64,192,40555,1,2,0:0:0:0:
448,192,40642,1,0,0:0:0:0:
64,192,40729,1,2,0:0:0:0:
320,192,40817,1,0,0:0:0:0:
64,192,40904,1,2,0:0:0:0:
64,192,41078,1,2,0:0:0:0:
448,192,41253,1,2,0:0:0:0:
64,192,41340,1,0,0:0:0:0:
448,192,41427,1,2,0:0:0:0:
192,192,41514,1,0,0:0:0:0:
448,192,41601,1,2,0:0:0:0:
448,192,41776,1,2,0:0:0:0:
64,192,41950,1,2,0:0:0:0:
448,192,42038,1,0,0:0:0:0:
64,192,42125,1,2,0:0:0:0:
320,192,42212,1,0,0:0:0:0:
64,192,42299,1,2,0:0:0:0:
64,192,42474,1,2,0:0:0:0:
320,192,42648,1,2,0:0:0:0:
192,192,42735,1,2,0:0:0:0:
320,192,42822,1,2,0:0:0:0:
64,192,42910,1,2,0:0:0:0:
320,192,42997,1,2,0:0:0:0:
192,192,43084,1,2,0:0:0:0:
320,192,43171,1,2,0:0:0:0:
64,192,43258,1,2,0:0:0:0:
192,192,43346,1,2,0:0:0:0:
320,192,43433,1,2,0:0:0:0:
192,192,43520,1,2,0:0:0:0:
448,192,43607,1,2,0:0:0:0:
192,192,43694,1,2,0:0:0:0:
320,192,43782,1,2,0:0:0:0:
192,192,43869,1,2,0:0:0:0:
448,192,43956,1,2,0:0:0:0:
320,192,44131,128,0,44247:0:0:0:0:
448,192,44392,128,0,44508:0:0:0:0:
192,192,44654,128,0,44770:0:0:0:0:
64,192,44915,128,0,45032:0:0:0:0:
320,192,45439,1,2,0:0:0:0:
192,192,45526,1,0,0:0:0:0:
448,192,45613,1,0,0:0:0:0:
320,192,45700,1,0,0:0:0:0:
64,192,45788,1,8,0:0:0:0:
192,192,45788,1,0,0:0:0:0:
320,192,45962,1,0,0:0:0:0:
192,192,46049,1,2,0:0:0:0:
64,192,46224,1,0,0:0:0:0:
448,192,46311,1,2,0:0:0:0:
64,192,46485,1,8,0:0:0:0:
192,192,46485,1,0,0:0:0:0:
320,192,46555,1,0,0:0:0:0:
448,192,46625,1,0,0:0:0:0:
64,192,46694,1,0,0:0:0:0:
320,192,46834,1,2,0:0:0:0:
448,192,46921,1,0,0:0:0:0:
192,192,47008,1,0,0:0:0:0:
320,192,47096,1,0,0:0:0:0:
64,192,47183,1,8,0:0:0:0:
448,192,47183,1,0,0:0:0:0:
320,192,47357,1,0,0:0:0:0:
192,192,47444,1,2,0:0:0:0:
192,192,47619,1,2,0:0:0:0:
320,192,47706,1,2,0:0:0:0:
64,192,47881,1,8,0:0:0:0:
448,192,47881,1,0,0:0:0:0:
192,192,48055,1,0,0:0:0:0:
320,192,48229,1,2,0:0:0:0:
192,192,48317,1,0,0:0:0:0:
448,192,48404,1,0,0:0:0:0:
320,192,48491,1,0,0:0:0:0:
64,192,48578,1,8,0:0:0:0:
192,192,48578,1,0,0:0:0:0:
320,192,48753,1,0,0:0:0:0:
192,192,48840,1,2,0:0:0:0:
64,192,49014,1,0,0:0:0:0:
448,192,49101,1,2,0:0:0:0:
64,192,49276,1,8,0:0:0:0:
192,192,49276,1,0,0:0:0:0:
320,192,49346,1,0,0:0:0:0:
448,192,49415,1,0,0:0:0:0:
64,192,49538,1,0,0:0:0:0:
320,192,49625,1,2,0:0:0:0:
192,192,49712,1,0,0:0:0:0:
64,192,49974,1,8,0:0:0:0:
448,192,49974,1,0,0:0:0:0:
192,192,50148,1,0,0:0:0:0:
320,192,50235,1,2,0:0:0:0:
320,192,50410,1,2,0:0:0:0:
192,192,50497,1,2,0:0:0:0:
64,192,50671,1,8,0:0:0:0:
448,192,50671,1,0,0:0:0:0:
320,192,50846,1,0,0:0:0:0:
192,192,51020,1,2,0:0:0:0:
320,192,51107,1,0,0:0:0:0:
64,192,51194,1,0,0:0:0:0:
192,192,51282,1,0,0:0:0:0:
320,192,51369,1,8,0:0:0:0:
448,192,51369,1,0,0:0:0:0:
192,192,51543,1,0,0:0:0:0:
320,192,51631,1,2,0:0:0:0:
448,192,51805,1,0,0:0:0:0:
64,192,51892,1,2,0:0:0:0:
320,192,52067,1,8,0:0:0:0:
448,192,52067,1,0,0:0:0:0:
192,192,52136,1,0,0:0:0:0:
64,192,52206,1,0,0:0:0:0:
448,192,52276,1,0,0:0:0:0:
192,192,52415,1,2,0:0:0:0:
64,192,52503,1,0,0:0:0:0:
320,192,52590,1,0,0:0:0:0:
192,192,52677,1,0,0:0:0:0:
64,192,52764,1,8,0:0:0:0:
448,192,52764,1,0,0:0:0:0:
192,192,52939,1,0,0:0:0:0:
320,192,53026,1,2,0:0:0:0:
320,192,53200,1,2,0:0:0:0:
192,192,53288,1,2,0:0:0:0:
64,192,53462,1,8,0:0:0:0:
448,192,53462,1,0,0:0:0:0:
320,192,53636,1,0,0:0:0:0:
192,192,53811,1,2,0:0:0:0:
320,192,53898,1,0,0:0:0:0:
64,192,53985,1,0,0:0:0:0:
192,192,54072,1,0,0:0:0:0:
320,192,54160,1,8,0:0:0:0:
448,192,54160,1,0,0:0:0:0:
192,192,54334,1,0,0:0:0:0:
320,192,54421,1,2,0:0:0:0:
448,192,54596,1,2,0:0:0:0:
64,192,54683,1,2,0:0:0:0:
320,192,54857,1,8,0:0:0:0:
448,192,54857,1,0,0:0:0:0:
192,192,54927,1,0,0:0:0:0:
64,192,54997,1,0,0:0:0:0:
448,192,55119,1,0,0:0:0:0:
192,192,55206,1,2,0:0:0:0:
320,192,55293,1,0,0:0:0:0:
64,192,55555,1,8,0:0:0:0:
448,192,55555,1,0,0:0:0:0:
320,192,55729,1,0,0:0:0:0:
192,192,55817,1,2,0:0:0:0:
64,192,55904,1,2,0:0:0:0:
448,192,55991,1,2,0:0:0:0:
192,192,56078,1,2,0:0:0:0:
64,192,56253,1,8,0:0:0:0:
448,192,56253,1,0,0:0:0:0:
192,192,56340,1,0,0:0:0:0:
320,192,56427,1,0,0:0:0:0:
448,192,56485,1,0,0:0:0:0:
192,192,56601,1,2,0:0:0:0:
320,192,56689,1,0,0:0:0:0:
64,192,56776,1,0,0:0:0:0:
192,192,56863,1,0,0:0:0:0:
320,192,56950,1,8,0:0:0:0:
448,192,56950,1,0,0:0:0:0:
192,192,57125,1,0,0:0:0:0:
320,192,57212,1,2,0:0:0:0:
448,192,57386,1,0,0:0:0:0:
64,192,57474,1,2,0:0:0:0:
320,192,57648,1,8,0:0:0:0:
448,192,57648,1,0,0:0:0:0:
192,192,57718,1,0,0:0:0:0:
64,192,57788,1,0,0:0:0:0:
448,192,57857,1,0,0:0:0:0:
192,192,57997,1,2,0:0:0:0:
64,192,58084,1,0,0:0:0:0:
320,192,58171,1,0,0:0:0:0:
192,192,58258,1,0,0:0:0:0:
64,192,58346,1,8,0:0:0:0:
448,192,58346,1,0,0:0:0:0:
192,192,58520,1,0,0:0:0:0:
320,192,58607,1,2,0:0:0:0:
320,192,58782,1,2,0:0:0:0:
192,192,58869,1,2,0:0:0:0:
64,192,59043,1,8,0:0:0:0:
448,192,59043,1,0,0:0:0:0:
320,192,59218,1,0,0:0:0:0:
192,192,59392,1,2,0:0:0:0:
320,192,59479,1,0,0:0:0:0:
64,192,59567,1,0,0:0:0:0:
192,192,59654,1,0,0:0:0:0:
320,192,59741,1,8,0:0:0:0:
448,192,59741,1,0,0:0:0:0:
192,192,59915,1,0,0:0:0:0:
320,192,60003,1,2,0:0:0:0:
448,192,60177,1,0,0:0:0:0:
64,192,60264,1,2,0:0:0:0:
320,192,60439,1,8,0:0:0:0:
448,192,60439,1,0,0:0:0:0:
192,192,60508,1,0,0:0:0:0:
64,192,60578,1,0,0:0:0:0:
448,192,60700,1,0,0:0:0:0:
192,192,60788,1,2,0:0:0:0:
320,192,60875,1,0,0:0:0:0:
64,192,61136,1,8,0:0:0:0:
448,192,61136,1,0,0:0:0:0:
320,192,61311,1,0,0:0:0:0:
192,192,61398,1,2,0:0:0:0:
192,192,61572,1,2,0:0:0:0:
320,192,61660,1,2,0:0:0:0:
64,192,61834,1,8,0:0:0:0:
448,192,61834,1,0,0:0:0:0:
192,192,62008,1,0,0:0:0:0:
320,192,62183,1,2,0:0:0:0:
192,192,62270,1,0,0:0:0:0:
448,192,62357,1,0,0:0:0:0:
320,192,62444,1,0,0:0:0:0:
64,192,62532,1,8,0:0:0:0:
192,192,62532,1,0,0:0:0:0:
320,192,62706,1,0,0:0:0:0:
192,192,62793,1,2,0:0:0:0:
64,192,62968,1,0,0:0:0:0:
448,192,63055,1,2,0:0:0:0:
64,192,63229,1,8,0:0:0:0:
192,192,63229,1,0,0:0:0:0:
320,192,63299,1,0,0:0:0:0:
448,192,63369,1,0,0:0:0:0:
64,192,63439,1,0,0:0:0:0:
320,192,63578,1,2,0:0:0:0:
448,192,63665,1,0,0:0:0:0:
192,192,63753,1,0,0:0:0:0:
320,192,63840,1,0,0:0:0:0:
64,192,63927,1,8,0:0:0:0:
448,192,63927,1,0,0:0:0:0:
320,192,64101,1,0,0:0:0:0:
192,192,64189,1,2,0:0:0:0:
192,192,64363,1,2,0:0:0:0:
320,192,64450,1,2,0:0:0:0:
64,192,64625,1,8,0:0:0:0:
448,192,64625,1,0,0:0:0:0:
192,192,64799,1,0,0:0:0:0:
320,192,64974,1,2,0:0:0:0:
192,192,65061,1,0,0:0:0:0:
448,192,65148,1,0,0:0:0:0:
320,192,65235,1,0,0:0:0:0:
64,192,65322,1,8,0:0:0:0:
192,192,65322,1,0,0:0:0:0:
320,192,65497,1,0,0:0:0:0:
192,192,65584,1,2,0:0:0:0:
64,192,65758,1,2,0:0:0:0:
448,192,65846,1,2,0:0:0:0:
64,192,66020,1,8,0:0:0:0:
192,192,66020,1,0,0:0:0:0:
320,192,66090,1,0,0:0:0:0:
448,192,66160,1,0,0:0:0:0:
64,192,66282,1,0,0:0:0:0:
320,192,66369,1,2,0:0:0:0:
192,192,66456,1,0,0:0:0:0:
64,192,66718,1,8,0:0:0:0:
448,192,66718,1,0,0:0:0:0:
192,192,66892,1,0,0:0:0:0:
320,192,66979,1,2,0:0:0:0:
64,192,67067,1,0,0:0:0:0:
448,192,67183,1,0,0:0:0:0:
192,192,67285,1,0,0:0:0:0:
320,192,67415,1,0,0:0:0:0:
192,192,67503,1,0,0:0:0:0:
64,192,67590,1,0,0:0:0:0:
448,192,67764,1,2,0:0:0:0:
192,192,67851,1,0,0:0:0:0:
320,192,67939,1,0,0:0:0:0:
64,192,68026,1,0,0:0:0:0:
192,192,68113,1,8,0:0:0:0:
448,192,68113,1,0,0:0:0:0:
64,192,68288,1,0,0:0:0:0:
448,192,68375,1,0,0:0:0:0:
192,192,68462,1,0,0:0:0:0:
320,192,68549,1,0,0:0:0:0:
64,192,68636,1,0,0:0:0:0:
192,192,68724,1,0,0:0:0:0:
320,192,68811,1,8,0:0:0:0:
448,192,68811,1,0,0:0:0:0:
64,192,68898,1,2,0:0:0:0:
448,192,68985,1,0,0:0:0:0:
192,192,69072,1,0,0:0:0:0:
320,192,69160,1,2,0:0:0:0:
192,192,69247,1,0,0:0:0:0:
448,192,69334,1,0,0:0:0:0:
320,192,69421,1,0,0:0:0:0:
64,192,69508,1,8,0:0:0:0:
192,192,69508,1,0,0:0:0:0:
448,192,69683,1,0,0:0:0:0:
320,192,69770,1,0,0:0:0:0:
192,192,69857,1,0,0:0:0:0:
448,192,69944,1,2,0:0:0:0:
64,192,70032,1,0,0:0:0:0:
320,192,70119,1,0,0:0:0:0:
192,192,70206,1,8,0:0:0:0:
448,192,70206,1,0,0:0:0:0:
64,192,70293,1,2,0:0:0:0:
320,192,70381,1,0,0:0:0:0:
192,192,70468,1,0,0:0:0:0:
448,192,70555,1,2,0:0:0:0:
320,192,70642,1,0,0:0:0:0:
64,192,70729,1,0,0:0:0:0:
448,192,70817,1,0,0:0:0:0:
64,192,70904,128,8,71340:0:0:0:0:
192,192,70904,1,0,0:0:0:0:
448,192,71165,1,0,0:0:0:0:
64,192,71427,1,0,0:0:0:0:
192,192,71514,1,0,0:0:0:0:
320,192,71601,1,8,0:0:0:0:
448,192,71601,1,0,0:0:0:0:
64,192,71689,1,2,0:0:0:0:
192,192,71776,1,0,0:0:0:0:
448,192,71863,1,0,0:0:0:0:
320,192,71950,1,2,0:0:0:0:
192,192,72038,1,0,0:0:0:0:
448,192,72125,1,0,0:0:0:0:
320,192,72212,1,0,0:0:0:0:
64,192,72299,1,8,0:0:0:0:
192,192,72299,1,0,0:0:0:0:
448,192,72474,1,0,0:0:0:0:
64,192,72561,1,0,0:0:0:0:
192,192,72648,1,0,0:0:0:0:
448,192,72735,1,2,0:0:0:0:
64,192,72822,1,0,0:0:0:0:
320,192,72910,1,0,0:0:0:0:
64,192,72997,1,8,0:0:0:0:
192,192,72997,1,0,0:0:0:0:
448,192,73084,1,2,0:0:0:0:
320,192,73171,1,0,0:0:0:0:
192,192,73258,1,0,0:0:0:0:
64,192,73346,1,2,0:0:0:0:
320,192,73433,1,0,0:0:0:0:
192,192,73520,1,0,0:0:0:0:
448,192,73607,1,0,0:0:0:0:
64,192,73694,1,8,0:0:0:0:
320,192,73694,1,0,0:0:0:0:
448,192,73869,1,0,0:0:0:0:
64,192,73956,1,0,0:0:0:0:
320,192,74043,1,0,0:0:0:0:
192,192,74131,1,0,0:0:0:0:
448,192,74218,1,0,0:0:0:0:
320,192,74305,1,0,0:0:0:0:
64,192,74392,1,8,0:0:0:0:
192,192,74392,1,0,0:0:0:0:
448,192,74479,1,2,0:0:0:0:
64,192,74567,1,0,0:0:0:0:
320,192,74654,1,0,0:0:0:0:
192,192,74741,1,2,0:0:0:0:
320,192,74828,1,0,0:0:0:0:
64,192,74915,1,0,0:0:0:0:
192,192,75003,1,0,0:0:0:0:
320,192,75090,1,8,0:0:0:0:
448,192,75090,1,0,0:0:0:0:
64,192,75264,1,0,0:0:0:0:
192,192,75351,1,0,0:0:0:0:
320,192,75439,1,0,0:0:0:0:
64,192,75526,1,2,0:0:0:0:
448,192,75613,1,0,0:0:0:0:
192,192,75700,1,0,0:0:0:0:
64,192,75788,1,8,0:0:0:0:
320,192,75788,1,0,0:0:0:0:
448,192,75875,1,2,0:0:0:0:
320,192,75962,1,0,0:0:0:0:
64,192,76049,1,0,0:0:0:0:
448,192,76136,1,2,0:0:0:0:
192,192,76224,1,0,0:0:0:0:
320,192,76311,1,0,0:0:0:0:
64,192,76398,1,0,0:0:0:0:
192,192,76485,1,8,0:0:0:0:
448,192,76485,128,0,76921:0:0:0:0:
64,192,76747,1,0,0:0:0:0:
448,192,77008,1,0,0:0:0:0:
320,192,77096,1,0,0:0:0:0:
64,192,77183,1,8,0:0:0:0:
192,192,77183,1,0,0:0:0:0:
448,192,77270,1,2,0:0:0:0:
320,192,77357,1,0,0:0:0:0:
64,192,77444,1,0,0:0:0:0:
192,192,77532,1,2,0:0:0:0:
320,192,77619,1,0,0:0:0:0:
64,192,77706,1,0,0:0:0:0:
192,192,77793,1,0,0:0:0:0:
320,192,77881,1,8,0:0:0:0:
448,192,77881,1,0,0:0:0:0:
64,192,78055,1,0,0:0:0:0:
320,192,78142,1,0,0:0:0:0:
192,192,78229,1,0,0:0:0:0:
64,192,78317,1,2,0:0:0:0:
448,192,78404,1,0,0:0:0:0:
192,192,78491,1,0,0:0:0:0:
320,192,78578,1,8,0:0:0:0:
448,192,78578,1,0,0:0:0:0:
64,192,78665,1,2,0:0:0:0:
320,192,78753,1,0,0:0:0:0:
192,192,78840,1,0,0:0:0:0:
320,192,78927,1,2,0:0:0:0:
448,192,79014,1,0,0:0:0:0:
64,192,79101,1,0,0:0:0:0:
192,192,79189,1,2,0:0:0:0:
64,192,79276,1,8,0:0:0:0:
320,192,79276,1,0,0:0:0:0:
448,192,79450,1,2,0:0:0:0:
64,192,79538,1,0,0:0:0:0:
192,192,79625,1,2,0:0:0:0:
320,192,79712,1,0,0:0:0:0:
448,192,79799,1,0,0:0:0:0:
64,192,79886,1,2,0:0:0:0:
192,192,79974,1,8,0:0:0:0:
448,192,79974,1,0,0:0:0:0:
64,192,80148,1,2,0:0:0:0:
448,192,80235,1,0,0:0:0:0:
192,192,80322,1,2,0:0:0:0:
320,192,80410,1,0,0:0:0:0:
64,192,80497,1,0,0:0:0:0:
448,192,80584,1,2,0:0:0:0:
64,192,80671,1,8,0:0:0:0:
192,192,80671,1,0,0:0:0:0:
320,192,80846,1,2,0:0:0:0:
448,192,80933,1,0,0:0:0:0:
192,192,81020,1,2,0:0:0:0:
64,192,81107,1,0,0:0:0:0:
320,192,81194,1,0,0:0:0:0:
192,192,81282,1,2,0:0:0:0:
320,192,81369,1,8,0:0:0:0:
448,192,81369,1,0,0:0:0:0:
64,192,81543,1,2,0:0:0:0:
320,192,81631,1,8,0:0:0:0:
192,192,81718,1,2,0:0:0:0:
64,192,81805,1,0,0:0:0:0:
448,192,81892,1,0,0:0:0:0:
320,192,81979,1,2,0:0:0:0:
64,192,82067,1,8,0:0:0:0:
448,192,82067,1,0,0:0:0:0:
192,192,82241,1,2,0:0:0:0:
64,192,82328,1,0,0:0:0:0:
448,192,82415,1,2,0:0:0:0:
320,192,82503,1,0,0:0:0:0:
192,192,82590,1,0,0:0:0:0:
448,192,82677,1,2,0:0:0:0:
64,192,82764,1,8,0:0:0:0:
192,192,82764,1,0,0:0:0:0:
320,192,82939,1,2,0:0:0:0:
192,192,83026,1,0,0:0:0:0:
448,192,83113,1,2,0:0:0:0:
320,192,83200,1,0,0:0:0:0:
64,192,83288,1,0,0:0:0:0:
192,192,83375,1,2,0:0:0:0:
64,192,83462,1,8,0:0:0:0:
448,192,83462,1,0,0:0:0:0:
192,192,83636,1,2,0:0:0:0:
448,192,83724,1,0,0:0:0:0:
64,192,83811,1,2,0:0:0:0:
192,192,83898,1,0,0:0:0:0:
320,192,83985,1,0,0:0:0:0:
64,192,84072,1,2,0:0:0:0:
192,192,84160,1,8,0:0:0:0:
320,192,84160,1,0,0:0:0:0:
448,192,84334,1,2,0:0:0:0:
192,192,84421,1,8,0:0:0:0:
64,192,84508,1,2,0:0:0:0:
448,192,84596,1,0,0:0:0:0:
64,192,84683,1,2,0:0:0:0:
320,192,84770,1,0,0:0:0:0:
64,192,84857,1,2,0:0:0:0:
64,192,85032,1,2,0:0:0:0:
448,192,85206,1,2,0:0:0:0:
64,192,85293,1,0,0:0:0:0:
448,192,85381,1,2,0:0:0:0:
192,192,85468,1,0,0:0:0:0:
448,192,85555,1,2,0:0:0:0:
448,192,85729,1,2,0:0:0:0:
64,192,85904,1,2,0:0:0:0:
448,192,85991,1,0,0:0:0:0:
64,192,86078,1,2,0:0:0:0:
320,192,86165,1,0,0:0:0:0:
64,192,86253,1,2,0:0:0:0:
64,192,86427,1,2,0:0:0:0:
448,192,86601,1,2,0:0:0:0:
64,192,86689,1,0,0:0:0:0:
448,192,86776,1,2,0:0:0:0:
192,192,86863,1,0,0:0:0:0:
448,192,86950,1,2,0:0:0:0:
448,192,87125,1,2,0:0:0:0:
192,192,87299,1,2,0:0:0:0:
320,192,87386,1,2,0:0:0:0:
192,192,87474,1,2,0:0:0:0:
448,192,87561,1,2,0:0:0:0:
192,192,87648,1,2,0:0:0:0:
320,192,87735,1,2,0:0:0:0:
192,192,87822,1,2,0:0:0:0:
448,192,87910,1,2,0:0:0:0:
320,192,87997,1,2,0:0:0:0:
192,192,88084,1,2,0:0:0:0:
320,192,88171,1,2,0:0:0:0:
64,192,88258,1,2,0:0:0:0:
320,192,88346,1,2,0:0:0:0:
192,192,88433,1,2,0:0:0:0:
320,192,88520,1,2,0:0:0:0:
64,192,88607,1,2,0:0:0:0:
192,192,88694,1,2,0:0:0:0:
320,192,88782,128,0,88898:0:0:0:0:
448,192,89043,128,0,89160:0:0:0:0:
320,192,89305,128,0,89872:0:0:0:0:
64,192,89392,1,2,0:0:0:0:
192,192,89392,128,0,89654:0:0:0:0:
448,192,89567,128,0,90090:0:0:0:0:
192,192,90090,1,2,0:0:0:0:
320,192,90177,1,0,0:0:0:0:
64,192,90264,1,0,0:0:0:0:
192,192,90351,1,0,0:0:0:0:
320,192,90439,1,8,0:0:0:0:
448,192,90439,1,0,0:0:0:0:
192,192,90613,1,0,0:0:0:0:
320,192,90700,1,2,0:0:0:0:
448,192,90875,1,0,0:0:0:0:
64,192,90962,1,2,0:0:0:0:
320,192,91136,1,8,0:0:0:0:
448,192,91136,1,0,0:0:0:0:
192,192,91206,1,0,0:0:0:0:
64,192,91276,1,0,0:0:0:0:
448,192,91346,1,0,0:0:0:0:
192,192,91485,1,2,0:0:0:0:
64,192,91572,1,0,0:0:0:0:
320,192,91660,1,0,0:0:0:0:
192,192,91747,1,0,0:0:0:0:
64,192,91834,1,8,0:0:0:0:
448,192,91834,1,0,0:0:0:0:
192,192,92008,1,0,0:0:0:0:
320,192,92096,1,2,0:0:0:0:
320,192,92270,1,2,0:0:0:0:
192,192,92357,1,2,0:0:0:0:
448,192,92415,1,0,0:0:0:0:
64,192,92532,1,8,0:0:0:0:
192,192,92532,1,0,0:0:0:0:
320,192,92706,1,0,0:0:0:0:
192,192,92881,1,2,0:0:0:0:
320,192,92968,1,0,0:0:0:0:
64,192,93055,1,0,0:0:0:0:
192,192,93142,1,0,0:0:0:0:
320,192,93229,1,8,0:0:0:0:
448,192,93229,1,0,0:0:0:0:
192,192,93404,1,0,0:0:0:0:
320,192,93491,1,2,0:0:0:0:
448,192,93665,1,0,0:0:0:0:
64,192,93753,1,2,0:0:0:0:
320,192,93927,1,8,0:0:0:0:
448,192,93927,1,0,0:0:0:0:
192,192,93997,1,0,0:0:0:0:
64,192,94067,1,0,0:0:0:0:
448,192,94189,1,0,0:0:0:0:
192,192,94276,1,2,0:0:0:0:
320,192,94363,1,0,0:0:0:0:
64,192,94625,1,8,0:0:0:0:
448,192,94625,1,0,0:0:0:0:
320,192,94799,1,0,0:0:0:0:
192,192,94886,1,2,0:0:0:0:
448,192,94974,1,0,0:0:0:0:
64,192,95032,1,0,0:0:0:0:
320,192,95148,1,0,0:0:0:0:
192,192,95206,1,0,0:0:0:0:
64,192,95322,1,8,0:0:0:0:
448,192,95322,1,0,0:0:0:0:
320,192,95410,1,0,0:0:0:0:
192,192,95497,1,0,0:0:0:0:
64,192,95584,1,0,0:0:0:0:
320,192,95671,1,2,0:0:0:0:
192,192,95758,1,0,0:0:0:0:
448,192,95846,1,0,0:0:0:0:
320,192,95933,1,0,0:0:0:0:
64,192,96020,1,8,0:0:0:0:
192,192,96020,1,0,0:0:0:0:
320,192,96194,1,0,0:0:0:0:
192,192,96282,1,2,0:0:0:0:
64,192,96456,1,0,0:0:0:0:
320,192,96543,1,2,0:0:0:0:
64,192,96718,1,8,0:0:0:0:
448,192,96718,1,0,0:0:0:0:
192,192,96892,1,0,0:0:0:0:
320,192,97067,1,2,0:0:0:0:
448,192,97154,1,0,0:0:0:0:
192,192,97241,1,0,0:0:0:0:
320,192,97328,1,0,0:0:0:0:
64,192,97415,1,8,0:0:0:0:
448,192,97415,1,0,0:0:0:0:
320,192,97590,1,0,0:0:0:0:
192,192,97677,1,2,0:0:0:0:
192,192,97851,1,2,0:0:0:0:
320,192,97939,1,2,0:0:0:0:
64,192,98113,1,8,0:0:0:0:
448,192,98113,1,0,0:0:0:0:
192,192,98288,1,0,0:0:0:0:
320,192,98462,1,2,0:0:0:0:
192,192,98549,1,0,0:0:0:0:
448,192,98636,1,0,0:0:0:0:
320,192,98724,1,0,0:0:0:0:
64,192,98811,1,8,0:0:0:0:
192,192,98811,1,0,0:0:0:0:
320,192,98985,1,0,0:0:0:0:
192,192,99072,1,2,0:0:0:0:
64,192,99247,1,0,0:0:0:0:
448,192,99334,1,2,0:0:0:0:
64,192,99508,1,8,0:0:0:0:
192,192,99508,1,0,0:0:0:0:
448,192,99683,1,0,0:0:0:0:
64,192,99770,1,0,0:0:0:0:
320,192,99857,1,2,0:0:0:0:
192,192,99944,1,0,0:0:0:0:
64,192,100206,1,8,0:0:0:0:
448,192,100206,1,0,0:0:0:0:
192,192,100381,1,0,0:0:0:0:
320,192,100468,1,2,0:0:0:0:
448,192,100555,1,2,0:0:0:0:
64,192,100642,1,2,0:0:0:0:
320,192,100729,1,2,0:0:0:0:
64,192,100904,1,8,0:0:0:0:
448,192,100904,1,0,0:0:0:0:
320,192,100991,1,0,0:0:0:0:
192,192,101078,1,0,0:0:0:0:
64,192,101136,1,0,0:0:0:0:
320,192,101253,1,2,0:0:0:0:
192,192,101340,1,0,0:0:0:0:
448,192,101427,1,0,0:0:0:0:
320,192,101514,1,0,0:0:0:0:
64,192,101601,1,8,0:0:0:0:
192,192,101601,1,0,0:0:0:0:
320,192,101776,1,0,0:0:0:0:
192,192,101863,1,2,0:0:0:0:
64,192,102038,1,2,0:0:0:0:
448,192,102125,1,2,0:0:0:0:
64,192,102299,1,8,0:0:0:0:
192,192,102299,1,0,0:0:0:0:
320,192,102369,1,0,0:0:0:0:
448,192,102439,1,0,0:0:0:0:
64,192,102508,1,0,0:0:0:0:
320,192,102648,1,2,0:0:0:0:
448,192,102735,1,0,0:0:0:0:
192,192,102822,1,0,0:0:0:0:
320,192,102910,1,0,0:0:0:0:
64,192,102997,1,8,0:0:0:0:
448,192,102997,1,0,0:0:0:0:
320,192,103171,1,0,0:0:0:0:
192,192,103258,1,2,0:0:0:0:
192,192,103433,1,2,0:0:0:0:
320,192,103520,1,2,0:0:0:0:
64,192,103694,1,8,0:0:0:0:
448,192,103694,1,0,0:0:0:0:
192,192,103869,1,0,0:0:0:0:
320,192,104043,1,2,0:0:0:0:
192,192,104131,1,0,0:0:0:0:
448,192,104218,1,0,0:0:0:0:
320,192,104305,1,0,0:0:0:0:
64,192,104392,1,8,0:0:0:0:
192,192,104392,1,0,0:0:0:0:
320,192,104567,1,0,0:0:0:0:
192,192,104654,1,2,0:0:0:0:
64,192,104828,1,2,0:0:0:0:
448,192,104915,1,2,0:0:0:0:
64,192,105090,1,8,0:0:0:0:
192,192,105090,1,0,0:0:0:0:
320,192,105160,1,0,0:0:0:0:
448,192,105229,1,0,0:0:0:0:
64,192,105351,1,0,0:0:0:0:
320,192,105439,1,2,0:0:0:0:
192,192,105526,1,0,0:0:0:0:
64,192,105788,1,8,0:0:0:0:
448,192,105788,1,0,0:0:0:0:
192,192,105962,1,0,0:0:0:0:
320,192,106049,1,2,0:0:0:0:
320,192,106224,1,2,0:0:0:0:
192,192,106311,1,2,0:0:0:0:
64,192,106485,1,8,0:0:0:0:
448,192,106485,1,0,0:0:0:0:
320,192,106660,1,0,0:0:0:0:
192,192,106834,1,2,0:0:0:0:
320,192,106921,1,0,0:0:0:0:
64,192,107008,1,0,0:0:0:0:
192,192,107096,1,0,0:0:0:0:
320,192,107183,1,8,0:0:0:0:
448,192,107183,1,0,0:0:0:0:
192,192,107357,1,0,0:0:0:0:
320,192,107444,1,2,0:0:0:0:
64,192,107532,1,0,0:0:0:0:
448,192,107619,1,0,0:0:0:0:
192,192,107706,1,2,0:0:0:0:
64,192,107793,1,0,0:0:0:0:
320,192,107881,1,8,0:0:0:0:
448,192,107881,1,0,0:0:0:0:
192,192,107950,1,0,0:0:0:0:
64,192,108020,1,0,0:0:0:0:
448,192,108090,1,0,0:0:0:0:
64,192,108229,1,2,0:0:0:0:
320,192,108404,1,0,0:0:0:0:
192,192,108462,1,0,0:0:0:0:
64,192,108578,1,8,0:0:0:0:
448,192,108578,1,0,0:0:0:0:
192,192,108753,1,0,0:0:0:0:
320,192,108840,1,2,0:0:0:0:
320,192,109014,1,2,0:0:0:0:
192,192,109101,1,2,0:0:0:0:
64,192,109160,1,0,0:0:0:0:
320,192,109276,1,8,0:0:0:0:
448,192,109276,1,0,0:0:0:0:
192,192,109334,1,0,0:0:0:0:
448,192,109450,1,0,0:0:0:0:
192,192,109625,1,2,0:0:0:0:
320,192,109712,1,0,0:0:0:0:
64,192,109799,1,0,0:0:0:0:
192,192,109886,1,0,0:0:0:0:
320,192,109974,1,8,0:0:0:0:
448,192,109974,1,0,0:0:0:0:
192,192,110148,1,0,0:0:0:0:
320,192,110235,1,2,0:0:0:0:
448,192,110410,1,0,0:0:0:0:
64,192,110497,1,2,0:0:0:0:
320,192,110671,1,8,0:0:0:0:
448,192,110671,1,0,0:0:0:0:
64,192,110846,1,0,0:0:0:0:
448,192,110933,1,0,0:0:0:0:
192,192,111020,1,2,0:0:0:0:
320,192,111107,1,0,0:0:0:0:
64,192,111194,1,0,0:0:0:0:
448,192,111282,1,0,0:0:0:0:
192,192,111369,1,8,0:0:0:0:
320,192,111369,1,0,0:0:0:0:
64,192,111456,1,0,0:0:0:0:
448,192,111543,1,0,0:0:0:0:
192,192,111631,1,2,0:0:0:0:
64,192,111718,1,2,0:0:0:0:
320,192,111805,1,2,0:0:0:0:
448,192,111892,1,2,0:0:0:0:
64,192,111979,1,0,0:0:0:0:
320,192,112067,1,8,0:0:0:0:
448,192,112067,1,0,0:0:0:0:
64,192,112154,1,0,0:0:0:0:
448,192,112241,1,0,0:0:0:0:
64,192,112328,1,0,0:0:0:0:
320,192,112415,1,2,0:0:0:0:
192,192,112503,1,0,0:0:0:0:
448,192,112590,1,0,0:0:0:0:
320,192,112677,1,0,0:0:0:0:
64,192,112764,1,8,0:0:0:0:
192,192,112764,1,0,0:0:0:0:
320,192,112939,1,0,0:0:0:0:
448,192,113026,1,2,0:0:0:0:
64,192,113113,1,0,0:0:0:0:
192,192,113200,1,0,0:0:0:0:
320,192,113288,1,2,0:0:0:0:
64,192,113375,1,0,0:0:0:0:
192,192,113462,1,8,0:0:0:0:
448,192,113462,1,0,0:0:0:0:
320,192,113636,1,0,0:0:0:0:
448,192,113811,1,2,0:0:0:0:
64,192,113898,1,0,0:0:0:0:
192,192,113985,1,0,0:0:0:0:
448,192,114072,1,0,0:0:0:0:
64,192,114160,1,8,0:0:0:0:
320,192,114160,1,0,0:0:0:0:
448,192,114334,1,0,0:0:0:0:
320,192,114421,1,2,0:0:0:0:
192,192,114508,1,0,0:0:0:0:
64,192,114596,1,2,0:0:0:0:
448,192,114683,1,2,0:0:0:0:
320,192,114770,1,0,0:0:0:0:
64,192,114857,1,8,0:0:0:0:
192,192,114857,1,0,0:0:0:0:
320,192,115032,1,0,0:0:0:0:
448,192,115206,1,2,0:0:0:0:
192,192,115293,1,0,0:0:0:0:
64,192,115381,1,0,0:0:0:0:
320,192,115468,1,0,0:0:0:0:
192,192,115555,1,8,0:0:0:0:
448,192,115555,1,0,0:0:0:0:
64,192,115729,1,0,0:0:0:0:
320,192,115817,1,2,0:0:0:0:
192,192,115904,1,0,0:0:0:0:
448,192,115991,1,0,0:0:0:0:
320,192,116078,1,2,0:0:0:0:
64,192,116165,1,0,0:0:0:0:
192,192,116253,1,8,0:0:0:0:
448,192,116253,1,0,0:0:0:0:
320,192,116427,1,0,0:0:0:0:
64,192,116601,1,2,0:0:0:0:
448,192,116689,1,0,0:0:0:0:
192,192,116776,1,0,0:0:0:0:
64,192,116863,1,0,0:0:0:0:
320,192,116950,1,8,0:0:0:0:
448,192,116950,1,0,0:0:0:0:
192,192,117125,1,0,0:0:0:0:
320,192,117212,1,2,0:0:0:0:
64,192,117299,1,0,0:0:0:0:
448,192,117386,1,0,0:0:0:0:
320,192,117474,1,0,0:0:0:0:
192,192,117561,1,0,0:0:0:0:
64,192,117648,1,8,0:0:0:0:
448,192,117648,1,0,0:0:0:0:
320,192,117822,1,0,0:0:0:0:
192,192,117997,1,2,0:0:0:0:
448,192,118084,1,0,0:0:0:0:
64,192,118171,1,0,0:0:0:0:
320,192,118258,1,0,0:0:0:0:
192,192,118346,1,8,0:0:0:0:
448,192,118346,1,0,0:0:0:0:
64,192,118520,1,0,0:0:0:0:
320,192,118607,1,2,0:0:0:0:
192,192,118694,1,0,0:0:0:0:
64,192,118782,1,0,0:0:0:0:
320,192,118869,1,2,0:0:0:0:
192,192,118956,1,0,0:0:0:0:
320,192,119043,1,8,0:0:0:0:
448,192,119043,1,0,0:0:0:0:
192,192,119218,1,0,0:0:0:0:
64,192,119392,1,2,0:0:0:0:
320,192,119479,1,0,0:0:0:0:
448,192,119567,1,0,0:0:0:0:
192,192,119654,1,0,0:0:0:0:
320,192,119741,1,8,0:0:0:0:
448,192,119741,1,0,0:0:0:0:
64,192,119915,1,0,0:0:0:0:
192,192,120003,1,2,0:0:0:0:
320,192,120090,1,0,0:0:0:0:
64,192,120177,1,2,0:0:0:0:
448,192,120264,1,2,0:0:0:0:
320,192,120351,1,0,0:0:0:0:
64,192,120439,1,8,0:0:0:0:
192,192,120439,1,0,0:0:0:0:
448,192,120613,1,0,0:0:0:0:
192,192,120788,1,2,0:0:0:0:
320,192,120875,1,0,0:0:0:0:
64,192,120962,1,0,0:0:0:0:
448,192,121049,1,0,0:0:0:0:
64,192,121136,1,8,0:0:0:0:
192,192,121136,1,0,0:0:0:0:
320,192,121311,1,0,0:0:0:0:
448,192,121398,1,2,0:0:0:0:
192,192,121485,1,0,0:0:0:0:
320,192,121572,1,0,0:0:0:0:
64,192,121660,1,2,0:0:0:0:
192,192,121747,1,0,0:0:0:0:
320,192,121834,1,8,0:0:0:0:
448,192,121834,1,0,0:0:0:0:
192,192,122008,1,0,0:0:0:0:
320,192,122183,1,2,0:0:0:0:
64,192,122270,1,0,0:0:0:0:
192,192,122357,1,0,0:0:0:0:
448,192,122444,1,0,0:0:0:0:
64,192,122532,1,8,0:0:0:0:
320,192,122532,1,0,0:0:0:0:
192,192,122706,1,0,0:0:0:0:
448,192,122793,1,2,0:0:0:0:
320,192,122881,1,0,0:0:0:0:
192,192,122968,1,2,0:0:0:0:
64,192,123055,1,2,0:0:0:0:
320,192,123142,1,0,0:0:0:0:
192,192,123229,1,8,0:0:0:0:
448,192,123229,1,0,0:0:0:0:
64,192,123404,1,0,0:0:0:0:
192,192,123578,1,2,0:0:0:0:
320,192,123665,1,0,0:0:0:0:
64,192,123753,1,0,0:0:0:0:
192,192,123840,1,0,0:0:0:0:
320,192,123927,1,8,0:0:0:0:
448,192,123927,1,0,0:0:0:0:
192,192,124101,1,0,0:0:0:0:
64,192,124189,1,2,0:0:0:0:
448,192,124276,1,0,0:0:0:0:
320,192,124363,1,0,0:0:0:0:
192,192,124450,1,2,0:0:0:0:
448,192,124538,1,0,0:0:0:0:
64,192,124625,1,8,0:0:0:0:
320,192,124625,1,0,0:0:0:0:
192,192,124799,1,0,0:0:0:0:
64,192,124974,1,2,0:0:0:0:
448,192,125061,1,0,0:0:0:0:
320,192,125148,1,0,0:0:0:0:
64,192,125235,1,0,0:0:0:0:
192,192,125322,1,8,0:0:0:0:
448,192,125322,1,0,0:0:0:0:
64,192,125497,1,0,0:0:0:0:
192,192,125584,1,2,0:0:0:0:
320,192,125671,1,0,0:0:0:0:
448,192,125758,1,2,0:0:0:0:
64,192,125846,1,2,0:0:0:0:
192,192,125933,1,0,0:0:0:0:
320,192,126020,1,8,0:0:0:0:
448,192,126020,1,0,0:0:0:0:
192,192,126194,1,0,0:0:0:0:
64,192,126369,1,2,0:0:0:0:
320,192,126456,1,0,0:0:0:0:
448,192,126543,1,0,0:0:0:0:
192,192,126631,1,0,0:0:0:0:
64,192,126718,1,8,0:0:0:0:
320,192,126718,1,0,0:0:0:0:
448,192,126892,1,0,0:0:0:0:
192,192,126979,1,2,0:0:0:0:
320,192,127067,1,0,0:0:0:0:
64,192,127154,1,0,0:0:0:0:
192,192,127241,1,2,0:0:0:0:
448,192,127328,1,0,0:0:0:0:
64,192,127415,1,8,0:0:0:0:
320,192,127415,1,0,0:0:0:0:
192,192,127590,1,0,0:0:0:0:
448,192,127764,1,2,0:0:0:0:
64,192,127851,1,0,0:0:0:0:
320,192,127939,1,0,0:0:0:0:
448,192,128026,1,0,0:0:0:0:
64,192,128113,1,8,0:0:0:0:
192,192,128113,1,0,0:0:0:0:
320,192,128288,1,0,0:0:0:0:
192,192,128375,1,2,0:0:0:0:
448,192,128462,1,0,0:0:0:0:
64,192,128549,1,2,0:0:0:0:
192,192,128636,1,2,0:0:0:0:
320,192,128724,1,0,0:0:0:0:
64,192,128811,1,8,0:0:0:0:
448,192,128811,1,0,0:0:0:0:
192,192,128985,1,0,0:0:0:0:
320,192,129160,1,2,0:0:0:0:
64,192,129247,1,0,0:0:0:0:
448,192,129334,1,0,0:0:0:0:
192,192,129421,1,0,0:0:0:0:
64,192,129508,1,8,0:0:0:0:
320,192,129508,1,0,0:0:0:0:
448,192,129683,1,0,0:0:0:0:
192,192,129770,1,2,0:0:0:0:
320,192,129857,1,0,0:0:0:0:
448,192,129944,1,0,0:0:0:0:
192,192,130032,1,2,0:0:0:0:
320,192,130119,1,0,0:0:0:0:
64,192,130206,1,8,0:0:0:0:
192,192,130206,1,0,0:0:0:0:
320,192,130381,1,0,0:0:0:0:
448,192,130555,1,2,0:0:0:0:
192,192,130642,1,0,0:0:0:0:
64,192,130729,1,0,0:0:0:0:
320,192,130817,1,0,0:0:0:0:
64,192,130904,1,8,0:0:0:0:
192,192,130904,1,0,0:0:0:0:
448,192,131078,1,0,0:0:0:0:
320,192,131165,1,2,0:0:0:0:
192,192,131253,1,0,0:0:0:0:
448,192,131340,1,2,0:0:0:0:
64,192,131427,1,2,0:0:0:0:
192,192,131514,1,0,0:0:0:0:
320,192,131601,1,8,0:0:0:0:
448,192,131601,1,0,0:0:0:0:
64,192,131776,1,0,0:0:0:0:
320,192,131950,1,2,0:0:0:0:
192,192,132038,1,0,0:0:0:0:
448,192,132125,1,0,0:0:0:0:
64,192,132212,1,0,0:0:0:0:
320,192,132299,1,8,0:0:0:0:
448,192,132299,1,0,0:0:0:0:
192,192,132474,1,0,0:0:0:0:
64,192,132561,1,2,0:0:0:0:
320,192,132648,1,0,0:0:0:0:
192,192,132735,1,0,0:0:0:0:
448,192,132822,1,2,0:0:0:0:
320,192,132910,1,0,0:0:0:0:
64,192,132997,1,8,0:0:0:0:
192,192,132997,1,0,0:0:0:0:
320,192,133171,1,0,0:0:0:0:
192,192,133346,1,2,0:0:0:0:
448,192,133433,1,0,0:0:0:0:
320,192,133520,1,0,0:0:0:0:
64,192,133607,1,0,0:0:0:0:
192,192,133694,1,8,0:0:0:0:
448,192,133694,1,0,0:0:0:0:
320,192,133869,1,0,0:0:0:0:
64,192,133956,1,2,0:0:0:0:
192,192,134043,1,0,0:0:0:0:
320,192,134131,1,2,0:0:0:0:
448,192,134218,1,2,0:0:0:0:
192,192,134305,1,0,0:0:0:0:
64,192,134392,1,8,0:0:0:0:
320,192,134392,1,0,0:0:0:0:
448,192,134567,1,0,0:0:0:0:
320,192,134654,1,0,0:0:0:0:
