osu file format v14

[General]
AudioFilename: audio.mp3
AudioLeadIn: 0
PreviewTime: 44043
Countdown: 0
SampleSet: Soft
StackLeniency: 0.7
Mode: 3
LetterboxInBreaks: 0
SpecialStyle: 0
WidescreenStoryboard: 1

[Editor]
Bookmarks: 788,11950,23113,34276,45439,67764,78927,90090,112415,134741
DistanceSpacing: 0.9
BeatDivisor: 8
GridSize: 8
TimelineZoom: 3.299999

[Metadata]
Title:Aulture
TitleUnicode:Aulture
Artist:Silentroom
ArtistUnicode:Silentroom
Creator:Geo_ooo
Version:Feylos' Insane
Source:Lanota
Tags:Neurofunk Jack Dump Famoss Memory Waves Electronic Neurostep Feylos Ampharos Noxy Games inc Ritmo's Secret Library Chapter ∞ SLRM-0002 mobile rhythm game
BeatmapID:3189128
BeatmapSetID:1561522

[Difficulty]
HPDrainRate:8
CircleSize:4
OverallDifficulty:8
ApproachRate:5
SliderMultiplier:1.4
SliderTickRate:1

[Events]
//Background and Video events
0,0,"TkvYGSj-min.png",0,0
//Break Periods
//Storyboard Layer 0 (Background)
//Storyboard Layer 1 (Fail)
//Storyboard Layer 2 (Pass)
//Storyboard Layer 3 (Foreground)
//Storyboard Layer 4 (Overlay)
//Storyboard Sound Samples
Sample,13346,0,"LR_J Hit Edge F.wav",50
Sample,16136,0,"LR_J Hit Edge F.wav",50
Sample,18927,0,"LR_J Hit Edge F.wav",50
Sample,21892,0,"LR_J Hit Edge F.wav",50

[TimingPoints]
788,348.837209302326,4,2,1,30,1,0
23113,-100,4,2,1,40,0,0
34276,-100,4,2,1,45,0,0
45439,-100,4,2,1,50,0,1
67067,-100,4,2,1,45,0,0
90090,-100,4,2,1,50,0,1
112415,-100,4,2,1,45,0,0

[HitObjects]
64,192,788,5,2,0:0:0:0:
320,192,788,1,0,0:0:0:0:
448,192,788,1,0,0:0:0:0:
192,192,962,1,0,0:0:0:0:
320,192,1049,1,0,0:0:0:0:
64,192,1136,1,0,0:0:0:50:Drum_Rim.wav
448,192,1136,1,0,0:0:0:0:
320,192,1224,1,0,0:0:0:0:
192,192,1311,1,2,0:0:0:0:
64,192,1485,1,0,0:0:0:50:LR_J Hit Edge F.wav
192,192,1660,1,2,0:0:0:0:
448,192,1660,1,0,0:0:0:0:
320,192,1834,1,0,0:0:0:50:Drum_Rim.wav
448,192,1834,1,0,0:0:0:0:
64,192,1921,1,0,0:0:0:0:
192,192,2008,1,0,0:0:0:0:
192,192,2183,1,0,0:0:0:50:LR_J Hit Edge F.wav
448,192,2270,1,0,0:0:0:0:
320,192,2357,1,2,0:0:0:0:
64,192,2532,1,0,0:0:0:50:Drum_Rim.wav
320,192,2532,1,0,0:0:0:0:
192,192,2619,1,0,0:0:0:0:
448,192,2706,1,2,0:0:0:0:
64,192,2881,1,0,0:0:0:50:LR_J Hit Edge F.wav
448,192,2881,1,0,0:0:0:0:
320,192,3229,1,0,0:0:0:70:LR_J Hit Drum_Reverb.wav
448,192,3229,1,0,0:0:0:0:
192,192,3404,1,0,0:0:0:0:
64,192,3578,1,2,0:0:0:0:
320,192,3578,1,0,0:0:0:0:
448,192,3578,1,0,0:0:0:0:
192,192,3753,1,0,0:0:0:0:
448,192,3840,1,0,0:0:0:0:
64,192,3927,1,0,0:0:0:50:Drum_Rim.wav
320,192,3927,1,0,0:0:0:0:
192,192,4101,1,2,0:0:0:0:
64,192,4189,1,0,0:0:0:0:
320,192,4276,1,0,0:0:0:50:LR_J Hit Edge F.wav
64,192,4450,1,2,0:0:0:0:
192,192,4450,1,0,0:0:0:0:
64,192,4625,1,0,0:0:0:50:Drum_Rim.wav
448,192,4625,1,0,0:0:0:0:
320,192,4712,1,0,0:0:0:0:
192,192,4799,1,0,0:0:0:0:
320,192,4886,1,0,0:0:0:0:
64,192,4974,1,0,0:0:0:50:LR_J Hit Edge F.wav
448,192,5061,1,0,0:0:0:0:
192,192,5148,1,2,0:0:0:0:
448,192,5235,1,0,0:0:0:0:
64,192,5322,1,0,0:0:0:50:Drum_Rim.wav
192,192,5322,1,0,0:0:0:0:
320,192,5410,1,0,0:0:0:0:
64,192,5497,1,2,0:0:0:0:
320,192,5671,1,0,0:0:0:50:LR_J Hit Edge F.wav
448,192,5846,1,0,0:0:0:0:
64,192,6020,1,0,0:0:0:70:LR_J Hit Drum_Reverb.wav
448,192,6020,1,0,0:0:0:0:
192,192,6194,1,0,0:0:0:0:
320,192,6282,1,0,0:0:0:0:
64,192,6369,1,2,0:0:0:0:
192,192,6369,1,0,0:0:0:0:
448,192,6369,1,0,0:0:0:0:
320,192,6543,1,0,0:0:0:0:
192,192,6631,1,0,0:0:0:0:
64,192,6718,1,0,0:0:0:50:Drum_Rim.wav
448,192,6718,1,0,0:0:0:0:
192,192,6805,1,0,0:0:0:0:
320,192,6892,1,2,0:0:0:0:
448,192,7067,1,0,0:0:0:50:LR_J Hit Edge F.wav
64,192,7241,1,2,0:0:0:0:
320,192,7241,1,0,0:0:0:0:
64,192,7415,1,0,0:0:0:50:Drum_Rim.wav
192,192,7415,1,0,0:0:0:0:
448,192,7503,1,0,0:0:0:0:
320,192,7590,1,0,0:0:0:0:
320,192,7764,1,0,0:0:0:50:LR_J Hit Edge F.wav
64,192,7851,1,0,0:0:0:0:
192,192,7939,1,2,0:0:0:0:
192,192,8113,1,0,0:0:0:50:Drum_Rim.wav
448,192,8113,1,0,0:0:0:0:
320,192,8200,1,0,0:0:0:0:
64,192,8288,1,2,0:0:0:0:
64,192,8462,1,0,0:0:0:50:LR_J Hit Edge F.wav
448,192,8462,1,0,0:0:0:0:
64,192,8811,1,0,0:0:0:70:LR_J Hit Drum_Reverb.wav
192,192,8811,1,0,0:0:0:0:
320,192,8985,1,0,0:0:0:0:
64,192,9160,1,2,0:0:0:0:
192,192,9160,1,0,0:0:0:0:
448,192,9160,1,0,0:0:0:0:
320,192,9334,1,0,0:0:0:0:
64,192,9421,1,0,0:0:0:0:
192,192,9508,1,0,0:0:0:50:Drum_Rim.wav
448,192,9508,1,0,0:0:0:0:
320,192,9683,1,2,0:0:0:0:
448,192,9770,1,0,0:0:0:0:
192,192,9857,1,0,0:0:0:50:LR_J Hit Edge F.wav
320,192,10032,1,2,0:0:0:0:
448,192,10032,1,0,0:0:0:0:
64,192,10206,1,0,0:0:0:50:Drum_Rim.wav
448,192,10206,1,0,0:0:0:0:
192,192,10293,1,0,0:0:0:0:
320,192,10381,1,0,0:0:0:0:
192,192,10468,1,0,0:0:0:0:
448,192,10555,1,0,0:0:0:50:LR_J Hit Edge F.wav
64,192,10642,1,0,0:0:0:0:
320,192,10729,1,2,0:0:0:0:
64,192,10817,1,0,0:0:0:0:
320,192,10904,1,0,0:0:0:50:Drum_Rim.wav
448,192,10904,1,0,0:0:0:0:
192,192,10991,1,0,0:0:0:0:
448,192,11078,1,2,0:0:0:0:
192,192,11253,1,0,0:0:0:50:LR_J Hit Edge F.wav
64,192,11427,1,0,0:0:0:0:
64,192,11601,1,0,0:0:0:70:LR_J Hit Drum_Reverb.wav
448,192,11601,1,0,0:0:0:0:
192,192,11776,1,0,0:0:0:0:
320,192,11863,1,0,0:0:0:0:
64,192,11950,1,2,0:0:0:0:
192,192,11950,1,0,0:0:0:0:
448,192,11950,128,0,12212:0:0:0:0:
320,192,12125,128,0,12212:0:0:0:0:
192,192,12212,128,0,12299:0:0:0:0:
64,192,12299,1,8,0:0:0:0:
320,192,12299,1,0,0:0:0:0:
448,192,12299,1,0,0:0:0:0:
192,192,12386,128,0,12474:0:0:0:0:
320,192,12474,128,2,12561:0:0:0:0:
320,192,12648,128,0,12822:0:0:0:50:LR_J Hit Edge F.wav
64,192,12822,1,2,0:0:0:0:
192,192,12822,1,0,0:0:0:0:
320,192,12910,128,0,12997:0:0:0:0:
64,192,12997,1,8,0:0:0:0:
192,192,12997,1,0,0:0:0:0:
320,192,13084,1,2,0:0:0:0:
448,192,13084,1,0,0:0:0:0:
64,192,13171,128,0,13346:0:0:0:0:
320,192,13346,1,2,0:0:0:0:
64,192,13433,128,0,13607:0:0:0:0:
448,192,13520,1,2,0:0:0:0:
320,192,13607,128,0,13782:0:0:0:0:
64,192,13694,1,8,0:0:0:0:
192,192,13694,1,0,0:0:0:0:
64,192,13869,128,2,13956:0:0:0:0:
320,192,13956,128,0,14131:0:0:0:0:
192,192,14043,1,0,0:0:0:50:LR_J Hit Edge F.wav
64,192,14131,1,2,0:0:0:0:
448,192,14131,1,0,0:0:0:0:
320,192,14218,1,0,0:0:0:0:
64,192,14392,1,8,0:0:0:0:
192,192,14392,1,0,0:0:0:0:
320,192,14479,1,2,0:0:0:0:
448,192,14479,1,0,0:0:0:0:
64,192,14567,1,0,0:0:0:0:
320,192,14741,1,2,0:0:0:0:
448,192,14741,1,0,0:0:0:0:
64,192,14915,1,0,0:0:0:0:
192,192,15003,1,0,0:0:0:0:
64,192,15090,1,8,0:0:0:0:
320,192,15090,1,0,0:0:0:0:
448,192,15090,1,0,0:0:0:0:
64,192,15264,1,2,0:0:0:0:
320,192,15439,1,0,0:0:0:50:LR_J Hit Edge F.wav
64,192,15613,1,2,0:0:0:0:
448,192,15613,1,0,0:0:0:0:
320,192,15788,1,8,0:0:0:0:
448,192,15788,1,0,0:0:0:0:
64,192,15875,1,2,0:0:0:0:
192,192,15875,1,0,0:0:0:0:
320,192,15962,1,0,0:0:0:0:
64,192,16136,1,2,0:0:0:0:
192,192,16136,1,0,0:0:0:0:
448,192,16311,1,2,0:0:0:0:
192,192,16398,1,0,0:0:0:0:
64,192,16485,1,8,0:0:0:0:
320,192,16485,1,0,0:0:0:0:
448,192,16485,1,0,0:0:0:0:
320,192,16660,1,2,0:0:0:0:
64,192,16834,128,0,17183:0:0:0:50:LR_J Hit Edge F.wav
320,192,16921,1,2,0:0:0:0:
448,192,16921,1,0,0:0:0:0:
192,192,17008,128,0,17183:0:0:0:0:
320,192,17183,1,8,0:0:0:0:
448,192,17183,1,0,0:0:0:0:
64,192,17270,128,2,17532:0:0:0:0:
192,192,17357,128,0,17532:0:0:0:0:
320,192,17532,1,2,0:0:0:0:
448,192,17532,128,0,17793:0:0:0:0:
320,192,17706,128,0,17793:0:0:0:0:
192,192,17793,128,0,17881:0:0:0:0:
64,192,17881,1,8,0:0:0:0:
320,192,17881,1,0,0:0:0:0:
448,192,17881,1,0,0:0:0:0:
192,192,17968,128,0,18055:0:0:0:0:
320,192,18055,128,2,18142:0:0:0:0:
320,192,18229,128,0,18404:0:0:0:50:LR_J Hit Edge F.wav
64,192,18404,1,2,0:0:0:0:
192,192,18404,1,0,0:0:0:0:
320,192,18491,128,0,18578:0:0:0:0:
64,192,18578,1,8,0:0:0:0:
192,192,18578,1,0,0:0:0:0:
320,192,18665,1,2,0:0:0:0:
448,192,18665,1,0,0:0:0:0:
64,192,18753,128,0,18927:0:0:0:0:
192,192,18927,1,2,0:0:0:0:
320,192,18927,1,0,0:0:0:0:
64,192,19014,128,0,19189:0:0:0:0:
448,192,19101,1,2,0:0:0:0:
320,192,19189,128,0,19363:0:0:0:0:
64,192,19276,1,8,0:0:0:0:
192,192,19276,1,0,0:0:0:0:
64,192,19450,128,2,19538:0:0:0:0:
320,192,19538,128,0,19712:0:0:0:0:
192,192,19625,1,0,0:0:0:50:LR_J Hit Edge F.wav
64,192,19712,1,2,0:0:0:0:
448,192,19712,1,0,0:0:0:0:
320,192,19799,1,0,0:0:0:0:
64,192,19974,1,8,0:0:0:0:
192,192,19974,1,0,0:0:0:0:
320,192,20061,1,2,0:0:0:0:
448,192,20061,1,0,0:0:0:0:
64,192,20148,1,0,0:0:0:0:
320,192,20322,1,2,0:0:0:0:
448,192,20322,1,0,0:0:0:0:
64,192,20497,1,0,0:0:0:0:
192,192,20584,1,0,0:0:0:0:
64,192,20671,1,8,0:0:0:0:
320,192,20671,1,0,0:0:0:0:
448,192,20671,1,0,0:0:0:0:
448,192,20846,1,2,0:0:0:0:
192,192,21020,1,0,0:0:0:50:LR_J Hit Edge F.wav
64,192,21194,1,2,0:0:0:0:
448,192,21194,1,0,0:0:0:0:
64,192,21369,1,8,0:0:0:0:
192,192,21369,1,0,0:0:0:0:
320,192,21456,1,2,0:0:0:0:
448,192,21456,1,0,0:0:0:0:
192,192,21543,1,0,0:0:0:0:
320,192,21718,1,2,0:0:0:0:
448,192,21718,1,0,0:0:0:0:
64,192,21805,1,0,0:0:0:0:
448,192,21892,1,2,0:0:0:0:
192,192,21979,1,0,0:0:0:0:
64,192,22067,1,8,0:0:0:0:
320,192,22067,1,0,0:0:0:0:
448,192,22067,1,0,0:0:0:0:
192,192,22154,1,0,0:0:0:0:
320,192,22241,1,2,0:0:0:0:
192,192,22328,1,0,0:0:0:0:
448,192,22415,1,0,0:0:0:50:LR_J Hit Edge F.wav
64,192,22503,1,2,0:0:0:0:
192,192,22503,1,0,0:0:0:0:
448,192,22590,1,0,0:0:0:0:
64,192,22677,1,0,0:0:0:0:
320,192,22764,1,8,0:0:0:0:
448,192,22764,1,0,0:0:0:0:
64,192,22851,1,2,0:0:0:0:
192,192,22851,1,0,0:0:0:0:
320,192,22939,1,0,0:0:0:0:
192,192,23026,1,0,0:0:0:0:
64,192,23113,1,2,0:0:0:0:
448,192,23113,1,0,0:0:0:0:
192,192,23200,1,0,0:0:0:0:
320,192,23200,128,0,23375:0:0:0:0:
64,192,23462,128,8,23898:0:0:0:0:
192,192,23462,1,0,0:0:0:0:
448,192,23462,128,0,23636:0:0:0:0:
192,192,23724,128,0,24160:0:0:0:0:
320,192,23724,128,0,23898:0:0:0:0:
64,192,23985,128,0,24160:0:0:0:0:
320,192,24160,1,8,0:0:0:0:
448,192,24160,1,0,0:0:0:0:
64,192,24247,1,2,0:0:0:0:
192,192,24247,1,0,0:0:0:0:
320,192,24334,1,0,0:0:0:0:
448,192,24421,1,0,0:0:0:0:
64,192,24508,1,2,0:0:0:0:
192,192,24508,1,0,0:0:0:0:
320,192,24596,1,0,0:0:0:0:
448,192,24683,1,0,0:0:0:0:
192,192,24770,1,0,0:0:0:0:
64,192,24857,1,2,0:0:0:0:
448,192,24857,1,0,0:0:0:0:
320,192,24944,1,0,0:0:0:0:
64,192,25032,1,0,0:0:0:0:
192,192,25119,1,2,0:0:0:0:
320,192,25119,1,0,0:0:0:0:
64,192,25206,1,8,0:0:0:0:
448,192,25206,1,0,0:0:0:0:
320,192,25293,1,0,0:0:0:0:
192,192,25381,1,0,0:0:0:0:
320,192,25468,1,2,0:0:0:0:
448,192,25468,1,0,0:0:0:0:
64,192,25555,1,2,0:0:0:0:
192,192,25555,1,0,0:0:0:0:
320,192,25642,1,0,0:0:0:0:
448,192,25729,1,0,0:0:0:0:
192,192,25817,1,0,0:0:0:0:
64,192,25904,1,2,0:0:0:0:
320,192,25904,1,0,0:0:0:0:
192,192,25991,128,0,26165:0:0:0:0:
448,192,25991,1,0,0:0:0:0:
320,192,26253,128,8,26427:0:0:0:0:
448,192,26253,128,0,26950:0:0:0:0:
64,192,26296,128,0,26689:0:0:0:0:
192,192,26514,128,0,26689:0:0:0:0:
320,192,26689,1,2,0:0:0:0:
64,192,26776,128,0,26950:0:0:0:0:
192,192,26950,1,8,0:0:0:0:
320,192,26950,1,0,0:0:0:0:
64,192,27038,1,2,0:0:0:0:
448,192,27038,1,0,0:0:0:0:
320,192,27125,1,0,0:0:0:0:
192,192,27212,1,0,0:0:0:0:
64,192,27299,1,2,0:0:0:0:
448,192,27299,1,0,0:0:0:0:
320,192,27386,1,0,0:0:0:0:
192,192,27474,1,2,0:0:0:0:
448,192,27474,1,0,0:0:0:0:
64,192,27561,1,0,0:0:0:0:
192,192,27648,1,2,0:0:0:0:
320,192,27648,1,0,0:0:0:0:
448,192,27735,1,0,0:0:0:0:
64,192,27822,1,0,0:0:0:0:
192,192,27910,1,2,0:0:0:0:
320,192,27910,1,0,0:0:0:0:
64,192,27997,1,0,0:0:0:50:LR_J Hit Drum_Reverb.wav
448,192,27997,1,0,0:0:0:0:
320,192,28084,1,0,0:0:0:0:
192,192,28171,1,0,0:0:0:0:
320,192,28258,1,2,0:0:0:0:
448,192,28258,1,0,0:0:0:0:
64,192,28346,1,2,0:0:0:0:
192,192,28346,1,0,0:0:0:0:
448,192,28433,1,0,0:0:0:0:
320,192,28520,1,0,0:0:0:0:
192,192,28607,1,0,0:0:0:0:
64,192,28694,1,2,0:0:0:0:
448,192,28694,1,0,0:0:0:0:
192,192,28782,1,0,0:0:0:0:
320,192,28782,128,0,28956:0:0:0:0:
64,192,28956,128,0,29218:0:0:0:0:
192,192,29043,1,8,0:0:0:0:
448,192,29043,128,0,29218:0:0:0:0:
192,192,29218,128,0,29741:0:0:0:0:
320,192,29305,128,0,29479:0:0:0:0:
64,192,29567,128,0,29741:0:0:0:0:
320,192,29741,1,8,0:0:0:0:
448,192,29741,1,0,0:0:0:0:
64,192,29828,1,2,0:0:0:0:
192,192,29828,1,0,0:0:0:0:
320,192,29915,1,0,0:0:0:0:
448,192,30003,1,0,0:0:0:0:
64,192,30090,1,2,0:0:0:0:
192,192,30090,1,0,0:0:0:0:
320,192,30177,1,0,0:0:0:0:
448,192,30264,1,0,0:0:0:0:
192,192,30351,1,0,0:0:0:0:
64,192,30439,1,2,0:0:0:0:
448,192,30439,1,0,0:0:0:0:
320,192,30526,1,0,0:0:0:0:
64,192,30613,1,0,0:0:0:0:
192,192,30700,1,2,0:0:0:0:
320,192,30700,1,0,0:0:0:0:
64,192,30788,1,0,0:0:0:50:LR_J Hit Drum_Reverb.wav
448,192,30788,1,0,0:0:0:0:
320,192,30875,1,0,0:0:0:0:
192,192,30962,1,0,0:0:0:0:
320,192,31049,1,2,0:0:0:0:
448,192,31049,1,0,0:0:0:0:
64,192,31136,1,2,0:0:0:0:
192,192,31136,1,0,0:0:0:0:
320,192,31224,1,0,0:0:0:0:
448,192,31311,1,0,0:0:0:0:
192,192,31398,1,0,0:0:0:0:
64,192,31485,1,2,0:0:0:0:
320,192,31485,1,0,0:0:0:0:
192,192,31572,128,0,31747:0:0:0:0:
448,192,31572,1,0,0:0:0:0:
320,192,31834,128,8,32008:0:0:0:0:
448,192,31834,128,0,32532:0:0:0:0:
64,192,31878,128,0,32270:0:0:0:0:
192,192,32096,128,0,32270:0:0:0:0:
320,192,32270,1,2,0:0:0:0:
64,192,32357,128,0,32532:0:0:0:0:
192,192,32532,1,8,0:0:0:0:
320,192,32532,1,0,0:0:0:0:
64,192,32619,1,2,0:0:0:0:
448,192,32619,1,0,0:0:0:0:
320,192,32706,1,0,0:0:0:0:
192,192,32793,1,0,0:0:0:0:
64,192,32881,1,2,0:0:0:0:
448,192,32881,1,0,0:0:0:0:
192,192,32968,1,0,0:0:0:0:
320,192,33055,1,0,0:0:0:0:
64,192,33142,1,0,0:0:0:0:
192,192,33229,1,2,0:0:0:0:
448,192,33229,1,0,0:0:0:0:
320,192,33317,1,0,0:0:0:0:
64,192,33404,1,0,0:0:0:0:
192,192,33491,1,2,0:0:0:0:
320,192,33491,1,0,0:0:0:0:
64,192,33578,1,0,0:0:0:50:LR_J Hit Drum_Reverb.wav
448,192,33578,1,0,0:0:0:0:
320,192,33665,1,0,0:0:0:0:
192,192,33753,1,0,0:0:0:0:
320,192,33840,1,2,0:0:0:0:
64,192,33927,128,2,34276:0:0:0:0:
448,192,33927,128,0,34276:0:0:0:0:
192,192,34276,1,2,0:0:0:0:
320,192,34276,1,0,0:0:0:0:
64,192,34363,1,0,0:0:0:0:
448,192,34363,1,0,0:0:0:0:
320,192,34450,1,0,0:0:0:0:
64,192,34538,1,2,0:0:0:0:
192,192,34538,1,0,0:0:0:0:
320,192,34625,1,8,0:0:0:0:
448,192,34625,1,0,0:0:0:0:
192,192,34712,1,0,0:0:0:0:
64,192,34799,1,2,0:0:0:0:
448,192,34799,1,0,0:0:0:0:
192,192,34886,1,0,0:0:0:0:
320,192,34886,1,0,0:0:0:0:
64,192,34974,1,2,0:0:0:0:
448,192,34974,1,0,0:0:0:0:
320,192,35061,1,0,0:0:0:0:
64,192,35148,1,0,0:0:0:0:
192,192,35148,1,0,0:0:0:0:
320,192,35235,1,2,0:0:0:0:
448,192,35235,1,0,0:0:0:0:
64,192,35322,1,8,0:0:0:0:
192,192,35322,1,0,0:0:0:0:
448,192,35410,1,0,0:0:0:0:
64,192,35497,1,2,0:0:0:0:
192,192,35497,1,0,0:0:0:0:
320,192,35584,1,0,0:0:0:0:
64,192,35671,1,2,0:0:0:0:
448,192,35671,1,0,0:0:0:0:
192,192,35758,1,0,0:0:0:0:
320,192,35758,1,0,0:0:0:0:
64,192,35846,1,0,0:0:0:0:
320,192,35933,1,2,0:0:0:0:
448,192,35933,1,0,0:0:0:0:
64,192,36020,1,8,0:0:0:0:
192,192,36020,1,0,0:0:0:0:
320,192,36107,1,0,0:0:0:0:
64,192,36194,1,2,0:0:0:0:
448,192,36194,1,0,0:0:0:0:
192,192,36282,1,0,0:0:0:0:
320,192,36282,1,0,0:0:0:0:
64,192,36369,1,2,0:0:0:0:
448,192,36369,1,0,0:0:0:0:
192,192,36456,1,0,0:0:0:0:
320,192,36543,1,0,0:0:0:0:
448,192,36543,1,0,0:0:0:0:
64,192,36631,1,2,0:0:0:0:
192,192,36631,1,0,0:0:0:0:
320,192,36718,1,8,0:0:0:0:
448,192,36718,1,0,0:0:0:0:
64,192,36805,1,0,0:0:0:0:
320,192,36892,1,2,0:0:0:0:
448,192,36892,1,0,0:0:0:0:
64,192,36979,1,8,0:0:0:0:
192,192,36979,1,0,0:0:0:0:
320,192,37067,1,2,0:0:0:0:
448,192,37067,1,0,0:0:0:0:
64,192,37154,1,0,0:0:0:0:
192,192,37154,1,0,0:0:0:0:
320,192,37241,1,0,0:0:0:0:
64,192,37328,1,2,0:0:0:0:
192,192,37328,1,0,0:0:0:0:
320,192,37415,1,8,0:0:0:0:
448,192,37415,1,0,0:0:0:0:
192,192,37503,1,0,0:0:0:0:
64,192,37590,1,2,0:0:0:0:
448,192,37590,1,0,0:0:0:0:
192,192,37677,1,0,0:0:0:0:
320,192,37677,1,0,0:0:0:0:
64,192,37764,1,2,0:0:0:0:
448,192,37764,1,0,0:0:0:0:
320,192,37851,1,0,0:0:0:0:
64,192,37939,1,0,0:0:0:0:
192,192,37939,1,0,0:0:0:0:
320,192,38026,1,2,0:0:0:0:
448,192,38026,1,0,0:0:0:0:
64,192,38113,1,8,0:0:0:0:
192,192,38113,1,0,0:0:0:0:
448,192,38200,1,0,0:0:0:0:
64,192,38288,1,2,0:0:0:0:
192,192,38288,1,0,0:0:0:0:
320,192,38375,1,0,0:0:0:0:
64,192,38462,1,2,0:0:0:0:
448,192,38462,1,0,0:0:0:0:
192,192,38549,1,0,0:0:0:0:
320,192,38549,1,0,0:0:0:0:
64,192,38636,1,0,0:0:0:0:
320,192,38724,1,2,0:0:0:0:
448,192,38724,1,0,0:0:0:0:
64,192,38811,1,8,0:0:0:0:
192,192,38811,1,0,0:0:0:0:
320,192,38898,1,0,0:0:0:0:
64,192,38985,1,2,0:0:0:0:
448,192,38985,1,0,0:0:0:0:
192,192,39072,1,0,0:0:0:0:
320,192,39072,1,0,0:0:0:0:
64,192,39160,1,2,0:0:0:0:
448,192,39160,1,0,0:0:0:0:
192,192,39247,1,0,0:0:0:0:
320,192,39334,1,0,0:0:0:0:
448,192,39334,1,0,0:0:0:0:
64,192,39421,1,2,0:0:0:0:
192,192,39421,1,0,0:0:0:0:
320,192,39508,1,8,0:0:0:0:
448,192,39508,1,0,0:0:0:0:
64,192,39596,1,0,0:0:0:0:
320,192,39683,1,2,0:0:0:0:
448,192,39683,1,0,0:0:0:0:
64,192,39770,1,8,0:0:0:0:
192,192,39770,1,0,0:0:0:0:
320,192,39857,1,2,0:0:0:0:
448,192,39857,1,0,0:0:0:0:
64,192,39944,1,0,0:0:0:0:
320,192,40032,1,2,0:0:0:0:
448,192,40032,1,0,0:0:0:0:
64,192,40119,1,0,0:0:0:0:
320,192,40206,1,2,0:0:0:0:
448,192,40206,1,0,0:0:0:0:
192,192,40293,1,0,0:0:0:0:
320,192,40381,1,2,0:0:0:0:
448,192,40381,1,0,0:0:0:0:
192,192,40468,1,0,0:0:0:0:
64,192,40555,1,2,0:0:0:0:
320,192,40555,1,0,0:0:0:0:
448,192,40642,1,0,0:0:0:0:
64,192,40729,1,2,0:0:0:0:
192,192,40729,1,0,0:0:0:0:
448,192,40817,1,0,0:0:0:0:
64,192,40904,1,2,0:0:0:0:
192,192,40904,1,0,0:0:0:0:
320,192,40991,1,0,0:0:0:0:
64,192,41078,1,2,0:0:0:0:
192,192,41078,1,0,0:0:0:0:
320,192,41165,1,0,0:0:0:0:
192,192,41253,1,2,0:0:0:0:
448,192,41253,1,0,0:0:0:0:
64,192,41340,1,0,0:0:0:0:
320,192,41427,1,2,0:0:0:0:
448,192,41427,1,0,0:0:0:0:
64,192,41514,1,0,0:0:0:0:
320,192,41601,1,2,0:0:0:0:
448,192,41601,1,0,0:0:0:0:
192,192,41689,1,0,0:0:0:0:
320,192,41776,1,2,0:0:0:0:
448,192,41776,1,0,0:0:0:0:
192,192,41863,1,0,0:0:0:0:
64,192,41950,1,2,0:0:0:0:
320,192,41950,1,0,0:0:0:0:
448,192,42038,1,0,0:0:0:0:
64,192,42125,1,2,0:0:0:0:
192,192,42125,1,0,0:0:0:0:
448,192,42212,1,0,0:0:0:0:
64,192,42299,1,2,0:0:0:0:
192,192,42299,1,0,0:0:0:0:
320,192,42386,1,0,0:0:0:0:
64,192,42474,1,2,0:0:0:0:
448,192,42474,1,0,0:0:0:0:
192,192,42561,1,0,0:0:0:0:
320,192,42648,1,2,0:0:0:0:
448,192,42648,1,0,0:0:0:0:
64,192,42735,1,2,0:0:0:0:
192,192,42735,1,0,0:0:0:0:
320,192,42822,1,2,0:0:0:0:
448,192,42822,1,0,0:0:0:0:
64,192,42910,1,2,0:0:0:0:
192,192,42910,1,0,0:0:0:0:
320,192,42997,1,2,0:0:0:0:
448,192,42997,1,0,0:0:0:0:
64,192,43084,1,2,0:0:0:0:
192,192,43084,1,0,0:0:0:0:
320,192,43171,1,2,0:0:0:0:
448,192,43171,1,0,0:0:0:0:
64,192,43258,1,2,0:0:0:0:
192,192,43258,1,0,0:0:0:0:
320,192,43346,1,2,0:0:0:0:
448,192,43346,1,0,0:0:0:0:
64,192,43433,1,2,0:0:0:0:
192,192,43433,1,0,0:0:0:0:
320,192,43520,1,2,0:0:0:0:
448,192,43520,1,0,0:0:0:0:
64,192,43607,1,2,0:0:0:0:
192,192,43607,1,0,0:0:0:0:
320,192,43694,1,2,0:0:0:0:
448,192,43694,1,0,0:0:0:0:
64,192,43782,1,2,0:0:0:0:
192,192,43782,1,0,0:0:0:0:
320,192,43869,1,2,0:0:0:0:
448,192,43869,1,0,0:0:0:0:
64,192,43956,1,2,0:0:0:0:
192,192,43956,1,0,0:0:0:0:
320,192,44131,128,0,44305:0:0:0:0:
448,192,44392,128,0,44567:0:0:0:0:
192,192,44654,128,0,44828:0:0:0:0:
64,192,44915,128,0,45090:0:0:0:0:
64,192,45439,1,2,0:0:0:0:
448,192,45439,128,0,45700:0:0:0:0:
320,192,45526,128,0,45700:0:0:0:0:
192,192,45613,128,0,45788:0:0:0:0:
64,192,45700,128,0,45788:0:0:0:0:
320,192,45788,1,8,0:0:0:0:
448,192,45788,1,0,0:0:0:0:
448,192,45962,1,0,0:0:0:0:
64,192,46049,1,2,0:0:0:0:
192,192,46049,128,0,46136:0:0:0:0:
448,192,46224,128,0,46311:0:0:0:0:
64,192,46311,1,2,0:0:0:0:
192,192,46311,1,0,0:0:0:0:
320,192,46398,128,0,46529:0:0:0:0:
64,192,46485,128,8,46747:0:0:0:0:
448,192,46485,1,0,0:0:0:0:
192,192,46529,128,0,46660:0:0:0:0:
320,192,46660,1,0,0:0:0:0:
192,192,46747,1,0,0:0:0:0:
64,192,46834,1,2,0:0:0:0:
448,192,46834,128,0,47096:0:0:0:0:
320,192,46921,128,0,47096:0:0:0:0:
192,192,47008,128,0,47183:0:0:0:0:
64,192,47096,128,0,47183:0:0:0:0:
320,192,47183,1,8,0:0:0:0:
448,192,47183,1,0,0:0:0:0:
448,192,47357,1,0,0:0:0:0:
64,192,47444,1,2,0:0:0:0:
192,192,47444,1,0,0:0:0:0:
192,192,47619,1,2,0:0:0:0:
320,192,47619,1,0,0:0:0:0:
64,192,47706,128,2,47968:0:0:0:0:
448,192,47706,1,0,0:0:0:0:
192,192,47881,128,8,47968:0:0:0:0:
320,192,47881,128,0,47968:0:0:0:0:
448,192,47881,128,0,47968:0:0:0:0:
320,192,48055,1,0,0:0:0:0:
192,192,48142,1,0,0:0:0:0:
64,192,48229,1,2,0:0:0:0:
448,192,48229,128,0,48491:0:0:0:0:
320,192,48317,128,0,48491:0:0:0:0:
192,192,48404,128,0,48578:0:0:0:0:
64,192,48491,128,0,48578:0:0:0:0:
320,192,48578,1,8,0:0:0:0:
448,192,48578,1,0,0:0:0:0:
448,192,48753,1,0,0:0:0:0:
64,192,48840,1,2,0:0:0:0:
192,192,48840,128,0,48927:0:0:0:0:
448,192,49014,128,0,49101:0:0:0:0:
64,192,49101,1,2,0:0:0:0:
192,192,49101,1,0,0:0:0:0:
320,192,49189,128,0,49319:0:0:0:0:
64,192,49276,128,8,49538:0:0:0:0:
448,192,49276,1,0,0:0:0:0:
192,192,49319,128,0,49450:0:0:0:0:
448,192,49450,1,0,0:0:0:0:
320,192,49538,128,0,49625:0:0:0:0:
64,192,49625,1,2,0:0:0:0:
192,192,49625,128,0,49712:0:0:0:0:
320,192,49712,128,0,49886:0:0:0:0:
64,192,49799,128,0,49974:0:0:0:0:
192,192,49974,1,8,0:0:0:0:
320,192,49974,1,0,0:0:0:0:
448,192,49974,128,0,50148:0:0:0:0:
320,192,50148,1,0,0:0:0:0:
64,192,50235,1,2,0:0:0:0:
192,192,50235,128,0,50410:0:0:0:0:
320,192,50410,1,2,0:0:0:0:
448,192,50410,1,0,0:0:0:0:
64,192,50497,128,2,50671:0:0:0:0:
192,192,50497,1,0,0:0:0:0:
192,192,50671,1,8,0:0:0:0:
448,192,50671,1,0,0:0:0:0:
320,192,50715,1,0,0:0:0:0:
320,192,50846,1,0,0:0:0:0:
192,192,50889,1,0,0:0:0:0:
64,192,51020,1,2,0:0:0:0:
448,192,51020,128,0,51282:0:0:0:0:
320,192,51107,128,0,51282:0:0:0:0:
192,192,51194,128,0,51369:0:0:0:0:
64,192,51282,128,0,51369:0:0:0:0:
320,192,51369,1,8,0:0:0:0:
448,192,51369,1,0,0:0:0:0:
448,192,51543,1,0,0:0:0:0:
64,192,51631,1,2,0:0:0:0:
192,192,51631,128,0,51718:0:0:0:0:
448,192,51805,128,0,51892:0:0:0:0:
64,192,51892,1,2,0:0:0:0:
192,192,51892,1,0,0:0:0:0:
320,192,51979,128,0,52110:0:0:0:0:
64,192,52067,128,8,52328:0:0:0:0:
448,192,52067,1,0,0:0:0:0:
192,192,52110,128,0,52241:0:0:0:0:
320,192,52241,1,0,0:0:0:0:
192,192,52328,1,0,0:0:0:0:
64,192,52415,1,2,0:0:0:0:
448,192,52415,128,0,52677:0:0:0:0:
320,192,52503,128,0,52677:0:0:0:0:
192,192,52590,128,0,52764:0:0:0:0:
64,192,52677,128,0,52764:0:0:0:0:
320,192,52764,1,8,0:0:0:0:
448,192,52764,1,0,0:0:0:0:
448,192,52939,1,0,0:0:0:0:
64,192,53026,1,2,0:0:0:0:
192,192,53026,1,0,0:0:0:0:
192,192,53200,1,2,0:0:0:0:
320,192,53200,1,0,0:0:0:0:
64,192,53288,128,2,53549:0:0:0:0:
448,192,53288,1,0,0:0:0:0:
192,192,53462,128,8,53549:0:0:0:0:
320,192,53462,128,0,53549:0:0:0:0:
448,192,53462,128,0,53549:0:0:0:0:
320,192,53636,1,0,0:0:0:0:
64,192,53811,1,2,0:0:0:0:
448,192,53811,128,0,54072:0:0:0:0:
320,192,53898,128,0,54072:0:0:0:0:
192,192,53985,128,0,54160:0:0:0:0:
64,192,54072,128,0,54160:0:0:0:0:
320,192,54160,1,8,0:0:0:0:
448,192,54160,1,0,0:0:0:0:
448,192,54334,1,0,0:0:0:0:
64,192,54421,128,2,54596:0:0:0:0:
192,192,54421,128,0,54596:0:0:0:0:
320,192,54596,1,2,0:0:0:0:
448,192,54596,1,0,0:0:0:0:
64,192,54683,1,2,0:0:0:0:
192,192,54683,1,0,0:0:0:0:
320,192,54770,128,0,54901:0:0:0:0:
64,192,54857,128,8,55119:0:0:0:0:
448,192,54857,1,0,0:0:0:0:
192,192,54901,128,0,55032:0:0:0:0:
448,192,55032,1,0,0:0:0:0:
320,192,55119,128,0,55206:0:0:0:0:
64,192,55206,1,2,0:0:0:0:
192,192,55206,128,0,55293:0:0:0:0:
320,192,55293,128,0,55468:0:0:0:0:
64,192,55381,128,0,55555:0:0:0:0:
192,192,55555,1,8,0:0:0:0:
320,192,55555,1,0,0:0:0:0:
448,192,55555,128,0,55729:0:0:0:0:
64,192,55729,1,0,0:0:0:0:
192,192,55817,128,2,55991:0:0:0:0:
320,192,55817,1,0,0:0:0:0:
448,192,55904,1,2,0:0:0:0:
64,192,55947,1,0,0:0:0:0:
448,192,55991,1,2,0:0:0:0:
64,192,56078,128,2,56253:0:0:0:0:
192,192,56078,1,0,0:0:0:0:
192,192,56253,1,8,0:0:0:0:
320,192,56253,128,0,56514:0:0:0:0:
448,192,56253,1,0,0:0:0:0:
192,192,56427,128,0,56601:0:0:0:0:
64,192,56601,1,2,0:0:0:0:
448,192,56601,128,0,56863:0:0:0:0:
320,192,56689,128,0,56863:0:0:0:0:
192,192,56776,128,0,56950:0:0:0:0:
64,192,56863,128,0,56950:0:0:0:0:
320,192,56950,1,8,0:0:0:0:
448,192,56950,1,0,0:0:0:0:
448,192,57125,1,0,0:0:0:0:
64,192,57212,1,2,0:0:0:0:
192,192,57212,128,0,57299:0:0:0:0:
448,192,57386,128,0,57474:0:0:0:0:
64,192,57474,1,2,0:0:0:0:
192,192,57474,1,0,0:0:0:0:
320,192,57561,128,0,57692:0:0:0:0:
64,192,57648,128,8,57910:0:0:0:0:
448,192,57648,1,0,0:0:0:0:
192,192,57692,128,0,57822:0:0:0:0:
320,192,57822,1,0,0:0:0:0:
192,192,57910,1,0,0:0:0:0:
64,192,57997,1,2,0:0:0:0:
448,192,57997,128,0,58258:0:0:0:0:
320,192,58084,128,0,58258:0:0:0:0:
192,192,58171,128,0,58346:0:0:0:0:
64,192,58258,128,0,58346:0:0:0:0:
320,192,58346,1,8,0:0:0:0:
448,192,58346,1,0,0:0:0:0:
448,192,58520,1,0,0:0:0:0:
64,192,58607,1,2,0:0:0:0:
192,192,58607,1,0,0:0:0:0:
192,192,58782,1,2,0:0:0:0:
320,192,58782,1,0,0:0:0:0:
64,192,58869,128,2,59131:0:0:0:0:
448,192,58869,1,0,0:0:0:0:
192,192,59043,128,8,59131:0:0:0:0:
448,192,59043,128,0,59131:0:0:0:0:
320,192,59131,128,0,59218:0:0:0:0:
192,192,59218,128,0,59305:0:0:0:0:
64,192,59305,128,0,59392:0:0:0:0:
192,192,59392,1,2,0:0:0:0:
448,192,59392,128,0,59654:0:0:0:0:
320,192,59479,128,0,59654:0:0:0:0:
192,192,59567,128,0,59741:0:0:0:0:
64,192,59654,128,0,59741:0:0:0:0:
320,192,59741,1,8,0:0:0:0:
448,192,59741,1,0,0:0:0:0:
448,192,59915,1,0,0:0:0:0:
64,192,60003,1,2,0:0:0:0:
192,192,60003,128,0,60090:0:0:0:0:
448,192,60177,128,0,60264:0:0:0:0:
64,192,60264,1,2,0:0:0:0:
192,192,60264,1,0,0:0:0:0:
320,192,60351,128,0,60482:0:0:0:0:
64,192,60439,128,8,60700:0:0:0:0:
448,192,60439,1,0,0:0:0:0:
192,192,60482,128,0,60613:0:0:0:0:
448,192,60613,1,0,0:0:0:0:
320,192,60700,128,0,60788:0:0:0:0:
64,192,60788,1,2,0:0:0:0:
192,192,60788,128,0,60875:0:0:0:0:
320,192,60875,128,0,61049:0:0:0:0:
64,192,60962,128,0,61136:0:0:0:0:
192,192,61136,1,8,0:0:0:0:
320,192,61136,1,0,0:0:0:0:
448,192,61136,128,0,61311:0:0:0:0:
320,192,61311,1,0,0:0:0:0:
64,192,61398,1,2,0:0:0:0:
192,192,61398,128,0,61572:0:0:0:0:
320,192,61572,1,2,0:0:0:0:
448,192,61572,1,0,0:0:0:0:
64,192,61660,128,2,61834:0:0:0:0:
192,192,61660,1,0,0:0:0:0:
192,192,61834,1,8,0:0:0:0:
448,192,61834,1,0,0:0:0:0:
320,192,61878,1,0,0:0:0:0:
320,192,62008,1,0,0:0:0:0:
192,192,62052,1,0,0:0:0:0:
64,192,62183,1,2,0:0:0:0:
448,192,62183,128,0,62444:0:0:0:0:
320,192,62270,128,0,62444:0:0:0:0:
192,192,62357,128,0,62532:0:0:0:0:
64,192,62444,128,0,62532:0:0:0:0:
320,192,62532,1,8,0:0:0:0:
448,192,62532,1,0,0:0:0:0:
448,192,62706,1,0,0:0:0:0:
64,192,62793,1,2,0:0:0:0:
192,192,62793,128,0,62881:0:0:0:0:
448,192,62968,128,0,63055:0:0:0:0:
64,192,63055,1,2,0:0:0:0:
192,192,63055,1,0,0:0:0:0:
320,192,63142,128,0,63273:0:0:0:0:
64,192,63229,128,8,63491:0:0:0:0:
448,192,63229,1,0,0:0:0:0:
192,192,63273,128,0,63404:0:0:0:0:
320,192,63404,1,0,0:0:0:0:
192,192,63491,1,0,0:0:0:0:
64,192,63578,1,2,0:0:0:0:
448,192,63578,128,0,63840:0:0:0:0:
320,192,63665,128,0,63840:0:0:0:0:
192,192,63753,128,0,63927:0:0:0:0:
64,192,63840,128,0,63927:0:0:0:0:
320,192,63927,1,8,0:0:0:0:
448,192,63927,1,0,0:0:0:0:
448,192,64101,1,0,0:0:0:0:
64,192,64189,1,2,0:0:0:0:
192,192,64189,1,0,0:0:0:0:
192,192,64363,1,2,0:0:0:0:
320,192,64363,1,0,0:0:0:0:
64,192,64450,128,2,64712:0:0:0:0:
448,192,64450,1,0,0:0:0:0:
192,192,64625,128,8,64712:0:0:0:0:
448,192,64625,128,0,64712:0:0:0:0:
320,192,64712,128,0,64799:0:0:0:0:
192,192,64799,128,0,64886:0:0:0:0:
64,192,64886,128,0,64974:0:0:0:0:
192,192,64974,1,2,0:0:0:0:
448,192,64974,128,0,65235:0:0:0:0:
320,192,65061,128,0,65235:0:0:0:0:
192,192,65148,128,0,65322:0:0:0:0:
64,192,65235,128,0,65322:0:0:0:0:
320,192,65322,1,8,0:0:0:0:
448,192,65322,1,0,0:0:0:0:
448,192,65497,1,0,0:0:0:0:
64,192,65584,128,2,65758:0:0:0:0:
192,192,65584,128,0,65758:0:0:0:0:
320,192,65758,1,2,0:0:0:0:
448,192,65758,1,0,0:0:0:0:
64,192,65846,1,2,0:0:0:0:
192,192,65846,1,0,0:0:0:0:
320,192,65933,128,0,66064:0:0:0:0:
64,192,66020,128,8,66282:0:0:0:0:
448,192,66020,1,0,0:0:0:0:
192,192,66064,128,0,66194:0:0:0:0:
448,192,66194,1,0,0:0:0:0:
320,192,66282,128,0,66369:0:0:0:0:
64,192,66369,1,2,0:0:0:0:
192,192,66369,128,0,66456:0:0:0:0:
320,192,66456,128,0,66631:0:0:0:0:
64,192,66543,128,0,66718:0:0:0:0:
320,192,66718,1,8,0:0:0:0:
448,192,66718,128,0,66892:0:0:0:0:
64,192,66892,1,0,0:0:0:0:
192,192,66979,128,2,67154:0:0:0:0:
320,192,66979,1,0,0:0:0:0:
64,192,67067,1,0,0:0:0:0:
448,192,67125,1,0,0:0:0:0:
320,192,67183,1,0,0:0:0:0:
64,192,67241,1,0,0:0:0:0:
448,192,67285,128,0,67415:0:0:0:0:
320,192,67415,128,0,67590:0:0:0:0:
192,192,67503,128,0,67677:0:0:0:0:
64,192,67764,1,2,0:0:0:0:
448,192,67764,1,0,0:0:0:0:
192,192,67851,1,0,0:0:0:0:
320,192,67851,128,0,68026:0:0:0:0:
64,192,68113,128,8,68811:0:0:0:0:
192,192,68113,1,0,0:0:0:0:
448,192,68113,128,0,68288:0:0:0:0:
320,192,68375,128,0,68549:0:0:0:0:
192,192,68636,128,0,68811:0:0:0:0:
320,192,68811,1,8,0:0:0:0:
448,192,68811,1,0,0:0:0:0:
64,192,68898,1,2,0:0:0:0:
192,192,68898,1,0,0:0:0:0:
320,192,68985,1,0,0:0:0:0:
448,192,69072,1,0,0:0:0:0:
64,192,69160,1,2,0:0:0:0:
192,192,69160,1,0,0:0:0:0:
320,192,69247,1,0,0:0:0:0:
448,192,69334,1,0,0:0:0:0:
192,192,69421,1,0,0:0:0:0:
64,192,69508,1,8,0:0:0:0:
320,192,69508,1,0,0:0:0:0:
192,192,69596,1,0,0:0:0:0:
448,192,69683,1,0,0:0:0:0:
320,192,69770,1,0,0:0:0:0:
192,192,69857,1,0,0:0:0:0:
64,192,69944,1,2,0:0:0:0:
448,192,69944,1,0,0:0:0:0:
320,192,70032,1,0,0:0:0:0:
192,192,70119,1,0,0:0:0:0:
320,192,70206,1,8,0:0:0:0:
448,192,70206,1,0,0:0:0:0:
64,192,70293,1,2,0:0:0:0:
192,192,70293,1,0,0:0:0:0:
320,192,70381,1,0,0:0:0:0:
192,192,70468,1,0,0:0:0:0:
64,192,70555,1,2,0:0:0:0:
320,192,70555,1,0,0:0:0:0:
192,192,70642,128,0,70817:0:0:0:0:
448,192,70642,1,0,0:0:0:0:
320,192,70904,128,8,71078:0:0:0:0:
448,192,70904,128,0,71601:0:0:0:0:
64,192,70947,128,0,71340:0:0:0:0:
192,192,71165,128,0,71340:0:0:0:0:
64,192,71427,128,0,71601:0:0:0:0:
192,192,71601,1,8,0:0:0:0:
320,192,71601,1,0,0:0:0:0:
64,192,71689,1,2,0:0:0:0:
448,192,71689,1,0,0:0:0:0:
320,192,71776,1,0,0:0:0:0:
192,192,71863,1,0,0:0:0:0:
64,192,71950,1,2,0:0:0:0:
448,192,71950,1,0,0:0:0:0:
320,192,72038,1,0,0:0:0:0:
448,192,72125,1,0,0:0:0:0:
64,192,72212,1,0,0:0:0:0:
192,192,72299,1,8,0:0:0:0:
320,192,72299,1,0,0:0:0:0:
448,192,72386,1,0,0:0:0:0:
64,192,72474,1,0,0:0:0:0:
320,192,72561,1,0,0:0:0:0:
448,192,72648,1,0,0:0:0:0:
64,192,72735,1,2,0:0:0:0:
192,192,72735,1,0,0:0:0:0:
320,192,72822,1,0,0:0:0:0:
448,192,72910,1,0,0:0:0:0:
64,192,72997,1,8,0:0:0:0:
192,192,72997,1,0,0:0:0:0:
320,192,73084,1,2,0:0:0:0:
448,192,73084,1,0,0:0:0:0:
192,192,73171,1,0,0:0:0:0:
320,192,73258,1,0,0:0:0:0:
64,192,73346,1,2,0:0:0:0:
448,192,73346,1,0,0:0:0:0:
192,192,73433,1,0,0:0:0:0:
320,192,73433,128,0,73607:0:0:0:0:
64,192,73607,128,0,73869:0:0:0:0:
192,192,73694,1,8,0:0:0:0:
448,192,73694,128,0,73869:0:0:0:0:
192,192,73869,128,0,74392:0:0:0:0:
320,192,73956,128,0,74131:0:0:0:0:
64,192,74218,128,0,74392:0:0:0:0:
320,192,74392,1,8,0:0:0:0:
448,192,74392,1,0,0:0:0:0:
64,192,74479,1,2,0:0:0:0:
192,192,74479,1,0,0:0:0:0:
320,192,74567,1,0,0:0:0:0:
448,192,74654,1,0,0:0:0:0:
64,192,74741,1,2,0:0:0:0:
192,192,74741,1,0,0:0:0:0:
320,192,74828,1,0,0:0:0:0:
448,192,74915,1,0,0:0:0:0:
192,192,75003,1,0,0:0:0:0:
64,192,75090,1,8,0:0:0:0:
448,192,75090,1,0,0:0:0:0:
320,192,75177,1,0,0:0:0:0:
64,192,75264,1,0,0:0:0:0:
192,192,75351,1,0,0:0:0:0:
448,192,75439,1,0,0:0:0:0:
192,192,75526,1,2,0:0:0:0:
320,192,75526,1,0,0:0:0:0:
64,192,75613,1,0,0:0:0:0:
192,192,75700,1,0,0:0:0:0:
320,192,75788,1,8,0:0:0:0:
448,192,75788,1,0,0:0:0:0:
64,192,75875,1,2,0:0:0:0:
192,192,75875,1,0,0:0:0:0:
448,192,75962,1,0,0:0:0:0:
192,192,76049,1,0,0:0:0:0:
64,192,76136,1,2,0:0:0:0:
320,192,76136,1,0,0:0:0:0:
192,192,76224,128,0,76398:0:0:0:0:
448,192,76224,1,0,0:0:0:0:
320,192,76485,128,8,76660:0:0:0:0:
448,192,76485,128,0,77183:0:0:0:0:
64,192,76529,128,0,76921:0:0:0:0:
192,192,76747,128,0,76921:0:0:0:0:
64,192,77008,128,0,77183:0:0:0:0:
192,192,77183,1,8,0:0:0:0:
320,192,77183,1,0,0:0:0:0:
64,192,77270,1,2,0:0:0:0:
448,192,77270,1,0,0:0:0:0:
320,192,77357,1,0,0:0:0:0:
192,192,77444,1,0,0:0:0:0:
64,192,77532,1,2,0:0:0:0:
448,192,77532,1,0,0:0:0:0:
192,192,77619,1,0,0:0:0:0:
320,192,77706,1,0,0:0:0:0:
64,192,77793,1,0,0:0:0:0:
192,192,77881,1,8,0:0:0:0:
448,192,77881,1,0,0:0:0:0:
320,192,77968,1,0,0:0:0:0:
64,192,78055,1,0,0:0:0:0:
448,192,78142,1,0,0:0:0:0:
64,192,78229,1,0,0:0:0:0:
320,192,78317,1,2,0:0:0:0:
448,192,78317,1,0,0:0:0:0:
64,192,78404,1,0,0:0:0:0:
448,192,78491,1,0,0:0:0:0:
64,192,78578,1,8,0:0:0:0:
192,192,78578,1,0,0:0:0:0:
320,192,78665,1,2,0:0:0:0:
448,192,78665,1,0,0:0:0:0:
64,192,78753,1,0,0:0:0:0:
448,192,78840,1,0,0:0:0:0:
192,192,78927,1,2,0:0:0:0:
320,192,78927,1,0,0:0:0:0:
64,192,79014,1,0,0:0:0:0:
448,192,79014,1,0,0:0:0:0:
320,192,79101,1,0,0:0:0:0:
64,192,79189,1,2,0:0:0:0:
192,192,79189,1,0,0:0:0:0:
320,192,79276,1,8,0:0:0:0:
448,192,79276,1,0,0:0:0:0:
192,192,79363,1,0,0:0:0:0:
64,192,79450,1,2,0:0:0:0:
448,192,79450,1,0,0:0:0:0:
192,192,79538,1,0,0:0:0:0:
320,192,79538,1,0,0:0:0:0:
64,192,79625,1,2,0:0:0:0:
448,192,79625,1,0,0:0:0:0:
320,192,79712,1,0,0:0:0:0:
64,192,79799,1,0,0:0:0:0:
192,192,79799,1,0,0:0:0:0:
320,192,79886,1,2,0:0:0:0:
448,192,79886,1,0,0:0:0:0:
64,192,79974,1,8,0:0:0:0:
192,192,79974,1,0,0:0:0:0:
448,192,80061,1,0,0:0:0:0:
64,192,80148,1,2,0:0:0:0:
192,192,80148,1,0,0:0:0:0:
320,192,80235,1,0,0:0:0:0:
64,192,80322,1,2,0:0:0:0:
448,192,80322,1,0,0:0:0:0:
192,192,80410,1,0,0:0:0:0:
320,192,80410,1,0,0:0:0:0:
64,192,80497,1,0,0:0:0:0:
320,192,80584,1,2,0:0:0:0:
448,192,80584,1,0,0:0:0:0:
64,192,80671,1,8,0:0:0:0:
192,192,80671,1,0,0:0:0:0:
320,192,80758,1,0,0:0:0:0:
64,192,80846,1,2,0:0:0:0:
448,192,80846,1,0,0:0:0:0:
192,192,80933,1,0,0:0:0:0:
320,192,80933,1,0,0:0:0:0:
64,192,81020,1,2,0:0:0:0:
448,192,81020,1,0,0:0:0:0:
192,192,81107,1,0,0:0:0:0:
320,192,81194,1,0,0:0:0:0:
448,192,81194,1,0,0:0:0:0:
64,192,81282,1,2,0:0:0:0:
192,192,81282,1,0,0:0:0:0:
320,192,81369,1,8,0:0:0:0:
448,192,81369,1,0,0:0:0:0:
64,192,81456,1,0,0:0:0:0:
320,192,81543,1,2,0:0:0:0:
448,192,81543,1,0,0:0:0:0:
64,192,81631,1,8,0:0:0:0:
192,192,81631,1,0,0:0:0:0:
320,192,81718,1,2,0:0:0:0:
448,192,81718,1,0,0:0:0:0:
64,192,81805,1,0,0:0:0:0:
192,192,81805,1,0,0:0:0:0:
320,192,81892,1,0,0:0:0:0:
64,192,81979,1,2,0:0:0:0:
192,192,81979,1,0,0:0:0:0:
320,192,82067,1,8,0:0:0:0:
448,192,82067,1,0,0:0:0:0:
192,192,82154,1,0,0:0:0:0:
64,192,82241,1,2,0:0:0:0:
448,192,82241,1,0,0:0:0:0:
192,192,82328,1,0,0:0:0:0:
320,192,82328,1,0,0:0:0:0:
64,192,82415,1,2,0:0:0:0:
448,192,82415,1,0,0:0:0:0:
320,192,82503,1,0,0:0:0:0:
64,192,82590,1,0,0:0:0:0:
192,192,82590,1,0,0:0:0:0:
320,192,82677,1,2,0:0:0:0:
448,192,82677,1,0,0:0:0:0:
64,192,82764,1,8,0:0:0:0:
192,192,82764,1,0,0:0:0:0:
448,192,82851,1,0,0:0:0:0:
64,192,82939,1,2,0:0:0:0:
192,192,82939,1,0,0:0:0:0:
320,192,83026,1,0,0:0:0:0:
64,192,83113,1,2,0:0:0:0:
448,192,83113,1,0,0:0:0:0:
192,192,83200,1,0,0:0:0:0:
320,192,83200,1,0,0:0:0:0:
64,192,83288,1,0,0:0:0:0:
320,192,83375,1,2,0:0:0:0:
448,192,83375,1,0,0:0:0:0:
64,192,83462,1,8,0:0:0:0:
192,192,83462,1,0,0:0:0:0:
320,192,83549,1,0,0:0:0:0:
64,192,83636,1,2,0:0:0:0:
448,192,83636,1,0,0:0:0:0:
192,192,83724,1,0,0:0:0:0:
320,192,83724,1,0,0:0:0:0:
64,192,83811,1,2,0:0:0:0:
448,192,83811,1,0,0:0:0:0:
192,192,83898,1,0,0:0:0:0:
320,192,83985,1,0,0:0:0:0:
448,192,83985,1,0,0:0:0:0:
64,192,84072,1,2,0:0:0:0:
192,192,84072,1,0,0:0:0:0:
320,192,84160,1,8,0:0:0:0:
448,192,84160,1,0,0:0:0:0:
64,192,84247,1,0,0:0:0:0:
320,192,84334,1,2,0:0:0:0:
448,192,84334,1,0,0:0:0:0:
64,192,84421,1,8,0:0:0:0:
192,192,84421,1,0,0:0:0:0:
320,192,84508,1,2,0:0:0:0:
448,192,84508,1,0,0:0:0:0:
64,192,84596,1,0,0:0:0:0:
320,192,84683,1,2,0:0:0:0:
448,192,84683,1,0,0:0:0:0:
64,192,84770,1,0,0:0:0:0:
320,192,84857,1,2,0:0:0:0:
448,192,84857,1,0,0:0:0:0:
192,192,84944,1,0,0:0:0:0:
320,192,85032,1,2,0:0:0:0:
448,192,85032,1,0,0:0:0:0:
192,192,85119,1,0,0:0:0:0:
64,192,85206,1,2,0:0:0:0:
320,192,85206,1,0,0:0:0:0:
448,192,85293,1,0,0:0:0:0:
64,192,85381,1,2,0:0:0:0:
192,192,85381,1,0,0:0:0:0:
448,192,85468,1,0,0:0:0:0:
64,192,85555,1,2,0:0:0:0:
192,192,85555,1,0,0:0:0:0:
320,192,85642,1,0,0:0:0:0:
64,192,85729,1,2,0:0:0:0:
192,192,85729,1,0,0:0:0:0:
320,192,85817,1,0,0:0:0:0:
192,192,85904,1,2,0:0:0:0:
448,192,85904,1,0,0:0:0:0:
64,192,85991,1,0,0:0:0:0:
320,192,86078,1,2,0:0:0:0:
448,192,86078,1,0,0:0:0:0:
64,192,86165,1,0,0:0:0:0:
320,192,86253,1,2,0:0:0:0:
448,192,86253,1,0,0:0:0:0:
192,192,86340,1,0,0:0:0:0:
320,192,86427,1,2,0:0:0:0:
448,192,86427,1,0,0:0:0:0:
192,192,86514,1,0,0:0:0:0:
64,192,86601,1,2,0:0:0:0:
320,192,86601,1,0,0:0:0:0:
448,192,86689,1,0,0:0:0:0:
64,192,86776,1,2,0:0:0:0:
192,192,86776,1,0,0:0:0:0:
448,192,86863,1,0,0:0:0:0:
64,192,86950,1,2,0:0:0:0:
192,192,86950,1,0,0:0:0:0:
320,192,87038,1,0,0:0:0:0:
64,192,87125,1,2,0:0:0:0:
448,192,87125,1,0,0:0:0:0:
192,192,87212,1,0,0:0:0:0:
320,192,87299,1,2,0:0:0:0:
448,192,87299,1,0,0:0:0:0:
64,192,87386,1,2,0:0:0:0:
192,192,87386,1,0,0:0:0:0:
320,192,87474,1,2,0:0:0:0:
448,192,87474,1,0,0:0:0:0:
64,192,87561,1,2,0:0:0:0:
192,192,87561,1,0,0:0:0:0:
320,192,87648,1,2,0:0:0:0:
448,192,87648,1,0,0:0:0:0:
64,192,87735,1,2,0:0:0:0:
192,192,87735,1,0,0:0:0:0:
320,192,87822,1,2,0:0:0:0:
448,192,87822,1,0,0:0:0:0:
64,192,87910,1,2,0:0:0:0:
192,192,87910,1,0,0:0:0:0:
320,192,87997,1,2,0:0:0:0:
448,192,87997,1,0,0:0:0:0:
64,192,88084,1,2,0:0:0:0:
192,192,88084,1,0,0:0:0:0:
320,192,88171,1,2,0:0:0:0:
448,192,88171,1,0,0:0:0:0:
64,192,88258,1,2,0:0:0:0:
192,192,88258,1,0,0:0:0:0:
320,192,88346,1,2,0:0:0:0:
448,192,88346,1,0,0:0:0:0:
64,192,88433,1,2,0:0:0:0:
192,192,88433,1,0,0:0:0:0:
320,192,88520,1,2,0:0:0:0:
448,192,88520,1,0,0:0:0:0:
64,192,88607,1,2,0:0:0:0:
192,192,88607,1,0,0:0:0:0:
320,192,88694,1,2,0:0:0:0:
448,192,88694,1,0,0:0:0:0:
192,192,88782,128,0,88956:0:0:0:0:
448,192,89043,128,0,89218:0:0:0:0:
320,192,89305,128,0,89479:0:0:0:0:
64,192,89392,1,2,0:0:0:0:
192,192,89392,128,0,90090:0:0:0:0:
64,192,89567,128,0,89741:0:0:0:0:
320,192,89567,128,0,90090:0:0:0:0:
64,192,90090,1,2,0:0:0:0:
448,192,90090,128,0,90351:0:0:0:0:
320,192,90177,128,0,90351:0:0:0:0:
192,192,90264,128,0,90439:0:0:0:0:
64,192,90351,128,0,90439:0:0:0:0:
320,192,90439,1,8,0:0:0:0:
448,192,90439,1,0,0:0:0:0:
448,192,90613,1,0,0:0:0:0:
64,192,90700,1,2,0:0:0:0:
192,192,90700,128,0,90788:0:0:0:0:
448,192,90875,128,0,90962:0:0:0:0:
64,192,90962,1,2,0:0:0:0:
192,192,90962,1,0,0:0:0:0:
320,192,91049,128,0,91180:0:0:0:0:
64,192,91136,128,8,91398:0:0:0:0:
448,192,91136,1,0,0:0:0:0:
192,192,91180,128,0,91311:0:0:0:0:
320,192,91311,1,0,0:0:0:0:
192,192,91398,1,0,0:0:0:0:
64,192,91485,1,2,0:0:0:0:
448,192,91485,128,0,91747:0:0:0:0:
320,192,91572,128,0,91747:0:0:0:0:
192,192,91660,128,0,91834:0:0:0:0:
64,192,91747,128,0,91834:0:0:0:0:
320,192,91834,1,8,0:0:0:0:
448,192,91834,1,0,0:0:0:0:
448,192,92008,1,0,0:0:0:0:
64,192,92096,1,2,0:0:0:0:
192,192,92096,1,0,0:0:0:0:
192,192,92270,1,2,0:0:0:0:
320,192,92270,1,0,0:0:0:0:
64,192,92357,128,2,92619:0:0:0:0:
448,192,92357,1,0,0:0:0:0:
192,192,92532,128,8,92619:0:0:0:0:
320,192,92532,128,0,92619:0:0:0:0:
448,192,92532,128,0,92619:0:0:0:0:
320,192,92706,1,0,0:0:0:0:
192,192,92793,1,0,0:0:0:0:
64,192,92881,1,2,0:0:0:0:
448,192,92881,128,0,93142:0:0:0:0:
320,192,92968,128,0,93142:0:0:0:0:
192,192,93055,128,0,93229:0:0:0:0:
64,192,93142,128,0,93229:0:0:0:0:
320,192,93229,1,8,0:0:0:0:
448,192,93229,1,0,0:0:0:0:
448,192,93404,1,0,0:0:0:0:
64,192,93491,1,2,0:0:0:0:
192,192,93491,128,0,93578:0:0:0:0:
448,192,93665,128,0,93753:0:0:0:0:
64,192,93753,1,2,0:0:0:0:
192,192,93753,1,0,0:0:0:0:
320,192,93840,128,0,93971:0:0:0:0:
64,192,93927,128,8,94189:0:0:0:0:
448,192,93927,1,0,0:0:0:0:
192,192,93971,128,0,94101:0:0:0:0:
448,192,94101,1,0,0:0:0:0:
320,192,94189,128,0,94276:0:0:0:0:
64,192,94276,1,2,0:0:0:0:
192,192,94276,128,0,94363:0:0:0:0:
320,192,94363,128,0,94538:0:0:0:0:
64,192,94450,128,0,94625:0:0:0:0:
192,192,94625,1,8,0:0:0:0:
320,192,94625,1,0,0:0:0:0:
448,192,94625,128,0,94799:0:0:0:0:
320,192,94799,1,0,0:0:0:0:
64,192,94886,1,2,0:0:0:0:
192,192,94886,128,0,95061:0:0:0:0:
448,192,94974,128,0,95061:0:0:0:0:
320,192,95061,1,0,0:0:0:0:
64,192,95148,128,0,95322:0:0:0:0:
192,192,95148,128,0,95235:0:0:0:0:
192,192,95322,1,8,0:0:0:0:
320,192,95322,128,0,95584:0:0:0:0:
448,192,95322,1,0,0:0:0:0:
192,192,95497,128,0,95671:0:0:0:0:
64,192,95671,1,2,0:0:0:0:
448,192,95671,128,0,95933:0:0:0:0:
320,192,95758,128,0,95933:0:0:0:0:
192,192,95846,128,0,96020:0:0:0:0:
64,192,95933,128,0,96020:0:0:0:0:
320,192,96020,1,8,0:0:0:0:
448,192,96020,1,0,0:0:0:0:
448,192,96194,128,0,96369:0:0:0:0:
64,192,96282,1,2,0:0:0:0:
192,192,96282,128,0,96369:0:0:0:0:
320,192,96369,128,0,96543:0:0:0:0:
448,192,96456,128,0,96543:0:0:0:0:
64,192,96543,128,2,96631:0:0:0:0:
192,192,96543,128,0,96718:0:0:0:0:
64,192,96718,128,8,96892:0:0:0:0:
320,192,96718,1,0,0:0:0:0:
448,192,96718,1,0,0:0:0:0:
192,192,96805,128,0,96892:0:0:0:0:
320,192,96892,128,0,97067:0:0:0:0:
192,192,96979,128,0,97067:0:0:0:0:
64,192,97067,1,2,0:0:0:0:
448,192,97067,128,0,97328:0:0:0:0:
320,192,97154,128,0,97328:0:0:0:0:
192,192,97241,128,0,97415:0:0:0:0:
64,192,97328,128,0,97415:0:0:0:0:
320,192,97415,1,8,0:0:0:0:
448,192,97415,128,0,97590:0:0:0:0:
320,192,97590,1,0,0:0:0:0:
64,192,97677,1,2,0:0:0:0:
192,192,97677,128,0,97851:0:0:0:0:
320,192,97764,128,0,97851:0:0:0:0:
64,192,97851,1,2,0:0:0:0:
448,192,97851,1,0,0:0:0:0:
192,192,97939,1,2,0:0:0:0:
320,192,97939,128,0,98026:0:0:0:0:
64,192,98026,128,0,98113:0:0:0:0:
192,192,98113,1,8,0:0:0:0:
320,192,98113,1,0,0:0:0:0:
448,192,98113,128,0,98288:0:0:0:0:
192,192,98288,128,0,98462:0:0:0:0:
64,192,98462,1,2,0:0:0:0:
448,192,98462,128,0,98724:0:0:0:0:
320,192,98549,128,0,98724:0:0:0:0:
192,192,98636,128,0,98811:0:0:0:0:
64,192,98724,128,0,98811:0:0:0:0:
320,192,98811,1,8,0:0:0:0:
448,192,98811,1,0,0:0:0:0:
448,192,98985,1,0,0:0:0:0:
64,192,99072,1,2,0:0:0:0:
192,192,99072,1,0,0:0:0:0:
320,192,99160,1,0,0:0:0:0:
448,192,99247,1,0,0:0:0:0:
64,192,99334,1,2,0:0:0:0:
192,192,99334,1,0,0:0:0:0:
64,192,99508,1,8,0:0:0:0:
320,192,99508,128,0,99596:0:0:0:0:
448,192,99508,1,0,0:0:0:0:
192,192,99596,128,0,99683:0:0:0:0:
64,192,99683,128,0,99770:0:0:0:0:
320,192,99770,128,0,99857:0:0:0:0:
64,192,99857,1,2,0:0:0:0:
192,192,99857,128,0,99944:0:0:0:0:
320,192,99944,128,0,100119:0:0:0:0:
64,192,100032,128,0,100206:0:0:0:0:
192,192,100206,1,8,0:0:0:0:
320,192,100206,1,0,0:0:0:0:
448,192,100206,128,0,100381:0:0:0:0:
64,192,100381,1,0,0:0:0:0:
192,192,100468,128,2,100642:0:0:0:0:
320,192,100468,1,0,0:0:0:0:
448,192,100555,1,2,0:0:0:0:
64,192,100599,1,0,0:0:0:0:
448,192,100642,1,2,0:0:0:0:
64,192,100729,128,2,100904:0:0:0:0:
192,192,100729,1,0,0:0:0:0:
192,192,100904,1,8,0:0:0:0:
320,192,100904,128,0,101165:0:0:0:0:
448,192,100904,1,0,0:0:0:0:
192,192,101078,128,0,101253:0:0:0:0:
64,192,101253,1,2,0:0:0:0:
448,192,101253,128,0,101514:0:0:0:0:
320,192,101340,128,0,101514:0:0:0:0:
192,192,101427,128,0,101601:0:0:0:0:
64,192,101514,128,0,101601:0:0:0:0:
320,192,101601,1,8,0:0:0:0:
448,192,101601,1,0,0:0:0:0:
448,192,101776,1,0,0:0:0:0:
64,192,101863,128,2,102038:0:0:0:0:
192,192,101863,128,0,102038:0:0:0:0:
320,192,102038,1,2,0:0:0:0:
448,192,102038,1,0,0:0:0:0:
64,192,102125,1,2,0:0:0:0:
192,192,102125,1,0,0:0:0:0:
320,192,102212,128,0,102343:0:0:0:0:
64,192,102299,128,8,102561:0:0:0:0:
448,192,102299,1,0,0:0:0:0:
192,192,102343,128,0,102474:0:0:0:0:
320,192,102474,1,0,0:0:0:0:
192,192,102561,1,0,0:0:0:0:
64,192,102648,1,2,0:0:0:0:
448,192,102648,128,0,102910:0:0:0:0:
320,192,102735,128,0,102910:0:0:0:0:
192,192,102822,128,0,102997:0:0:0:0:
64,192,102910,128,0,102997:0:0:0:0:
320,192,102997,1,8,0:0:0:0:
448,192,102997,1,0,0:0:0:0:
448,192,103171,1,0,0:0:0:0:
64,192,103258,1,2,0:0:0:0:
192,192,103258,1,0,0:0:0:0:
192,192,103433,1,2,0:0:0:0:
320,192,103433,1,0,0:0:0:0:
64,192,103520,128,2,103782:0:0:0:0:
448,192,103520,1,0,0:0:0:0:
192,192,103694,128,8,103782:0:0:0:0:
448,192,103694,128,0,103782:0:0:0:0:
320,192,103782,128,0,103869:0:0:0:0:
192,192,103869,128,0,103956:0:0:0:0:
64,192,103956,128,0,104043:0:0:0:0:
192,192,104043,1,2,0:0:0:0:
448,192,104043,128,0,104305:0:0:0:0:
320,192,104131,128,0,104305:0:0:0:0:
192,192,104218,128,0,104392:0:0:0:0:
64,192,104305,128,0,104392:0:0:0:0:
320,192,104392,1,8,0:0:0:0:
448,192,104392,1,0,0:0:0:0:
448,192,104567,1,0,0:0:0:0:
64,192,104654,128,2,104828:0:0:0:0:
192,192,104654,128,0,104828:0:0:0:0:
320,192,104828,1,2,0:0:0:0:
448,192,104828,1,0,0:0:0:0:
64,192,104915,1,2,0:0:0:0:
192,192,104915,1,0,0:0:0:0:
320,192,105003,128,0,105133:0:0:0:0:
64,192,105090,128,8,105351:0:0:0:0:
448,192,105090,1,0,0:0:0:0:
192,192,105133,128,0,105264:0:0:0:0:
448,192,105264,1,0,0:0:0:0:
320,192,105351,128,0,105439:0:0:0:0:
64,192,105439,1,2,0:0:0:0:
192,192,105439,128,0,105526:0:0:0:0:
320,192,105526,128,0,105700:0:0:0:0:
64,192,105613,128,0,105788:0:0:0:0:
192,192,105788,1,8,0:0:0:0:
320,192,105788,1,0,0:0:0:0:
448,192,105788,128,0,105962:0:0:0:0:
320,192,105962,1,0,0:0:0:0:
64,192,106049,1,2,0:0:0:0:
192,192,106049,128,0,106224:0:0:0:0:
320,192,106224,1,2,0:0:0:0:
448,192,106224,1,0,0:0:0:0:
64,192,106311,128,2,106485:0:0:0:0:
192,192,106311,1,0,0:0:0:0:
192,192,106485,1,8,0:0:0:0:
448,192,106485,1,0,0:0:0:0:
320,192,106529,1,0,0:0:0:0:
320,192,106660,1,0,0:0:0:0:
192,192,106703,1,0,0:0:0:0:
64,192,106834,1,2,0:0:0:0:
448,192,106834,128,0,107096:0:0:0:0:
320,192,106921,128,0,107096:0:0:0:0:
192,192,107008,128,0,107183:0:0:0:0:
64,192,107096,128,0,107183:0:0:0:0:
320,192,107183,1,8,0:0:0:0:
448,192,107183,1,0,0:0:0:0:
448,192,107357,1,0,0:0:0:0:
64,192,107444,1,2,0:0:0:0:
192,192,107444,1,0,0:0:0:0:
320,192,107532,128,0,107793:0:0:0:0:
448,192,107619,128,0,107793:0:0:0:0:
64,192,107706,128,2,108055:0:0:0:0:
192,192,107706,128,0,107793:0:0:0:0:
192,192,107881,128,8,108142:0:0:0:0:
320,192,107881,1,0,0:0:0:0:
448,192,107881,1,0,0:0:0:0:
320,192,108055,128,0,108229:0:0:0:0:
64,192,108229,1,2,0:0:0:0:
448,192,108229,128,0,108491:0:0:0:0:
320,192,108317,128,0,108491:0:0:0:0:
192,192,108404,128,0,108578:0:0:0:0:
64,192,108491,128,0,108578:0:0:0:0:
320,192,108578,1,8,0:0:0:0:
448,192,108578,1,0,0:0:0:0:
448,192,108753,128,0,108927:0:0:0:0:
64,192,108840,1,2,0:0:0:0:
192,192,108840,1,0,0:0:0:0:
192,192,109014,1,2,0:0:0:0:
320,192,109014,1,0,0:0:0:0:
64,192,109101,128,2,109189:0:0:0:0:
448,192,109101,1,0,0:0:0:0:
192,192,109189,128,0,109276:0:0:0:0:
64,192,109276,128,8,109363:0:0:0:0:
320,192,109276,1,0,0:0:0:0:
448,192,109276,1,0,0:0:0:0:
192,192,109363,128,0,109450:0:0:0:0:
320,192,109450,128,0,109625:0:0:0:0:
192,192,109538,128,0,109625:0:0:0:0:
64,192,109625,128,2,109799:0:0:0:0:
448,192,109625,128,0,109886:0:0:0:0:
320,192,109712,128,0,109886:0:0:0:0:
192,192,109799,128,0,109974:0:0:0:0:
64,192,109886,128,0,109974:0:0:0:0:
320,192,109974,1,8,0:0:0:0:
448,192,109974,128,0,110235:0:0:0:0:
320,192,110148,128,0,110235:0:0:0:0:
64,192,110235,1,2,0:0:0:0:
192,192,110235,1,0,0:0:0:0:
448,192,110322,128,0,110497:0:0:0:0:
320,192,110410,128,0,110497:0:0:0:0:
64,192,110497,1,2,0:0:0:0:
192,192,110497,1,0,0:0:0:0:
448,192,110584,128,0,110671:0:0:0:0:
64,192,110671,128,8,110846:0:0:0:0:
192,192,110671,1,0,0:0:0:0:
320,192,110671,1,0,0:0:0:0:
448,192,110846,128,0,111020:0:0:0:0:
320,192,110933,128,0,111020:0:0:0:0:
64,192,111020,1,2,0:0:0:0:
192,192,111020,128,0,111107:0:0:0:0:
320,192,111107,128,0,111282:0:0:0:0:
64,192,111194,128,0,111282:0:0:0:0:
192,192,111282,1,0,0:0:0:0:
64,192,111369,1,8,0:0:0:0:
320,192,111369,1,0,0:0:0:0:
448,192,111369,128,0,111543:0:0:0:0:
192,192,111456,128,0,111631:0:0:0:0:
64,192,111543,1,0,0:0:0:0:
320,192,111631,128,2,111805:0:0:0:0:
448,192,111631,1,0,0:0:0:0:
64,192,111718,128,2,111979:0:0:0:0:
448,192,111805,1,2,0:0:0:0:
192,192,111892,128,2,111979:0:0:0:0:
320,192,111979,1,0,0:0:0:0:
64,192,112067,1,8,0:0:0:0:
192,192,112067,1,0,0:0:0:0:
448,192,112067,1,0,0:0:0:0:
320,192,112154,1,0,0:0:0:0:
192,192,112241,1,0,0:0:0:0:
320,192,112328,1,0,0:0:0:0:
64,192,112415,1,2,0:0:0:0:
448,192,112415,1,0,0:0:0:0:
192,192,112503,1,0,0:0:0:0:
320,192,112590,1,0,0:0:0:0:
64,192,112677,1,0,0:0:0:0:
192,192,112764,1,8,0:0:0:0:
320,192,112764,1,0,0:0:0:0:
448,192,112764,1,0,0:0:0:0:
64,192,112851,1,0,0:0:0:0:
448,192,112939,1,0,0:0:0:0:
192,192,113026,1,2,0:0:0:0:
320,192,113026,1,0,0:0:0:0:
64,192,113113,1,0,0:0:0:0:
448,192,113200,1,0,0:0:0:0:
64,192,113288,1,2,0:0:0:0:
192,192,113288,1,0,0:0:0:0:
320,192,113375,1,0,0:0:0:0:
64,192,113462,1,8,0:0:0:0:
192,192,113462,1,0,0:0:0:0:
448,192,113462,1,0,0:0:0:0:
320,192,113549,1,0,0:0:0:0:
192,192,113636,1,0,0:0:0:0:
64,192,113724,1,0,0:0:0:0:
320,192,113811,1,2,0:0:0:0:
448,192,113811,1,0,0:0:0:0:
192,192,113898,1,0,0:0:0:0:
320,192,113985,1,0,0:0:0:0:
64,192,114072,1,0,0:0:0:0:
192,192,114160,1,8,0:0:0:0:
320,192,114160,1,0,0:0:0:0:
448,192,114160,1,0,0:0:0:0:
64,192,114247,1,0,0:0:0:0:
448,192,114334,1,0,0:0:0:0:
192,192,114421,1,2,0:0:0:0:
320,192,114421,1,0,0:0:0:0:
64,192,114508,1,0,0:0:0:0:
320,192,114596,1,2,0:0:0:0:
448,192,114596,1,0,0:0:0:0:
64,192,114683,1,2,0:0:0:0:
192,192,114683,1,0,0:0:0:0:
320,192,114770,1,0,0:0:0:0:
64,192,114857,1,8,0:0:0:0:
192,192,114857,1,0,0:0:0:0:
448,192,114857,1,0,0:0:0:0:
320,192,114944,1,0,0:0:0:0:
64,192,115032,1,0,0:0:0:0:
192,192,115119,1,0,0:0:0:0:
320,192,115206,1,2,0:0:0:0:
448,192,115206,1,0,0:0:0:0:
64,192,115293,1,0,0:0:0:0:
192,192,115381,1,0,0:0:0:0:
320,192,115468,1,0,0:0:0:0:
64,192,115555,1,8,0:0:0:0:
192,192,115555,1,0,0:0:0:0:
448,192,115555,1,0,0:0:0:0:
320,192,115642,1,0,0:0:0:0:
64,192,115729,1,0,0:0:0:0:
192,192,115817,1,2,0:0:0:0:
320,192,115817,1,0,0:0:0:0:
448,192,115904,1,0,0:0:0:0:
64,192,115991,1,0,0:0:0:0:
320,192,116078,1,2,0:0:0:0:
448,192,116078,1,0,0:0:0:0:
192,192,116165,1,0,0:0:0:0:
64,192,116253,1,8,0:0:0:0:
320,192,116253,1,0,0:0:0:0:
448,192,116253,1,0,0:0:0:0:
192,192,116340,1,0,0:0:0:0:
320,192,116427,1,0,0:0:0:0:
64,192,116514,1,0,0:0:0:0:
192,192,116601,1,2,0:0:0:0:
448,192,116601,1,0,0:0:0:0:
320,192,116689,1,0,0:0:0:0:
64,192,116776,1,0,0:0:0:0:
448,192,116863,1,0,0:0:0:0:
64,192,116950,1,8,0:0:0:0:
192,192,116950,1,0,0:0:0:0:
320,192,116950,1,0,0:0:0:0:
448,192,117038,1,0,0:0:0:0:
64,192,117125,1,0,0:0:0:0:
192,192,117212,1,2,0:0:0:0:
320,192,117212,1,0,0:0:0:0:
448,192,117299,1,0,0:0:0:0:
64,192,117386,1,0,0:0:0:0:
320,192,117474,1,0,0:0:0:0:
64,192,117561,1,0,0:0:0:0:
192,192,117648,1,8,0:0:0:0:
320,192,117648,1,0,0:0:0:0:
448,192,117648,1,0,0:0:0:0:
64,192,117735,1,0,0:0:0:0:
448,192,117822,1,0,0:0:0:0:
320,192,117910,1,0,0:0:0:0:
64,192,117997,1,2,0:0:0:0:
448,192,117997,1,0,0:0:0:0:
192,192,118084,1,0,0:0:0:0:
320,192,118171,1,0,0:0:0:0:
64,192,118258,1,0,0:0:0:0:
192,192,118346,1,8,0:0:0:0:
320,192,118346,1,0,0:0:0:0:
448,192,118346,1,0,0:0:0:0:
64,192,118433,1,0,0:0:0:0:
448,192,118520,1,0,0:0:0:0:
192,192,118607,1,2,0:0:0:0:
320,192,118607,1,0,0:0:0:0:
64,192,118694,1,0,0:0:0:0:
448,192,118782,1,0,0:0:0:0:
64,192,118869,1,2,0:0:0:0:
192,192,118869,1,0,0:0:0:0:
320,192,118956,1,0,0:0:0:0:
64,192,119043,1,8,0:0:0:0:
192,192,119043,1,0,0:0:0:0:
448,192,119043,1,0,0:0:0:0:
320,192,119131,1,0,0:0:0:0:
192,192,119218,1,0,0:0:0:0:
64,192,119305,1,0,0:0:0:0:
320,192,119392,1,2,0:0:0:0:
448,192,119392,1,0,0:0:0:0:
192,192,119479,1,0,0:0:0:0:
320,192,119567,1,0,0:0:0:0:
64,192,119654,1,0,0:0:0:0:
192,192,119741,1,8,0:0:0:0:
320,192,119741,1,0,0:0:0:0:
448,192,119741,1,0,0:0:0:0:
64,192,119828,1,0,0:0:0:0:
448,192,119915,1,0,0:0:0:0:
192,192,120003,1,2,0:0:0:0:
320,192,120003,1,0,0:0:0:0:
64,192,120090,1,0,0:0:0:0:
320,192,120177,1,2,0:0:0:0:
448,192,120177,1,0,0:0:0:0:
64,192,120264,1,2,0:0:0:0:
192,192,120264,1,0,0:0:0:0:
320,192,120351,1,0,0:0:0:0:
64,192,120439,1,8,0:0:0:0:
192,192,120439,1,0,0:0:0:0:
448,192,120439,1,0,0:0:0:0:
320,192,120526,1,0,0:0:0:0:
64,192,120613,1,0,0:0:0:0:
192,192,120700,1,0,0:0:0:0:
320,192,120788,1,2,0:0:0:0:
448,192,120788,1,0,0:0:0:0:
64,192,120875,1,0,0:0:0:0:
192,192,120962,1,0,0:0:0:0:
320,192,121049,1,0,0:0:0:0:
64,192,121136,1,8,0:0:0:0:
192,192,121136,1,0,0:0:0:0:
448,192,121136,1,0,0:0:0:0:
320,192,121224,1,0,0:0:0:0:
64,192,121311,1,0,0:0:0:0:
192,192,121398,1,2,0:0:0:0:
320,192,121398,1,0,0:0:0:0:
448,192,121485,1,0,0:0:0:0:
64,192,121572,1,0,0:0:0:0:
320,192,121660,1,2,0:0:0:0:
448,192,121660,1,0,0:0:0:0:
192,192,121747,1,0,0:0:0:0:
64,192,121834,1,8,0:0:0:0:
320,192,121834,1,0,0:0:0:0:
448,192,121834,1,0,0:0:0:0:
192,192,121921,1,0,0:0:0:0:
320,192,122008,1,0,0:0:0:0:
64,192,122096,1,0,0:0:0:0:
192,192,122183,1,2,0:0:0:0:
448,192,122183,1,0,0:0:0:0:
320,192,122270,1,0,0:0:0:0:
64,192,122357,1,0,0:0:0:0:
448,192,122444,1,0,0:0:0:0:
64,192,122532,1,8,0:0:0:0:
192,192,122532,1,0,0:0:0:0:
320,192,122532,1,0,0:0:0:0:
448,192,122619,1,0,0:0:0:0:
64,192,122706,1,0,0:0:0:0:
192,192,122793,1,2,0:0:0:0:
320,192,122793,1,0,0:0:0:0:
448,192,122881,1,0,0:0:0:0:
64,192,122968,1,2,0:0:0:0:
192,192,122968,1,0,0:0:0:0:
320,192,123055,1,2,0:0:0:0:
448,192,123055,1,0,0:0:0:0:
64,192,123142,1,0,0:0:0:0:
192,192,123229,1,8,0:0:0:0:
320,192,123229,1,0,0:0:0:0:
448,192,123229,1,0,0:0:0:0:
64,192,123317,1,0,0:0:0:0:
448,192,123404,1,0,0:0:0:0:
320,192,123491,1,0,0:0:0:0:
64,192,123578,1,2,0:0:0:0:
448,192,123578,1,0,0:0:0:0:
192,192,123665,1,0,0:0:0:0:
320,192,123753,1,0,0:0:0:0:
64,192,123840,1,0,0:0:0:0:
192,192,123927,1,8,0:0:0:0:
320,192,123927,1,0,0:0:0:0:
448,192,123927,1,0,0:0:0:0:
64,192,124014,1,0,0:0:0:0:
448,192,124101,1,0,0:0:0:0:
192,192,124189,1,2,0:0:0:0:
320,192,124189,1,0,0:0:0:0:
64,192,124276,1,0,0:0:0:0:
448,192,124363,1,0,0:0:0:0:
64,192,124450,1,2,0:0:0:0:
192,192,124450,1,0,0:0:0:0:
320,192,124538,1,0,0:0:0:0:
64,192,124625,1,8,0:0:0:0:
192,192,124625,1,0,0:0:0:0:
448,192,124625,1,0,0:0:0:0:
320,192,124712,1,0,0:0:0:0:
192,192,124799,1,0,0:0:0:0:
64,192,124886,1,0,0:0:0:0:
320,192,124974,1,2,0:0:0:0:
448,192,124974,1,0,0:0:0:0:
192,192,125061,1,0,0:0:0:0:
320,192,125148,1,0,0:0:0:0:
64,192,125235,1,0,0:0:0:0:
192,192,125322,1,8,0:0:0:0:
320,192,125322,1,0,0:0:0:0:
448,192,125322,1,0,0:0:0:0:
64,192,125410,1,0,0:0:0:0:
448,192,125497,1,0,0:0:0:0:
192,192,125584,1,2,0:0:0:0:
320,192,125584,1,0,0:0:0:0:
64,192,125671,1,0,0:0:0:0:
320,192,125758,1,2,0:0:0:0:
448,192,125758,1,0,0:0:0:0:
64,192,125846,1,2,0:0:0:0:
192,192,125846,1,0,0:0:0:0:
320,192,125933,1,0,0:0:0:0:
64,192,126020,1,8,0:0:0:0:
192,192,126020,1,0,0:0:0:0:
448,192,126020,1,0,0:0:0:0:
320,192,126107,1,0,0:0:0:0:
64,192,126194,1,0,0:0:0:0:
192,192,126282,1,0,0:0:0:0:
320,192,126369,1,2,0:0:0:0:
448,192,126369,1,0,0:0:0:0:
64,192,126456,1,0,0:0:0:0:
192,192,126543,1,0,0:0:0:0:
320,192,126631,1,0,0:0:0:0:
64,192,126718,1,8,0:0:0:0:
192,192,126718,1,0,0:0:0:0:
448,192,126718,1,0,0:0:0:0:
320,192,126805,1,0,0:0:0:0:
64,192,126892,1,0,0:0:0:0:
192,192,126979,1,2,0:0:0:0:
320,192,126979,1,0,0:0:0:0:
448,192,127067,1,0,0:0:0:0:
64,192,127154,1,0,0:0:0:0:
320,192,127241,1,2,0:0:0:0:
448,192,127241,1,0,0:0:0:0:
192,192,127328,1,0,0:0:0:0:
64,192,127415,1,8,0:0:0:0:
320,192,127415,1,0,0:0:0:0:
448,192,127415,1,0,0:0:0:0:
192,192,127503,1,0,0:0:0:0:
320,192,127590,1,0,0:0:0:0:
64,192,127677,1,0,0:0:0:0:
192,192,127764,1,2,0:0:0:0:
448,192,127764,1,0,0:0:0:0:
320,192,127851,1,0,0:0:0:0:
64,192,127939,1,0,0:0:0:0:
448,192,128026,1,0,0:0:0:0:
64,192,128113,1,8,0:0:0:0:
192,192,128113,1,0,0:0:0:0:
320,192,128113,1,0,0:0:0:0:
448,192,128200,1,0,0:0:0:0:
64,192,128288,1,0,0:0:0:0:
192,192,128375,1,2,0:0:0:0:
320,192,128375,1,0,0:0:0:0:
448,192,128462,1,0,0:0:0:0:
64,192,128549,1,2,0:0:0:0:
192,192,128549,1,0,0:0:0:0:
320,192,128636,1,2,0:0:0:0:
448,192,128636,1,0,0:0:0:0:
64,192,128724,1,0,0:0:0:0:
192,192,128811,1,8,0:0:0:0:
320,192,128811,1,0,0:0:0:0:
448,192,128811,1,0,0:0:0:0:
64,192,128898,1,0,0:0:0:0:
448,192,128985,1,0,0:0:0:0:
320,192,129072,1,0,0:0:0:0:
64,192,129160,1,2,0:0:0:0:
448,192,129160,1,0,0:0:0:0:
192,192,129247,1,0,0:0:0:0:
320,192,129334,1,0,0:0:0:0:
64,192,129421,1,0,0:0:0:0:
192,192,129508,1,8,0:0:0:0:
320,192,129508,1,0,0:0:0:0:
448,192,129508,1,0,0:0:0:0:
64,192,129596,1,0,0:0:0:0:
448,192,129683,1,0,0:0:0:0:
192,192,129770,1,2,0:0:0:0:
320,192,129770,1,0,0:0:0:0:
64,192,129857,1,0,0:0:0:0:
448,192,129944,1,0,0:0:0:0:
64,192,130032,1,2,0:0:0:0:
192,192,130032,1,0,0:0:0:0:
320,192,130119,1,0,0:0:0:0:
64,192,130206,1,8,0:0:0:0:
192,192,130206,1,0,0:0:0:0:
448,192,130206,1,0,0:0:0:0:
320,192,130293,1,0,0:0:0:0:
192,192,130381,1,0,0:0:0:0:
64,192,130468,1,0,0:0:0:0:
320,192,130555,1,2,0:0:0:0:
448,192,130555,1,0,0:0:0:0:
192,192,130642,1,0,0:0:0:0:
320,192,130729,1,0,0:0:0:0:
64,192,130817,1,0,0:0:0:0:
192,192,130904,1,8,0:0:0:0:
320,192,130904,1,0,0:0:0:0:
448,192,130904,1,0,0:0:0:0:
64,192,130991,1,0,0:0:0:0:
448,192,131078,1,0,0:0:0:0:
192,192,131165,1,2,0:0:0:0:
320,192,131165,1,0,0:0:0:0:
64,192,131253,1,0,0:0:0:0:
320,192,131340,1,2,0:0:0:0:
448,192,131340,1,0,0:0:0:0:
64,192,131427,1,2,0:0:0:0:
192,192,131427,1,0,0:0:0:0:
320,192,131514,1,0,0:0:0:0:
64,192,131601,1,8,0:0:0:0:
192,192,131601,1,0,0:0:0:0:
448,192,131601,1,0,0:0:0:0:
320,192,131689,1,0,0:0:0:0:
64,192,131776,1,0,0:0:0:0:
192,192,131863,1,0,0:0:0:0:
320,192,131950,1,2,0:0:0:0:
448,192,131950,1,0,0:0:0:0:
64,192,132038,1,0,0:0:0:0:
192,192,132125,1,0,0:0:0:0:
320,192,132212,1,0,0:0:0:0:
64,192,132299,1,8,0:0:0:0:
192,192,132299,1,0,0:0:0:0:
448,192,132299,1,0,0:0:0:0:
320,192,132386,1,0,0:0:0:0:
64,192,132474,1,0,0:0:0:0:
192,192,132561,1,2,0:0:0:0:
320,192,132561,1,0,0:0:0:0:
448,192,132648,1,0,0:0:0:0:
64,192,132735,1,0,0:0:0:0:
320,192,132822,1,2,0:0:0:0:
448,192,132822,1,0,0:0:0:0:
192,192,132910,1,0,0:0:0:0:
64,192,132997,1,8,0:0:0:0:
320,192,132997,1,0,0:0:0:0:
448,192,132997,1,0,0:0:0:0:
192,192,133084,1,0,0:0:0:0:
320,192,133171,1,0,0:0:0:0:
64,192,133258,1,0,0:0:0:0:
192,192,133346,1,2,0:0:0:0:
448,192,133346,1,0,0:0:0:0:
320,192,133433,1,0,0:0:0:0:
64,192,133520,1,0,0:0:0:0:
448,192,133607,1,0,0:0:0:0:
64,192,133694,1,8,0:0:0:0:
192,192,133694,1,0,0:0:0:0:
320,192,133694,1,0,0:0:0:0:
448,192,133782,1,0,0:0:0:0:
64,192,133869,1,0,0:0:0:0:
192,192,133956,1,2,0:0:0:0:
320,192,133956,1,0,0:0:0:0:
448,192,134043,1,0,0:0:0:0:
64,192,134131,1,2,0:0:0:0:
192,192,134131,1,0,0:0:0:0:
320,192,134218,1,2,0:0:0:0:
448,192,134218,1,0,0:0:0:0:
64,192,134305,1,0,0:0:0:0:
192,192,134392,1,8,0:0:0:0:
320,192,134392,1,0,0:0:0:0:
448,192,134392,1,0,0:0:0:0:
64,192,134479,1,0,0:0:0:0:
448,192,134567,1,0,0:0:0:0:
320,192,134654,1,0,0:0:0:0:
