osu file format v14

[General]
AudioFilename: audio.mp3
AudioLeadIn: 0
PreviewTime: 44043
Countdown: 0
SampleSet: None
StackLeniency: 0.7
Mode: 3
LetterboxInBreaks: 0
SpecialStyle: 0
WidescreenStoryboard: 1

[Editor]
Bookmarks: 788,11950,23113,34276,45439,67764,78927,90090,112415,134741
DistanceSpacing: 0.9
BeatDivisor: 4
GridSize: 8
TimelineZoom: 1.8

[Metadata]
Title:Aulture
TitleUnicode:Aulture
Artist:Silentroom
ArtistUnicode:Silentroom
Creator:Geo_ooo
Version:Amphy's Easy
Source:Lanota
Tags:Neurofunk Jack Dump Famoss Memory Waves Electronic Neurostep Feylos Ampharos Noxy Games inc Ritmo's Secret Library Chapter ∞ SLRM-0002 mobile rhythm game
BeatmapID:3327172
BeatmapSetID:1561522

[Difficulty]
HPDrainRate:7
CircleSize:4
OverallDifficulty:7
ApproachRate:5
SliderMultiplier:1.4
SliderTickRate:1

[Events]
//Background and Video events
0,0,"TkvYGSj-min.png",0,0
//Break Periods
//Storyboard Layer 0 (Background)
//Storyboard Layer 1 (Fail)
//Storyboard Layer 2 (Pass)
//Storyboard Layer 3 (Foreground)
//Storyboard Layer 4 (Overlay)
//Storyboard Sound Samples
Sample,13346,0,"LR_J Hit Edge F.wav",50
Sample,16136,0,"LR_J Hit Edge F.wav",50
Sample,18927,0,"LR_J Hit Edge F.wav",50
Sample,21892,0,"LR_J Hit Edge F.wav",50

[TimingPoints]
788,348.837209302326,4,2,1,30,1,0
23113,-100.0,4,2,1,40,0,0
34276,-100.0,4,2,1,45,0,0
45439,-100.0,4,2,1,50,0,1
67067,-100.0,4,2,1,45,0,0
90090,-100.0,4,2,1,50,0,1
112415,-100.0,4,2,1,45,0,0

[HitObjects]
64,192,788,128,2,3229:0:0:0:0:
320,192,1136,1,0,0:0:0:50:Drum_Rim.wav
320,192,1834,1,0,0:0:0:50:Drum_Rim.wav
320,192,2532,1,0,0:0:0:50:Drum_Rim.wav
192,192,3229,1,0,0:0:0:70:LR_J Hit Drum_Reverb.wav
448,192,3578,128,2,6020:0:0:0:0:
64,192,3927,1,0,0:0:0:50:Drum_Rim.wav
64,192,4625,1,0,0:0:0:50:Drum_Rim.wav
64,192,5322,1,0,0:0:0:50:Drum_Rim.wav
320,192,6020,1,0,0:0:0:70:LR_J Hit Drum_Reverb.wav
192,192,6369,128,2,8811:0:0:0:0:
448,192,6718,1,0,0:0:0:50:Drum_Rim.wav
448,192,7415,1,0,0:0:0:50:Drum_Rim.wav
448,192,8113,1,0,0:0:0:50:Drum_Rim.wav
64,192,8811,1,0,0:0:0:70:LR_J Hit Drum_Reverb.wav
320,192,9160,128,2,11601:0:0:0:0:
192,192,9508,1,0,0:0:0:50:Drum_Rim.wav
192,192,10206,1,0,0:0:0:50:Drum_Rim.wav
192,192,10904,1,0,0:0:0:50:Drum_Rim.wav
448,192,11601,1,0,0:0:0:70:LR_J Hit Drum_Reverb.wav
64,192,11950,1,2,0:0:0:0:
192,192,12299,1,8,0:0:0:0:
320,192,12299,1,0,0:0:0:0:
448,192,12648,1,0,0:0:0:50:LR_J Hit Edge F.wav
64,192,12997,1,8,0:0:0:0:
192,192,12997,1,0,0:0:0:0:
320,192,13346,1,2,0:0:0:0:
192,192,13694,1,8,0:0:0:0:
448,192,13694,1,0,0:0:0:0:
64,192,14043,1,0,0:0:0:50:LR_J Hit Edge F.wav
320,192,14392,1,8,0:0:0:0:
448,192,14392,1,0,0:0:0:0:
192,192,14741,1,2,0:0:0:0:
320,192,15090,1,8,0:0:0:0:
448,192,15090,1,0,0:0:0:0:
64,192,15439,1,0,0:0:0:50:LR_J Hit Edge F.wav
192,192,15788,1,8,0:0:0:0:
320,192,15788,1,0,0:0:0:0:
448,192,16136,1,2,0:0:0:0:
64,192,16485,1,8,0:0:0:0:
192,192,16485,1,0,0:0:0:0:
448,192,16834,1,0,0:0:0:50:LR_J Hit Edge F.wav
64,192,17183,1,8,0:0:0:0:
320,192,17183,1,0,0:0:0:0:
192,192,17532,1,2,0:0:0:0:
64,192,17881,1,8,0:0:0:0:
320,192,17881,1,0,0:0:0:0:
448,192,18229,1,0,0:0:0:50:LR_J Hit Edge F.wav
64,192,18578,1,8,0:0:0:0:
192,192,18578,1,0,0:0:0:0:
320,192,18927,1,2,0:0:0:0:
64,192,19276,1,8,0:0:0:0:
448,192,19276,1,0,0:0:0:0:
192,192,19625,1,0,0:0:0:50:LR_J Hit Edge F.wav
320,192,19974,1,8,0:0:0:0:
448,192,19974,1,0,0:0:0:0:
64,192,20322,1,2,0:0:0:0:
320,192,20671,1,8,0:0:0:0:
448,192,20671,1,0,0:0:0:0:
192,192,21020,1,0,0:0:0:50:LR_J Hit Edge F.wav
64,192,21369,1,8,0:0:0:0:
320,192,21369,1,0,0:0:0:0:
448,192,21718,1,2,0:0:0:0:
64,192,22067,1,8,0:0:0:0:
192,192,22067,1,0,0:0:0:0:
320,192,22415,1,0,0:0:0:50:LR_J Hit Edge F.wav
64,192,22764,1,8,0:0:0:0:
448,192,22764,1,0,0:0:0:0:
192,192,23113,1,2,0:0:0:0:
320,192,23462,1,8,0:0:0:0:
448,192,23462,1,0,0:0:0:0:
320,192,24160,1,8,0:0:0:0:
448,192,24160,1,0,0:0:0:0:
64,192,24508,1,2,0:0:0:0:
64,192,24857,1,2,0:0:0:0:
192,192,25206,1,8,0:0:0:0:
320,192,25206,1,0,0:0:0:0:
448,192,25555,1,2,0:0:0:0:
448,192,25904,1,2,0:0:0:0:
64,192,26253,1,8,0:0:0:0:
192,192,26253,1,0,0:0:0:0:
320,192,26689,1,2,0:0:0:0:
64,192,26950,1,8,0:0:0:0:
192,192,26950,1,0,0:0:0:0:
448,192,27299,1,2,0:0:0:0:
320,192,27474,1,2,0:0:0:0:
192,192,27648,1,2,0:0:0:0:
64,192,27997,1,0,0:0:0:50:LR_J Hit Drum_Reverb.wav
448,192,27997,1,0,0:0:0:0:
192,192,28171,1,0,0:0:0:0:
320,192,28346,1,2,0:0:0:0:
64,192,28694,1,2,0:0:0:0:
320,192,29043,1,8,0:0:0:0:
448,192,29043,1,0,0:0:0:0:
320,192,29741,1,8,0:0:0:0:
448,192,29741,1,0,0:0:0:0:
192,192,30090,1,2,0:0:0:0:
192,192,30439,1,2,0:0:0:0:
64,192,30788,1,0,0:0:0:50:LR_J Hit Drum_Reverb.wav
448,192,30788,1,0,0:0:0:0:
320,192,31136,1,2,0:0:0:0:
320,192,31485,1,2,0:0:0:0:
64,192,31834,1,8,0:0:0:0:
192,192,31834,1,0,0:0:0:0:
448,192,32270,1,2,0:0:0:0:
64,192,32532,1,8,0:0:0:0:
192,192,32532,1,0,0:0:0:0:
448,192,32881,1,2,0:0:0:0:
320,192,33055,1,0,0:0:0:0:
192,192,33229,1,2,0:0:0:0:
320,192,33578,1,0,0:0:0:50:LR_J Hit Drum_Reverb.wav
448,192,33578,1,0,0:0:0:0:
192,192,33753,1,0,0:0:0:0:
64,192,33927,128,2,34276:0:0:0:0:
448,192,34276,1,2,0:0:0:0:
192,192,34625,1,8,0:0:0:0:
320,192,34625,1,0,0:0:0:0:
64,192,34974,1,2,0:0:0:0:
192,192,35148,1,0,0:0:0:0:
320,192,35322,1,8,0:0:0:0:
448,192,35322,1,0,0:0:0:0:
64,192,35671,1,2,0:0:0:0:
192,192,36020,1,8,0:0:0:0:
320,192,36020,1,0,0:0:0:0:
448,192,36369,1,2,0:0:0:0:
320,192,36543,1,0,0:0:0:0:
64,192,36718,1,8,0:0:0:0:
192,192,36718,1,0,0:0:0:0:
320,192,37067,1,2,0:0:0:0:
192,192,37415,1,8,0:0:0:0:
448,192,37415,1,0,0:0:0:0:
64,192,37764,1,2,0:0:0:0:
192,192,37939,1,0,0:0:0:0:
320,192,38113,1,8,0:0:0:0:
448,192,38113,1,0,0:0:0:0:
192,192,38462,1,2,0:0:0:0:
64,192,38811,1,8,0:0:0:0:
320,192,38811,1,0,0:0:0:0:
448,192,39160,1,2,0:0:0:0:
320,192,39334,1,0,0:0:0:0:
64,192,39508,1,8,0:0:0:0:
192,192,39508,1,0,0:0:0:0:
320,192,39857,1,2,0:0:0:0:
448,192,39857,1,0,0:0:0:0:
192,192,40032,1,2,0:0:0:0:
64,192,40206,1,2,0:0:0:0:
192,192,40555,1,2,0:0:0:0:
320,192,40729,1,2,0:0:0:0:
448,192,40904,1,2,0:0:0:0:
64,192,41253,1,2,0:0:0:0:
192,192,41253,1,0,0:0:0:0:
320,192,41427,1,2,0:0:0:0:
448,192,41601,1,2,0:0:0:0:
320,192,41950,1,2,0:0:0:0:
192,192,42125,1,2,0:0:0:0:
64,192,42299,1,2,0:0:0:0:
192,192,42648,1,2,0:0:0:0:
448,192,42648,1,0,0:0:0:0:
320,192,42822,1,2,0:0:0:0:
192,192,42997,1,2,0:0:0:0:
64,192,43346,1,2,0:0:0:0:
448,192,43346,1,0,0:0:0:0:
192,192,43520,1,2,0:0:0:0:
448,192,43694,1,2,0:0:0:0:
320,192,43869,1,2,0:0:0:0:
192,192,44043,128,0,44741:0:0:0:0:
320,192,45439,128,2,45788:0:0:0:0:
448,192,45439,1,0,0:0:0:0:
64,192,45788,1,8,0:0:0:0:
192,192,45788,1,0,0:0:0:0:
448,192,46049,1,2,0:0:0:0:
64,192,46311,1,2,0:0:0:0:
320,192,46485,1,8,0:0:0:0:
192,192,46834,128,2,47183:0:0:0:0:
448,192,46834,1,0,0:0:0:0:
64,192,47183,1,8,0:0:0:0:
320,192,47183,1,0,0:0:0:0:
448,192,47444,1,2,0:0:0:0:
192,192,47706,1,2,0:0:0:0:
320,192,47881,1,8,0:0:0:0:
64,192,48229,128,2,48578:0:0:0:0:
192,192,48229,1,0,0:0:0:0:
320,192,48578,1,8,0:0:0:0:
448,192,48578,1,0,0:0:0:0:
192,192,48840,1,2,0:0:0:0:
448,192,49101,1,2,0:0:0:0:
64,192,49276,128,8,49625:0:0:0:0:
192,192,49625,1,2,0:0:0:0:
320,192,49625,1,0,0:0:0:0:
64,192,49974,1,8,0:0:0:0:
448,192,49974,1,0,0:0:0:0:
320,192,50322,128,0,50671:0:0:0:0:
192,192,50671,1,8,0:0:0:0:
320,192,51020,1,2,0:0:0:0:
448,192,51020,128,0,51369:0:0:0:0:
64,192,51369,1,8,0:0:0:0:
192,192,51369,1,0,0:0:0:0:
320,192,51631,1,2,0:0:0:0:
192,192,51892,1,2,0:0:0:0:
448,192,52067,128,8,52415:0:0:0:0:
64,192,52415,128,2,52764:0:0:0:0:
320,192,52415,1,0,0:0:0:0:
192,192,52764,1,8,0:0:0:0:
448,192,52764,1,0,0:0:0:0:
320,192,53026,1,2,0:0:0:0:
64,192,53288,1,2,0:0:0:0:
448,192,53462,1,8,0:0:0:0:
64,192,53811,1,2,0:0:0:0:
192,192,53811,128,0,54160:0:0:0:0:
320,192,54160,1,8,0:0:0:0:
448,192,54160,1,0,0:0:0:0:
64,192,54421,1,2,0:0:0:0:
448,192,54683,1,2,0:0:0:0:
192,192,54857,128,8,55206:0:0:0:0:
64,192,55206,1,2,0:0:0:0:
320,192,55206,1,0,0:0:0:0:
192,192,55555,1,8,0:0:0:0:
448,192,55555,1,0,0:0:0:0:
320,192,55904,1,2,0:0:0:0:
64,192,56078,1,2,0:0:0:0:
320,192,56253,1,8,0:0:0:0:
64,192,56601,1,2,0:0:0:0:
192,192,56601,128,0,56950:0:0:0:0:
320,192,56950,1,8,0:0:0:0:
448,192,56950,1,0,0:0:0:0:
64,192,57212,1,2,0:0:0:0:
448,192,57474,1,2,0:0:0:0:
192,192,57648,1,8,0:0:0:0:
64,192,57997,1,2,0:0:0:0:
320,192,57997,128,0,58346:0:0:0:0:
192,192,58346,1,8,0:0:0:0:
448,192,58346,1,0,0:0:0:0:
64,192,58607,1,2,0:0:0:0:
320,192,58869,1,2,0:0:0:0:
192,192,59043,1,8,0:0:0:0:
320,192,59392,1,2,0:0:0:0:
448,192,59392,128,0,59741:0:0:0:0:
64,192,59741,1,8,0:0:0:0:
192,192,59741,1,0,0:0:0:0:
320,192,60003,1,2,0:0:0:0:
64,192,60264,1,2,0:0:0:0:
448,192,60439,128,8,60788:0:0:0:0:
192,192,60788,1,2,0:0:0:0:
320,192,60788,1,0,0:0:0:0:
64,192,61136,1,8,0:0:0:0:
448,192,61136,1,0,0:0:0:0:
192,192,61485,128,0,61834:0:0:0:0:
320,192,61834,1,8,0:0:0:0:
64,192,62183,128,2,62532:0:0:0:0:
192,192,62183,1,0,0:0:0:0:
320,192,62532,1,8,0:0:0:0:
448,192,62532,1,0,0:0:0:0:
192,192,62793,1,2,0:0:0:0:
320,192,63055,1,2,0:0:0:0:
64,192,63229,128,8,63578:0:0:0:0:
192,192,63578,1,2,0:0:0:0:
448,192,63578,128,0,63927:0:0:0:0:
64,192,63927,1,8,0:0:0:0:
320,192,63927,1,0,0:0:0:0:
192,192,64189,1,2,0:0:0:0:
448,192,64450,1,2,0:0:0:0:
64,192,64625,1,8,0:0:0:0:
320,192,64974,128,2,65322:0:0:0:0:
448,192,64974,1,0,0:0:0:0:
64,192,65322,1,8,0:0:0:0:
192,192,65322,1,0,0:0:0:0:
448,192,65584,1,2,0:0:0:0:
64,192,65846,1,2,0:0:0:0:
320,192,66020,128,8,66369:0:0:0:0:
192,192,66369,1,2,0:0:0:0:
448,192,66369,1,0,0:0:0:0:
64,192,66718,1,8,0:0:0:0:
320,192,66718,1,0,0:0:0:0:
192,192,67067,128,0,67764:0:0:0:0:
320,192,67764,1,2,0:0:0:0:
64,192,68113,1,8,0:0:0:0:
192,192,68113,1,0,0:0:0:0:
64,192,68811,1,8,0:0:0:0:
192,192,68811,1,0,0:0:0:0:
448,192,69160,1,2,0:0:0:0:
192,192,69508,1,8,0:0:0:0:
320,192,69508,1,0,0:0:0:0:
64,192,69857,1,0,0:0:0:0:
192,192,70206,1,8,0:0:0:0:
320,192,70206,1,0,0:0:0:0:
448,192,70555,1,2,0:0:0:0:
64,192,70904,1,8,0:0:0:0:
192,192,70904,1,0,0:0:0:0:
64,192,71601,1,8,0:0:0:0:
192,192,71601,1,0,0:0:0:0:
320,192,71950,1,2,0:0:0:0:
64,192,72299,1,8,0:0:0:0:
448,192,72299,1,0,0:0:0:0:
192,192,72648,1,0,0:0:0:0:
64,192,72997,1,8,0:0:0:0:
448,192,72997,1,0,0:0:0:0:
192,192,73346,1,2,0:0:0:0:
320,192,73694,1,8,0:0:0:0:
448,192,73694,1,0,0:0:0:0:
320,192,74392,1,8,0:0:0:0:
448,192,74392,1,0,0:0:0:0:
64,192,74741,1,2,0:0:0:0:
192,192,75090,1,8,0:0:0:0:
448,192,75090,1,0,0:0:0:0:
320,192,75439,1,0,0:0:0:0:
192,192,75788,1,8,0:0:0:0:
448,192,75788,1,0,0:0:0:0:
64,192,76136,1,2,0:0:0:0:
320,192,76485,1,8,0:0:0:0:
448,192,76485,1,0,0:0:0:0:
320,192,77183,1,8,0:0:0:0:
448,192,77183,1,0,0:0:0:0:
192,192,77532,1,2,0:0:0:0:
64,192,77881,1,8,0:0:0:0:
320,192,77881,1,0,0:0:0:0:
448,192,78229,1,0,0:0:0:0:
64,192,78578,1,8,0:0:0:0:
320,192,78578,1,0,0:0:0:0:
448,192,78927,1,2,0:0:0:0:
64,192,79276,1,8,0:0:0:0:
192,192,79276,1,0,0:0:0:0:
320,192,79625,1,2,0:0:0:0:
192,192,79799,1,0,0:0:0:0:
64,192,79974,1,8,0:0:0:0:
448,192,79974,1,0,0:0:0:0:
320,192,80322,1,2,0:0:0:0:
64,192,80671,1,8,0:0:0:0:
192,192,80671,1,0,0:0:0:0:
448,192,81020,1,2,0:0:0:0:
64,192,81194,1,0,0:0:0:0:
192,192,81369,1,8,0:0:0:0:
320,192,81369,1,0,0:0:0:0:
64,192,81718,1,2,0:0:0:0:
320,192,82067,1,8,0:0:0:0:
448,192,82067,1,0,0:0:0:0:
192,192,82415,1,2,0:0:0:0:
320,192,82590,1,0,0:0:0:0:
64,192,82764,1,8,0:0:0:0:
448,192,82764,1,0,0:0:0:0:
192,192,83113,1,2,0:0:0:0:
320,192,83462,1,8,0:0:0:0:
448,192,83462,1,0,0:0:0:0:
64,192,83811,1,2,0:0:0:0:
448,192,83985,1,0,0:0:0:0:
192,192,84160,1,8,0:0:0:0:
320,192,84160,1,0,0:0:0:0:
64,192,84508,1,2,0:0:0:0:
448,192,84508,1,0,0:0:0:0:
192,192,84683,1,2,0:0:0:0:
320,192,84857,1,2,0:0:0:0:
448,192,85206,1,2,0:0:0:0:
320,192,85381,1,2,0:0:0:0:
192,192,85555,1,2,0:0:0:0:
64,192,85904,1,2,0:0:0:0:
448,192,85904,1,0,0:0:0:0:
320,192,86078,1,2,0:0:0:0:
192,192,86253,1,2,0:0:0:0:
64,192,86601,1,2,0:0:0:0:
192,192,86776,1,2,0:0:0:0:
320,192,86950,1,2,0:0:0:0:
192,192,87299,1,2,0:0:0:0:
448,192,87299,1,0,0:0:0:0:
320,192,87474,1,2,0:0:0:0:
192,192,87648,1,2,0:0:0:0:
64,192,87997,1,2,0:0:0:0:
448,192,87997,1,0,0:0:0:0:
192,192,88171,1,2,0:0:0:0:
448,192,88346,1,2,0:0:0:0:
320,192,88520,1,2,0:0:0:0:
64,192,88694,128,2,89392:0:0:0:0:
192,192,88694,1,0,0:0:0:0:
448,192,89392,128,2,90090:0:0:0:0:
64,192,90090,128,2,90439:0:0:0:0:
192,192,90090,1,0,0:0:0:0:
320,192,90439,1,8,0:0:0:0:
448,192,90439,1,0,0:0:0:0:
192,192,90700,1,2,0:0:0:0:
320,192,90962,1,2,0:0:0:0:
64,192,91136,1,8,0:0:0:0:
192,192,91485,1,2,0:0:0:0:
448,192,91485,128,0,91834:0:0:0:0:
64,192,91834,1,8,0:0:0:0:
320,192,91834,1,0,0:0:0:0:
192,192,92096,1,2,0:0:0:0:
448,192,92357,1,2,0:0:0:0:
64,192,92532,1,8,0:0:0:0:
320,192,92881,128,2,93229:0:0:0:0:
448,192,92881,1,0,0:0:0:0:
64,192,93229,1,8,0:0:0:0:
192,192,93229,1,0,0:0:0:0:
448,192,93491,1,2,0:0:0:0:
192,192,93753,1,2,0:0:0:0:
320,192,93927,128,8,94276:0:0:0:0:
64,192,94276,1,2,0:0:0:0:
448,192,94276,1,0,0:0:0:0:
192,192,94625,1,8,0:0:0:0:
320,192,94625,1,0,0:0:0:0:
64,192,94974,128,0,95322:0:0:0:0:
448,192,95322,1,8,0:0:0:0:
64,192,95671,1,2,0:0:0:0:
192,192,95671,128,0,96020:0:0:0:0:
320,192,96020,1,8,0:0:0:0:
448,192,96020,1,0,0:0:0:0:
64,192,96282,1,2,0:0:0:0:
448,192,96543,1,2,0:0:0:0:
192,192,96718,128,8,97067:0:0:0:0:
64,192,97067,1,2,0:0:0:0:
320,192,97067,128,0,97415:0:0:0:0:
192,192,97415,1,8,0:0:0:0:
448,192,97415,1,0,0:0:0:0:
64,192,97677,1,2,0:0:0:0:
320,192,97939,1,2,0:0:0:0:
192,192,98113,1,8,0:0:0:0:
320,192,98462,1,2,0:0:0:0:
448,192,98462,128,0,98811:0:0:0:0:
64,192,98811,1,8,0:0:0:0:
192,192,98811,1,0,0:0:0:0:
320,192,99072,1,2,0:0:0:0:
192,192,99334,1,2,0:0:0:0:
448,192,99508,128,8,99857:0:0:0:0:
64,192,99857,1,2,0:0:0:0:
320,192,99857,1,0,0:0:0:0:
192,192,100206,1,8,0:0:0:0:
448,192,100206,1,0,0:0:0:0:
64,192,100555,1,2,0:0:0:0:
320,192,100729,1,2,0:0:0:0:
64,192,100904,1,8,0:0:0:0:
320,192,101253,1,2,0:0:0:0:
448,192,101253,128,0,101601:0:0:0:0:
64,192,101601,1,8,0:0:0:0:
192,192,101601,1,0,0:0:0:0:
320,192,101863,1,2,0:0:0:0:
192,192,102125,1,2,0:0:0:0:
448,192,102299,1,8,0:0:0:0:
64,192,102648,128,2,102997:0:0:0:0:
320,192,102648,1,0,0:0:0:0:
192,192,102997,1,8,0:0:0:0:
448,192,102997,1,0,0:0:0:0:
320,192,103258,1,2,0:0:0:0:
64,192,103520,1,2,0:0:0:0:
448,192,103694,1,8,0:0:0:0:
64,192,104043,1,2,0:0:0:0:
192,192,104043,128,0,104392:0:0:0:0:
320,192,104392,1,8,0:0:0:0:
448,192,104392,1,0,0:0:0:0:
64,192,104654,1,2,0:0:0:0:
320,192,104915,1,2,0:0:0:0:
192,192,105090,128,8,105439:0:0:0:0:
64,192,105439,1,2,0:0:0:0:
448,192,105439,1,0,0:0:0:0:
192,192,105788,1,8,0:0:0:0:
320,192,105788,1,0,0:0:0:0:
448,192,106136,128,0,106485:0:0:0:0:
64,192,106485,1,8,0:0:0:0:
320,192,106834,128,2,107183:0:0:0:0:
448,192,106834,1,0,0:0:0:0:
64,192,107183,1,8,0:0:0:0:
192,192,107183,1,0,0:0:0:0:
448,192,107444,1,2,0:0:0:0:
64,192,107706,1,2,0:0:0:0:
320,192,107881,128,8,108229:0:0:0:0:
192,192,108229,128,2,108578:0:0:0:0:
448,192,108229,1,0,0:0:0:0:
64,192,108578,1,8,0:0:0:0:
320,192,108578,1,0,0:0:0:0:
448,192,108840,1,2,0:0:0:0:
192,192,109101,1,2,0:0:0:0:
320,192,109276,1,8,0:0:0:0:
64,192,109625,128,2,109974:0:0:0:0:
192,192,109625,1,0,0:0:0:0:
320,192,109974,1,8,0:0:0:0:
448,192,109974,1,0,0:0:0:0:
192,192,110235,1,2,0:0:0:0:
320,192,110497,1,2,0:0:0:0:
64,192,110671,128,8,111020:0:0:0:0:
192,192,111020,1,2,0:0:0:0:
448,192,111020,1,0,0:0:0:0:
64,192,111369,1,8,0:0:0:0:
320,192,111369,1,0,0:0:0:0:
448,192,111718,1,2,0:0:0:0:
320,192,111892,1,2,0:0:0:0:
64,192,112067,1,8,0:0:0:0:
192,192,112241,1,0,0:0:0:0:
320,192,112415,1,2,0:0:0:0:
448,192,112415,1,0,0:0:0:0:
64,192,112764,1,8,0:0:0:0:
192,192,112764,1,0,0:0:0:0:
448,192,113026,1,2,0:0:0:0:
320,192,113288,1,2,0:0:0:0:
64,192,113462,1,8,0:0:0:0:
192,192,113462,1,0,0:0:0:0:
448,192,113811,1,2,0:0:0:0:
64,192,114160,1,8,0:0:0:0:
320,192,114160,1,0,0:0:0:0:
192,192,114421,1,2,0:0:0:0:
448,192,114683,1,2,0:0:0:0:
64,192,114857,1,8,0:0:0:0:
320,192,114857,1,0,0:0:0:0:
192,192,115206,1,2,0:0:0:0:
320,192,115555,1,8,0:0:0:0:
448,192,115555,1,0,0:0:0:0:
64,192,115817,1,2,0:0:0:0:
192,192,116078,1,2,0:0:0:0:
320,192,116253,1,8,0:0:0:0:
448,192,116253,1,0,0:0:0:0:
64,192,116601,1,2,0:0:0:0:
192,192,116950,1,8,0:0:0:0:
448,192,116950,1,0,0:0:0:0:
320,192,117212,128,2,117648:0:0:0:0:
64,192,117648,1,8,0:0:0:0:
192,192,117648,1,0,0:0:0:0:
448,192,117997,1,2,0:0:0:0:
192,192,118346,1,8,0:0:0:0:
320,192,118346,1,0,0:0:0:0:
64,192,118607,1,2,0:0:0:0:
448,192,118869,1,2,0:0:0:0:
192,192,119043,1,8,0:0:0:0:
320,192,119043,1,0,0:0:0:0:
64,192,119392,1,2,0:0:0:0:
320,192,119741,1,8,0:0:0:0:
448,192,119741,1,0,0:0:0:0:
192,192,120003,1,2,0:0:0:0:
64,192,120264,1,2,0:0:0:0:
320,192,120439,1,8,0:0:0:0:
448,192,120439,1,0,0:0:0:0:
192,192,120788,1,2,0:0:0:0:
64,192,121136,1,8,0:0:0:0:
320,192,121136,1,0,0:0:0:0:
448,192,121398,1,2,0:0:0:0:
192,192,121660,1,2,0:0:0:0:
64,192,121834,1,8,0:0:0:0:
320,192,121834,1,0,0:0:0:0:
448,192,122183,1,2,0:0:0:0:
64,192,122532,1,8,0:0:0:0:
192,192,122532,1,0,0:0:0:0:
320,192,122793,1,2,0:0:0:0:
448,192,123055,1,2,0:0:0:0:
64,192,123229,1,8,0:0:0:0:
192,192,123229,1,0,0:0:0:0:
320,192,123578,1,2,0:0:0:0:
64,192,123927,1,8,0:0:0:0:
448,192,123927,1,0,0:0:0:0:
192,192,124189,1,2,0:0:0:0:
320,192,124450,1,2,0:0:0:0:
64,192,124625,1,8,0:0:0:0:
448,192,124625,1,0,0:0:0:0:
192,192,124974,1,2,0:0:0:0:
320,192,125322,1,8,0:0:0:0:
448,192,125322,1,0,0:0:0:0:
64,192,125584,1,2,0:0:0:0:
192,192,125846,1,2,0:0:0:0:
320,192,126020,1,8,0:0:0:0:
448,192,126020,1,0,0:0:0:0:
64,192,126369,1,2,0:0:0:0:
192,192,126718,1,8,0:0:0:0:
448,192,126718,1,0,0:0:0:0:
320,192,126979,1,2,0:0:0:0:
64,192,127241,1,2,0:0:0:0:
192,192,127415,1,8,0:0:0:0:
448,192,127415,1,0,0:0:0:0:
320,192,127764,1,2,0:0:0:0:
64,192,128113,1,8,0:0:0:0:
192,192,128113,1,0,0:0:0:0:
448,192,128375,1,2,0:0:0:0:
320,192,128636,1,2,0:0:0:0:
64,192,128811,1,8,0:0:0:0:
192,192,128811,1,0,0:0:0:0:
448,192,129160,1,2,0:0:0:0:
64,192,129508,1,8,0:0:0:0:
320,192,129508,1,0,0:0:0:0:
192,192,129770,1,2,0:0:0:0:
448,192,130032,1,2,0:0:0:0:
64,192,130206,1,8,0:0:0:0:
320,192,130206,1,0,0:0:0:0:
192,192,130555,1,2,0:0:0:0:
320,192,130904,1,8,0:0:0:0:
448,192,130904,1,0,0:0:0:0:
64,192,131165,1,2,0:0:0:0:
192,192,131427,1,2,0:0:0:0:
320,192,131601,1,8,0:0:0:0:
448,192,131601,1,0,0:0:0:0:
64,192,131950,1,2,0:0:0:0:
192,192,132299,1,8,0:0:0:0:
320,192,132299,1,0,0:0:0:0:
448,192,132561,1,2,0:0:0:0:
64,192,132822,1,2,0:0:0:0:
192,192,132997,1,8,0:0:0:0:
320,192,132997,1,0,0:0:0:0:
448,192,133346,1,2,0:0:0:0:
64,192,133694,1,8,0:0:0:0:
192,192,133694,1,0,0:0:0:0:
320,192,133956,1,2,0:0:0:0:
448,192,134218,1,2,0:0:0:0:
64,192,134392,1,8,0:0:0:0:
192,192,134392,1,0,0:0:0:0:
320,192,134741,128,0,136136:0:0:0:0:
