osu file format v14

[General]
AudioFilename: audio.mp3
AudioLeadIn: 0
PreviewTime: 87287
Countdown: 0
SampleSet: Normal
StackLeniency: 0.7
Mode: 1
LetterboxInBreaks: 0
WidescreenStoryboard: 0

[Editor]
Bookmarks: 771,6964,13158,19351,25545,31738,37932,44125,50319,56512,62706,68900,75093,81287,87287,87674,87867,98319,98706,99674,99867,112254,115351
DistanceSpacing: 1
BeatDivisor: 4
GridSize: 32
TimelineZoom: 2

[Metadata]
Title:Alt Futur
TitleUnicode:Alt Futur
Artist:Silentroom
ArtistUnicode:Silentroom
Creator:eiri-
Version:Futsuu
Source:osu!
Tags:Ayyri Featured Artist FA Electronic Instrumental Axer Memory Waves Future
BeatmapID:2550443
BeatmapSetID:1225419

[Difficulty]
HPDrainRate:7
CircleSize:2
OverallDifficulty:4
ApproachRate:10
SliderMultiplier:1.4
SliderTickRate:1

[Events]
//Background and Video events
0,0,"Alt Futur.jpg",0,0
//Break Periods
//Storyboard Layer 0 (Background)
//Storyboard Layer 1 (Fail)
//Storyboard Layer 2 (Pass)
//Storyboard Layer 3 (Foreground)
//Storyboard Layer 4 (Overlay)
//Storyboard Sound Samples

[TimingPoints]
771,387.096774193548,4,1,0,100,1,0
75093,-100,4,1,0,75,0,0
75383,-100,4,1,0,50,0,0
81287,-100,4,1,0,75,0,0
84383,-100,4,1,0,80,0,0
85932,-100,4,1,0,90,0,0
86706,-100,4,1,0,95,0,0
86900,-100,4,1,0,97,0,0
87287,-100,4,1,0,100,0,1
87674,-100,4,1,0,100,0,0
87867,-100,4,1,0,100,0,1
98319,-100,4,1,0,100,0,0
98706,-100,4,1,0,100,0,1
99674,-100,4,1,0,100,0,0
99867,-100,4,1,0,100,0,1
112254,-100,4,1,0,100,0,0

[HitObjects]
256,192,771,5,12,0:0:0:0:
256,192,1061,1,12,0:0:0:0:
256,192,1351,1,12,0:0:0:0:
256,192,2319,1,12,0:0:0:0:
256,192,2609,1,12,0:0:0:0:
256,192,2900,1,12,0:0:0:0:
256,192,3867,1,12,0:0:0:0:
256,192,4158,1,12,0:0:0:0:
256,192,4448,1,12,0:0:0:0:
256,192,5416,1,12,0:0:0:0:
256,192,5706,1,12,0:0:0:0:
256,192,5996,1,12,0:0:0:0:
256,192,6964,1,12,0:0:0:0:
256,192,7254,1,12,0:0:0:0:
256,192,7545,1,12,0:0:0:0:
256,192,7738,1,0,0:0:0:0:
256,192,8512,1,12,0:0:0:0:
256,192,8803,1,12,0:0:0:0:
256,192,9093,1,12,0:0:0:0:
256,192,9287,1,0,0:0:0:0:
256,192,9867,1,12,0:0:0:0:
256,192,10061,1,12,0:0:0:0:
256,192,10351,1,12,0:0:0:0:
256,192,10641,1,12,0:0:0:0:
256,192,10835,1,0,0:0:0:0:
256,192,11222,1,0,0:0:0:0:
256,192,11609,1,8,0:0:0:0:
256,192,11803,1,0,0:0:0:0:
256,192,11996,1,8,0:0:0:0:
256,192,12383,1,4,0:0:0:0:
256,192,12577,1,12,0:0:0:0:
256,192,12964,1,0,0:0:0:0:
256,192,13158,1,12,0:0:0:0:
256,192,13448,1,0,0:0:0:0:
256,192,13738,1,8,0:0:0:0:
256,192,14512,1,0,0:0:0:0:
256,192,14706,1,12,0:0:0:0:
256,192,14996,1,0,0:0:0:0:
256,192,15287,1,8,0:0:0:0:
256,192,15867,1,0,0:0:0:0:
256,192,16254,1,12,0:0:0:0:
256,192,16545,1,0,0:0:0:0:
256,192,16835,1,8,0:0:0:0:
256,192,17125,1,0,0:0:0:0:
256,192,17416,1,0,0:0:0:0:
256,192,17803,1,12,0:0:0:0:
256,192,18093,1,0,0:0:0:0:
256,192,18383,1,8,0:0:0:0:
256,192,18964,1,0,0:0:0:0:
256,192,19351,1,12,0:0:0:0:
256,192,20125,1,0,0:0:0:0:
256,192,20512,1,0,0:0:0:0:
256,192,20900,1,12,0:0:0:0:
256,192,21674,1,0,0:0:0:0:
256,192,22061,1,0,0:0:0:0:
256,192,22448,1,12,0:0:0:0:
256,192,22835,1,12,0:0:0:0:
256,192,23222,1,12,0:0:0:0:
256,192,23996,1,4,0:0:0:0:
256,192,24190,1,4,0:0:0:0:
256,192,24577,1,4,0:0:0:0:
256,192,24770,1,8,0:0:0:0:
256,192,25158,1,4,0:0:0:0:
256,192,25545,1,12,0:0:0:0:
256,192,25932,1,12,0:0:0:0:
256,192,26319,1,12,0:0:0:0:
256,192,26609,1,12,0:0:0:0:
256,192,27093,1,12,0:0:0:0:
256,192,27480,1,12,0:0:0:0:
256,192,27770,1,12,0:0:0:0:
256,192,28641,1,12,0:0:0:0:
256,192,29029,1,12,0:0:0:0:
256,192,29416,1,12,0:0:0:0:
256,192,29706,1,12,0:0:0:0:
256,192,30190,1,12,0:0:0:0:
256,192,30383,1,12,0:0:0:0:
256,192,30577,1,4,0:0:0:0:
256,192,30964,1,12,0:0:0:0:
256,192,31351,1,4,0:0:0:0:
256,192,31738,1,12,0:0:0:0:
256,192,32125,1,12,0:0:0:0:
256,192,32512,1,12,0:0:0:0:
256,192,32802,1,12,0:0:0:0:
256,192,33286,1,12,0:0:0:0:
256,192,33673,1,12,0:0:0:0:
256,192,33963,1,12,0:0:0:0:
256,192,34834,1,12,0:0:0:0:
256,192,35222,1,12,0:0:0:0:
256,192,35609,1,12,0:0:0:0:
256,192,35899,1,12,0:0:0:0:
256,192,36383,1,4,0:0:0:0:
256,192,37158,1,8,0:0:0:0:
256,192,37351,1,8,0:0:0:0:
256,192,37545,1,0,0:0:0:0:
256,192,37931,1,12,0:0:0:0:
256,192,38222,1,12,0:0:0:0:
256,192,38512,1,12,0:0:0:0:
256,192,39093,1,12,0:0:0:0:
256,192,39287,1,4,0:0:0:0:
256,192,39480,1,12,0:0:0:0:
256,192,39770,1,12,0:0:0:0:
256,192,40061,1,12,0:0:0:0:
256,192,40448,1,4,0:0:0:0:
256,192,40641,1,12,0:0:0:0:
256,192,41029,1,12,0:0:0:0:
256,192,41320,1,12,0:0:0:0:
256,192,41610,1,12,0:0:0:0:
256,192,42190,1,12,0:0:0:0:
256,192,42577,1,12,0:0:0:0:
256,192,42770,1,4,0:0:0:0:
256,192,42964,1,12,0:0:0:0:
256,192,43254,1,4,0:0:0:0:
256,192,43545,1,4,0:0:0:0:
256,192,43932,1,4,0:0:0:0:
256,192,44125,1,12,0:0:0:0:
256,192,44416,1,12,0:0:0:0:
256,192,44706,1,12,0:0:0:0:
256,192,45287,1,12,0:0:0:0:
256,192,45481,1,4,0:0:0:0:
256,192,45674,1,12,0:0:0:0:
256,192,45964,1,12,0:0:0:0:
256,192,46255,1,12,0:0:0:0:
256,192,46641,1,4,0:0:0:0:
256,192,46835,1,12,0:0:0:0:
256,192,47222,1,12,0:0:0:0:
256,192,47512,1,12,0:0:0:0:
256,192,47803,1,12,0:0:0:0:
256,192,48383,1,12,0:0:0:0:
256,192,48577,1,0,0:0:0:0:
256,192,48770,1,12,0:0:0:0:
256,192,49932,1,0,0:0:0:0:
256,192,50319,1,12,0:0:0:0:
256,192,50512,1,0,0:0:0:0:
256,192,50803,1,8,0:0:0:0:
256,192,51093,1,0,0:0:0:0:
256,192,51867,1,0,0:0:0:0:
256,192,52061,1,8,0:0:0:0:
256,192,52351,1,0,0:0:0:0:
256,192,52641,1,8,0:0:0:0:
256,192,53416,1,0,0:0:0:0:
256,192,53609,1,8,0:0:0:0:
256,192,53900,1,8,0:0:0:0:
256,192,54190,1,0,0:0:0:0:
256,192,54964,1,0,0:0:0:0:
256,192,55158,1,8,0:0:0:0:
256,192,55351,1,0,0:0:0:0:
256,192,55738,1,8,0:0:0:0:
256,192,55932,1,4,0:0:0:0:
256,192,56125,1,12,0:0:0:0:
256,192,56319,1,12,0:0:0:0:
256,192,56512,1,4,0:0:0:0:
256,192,56705,1,8,0:0:0:0:
256,192,56996,1,0,0:0:0:0:
256,192,57286,1,8,0:0:0:0:
256,192,58060,1,0,0:0:0:0:
256,192,58254,1,8,0:0:0:0:
256,192,58544,1,0,0:0:0:0:
256,192,58834,1,8,0:0:0:0:
256,192,59609,1,0,0:0:0:0:
256,192,59803,1,0,0:0:0:0:
256,192,59996,1,0,0:0:0:0:
256,192,60190,1,0,0:0:0:0:
256,192,60383,1,0,0:0:0:0:
256,192,60770,1,0,0:0:0:0:
256,192,61158,1,0,0:0:0:0:
256,192,61351,1,0,0:0:0:0:
256,192,61545,1,8,0:0:0:0:
256,192,61932,1,0,0:0:0:0:
256,192,62125,1,8,0:0:0:0:
256,192,62319,1,8,0:0:0:0:
256,192,62706,1,12,0:0:0:0:
256,192,63093,1,8,0:0:0:0:
256,192,63287,1,0,0:0:0:0:
256,192,63674,1,0,0:0:0:0:
256,192,64061,1,8,0:0:0:0:
256,192,64254,1,0,0:0:0:0:
256,192,64641,1,8,0:0:0:0:
256,192,64835,1,0,0:0:0:0:
256,192,65222,1,0,0:0:0:0:
256,192,65416,1,8,0:0:0:0:
256,192,65803,1,12,0:0:0:0:
256,192,66577,1,0,0:0:0:0:
256,192,66964,1,8,0:0:0:0:
256,192,67351,1,0,0:0:0:0:
256,192,67545,1,0,0:0:0:0:
256,192,67738,1,8,0:0:0:0:
256,192,68125,1,0,0:0:0:0:
256,192,68319,1,8,0:0:0:0:
256,192,68512,1,8,0:0:0:0:
256,192,68706,1,8,0:0:0:0:
256,192,68900,1,0,0:0:0:0:
256,192,69287,1,12,0:0:0:0:
256,192,69481,1,0,0:0:0:0:
256,192,69867,1,0,0:0:0:0:
256,192,70255,1,8,0:0:0:0:
256,192,70448,1,0,0:0:0:0:
256,192,70835,1,8,0:0:0:0:
256,192,71029,1,0,0:0:0:0:
256,192,71416,1,0,0:0:0:0:
256,192,71610,1,8,0:0:0:0:
256,192,71997,1,12,0:0:0:0:
256,192,72771,1,0,0:0:0:0:
256,192,73158,1,8,0:0:0:0:
256,192,73545,1,0,0:0:0:0:
256,192,73738,1,8,0:0:0:0:
256,192,73932,1,0,0:0:0:0:
256,192,74319,1,8,0:0:0:0:
256,192,74512,1,4,0:0:0:0:
256,192,75093,1,12,0:0:0:0:
256,192,75383,1,0,0:0:0:0:
256,192,75770,1,0,0:0:0:0:
256,192,76641,1,8,0:0:0:0:
256,192,77029,1,0,0:0:0:0:
256,192,77222,1,8,0:0:0:0:
256,192,77609,1,0,0:0:0:0:
256,192,77996,1,8,0:0:0:0:
256,192,78190,1,0,0:0:0:0:
256,192,79738,1,8,0:0:0:0:
256,192,80319,1,0,0:0:0:0:
256,192,80706,1,8,0:0:0:0:
256,192,80900,1,8,0:0:0:0:
256,192,81287,1,4,0:0:0:0:
256,192,81674,1,0,0:0:0:0:
256,192,82061,1,8,0:0:0:0:
256,192,82448,1,0,0:0:0:0:
256,192,82835,1,8,0:0:0:0:
256,192,83222,1,0,0:0:0:0:
256,192,83609,1,8,0:0:0:0:
256,192,83996,1,0,0:0:0:0:
256,192,84383,1,12,0:0:0:0:
256,192,84577,1,8,0:0:0:0:
256,192,84770,1,0,0:0:0:0:
256,192,85158,1,8,0:0:0:0:
256,192,85351,1,8,0:0:0:0:
256,192,85545,1,0,0:0:0:0:
256,192,85932,1,12,0:0:0:0:
256,192,86706,1,4,0:0:0:0:
256,192,86900,1,12,0:0:0:0:
256,192,87287,1,4,0:0:0:0:
256,192,87867,1,12,0:0:0:0:
256,192,88061,1,0,0:0:0:0:
256,192,88254,1,8,0:0:0:0:
256,192,88641,1,0,0:0:0:0:
256,192,88932,1,8,0:0:0:0:
256,192,89222,1,8,0:0:0:0:
256,192,89416,1,0,0:0:0:0:
256,192,89706,1,8,0:0:0:0:
256,192,90093,1,8,0:0:0:0:
256,192,90577,1,4,0:0:0:0:
256,192,91351,1,12,0:0:0:0:
256,192,92125,1,4,0:0:0:0:
256,192,92512,1,8,0:0:0:0:
256,192,92706,1,0,0:0:0:0:
256,192,92900,1,12,0:0:0:0:
256,192,93287,1,0,0:0:0:0:
256,192,93480,1,8,0:0:0:0:
256,192,93674,1,4,0:0:0:0:
256,192,94254,1,8,0:0:0:0:
256,192,94448,1,0,0:0:0:0:
256,192,94641,1,8,0:0:0:0:
256,192,94835,1,0,0:0:0:0:
256,192,95125,1,8,0:0:0:0:
256,192,95416,1,8,0:0:0:0:
256,192,95609,1,0,0:0:0:0:
256,192,95900,1,8,0:0:0:0:
256,192,96190,1,8,0:0:0:0:
256,192,96770,1,12,0:0:0:0:
256,192,97545,1,4,0:0:0:0:
256,192,98125,1,8,0:0:0:0:
256,192,98706,1,4,0:0:0:0:
256,192,99093,1,4,0:0:0:0:
256,192,99480,1,4,0:0:0:0:
256,192,99867,1,4,0:0:0:0:
256,192,100448,1,8,0:0:0:0:
256,192,100641,1,8,0:0:0:0:
256,192,101029,1,0,0:0:0:0:
256,192,101222,1,8,0:0:0:0:
256,192,101416,1,4,0:0:0:0:
256,192,101996,1,0,0:0:0:0:
256,192,102190,1,8,0:0:0:0:
256,192,102577,1,0,0:0:0:0:
256,192,102770,1,8,0:0:0:0:
256,192,102964,1,4,0:0:0:0:
256,192,103738,1,12,0:0:0:0:
256,192,104512,1,4,0:0:0:0:
256,192,104899,1,8,0:0:0:0:
256,192,105093,1,0,0:0:0:0:
256,192,105287,1,12,0:0:0:0:
256,192,105674,1,0,0:0:0:0:
256,192,105867,1,8,0:0:0:0:
256,192,106061,1,4,0:0:0:0:
256,192,106641,1,0,0:0:0:0:
256,192,106835,1,8,0:0:0:0:
256,192,107222,1,8,0:0:0:0:
256,192,107416,1,0,0:0:0:0:
256,192,107609,1,12,0:0:0:0:
256,192,107996,1,8,0:0:0:0:
256,192,108190,1,0,0:0:0:0:
256,192,108383,1,8,0:0:0:0:
256,192,108577,1,8,0:0:0:0:
256,192,108770,1,0,0:0:0:0:
256,192,109158,1,4,0:0:0:0:
256,192,109932,1,12,0:0:0:0:
256,192,110706,1,4,0:0:0:0:
256,192,111093,1,8,0:0:0:0:
256,192,111674,1,0,0:0:0:0:
256,192,111867,1,8,0:0:0:0:
256,192,112254,1,4,0:0:0:0:
256,192,113029,1,8,0:0:0:0:
256,192,113803,1,0,0:0:0:0:
256,192,113996,1,0,0:0:0:0:
256,192,114190,1,8,0:0:0:0:
256,192,114577,1,0,0:0:0:0:
256,192,114964,1,0,0:0:0:0:
256,192,115158,1,8,0:0:0:0:
256,192,115351,1,4,0:0:0:0:
