osu file format v14

[General]
AudioFilename: audio.mp3
AudioLeadIn: 0
PreviewTime: 87287
Countdown: 0
SampleSet: Drum
StackLeniency: 0.2
Mode: 0
LetterboxInBreaks: 0
EpilepsyWarning: 1
WidescreenStoryboard: 1

[Editor]
Bookmarks: 13158,25545,37932,50319,62706,75093,81287,87287,99867,112254
DistanceSpacing: 2.4
BeatDivisor: 16
GridSize: 8
TimelineZoom: 2.4

[Metadata]
Title:Alt Futur
TitleUnicode:Alt Futur
Artist:Silentroom
ArtistUnicode:Silentroom
Creator:SaltyLucario
Version:jamesjan's Extra
Source:osu!
Tags:saltking salty jamesjan3 dtm9 nowa dtm9_nowa astronic mbc #8 monthly beatmapping contest august featured artist fa mappers' guild electronic hi-tech edm dance rhythm game instrumental memory waves juliana techno ジュリアナテクノ bms ジャンルシャッフル3 genre-shuffle genre shuffle 3
BeatmapID:2656852
BeatmapSetID:1265982

[Difficulty]
HPDrainRate:5
CircleSize:3
OverallDifficulty:8.2
ApproachRate:9.3
SliderMultiplier:3.59999990463257
SliderTickRate:1

[Events]
//Background and Video events
0,0,"bg.jpg",0,0
//Break Periods
2,75293,80733
//Storyboard Layer 0 (Background)
//Storyboard Layer 1 (Fail)
//Storyboard Layer 2 (Pass)
//Storyboard Layer 3 (Foreground)
Sprite,Foreground,Centre,"sb\w.png",463,194 C,0,37158,,111,128,249 F,2,37158,37458,1,0 S,2,37158,37458,1,0.2 P,0,37158,37458,A
Sprite,Foreground,Centre,"sb\w.png",387,228 C,0,37254,,237,158,39 F,2,37254,37554,1,0 S,2,37254,37554,1,0.2 P,0,37254,37554,A
Sprite,Foreground,Centre,"sb\w.png",372,310 C,0,37351,,255,87,171 F,2,37351,37651,1,0 S,2,37351,37651,1,0.2 P,0,37351,37651,A
Sprite,Foreground,Centre,"sb\w.png",428,369 C,0,37448,,111,128,249 F,2,37448,37748,1,0 S,2,37448,37748,1,0.2 P,0,37448,37748,A
Sprite,Foreground,Centre,"sb\w.png",457,280 C,0,37545,,237,158,39 F,2,37545,37845,1,0 S,2,37545,37845,1,0.2 P,0,37545,37845,A
Sprite,Foreground,Centre,"sb\w.png",156,232 C,0,37738,,237,158,39 F,2,37738,38038,1,0 S,2,37738,38038,1,0.2 P,0,37738,38038,A
Sprite,Foreground,Centre,"sb\a.png",0,0 M,7,771,,192,177 F,2,771,,0,1 S,0,771,,2.5 C,0,771,,0,0,0 M,7,771,1061,192,177 M,7,1061,1351,192,177 M,7,1351,1545,192,177,70,345 M,7,1545,1738,70,345,182,283 M,7,1738,1835,182,283,160,270 M,7,1835,1932,160,270,134,272 M,7,1932,2125,134,272,200,374 M,7,2125,2319,200,374,448,177 M,7,2319,2609,448,177 M,7,2609,2899,448,177 M,7,2899,3093,448,177,544,344 M,7,3093,3287,544,344,538,249 M,7,3287,3383,538,249,507,253 M,7,3383,3480,507,253,483,267 M,7,3480,3577,483,267,470,287 M,7,3577,3867,470,287,158,56 M,7,3867,4158,158,56 M,7,4158,4448,158,56 M,7,4448,4641,158,56,123,247 M,7,4641,4835,123,247,162,160 M,7,4835,4932,162,160,138,152 M,7,4932,5029,138,152,112,154 M,7,5029,5222,112,154,123,247 M,7,5222,5416,123,247,482,56 M,7,5416,5707,482,56 M,7,5707,5997,482,56 M,7,5997,6190,482,56,414,199 M,7,6190,6287,414,199,430,140 M,7,6287,6383,430,140,489,156 M,7,6383,6480,489,156,473,215 M,7,6480,6577,473,215,436,186 M,7,6577,6674,436,186,443,162 M,7,6674,6770,443,162,467,169 M,7,6770,6867,467,169,460,193 S,19,6964,,2.5,12.5 F,0,6964,7064,1,0
Sprite,Foreground,Centre,"sb\w.png",182,408 C,0,99867,,237,158,39 F,2,99867,100167,1,0 S,2,99867,100167,1,0.2 P,0,99867,100167,A
Sprite,Foreground,Centre,"sb\w.png",320,248 C,0,99891,,237,158,39 F,2,99891,100748,1,0 S,2,99891,100748,1,0.2 P,0,99891,100748,A
Sprite,Foreground,Centre,"sb\w.png",476,194 C,0,100545,,255,87,171 F,2,100545,100845,1,0 S,2,100545,100845,1,0.2 P,0,100545,100845,A
Sprite,Foreground,Centre,"sb\w.png",476,194 C,0,100641,,255,87,171 F,2,100641,100941,1,0 S,2,100641,100941,1,0.2 P,0,100641,100941,A
Sprite,Foreground,Centre,"sb\w.png",397,220 C,0,100738,,255,87,171 F,2,100738,101038,1,0 S,2,100738,101038,1,0.2 P,0,100738,101038,A
Sprite,Foreground,Centre,"sb\w.png",369,269 C,0,100835,,255,87,171 F,2,100835,101135,1,0 S,2,100835,101135,1,0.2 P,0,100835,101135,A
Sprite,Foreground,Centre,"sb\w.png",370,307 C,0,100932,,255,87,171 F,2,100932,101232,1,0 S,2,100932,101232,1,0.2 P,0,100932,101232,A
Sprite,Foreground,Centre,"sb\w.png",469,289 C,0,101029,,111,128,249 F,2,101029,101329,1,0 S,2,101029,101329,1,0.2 P,0,101029,101329,A
Sprite,Foreground,Centre,"sb\w.png",460,333 C,0,101125,,111,128,249 F,2,101125,101425,1,0 S,2,101125,101425,1,0.2 P,0,101125,101425,A
Sprite,Foreground,Centre,"sb\w.png",466,366 C,0,101222,,111,128,249 F,2,101222,101522,1,0 S,2,101222,101522,1,0.2 P,0,101222,101522,A
Sprite,Foreground,Centre,"sb\w.png",474,378 C,0,101319,,111,128,249 F,2,101319,101619,1,0 S,2,101319,101619,1,0.2 P,0,101319,101619,A
Sprite,Foreground,Centre,"sb\w.png",556,326 C,0,101416,,237,158,39 F,2,101416,101716,1,0 S,2,101416,101716,1,0.2 P,0,101416,101716,A
Sprite,Foreground,Centre,"sb\w.png",320,248 C,0,101440,,237,158,39 F,2,101440,102296,1,0 S,2,101440,102296,1,0.2 P,0,101440,102296,A
Sprite,Foreground,Centre,"sb\w.png",164,194 C,0,102093,,255,87,171 F,2,102093,102393,1,0 S,2,102093,102393,1,0.2 P,0,102093,102393,A
Sprite,Foreground,Centre,"sb\w.png",164,194 C,0,102189,,255,87,171 F,2,102189,102489,1,0 S,2,102189,102489,1,0.2 P,0,102189,102489,A
Sprite,Foreground,Centre,"sb\w.png",243,220 C,0,102286,,255,87,171 F,2,102286,102586,1,0 S,2,102286,102586,1,0.2 P,0,102286,102586,A
Sprite,Foreground,Centre,"sb\w.png",271,269 C,0,102383,,255,87,171 F,2,102383,102683,1,0 S,2,102383,102683,1,0.2 P,0,102383,102683,A
Sprite,Foreground,Centre,"sb\w.png",270,307 C,0,102480,,255,87,171 F,2,102480,102780,1,0 S,2,102480,102780,1,0.2 P,0,102480,102780,A
Sprite,Foreground,Centre,"sb\w.png",171,289 C,0,102577,,111,128,249 F,2,102577,102877,1,0 S,2,102577,102877,1,0.2 P,0,102577,102877,A
Sprite,Foreground,Centre,"sb\w.png",180,333 C,0,102673,,111,128,249 F,2,102673,102973,1,0 S,2,102673,102973,1,0.2 P,0,102673,102973,A
Sprite,Foreground,Centre,"sb\w.png",174,366 C,0,102770,,111,128,249 F,2,102770,103070,1,0 S,2,102770,103070,1,0.2 P,0,102770,103070,A
Sprite,Foreground,Centre,"sb\w.png",166,378 C,0,102867,,111,128,249 F,2,102867,103167,1,0 S,2,102867,103167,1,0.2 P,0,102867,103167,A
Sprite,Foreground,Centre,"sb\w.png",84,326 C,0,102964,,237,158,39 F,2,102964,103264,1,0 S,2,102964,103264,1,0.2 P,0,102964,103264,A
Sprite,Foreground,Centre,"sb\w.png",320,248 C,0,102988,,237,158,39 F,2,102988,103845,1,0 S,2,102988,103845,1,0.2 P,0,102988,103845,A
Sprite,Foreground,Centre,"sb\w.png",209,108 C,0,103609,,255,87,171 F,2,103609,103909,1,0 S,2,103609,103909,1,0.2 P,0,103609,103909,A
Sprite,Foreground,Centre,"sb\w.png",209,108 C,0,103674,,111,128,249 F,2,103674,103974,1,0 S,2,103674,103974,1,0.2 P,0,103674,103974,A
Sprite,Foreground,Centre,"sb\w.png",209,108 C,0,103738,,237,158,39 F,2,103738,104038,1,0 S,2,103738,104038,1,0.2 P,0,103738,104038,A
Sprite,Foreground,Centre,"sb\w.png",320,248 C,0,103762,,237,158,39 F,2,103762,104619,1,0 S,2,103762,104619,1,0.2 P,0,103762,104619,A
Sprite,Foreground,Centre,"sb\w.png",168,310 C,0,104512,,255,87,171 F,2,104512,104812,1,0 S,2,104512,104812,1,0.2 P,0,104512,104812,A
Sprite,Foreground,Centre,"sb\w.png",412,283 C,0,104706,,255,87,171 F,2,104706,105006,1,0 S,2,104706,105006,1,0.2 P,0,104706,105006,A
Sprite,Foreground,Centre,"sb\w.png",320,248 C,0,104803,,255,87,171 F,2,104803,105103,1,0 S,2,104803,105103,1,0.2 P,0,104803,105103,A
Sprite,Foreground,Centre,"sb\w.png",337,342 C,0,104899,,255,87,171 F,2,104899,105199,1,0 S,2,104899,105199,1,0.2 P,0,104899,105199,A
Sprite,Foreground,Centre,"sb\w.png",405,112 C,0,105093,,255,87,171 F,2,105093,105393,1,0 S,2,105093,105393,1,0.2 P,0,105093,105393,A
Sprite,Foreground,Centre,"sb\w.png",463,402 C,0,105287,,255,87,171 F,2,105287,105587,1,0 S,2,105287,105587,1,0.2 P,0,105287,105587,A
Sprite,Foreground,Centre,"sb\w.png",241,155 C,0,105480,,255,87,171 F,2,105480,105780,1,0 S,2,105480,105780,1,0.2 P,0,105480,105780,A
Sprite,Foreground,Centre,"sb\w.png",128,415 C,0,105674,,111,128,249 F,2,105674,105974,1,0 S,2,105674,105974,1,0.2 P,0,105674,105974,A
Sprite,Foreground,Centre,"sb\w.png",187,332 C,0,105770,,111,128,249 F,2,105770,106070,1,0 S,2,105770,106070,1,0.2 P,0,105770,106070,A
Sprite,Foreground,Centre,"sb\w.png",90,364 C,0,105867,,111,128,249 F,2,105867,106167,1,0 S,2,105867,106167,1,0.2 P,0,105867,106167,A
Sprite,Foreground,Centre,"sb\w.png",187,395 C,0,105964,,111,128,249 F,2,105964,106264,1,0 S,2,105964,106264,1,0.2 P,0,105964,106264,A
Sprite,Foreground,Centre,"sb\w.png",127,313 C,0,106061,,111,128,249 F,2,106061,106361,1,0 S,2,106061,106361,1,0.2 P,0,106061,106361,A
Sprite,Foreground,Centre,"sb\w.png",320,248 C,0,106085,,111,128,249 F,2,106085,106941,1,0 S,2,106085,106941,1,0.2 P,0,106085,106941,A
Sprite,Foreground,Centre,"sb\w.png",422,206 C,0,106738,,237,158,39 F,2,106738,107038,1,0 S,2,106738,107038,1,0.2 P,0,106738,107038,A
Sprite,Foreground,Centre,"sb\w.png",422,206 C,0,106834,,237,158,39 F,2,106834,107134,1,0 S,2,106834,107134,1,0.2 P,0,106834,107134,A
Sprite,Foreground,Centre,"sb\w.png",499,228 C,0,106931,,237,158,39 F,2,106931,107231,1,0 S,2,106931,107231,1,0.2 P,0,106931,107231,A
Sprite,Foreground,Centre,"sb\w.png",536,267 C,0,107028,,237,158,39 F,2,107028,107328,1,0 S,2,107028,107328,1,0.2 P,0,107028,107328,A
Sprite,Foreground,Centre,"sb\w.png",546,303 C,0,107125,,237,158,39 F,2,107125,107425,1,0 S,2,107125,107425,1,0.2 P,0,107125,107425,A
Sprite,Foreground,Centre,"sb\w.png",433,307 C,0,107222,,255,87,171 F,2,107222,107522,1,0 S,2,107222,107522,1,0.2 P,0,107222,107522,A
Sprite,Foreground,Centre,"sb\w.png",477,305 C,0,107318,,255,87,171 F,2,107318,107618,1,0 S,2,107318,107618,1,0.2 P,0,107318,107618,A
Sprite,Foreground,Centre,"sb\w.png",508,317 C,0,107415,,255,87,171 F,2,107415,107715,1,0 S,2,107415,107715,1,0.2 P,0,107415,107715,A
Sprite,Foreground,Centre,"sb\w.png",519,327 C,0,107512,,255,87,171 F,2,107512,107812,1,0 S,2,107512,107812,1,0.2 P,0,107512,107812,A
Sprite,Foreground,Centre,"sb\w.png",461,405 C,0,107609,,111,128,249 F,2,107609,107909,1,0 S,2,107609,107909,1,0.2 P,0,107609,107909,A
Sprite,Foreground,Centre,"sb\w.png",320,248 C,0,107633,,111,128,249 F,2,107633,108490,1,0 S,2,107633,108490,1,0.2 P,0,107633,108490,A
Sprite,Foreground,Centre,"sb\w.png",90,355 C,0,108287,,237,158,39 F,2,108287,108587,1,0 S,2,108287,108587,1,0.2 P,0,108287,108587,A
Sprite,Foreground,Centre,"sb\w.png",90,355 C,0,108383,,237,158,39 F,2,108383,108683,1,0 S,2,108383,108683,1,0.2 P,0,108383,108683,A
Sprite,Foreground,Centre,"sb\w.png",165,325 C,0,108480,,237,158,39 F,2,108480,108780,1,0 S,2,108480,108780,1,0.2 P,0,108480,108780,A
Sprite,Foreground,Centre,"sb\w.png",191,277 C,0,108577,,237,158,39 F,2,108577,108877,1,0 S,2,108577,108877,1,0.2 P,0,108577,108877,A
Sprite,Foreground,Centre,"sb\w.png",191,240 C,0,108674,,237,158,39 F,2,108674,108974,1,0 S,2,108674,108974,1,0.2 P,0,108674,108974,A
Sprite,Foreground,Centre,"sb\w.png",95,279 C,0,108771,,255,87,171 F,2,108771,109071,1,0 S,2,108771,109071,1,0.2 P,0,108771,109071,A
Sprite,Foreground,Centre,"sb\w.png",115,318 C,0,108867,,255,87,171 F,2,108867,109167,1,0 S,2,108867,109167,1,0.2 P,0,108867,109167,A
Sprite,Foreground,Centre,"sb\w.png",141,338 C,0,108964,,255,87,171 F,2,108964,109264,1,0 S,2,108964,109264,1,0.2 P,0,108964,109264,A
Sprite,Foreground,Centre,"sb\w.png",155,343 C,0,109061,,255,87,171 F,2,109061,109361,1,0 S,2,109061,109361,1,0.2 P,0,109061,109361,A
Sprite,Foreground,Centre,"sb\w.png",222,420 C,0,109158,,111,128,249 F,2,109158,109458,1,0 S,2,109158,109458,1,0.2 P,0,109158,109458,A
Sprite,Foreground,Centre,"sb\w.png",320,248 C,0,109182,,111,128,249 F,2,109182,110038,1,0 S,2,109182,110038,1,0.2 P,0,109182,110038,A
Sprite,Foreground,Centre,"sb\w.png",497,379 C,0,109803,,237,158,39 F,2,109803,110103,1,0 S,2,109803,110103,1,0.2 P,0,109803,110103,A
Sprite,Foreground,Centre,"sb\w.png",497,379 C,0,109868,,255,87,171 F,2,109868,110168,1,0 S,2,109868,110168,1,0.2 P,0,109868,110168,A
Sprite,Foreground,Centre,"sb\w.png",497,379 C,0,109932,,111,128,249 F,2,109932,110232,1,0 S,2,109932,110232,1,0.2 P,0,109932,110232,A
Sprite,Foreground,Centre,"sb\w.png",320,248 C,0,109956,,111,128,249 F,2,109956,110812,1,0 S,2,109956,110812,1,0.2 P,0,109956,110812,A
Sprite,Foreground,Centre,"sb\w.png",126,119 C,0,110706,,237,158,39 F,2,110706,111006,1,0 S,2,110706,111006,1,0.2 P,0,110706,111006,A
Sprite,Foreground,Centre,"sb\w.png",169,210 C,0,110803,,237,158,39 F,2,110803,111103,1,0 S,2,110803,111103,1,0.2 P,0,110803,111103,A
Sprite,Foreground,Centre,"sb\w.png",351,268 C,0,110996,,255,87,171 F,2,110996,111296,1,0 S,2,110996,111296,1,0.2 P,0,110996,111296,A
Sprite,Foreground,Centre,"sb\w.png",251,260 C,0,111093,,255,87,171 F,2,111093,111393,1,0 S,2,111093,111393,1,0.2 P,0,111093,111393,A
Sprite,Foreground,Centre,"sb\w.png",81,337 C,0,111287,,111,128,249 F,2,111287,111587,1,0 S,2,111287,111587,1,0.2 P,0,111287,111587,A
Sprite,Foreground,Centre,"sb\w.png",167,301 C,0,111384,,111,128,249 F,2,111384,111684,1,0 S,2,111384,111684,1,0.2 P,0,111384,111684,A
Sprite,Foreground,Centre,"sb\w.png",187,391 C,0,111480,,111,128,249 F,2,111480,111780,1,0 S,2,111480,111780,1,0.2 P,0,111480,111780,A
Sprite,Foreground,Centre,"sb\w.png",263,161 C,0,111674,,111,128,249 F,2,111674,111974,1,0 S,2,111674,111974,1,0.2 P,0,111674,111974,A
Sprite,Foreground,Centre,"sb\w.png",521,254 C,0,111867,,237,158,39 F,2,111867,112167,1,0 S,2,111867,112167,1,0.2 P,0,111867,112167,A
Sprite,Foreground,Centre,"sb\w.png",192,395 C,0,112061,,237,158,39 F,2,112061,112361,1,0 S,2,112061,112361,1,0.2 P,0,112061,112361,A
Sprite,Foreground,Centre,"sb\w.png",293,292 C,0,114383,,237,158,39 F,2,114383,114683,1,0 S,2,114383,114683,1,0.2 P,0,114383,114683,A
Sprite,Foreground,Centre,"sb\w.png",329,196 C,0,114480,,237,158,39 F,2,114480,114780,1,0 S,2,114480,114780,1,0.2 P,0,114480,114780,A
Sprite,Foreground,Centre,"sb\w.png",360,281 C,0,114577,,237,158,39 F,2,114577,114877,1,0 S,2,114577,114877,1,0.2 P,0,114577,114877,A
Sprite,Foreground,Centre,"sb\w.png",270,230 C,0,114674,,237,158,39 F,2,114674,114974,1,0 S,2,114674,114974,1,0.2 P,0,114674,114974,A
Sprite,Foreground,Centre,"sb\w.png",360,214 C,0,114770,,237,158,39 F,2,114770,115070,1,0 S,2,114770,115070,1,0.2 P,0,114770,115070,A
Sprite,Foreground,Centre,"sb\w.png",329,299 C,0,114867,,237,158,39 F,2,114867,115167,1,0 S,2,114867,115167,1,0.2 P,0,114867,115167,A
Sprite,Foreground,Centre,"sb\w.png",293,202 C,0,114964,,237,158,39 F,2,114964,115264,1,0 S,2,114964,115264,1,0.2 P,0,114964,115264,A
Sprite,Foreground,Centre,"sb\w.png",372,248 C,0,115061,,237,158,39 F,2,115061,115361,1,0 S,2,115061,115361,1,0.2 P,0,115061,115361,A
Sprite,Foreground,Centre,"sb\w.png",270,265 C,0,115158,,237,158,39 F,2,115158,115458,1,0 S,2,115158,115458,1,0.2 P,0,115158,115458,A
Sprite,Foreground,Centre,"sb\f.jpg",483,61 C,0,98706,,255,87,171 F,2,98706,98906,1,0 S,19,98706,98906,2,1
Sprite,Foreground,Centre,"sb\f.jpg",267,108 C,0,98900,,255,87,171 F,2,98900,99100,1,0 S,19,98900,99100,2,1
Sprite,Foreground,Centre,"sb\f.jpg",483,61 C,0,99093,,111,128,249 F,2,99093,99293,1,0 S,19,99093,99293,2,1
Sprite,Foreground,Centre,"sb\f.jpg",267,108 C,0,99287,,111,128,249 F,2,99287,99487,1,0 S,19,99287,99487,2,1
Sprite,Foreground,Centre,"sb\f.jpg",483,61 C,0,99480,,237,158,39 F,2,99480,99680,1,0 S,19,99480,99680,2,1
Sprite,Foreground,Centre,"sb\f.jpg",499,206 C,0,49061,,237,158,39 F,2,49061,49261,1,0 S,19,49061,49261,2,1
Sprite,Foreground,Centre,"sb\w.png",522,292 F,2,16254,16604,1,0 S,19,16254,16604,1,0.7
Sprite,Foreground,Centre,"sb\w.png",364,432 F,2,15867,16217,1,0 S,19,15867,16217,1,0.7
Sprite,Foreground,Centre,"sb\w.png",320,152 C,0,6964,,237,158,39 F,2,6964,7264,1,0 S,2,6964,7264,1,0.2 P,0,6964,7264,A
Sprite,Foreground,Centre,"sb\w.png",320,440 C,0,7254,,237,158,39 F,2,7254,7554,1,0 S,2,7254,7554,1,0.2 P,0,7254,7554,A
Sprite,Foreground,Centre,"sb\w.png",320,152 C,0,7545,,237,158,39 F,2,7545,7845,1,0 S,2,7545,7845,1,0.2 P,0,7545,7845,A
Sprite,Foreground,Centre,"sb\w.png",64,264 C,0,7738,,255,87,171 F,2,7738,8038,1,0 S,2,7738,8038,1,0.2 P,0,7738,8038,A
Sprite,Foreground,Centre,"sb\w.png",98,231 C,0,7835,,255,87,171 F,2,7835,8135,1,0 S,2,7835,8135,1,0.2 P,0,7835,8135,A
Sprite,Foreground,Centre,"sb\w.png",239,323 C,0,8029,,255,87,171 F,2,8029,8329,1,0 S,2,8029,8329,1,0.2 P,0,8029,8329,A
Sprite,Foreground,Centre,"sb\w.png",231,271 C,0,8126,,255,87,171 F,2,8126,8426,1,0 S,2,8126,8426,1,0.2 P,0,8126,8426,A
Sprite,Foreground,Centre,"sb\w.png",106,418 C,0,8319,,255,87,171 F,2,8319,8619,1,0 S,2,8319,8619,1,0.2 P,0,8319,8619,A
Sprite,Foreground,Centre,"sb\w.png",320,152 C,0,8512,,111,128,249 F,2,8512,8812,1,0 S,2,8512,8812,1,0.2 P,0,8512,8812,A
Sprite,Foreground,Centre,"sb\w.png",320,440 C,0,8802,,111,128,249 F,2,8802,9102,1,0 S,2,8802,9102,1,0.2 P,0,8802,9102,A
Sprite,Foreground,Centre,"sb\w.png",320,152 C,0,9093,,111,128,249 F,2,9093,9393,1,0 S,2,9093,9393,1,0.2 P,0,9093,9393,A
Sprite,Foreground,Centre,"sb\w.png",410,345 C,0,9287,,237,158,39 F,2,9287,9587,1,0 S,2,9287,9587,1,0.2 P,0,9287,9587,A
Sprite,Foreground,Centre,"sb\w.png",419,364 C,0,9384,,237,158,39 F,2,9384,9684,1,0 S,2,9384,9684,1,0.2 P,0,9384,9684,A
Sprite,Foreground,Centre,"sb\w.png",430,384 C,0,9480,,237,158,39 F,2,9480,9780,1,0 S,2,9480,9780,1,0.2 P,0,9480,9780,A
Sprite,Foreground,Centre,"sb\w.png",512,291 C,0,9674,,255,87,171 F,2,9674,9974,1,0 S,2,9674,9974,1,0.2 P,0,9674,9974,A
Sprite,Foreground,Centre,"sb\w.png",489,261 C,0,9770,,255,87,171 F,2,9770,10070,1,0 S,2,9770,10070,1,0.2 P,0,9770,10070,A
Sprite,Foreground,Centre,"sb\w.png",469,232 C,0,9867,,255,87,171 F,2,9867,10167,1,0 S,2,9867,10167,1,0.2 P,0,9867,10167,A
Sprite,Foreground,Centre,"sb\w.png",451,204 C,0,9964,,255,87,171 F,2,9964,10264,1,0 S,2,9964,10264,1,0.2 P,0,9964,10264,A
Sprite,Foreground,Centre,"sb\w.png",319,162 C,0,10061,,111,128,249 F,2,10061,10361,1,0 S,2,10061,10361,1,0.2 P,0,10061,10361,A
Sprite,Foreground,Centre,"sb\w.png",319,333 C,0,10254,,111,128,249 F,2,10254,10554,1,0 S,2,10254,10554,1,0.2 P,0,10254,10554,A
Sprite,Foreground,Centre,"sb\w.png",346,194 C,0,10448,,237,158,39 F,2,10448,10748,1,0 S,2,10448,10748,1,0.2 P,0,10448,10748,A
Sprite,Foreground,Centre,"sb\w.png",289,299 C,0,10641,,237,158,39 F,2,10641,10941,1,0 S,2,10641,10941,1,0.2 P,0,10641,10941,A
Sprite,Foreground,Centre,"sb\w.png",356,227 C,0,10835,,255,87,171 F,2,10835,11135,1,0 S,2,10835,11135,1,0.2 P,0,10835,11135,A
Sprite,Foreground,Centre,"sb\w.png",283,268 C,0,10932,,255,87,171 F,2,10932,11232,1,0 S,2,10932,11232,1,0.2 P,0,10932,11232,A
Sprite,Foreground,Centre,"sb\w.png",348,247 C,0,11029,,111,128,249 F,2,11029,11329,1,0 S,2,11029,11329,1,0.2 P,0,11029,11329,A
Sprite,Foreground,Centre,"sb\w.png",290,247 C,0,11126,,111,128,249 F,2,11126,11426,1,0 S,2,11126,11426,1,0.2 P,0,11126,11426,A
Sprite,Foreground,Centre,"sb\w.png",336,257 C,0,11222,,237,158,39 F,2,11222,11522,1,0 S,2,11222,11522,1,0.2 P,0,11222,11522,A
Sprite,Foreground,Centre,"sb\w.png",302,237 C,0,11319,,237,158,39 F,2,11319,11619,1,0 S,2,11319,11619,1,0.2 P,0,11319,11619,A
Sprite,Foreground,Centre,"sb\w.png",322,253 C,0,11416,,255,87,171 F,2,11416,11716,1,0 S,2,11416,11716,1,0.2 P,0,11416,11716,A
Sprite,Foreground,Centre,"sb\w.png",315,240 C,0,11513,,255,87,171 F,2,11513,11813,1,0 S,2,11513,11813,1,0.2 P,0,11513,11813,A
Sprite,Foreground,Centre,"sb\w.png",165,101 C,0,11706,,111,128,249 F,2,11706,12006,1,0 S,2,11706,12006,1,0.2 P,0,11706,12006,A
Sprite,Foreground,Centre,"sb\w.png",124,129 C,0,11803,,111,128,249 F,2,11803,12103,1,0 S,2,11803,12103,1,0.2 P,0,11803,12103,A
Sprite,Foreground,Centre,"sb\w.png",110,176 C,0,11900,,111,128,249 F,2,11900,12200,1,0 S,2,11900,12200,1,0.2 P,0,11900,12200,A
Sprite,Foreground,Centre,"sb\w.png",114,224 C,0,11996,,111,128,249 F,2,11996,12296,1,0 S,2,11996,12296,1,0.2 P,0,11996,12296,A
Sprite,Foreground,Centre,"sb\w.png",141,264 C,0,12093,,111,128,249 F,2,12093,12393,1,0 S,2,12093,12393,1,0.2 P,0,12093,12393,A
Sprite,Foreground,Centre,"sb\w.png",174,300 C,0,12190,,111,128,249 F,2,12190,12490,1,0 S,2,12190,12490,1,0.2 P,0,12190,12490,A
Sprite,Foreground,Centre,"sb\w.png",181,348 C,0,12287,,111,128,249 F,2,12287,12587,1,0 S,2,12287,12587,1,0.2 P,0,12287,12587,A
Sprite,Foreground,Centre,"sb\w.png",154,388 C,0,12383,,237,158,39 F,2,12383,12683,1,0 S,2,12383,12683,1,0.2 P,0,12383,12683,A
Sprite,Foreground,Centre,"sb\w.png",139,344 C,0,12480,,237,158,39 F,2,12480,12780,1,0 S,2,12480,12780,1,0.2 P,0,12480,12780,A
Sprite,Foreground,Centre,"sb\w.png",156,299 C,0,12577,,237,158,39 F,2,12577,12877,1,0 S,2,12577,12877,1,0.2 P,0,12577,12877,A
Sprite,Foreground,Centre,"sb\w.png",196,271 C,0,12674,,237,158,39 F,2,12674,12974,1,0 S,2,12674,12974,1,0.2 P,0,12674,12974,A
Sprite,Foreground,Centre,"sb\w.png",233,240 C,0,12771,,237,158,39 F,2,12771,13071,1,0 S,2,12771,13071,1,0.2 P,0,12771,13071,A
Sprite,Foreground,Centre,"sb\w.png",249,194 C,0,12867,,237,158,39 F,2,12867,13167,1,0 S,2,12867,13167,1,0.2 P,0,12867,13167,A
Sprite,Foreground,Centre,"sb\w.png",246,144 C,0,12964,,237,158,39 F,2,12964,13264,1,0 S,2,12964,13264,1,0.2 P,0,12964,13264,A
Sprite,Foreground,Centre,"sb\w.png",215,109 C,0,13061,,237,158,39 F,2,13061,13361,1,0 S,2,13061,13361,1,0.2 P,0,13061,13361,A
Sprite,Foreground,Centre,"sb\w.png",160,181 C,0,13158,,255,87,171 F,2,13158,13458,1,0 S,2,13158,13458,1,0.2 P,0,13158,13458,A
Sprite,Foreground,Centre,"sb\w.png",296,56 F,2,14512,14862,1,0 S,19,14512,14862,1,0.7
Sprite,Foreground,Centre,"sb\w.png",364,432 F,2,14706,15056,1,0 S,19,14706,15056,1,0.7
Sprite,Foreground,Centre,"sb\w.png",344,333 F,2,17125,17475,1,0 S,19,17125,17475,1,0.7
Sprite,Foreground,Centre,"sb\w.png",257,355 F,2,17416,17766,1,0 S,19,17416,17766,1,0.7
Sprite,Foreground,Centre,"sb\w.png",438,315 F,2,17609,17959,1,0 S,19,17609,17959,1,0.7
Sprite,Foreground,Centre,"sb\w.png",501,82 F,2,17803,18153,1,0 S,19,17803,18153,1,0.7
Sprite,Foreground,Centre,"sb\f.jpg",499,206 C,0,49351,,255,87,171 F,2,49351,49551,1,0 S,19,49351,49551,2,1
Sprite,Foreground,Centre,"sb\f.jpg",499,206 C,0,49448,,255,87,171 F,2,49448,49648,1,0 S,19,49448,49648,2,1
Sprite,Foreground,Centre,"sb\f.jpg",368,197 C,0,49545,,111,128,249 F,2,49545,49745,1,0 S,19,49545,49745,2,1
Sprite,Foreground,Centre,"sb\f.jpg",569,95 C,0,49738,,111,128,249 F,2,49738,49938,1,0 S,19,49738,49938,2,1
Sprite,Foreground,Centre,"sb\f.jpg",556,320 C,0,49932,,111,128,249 F,2,49932,50132,1,0 S,19,49932,50132,2,1
Sprite,Foreground,Centre,"sb\f.jpg",556,320 C,0,50125,,111,128,249 F,2,50125,50325,1,0 S,19,50125,50325,2,1
Sprite,Foreground,Centre,"sb\w.png",242,80 C,0,69287,,255,87,171 F,2,69287,69587,1,0 S,2,69287,69587,1,0.2 P,0,69287,69587,A
Sprite,Foreground,Centre,"sb\w.png",320,248 C,0,69383,,255,87,171 F,2,69383,72102,1,0 S,2,69383,72102,1,0.2 P,0,69383,72102,A
Sprite,Foreground,Centre,"sb\w.png",320,248 C,0,19351,,111,128,249 F,2,19351,19651,1,0 S,2,19351,19651,1,0.2 P,0,19351,19651,A
Sprite,Foreground,Centre,"sb\w.png",454,122 C,0,19545,,237,158,39 F,2,19545,19845,1,0 S,2,19545,19845,1,0.2 P,0,19545,19845,A
Sprite,Foreground,Centre,"sb\w.png",421,151 C,0,19641,,237,158,39 F,2,19641,19941,1,0 S,2,19641,19941,1,0.2 P,0,19641,19941,A
Sprite,Foreground,Centre,"sb\w.png",387,185 C,0,19738,,237,158,39 F,2,19738,20038,1,0 S,2,19738,20038,1,0.2 P,0,19738,20038,A
Sprite,Foreground,Centre,"sb\w.png",521,59 C,0,19932,,237,158,39 F,2,19932,20232,1,0 S,2,19932,20232,1,0.2 P,0,19932,20232,A
Sprite,Foreground,Centre,"sb\w.png",320,248 C,0,20125,,237,158,39 F,2,20125,20425,1,0 S,2,20125,20425,1,0.2 P,0,20125,20425,A
Sprite,Foreground,Centre,"sb\w.png",454,374 C,0,20319,,255,87,171 F,2,20319,20619,1,0 S,2,20319,20619,1,0.2 P,0,20319,20619,A
Sprite,Foreground,Centre,"sb\w.png",387,311 C,0,20512,,255,87,171 F,2,20512,20812,1,0 S,2,20512,20812,1,0.2 P,0,20512,20812,A
Sprite,Foreground,Centre,"sb\w.png",521,437 C,0,20706,,255,87,171 F,2,20706,21006,1,0 S,2,20706,21006,1,0.2 P,0,20706,21006,A
Sprite,Foreground,Centre,"sb\w.png",320,248 C,0,20900,,255,87,171 F,2,20900,21200,1,0 S,2,20900,21200,1,0.2 P,0,20900,21200,A
Sprite,Foreground,Centre,"sb\w.png",185,374 C,0,21093,,111,128,249 F,2,21093,21393,1,0 S,2,21093,21393,1,0.2 P,0,21093,21393,A
Sprite,Foreground,Centre,"sb\w.png",219,345 C,0,21190,,111,128,249 F,2,21190,21490,1,0 S,2,21190,21490,1,0.2 P,0,21190,21490,A
Sprite,Foreground,Centre,"sb\w.png",253,311 C,0,21286,,237,158,39 F,2,21286,21586,1,0 S,2,21286,21586,1,0.2 P,0,21286,21586,A
Sprite,Foreground,Centre,"sb\w.png",119,437 C,0,21480,,237,158,39 F,2,21480,21780,1,0 S,2,21480,21780,1,0.2 P,0,21480,21780,A
Sprite,Foreground,Centre,"sb\w.png",320,248 C,0,21674,,237,158,39 F,2,21674,21974,1,0 S,2,21674,21974,1,0.2 P,0,21674,21974,A
Sprite,Foreground,Centre,"sb\w.png",186,120 C,0,21867,,255,87,171 F,2,21867,22167,1,0 S,2,21867,22167,1,0.2 P,0,21867,22167,A
Sprite,Foreground,Centre,"sb\w.png",253,183 C,0,22060,,255,87,171 F,2,22060,22360,1,0 S,2,22060,22360,1,0.2 P,0,22060,22360,A
Sprite,Foreground,Centre,"sb\w.png",119,57 C,0,22254,,111,128,249 F,2,22254,22554,1,0 S,2,22254,22554,1,0.2 P,0,22254,22554,A
Sprite,Foreground,Centre,"sb\w.png",320,248 C,0,22448,,111,128,249 F,2,22448,22748,1,0 S,2,22448,22748,1,0.2 P,0,22448,22748,A
Sprite,Foreground,Centre,"sb\w.png",394,137 C,0,22641,,237,158,39 F,2,22641,22941,1,0 S,2,22641,22941,1,0.2 P,0,22641,22941,A
Sprite,Foreground,Centre,"sb\w.png",187,239 C,0,22835,,237,158,39 F,2,22835,23135,1,0 S,2,22835,23135,1,0.2 P,0,22835,23135,A
Sprite,Foreground,Centre,"sb\w.png",378,366 C,0,23029,,237,158,39 F,2,23029,23329,1,0 S,2,23029,23329,1,0.2 P,0,23029,23329,A
Sprite,Foreground,Centre,"sb\w.png",320,248 C,0,23222,,255,87,171 F,2,23222,23522,1,0 S,2,23222,23522,1,0.2 P,0,23222,23522,A
Sprite,Foreground,Centre,"sb\w.png",222,393 C,0,23416,,111,128,249 F,2,23416,23716,1,0 S,2,23416,23716,1,0.2 P,0,23416,23716,A
Sprite,Foreground,Centre,"sb\w.png",492,259 C,0,23610,,111,128,249 F,2,23610,23910,1,0 S,2,23610,23910,1,0.2 P,0,23610,23910,A
Sprite,Foreground,Centre,"sb\w.png",243,91 C,0,23804,,111,128,249 F,2,23804,24104,1,0 S,2,23804,24104,1,0.2 P,0,23804,24104,A
Sprite,Foreground,Centre,"sb\w.png",87,305 C,0,23996,,237,158,39 F,2,23996,24296,1,0 S,2,23996,24296,1,0.2 P,0,23996,24296,A
Sprite,Foreground,Centre,"sb\w.png",126,327 C,0,24093,,237,158,39 F,2,24093,24393,1,0 S,2,24093,24393,1,0.2 P,0,24093,24393,A
Sprite,Foreground,Centre,"sb\w.png",171,327 C,0,24190,,237,158,39 F,2,24190,24490,1,0 S,2,24190,24490,1,0.2 P,0,24190,24490,A
Sprite,Foreground,Centre,"sb\w.png",211,304 C,0,24287,,237,158,39 F,2,24287,24587,1,0 S,2,24287,24587,1,0.2 P,0,24287,24587,A
Sprite,Foreground,Centre,"sb\w.png",233,265 C,0,24383,,237,158,39 F,2,24383,24683,1,0 S,2,24383,24683,1,0.2 P,0,24383,24683,A
Sprite,Foreground,Centre,"sb\w.png",233,221 C,0,24480,,237,158,39 F,2,24480,24780,1,0 S,2,24480,24780,1,0.2 P,0,24480,24780,A
Sprite,Foreground,Centre,"sb\w.png",211,181 C,0,24577,,237,158,39 F,2,24577,24877,1,0 S,2,24577,24877,1,0.2 P,0,24577,24877,A
Sprite,Foreground,Centre,"sb\w.png",172,158 C,0,24674,,237,158,39 F,2,24674,24974,1,0 S,2,24674,24974,1,0.2 P,0,24674,24974,A
Sprite,Foreground,Centre,"sb\w.png",126,158 C,0,24770,,237,158,39 F,2,24770,25070,1,0 S,2,24770,25070,1,0.2 P,0,24770,25070,A
Sprite,Foreground,Centre,"sb\w.png",87,181 C,0,24867,,237,158,39 F,2,24867,25167,1,0 S,2,24867,25167,1,0.2 P,0,24867,25167,A
Sprite,Foreground,Centre,"sb\w.png",64,220 C,0,24964,,237,158,39 F,2,24964,25264,1,0 S,2,24964,25264,1,0.2 P,0,24964,25264,A
Sprite,Foreground,Centre,"sb\w.png",64,266 C,0,25061,,237,158,39 F,2,25061,25361,1,0 S,2,25061,25361,1,0.2 P,0,25061,25361,A
Sprite,Foreground,Centre,"sb\e.jpg",523,56 C,0,25545,,111,128,249 F,2,25545,25745,1,0 S,19,25545,25745,3,1
Sprite,Foreground,Centre,"sb\e.jpg",561,138 C,0,25738,,111,128,249 F,2,25738,25938,1,0 S,19,25738,25938,3,1
Sprite,Foreground,Centre,"sb\e.jpg",323,195 C,0,25932,,237,158,39 F,2,25932,26132,1,0 S,19,25932,26132,3,1
Sprite,Foreground,Centre,"sb\e.jpg",411,212 C,0,26125,,237,158,39 F,2,26125,26325,1,0 S,19,26125,26325,3,1
Sprite,Foreground,Centre,"sb\e.jpg",324,413 C,0,26319,,255,87,171 F,2,26319,26519,1,0 S,19,26319,26519,3,1
Sprite,Foreground,Centre,"sb\e.jpg",408,381 C,0,26512,,255,87,171 F,2,26512,26712,1,0 S,19,26512,26712,3,1
Sprite,Foreground,Centre,"sb\e.jpg",234,378 C,0,26609,,111,128,249 F,2,26609,26809,1,0 S,19,26609,26809,3,1
Sprite,Foreground,Centre,"sb\e.jpg",153,97 C,0,27093,,237,158,39 F,2,27093,27293,1,0 S,19,27093,27293,3,1
Sprite,Foreground,Centre,"sb\e.jpg",102,175 C,0,27287,,237,158,39 F,2,27287,27487,1,0 S,19,27287,27487,3,1
Sprite,Foreground,Centre,"sb\e.jpg",321,130 C,0,27480,,255,87,171 F,2,27480,27680,1,0 S,19,27480,27680,3,1
Sprite,Foreground,Centre,"sb\e.jpg",334,222 C,0,27674,,255,87,171 F,2,27674,27874,1,0 S,19,27674,27874,3,1
Sprite,Foreground,Centre,"sb\e.jpg",250,57 C,0,27770,,111,128,249 F,2,27770,27970,1,0 S,19,27770,27970,3,1
Sprite,Foreground,Centre,"sb\e.jpg",545,317 C,0,28061,,237,158,39 F,2,28061,28261,1,0 S,19,28061,28261,3,1
Sprite,Foreground,Centre,"sb\e.jpg",476,331 C,0,28158,,237,158,39 F,2,28158,28358,1,0 S,19,28158,28358,3,1
Sprite,Foreground,Centre,"sb\e.jpg",504,292 C,0,28254,,237,158,39 F,2,28254,28454,1,0 S,19,28254,28454,3,1
Sprite,Foreground,Centre,"sb\e.jpg",515,361 C,0,28351,,237,158,39 F,2,28351,28551,1,0 S,19,28351,28551,3,1
Sprite,Foreground,Centre,"sb\e.jpg",151,411 C,0,28641,,255,87,171 F,2,28641,28841,1,0 S,19,28641,28841,3,1
Sprite,Foreground,Centre,"sb\e.jpg",241,380 C,0,28835,,255,87,171 F,2,28835,29035,1,0 S,19,28835,29035,3,1
Sprite,Foreground,Centre,"sb\e.jpg",142,200 C,0,29029,,111,128,249 F,2,29029,29229,1,0 S,19,29029,29229,3,1
Sprite,Foreground,Centre,"sb\e.jpg",229,232 C,0,29222,,111,128,249 F,2,29222,29422,1,0 S,19,29222,29422,3,1
Sprite,Foreground,Centre,"sb\e.jpg",282,56 C,0,29416,,237,158,39 F,2,29416,29616,1,0 S,19,29416,29616,3,1
Sprite,Foreground,Centre,"sb\e.jpg",327,139 C,0,29609,,237,158,39 F,2,29609,29809,1,0 S,19,29609,29809,3,1
Sprite,Foreground,Centre,"sb\e.jpg",161,85 C,0,29706,,255,87,171 F,2,29706,29906,1,0 S,19,29706,29906,3,1
Sprite,Foreground,Centre,"sb\e.jpg",161,85 C,0,29996,,255,87,171 F,2,29996,30196,1,0 S,19,29996,30196,3,1
Sprite,Foreground,Centre,"sb\e.jpg",511,75 C,0,30190,,111,128,249 F,2,30190,30390,1,0 S,19,30190,30390,3,1
Sprite,Foreground,Centre,"sb\e.jpg",229,232 C,0,30383,,111,128,249 F,2,30383,30583,1,0 S,19,30383,30583,3,1
Sprite,Foreground,Centre,"sb\e.jpg",499,382 C,0,30577,,111,128,249 F,2,30577,30777,1,0 S,19,30577,30777,3,1
Sprite,Foreground,Centre,"sb\e.jpg",427,214 C,0,30770,,111,128,249 F,2,30770,30970,1,0 S,19,30770,30970,3,1
Sprite,Foreground,Centre,"sb\e.jpg",276,395 C,0,30964,,237,158,39 F,2,30964,31164,1,0 S,19,30964,31164,3,1
Sprite,Foreground,Centre,"sb\e.jpg",332,384 C,0,31061,,237,158,39 F,2,31061,31261,1,0 S,19,31061,31261,3,1
Sprite,Foreground,Centre,"sb\e.jpg",386,374 C,0,31158,,237,158,39 F,2,31158,31358,1,0 S,19,31158,31358,3,1
Sprite,Foreground,Centre,"sb\e.jpg",206,372 C,0,31351,,255,87,171 F,2,31351,31551,1,0 S,19,31351,31551,3,1
Sprite,Foreground,Centre,"sb\e.jpg",294,375 C,0,31448,,255,87,171 F,2,31448,31648,1,0 S,19,31448,31648,3,1
Sprite,Foreground,Centre,"sb\e.jpg",386,374 C,0,31545,,255,87,171 F,2,31545,31745,1,0 S,19,31545,31745,3,1
Sprite,Foreground,Centre,"sb\e.jpg",64,253 C,0,31738,,111,128,249 F,2,31738,31938,1,0 S,19,31738,31938,3,1
Sprite,Foreground,Centre,"sb\e.jpg",108,337 C,0,31932,,111,128,249 F,2,31932,32132,1,0 S,19,31932,32132,3,1
Sprite,Foreground,Centre,"sb\e.jpg",108,337 C,0,32029,,111,128,249 F,2,32029,32229,1,0 S,19,32029,32229,3,1
Sprite,Foreground,Centre,"sb\e.jpg",148,201 C,0,32125,,237,158,39 F,2,32125,32325,1,0 S,19,32125,32325,3,1
Sprite,Foreground,Centre,"sb\e.jpg",239,231 C,0,32319,,237,158,39 F,2,32319,32519,1,0 S,19,32319,32519,3,1
Sprite,Foreground,Centre,"sb\e.jpg",239,231 C,0,32416,,237,158,39 F,2,32416,32616,1,0 S,19,32416,32616,3,1
Sprite,Foreground,Centre,"sb\e.jpg",140,105 C,0,32512,,255,87,171 F,2,32512,32712,1,0 S,19,32512,32712,3,1
Sprite,Foreground,Centre,"sb\e.jpg",228,84 C,0,32706,,255,87,171 F,2,32706,32906,1,0 S,19,32706,32906,3,1
Sprite,Foreground,Centre,"sb\e.jpg",64,160 C,0,32803,,111,128,249 F,2,32803,33003,1,0 S,19,32803,33003,3,1
Sprite,Foreground,Centre,"sb\e.jpg",482,76 C,0,33287,,237,158,39 F,2,33287,33487,1,0 S,19,33287,33487,3,1
Sprite,Foreground,Centre,"sb\e.jpg",406,129 C,0,33480,,237,158,39 F,2,33480,33680,1,0 S,19,33480,33680,3,1
Sprite,Foreground,Centre,"sb\e.jpg",406,129 C,0,33577,,237,158,39 F,2,33577,33777,1,0 S,19,33577,33777,3,1
Sprite,Foreground,Centre,"sb\e.jpg",475,292 C,0,33674,,255,87,171 F,2,33674,33874,1,0 S,19,33674,33874,3,1
Sprite,Foreground,Centre,"sb\e.jpg",403,221 C,0,33867,,255,87,171 F,2,33867,34067,1,0 S,19,33867,34067,3,1
Sprite,Foreground,Centre,"sb\e.jpg",551,176 C,0,33964,,111,128,249 F,2,33964,34164,1,0 S,19,33964,34164,3,1
Sprite,Foreground,Centre,"sb\e.jpg",231,360 C,0,34254,,237,158,39 F,2,34254,34454,1,0 S,19,34254,34454,3,1
Sprite,Foreground,Centre,"sb\e.jpg",220,372 C,0,34351,,237,158,39 F,2,34351,34551,1,0 S,19,34351,34551,3,1
Sprite,Foreground,Centre,"sb\e.jpg",286,380 C,0,34447,,255,87,171 F,2,34447,34647,1,0 S,19,34447,34647,3,1
Sprite,Foreground,Centre,"sb\e.jpg",286,395 C,0,34544,,255,87,171 F,2,34544,34744,1,0 S,19,34544,34744,3,1
Sprite,Foreground,Centre,"sb\e.jpg",339,359 C,0,34641,,111,128,249 F,2,34641,34841,1,0 S,19,34641,34841,3,1
Sprite,Foreground,Centre,"sb\e.jpg",353,370 C,0,34738,,111,128,249 F,2,34738,34938,1,0 S,19,34738,34938,3,1
Sprite,Foreground,Centre,"sb\e.jpg",284,288 C,0,34835,,237,158,39 F,2,34835,35035,1,0 S,19,34835,35035,3,1
Sprite,Foreground,Centre,"sb\e.jpg",358,229 C,0,35029,,237,158,39 F,2,35029,35229,1,0 S,19,35029,35229,3,1
Sprite,Foreground,Centre,"sb\e.jpg",196,237 C,0,35222,,255,87,171 F,2,35222,35422,1,0 S,19,35222,35422,3,1
Sprite,Foreground,Centre,"sb\e.jpg",213,148 C,0,35416,,255,87,171 F,2,35416,35616,1,0 S,19,35416,35616,3,1
Sprite,Foreground,Centre,"sb\e.jpg",213,148 C,0,35512,,255,87,171 F,2,35512,35712,1,0 S,19,35512,35712,3,1
Sprite,Foreground,Centre,"sb\e.jpg",100,278 C,0,35609,,111,128,249 F,2,35609,35809,1,0 S,19,35609,35809,3,1
Sprite,Foreground,Centre,"sb\e.jpg",65,196 C,0,35803,,111,128,249 F,2,35803,36003,1,0 S,19,35803,36003,3,1
Sprite,Foreground,Centre,"sb\e.jpg",183,346 C,0,35900,,237,158,39 F,2,35900,36100,1,0 S,19,35900,36100,3,1
Sprite,Foreground,Centre,"sb\e.jpg",183,346 C,0,36190,,237,158,39 F,2,36190,36390,1,0 S,19,36190,36390,3,1
Sprite,Foreground,Centre,"sb\w.png",286,72 C,0,50319,,237,158,39 F,2,50319,50619,1,0 S,2,50319,50619,1,0.2 P,0,50319,50619,A
Sprite,Foreground,Centre,"sb\w.png",87,135 C,0,50512,,237,158,39 F,2,50512,50812,1,0 S,2,50512,50812,1,0.2 P,0,50512,50812,A
Sprite,Foreground,Centre,"sb\w.png",102,195 C,0,50609,,237,158,39 F,2,50609,50909,1,0 S,2,50609,50909,1,0.2 P,0,50609,50909,A
Sprite,Foreground,Centre,"sb\w.png",162,180 C,0,50706,,237,158,39 F,2,50706,51006,1,0 S,2,50706,51006,1,0.2 P,0,50706,51006,A
Sprite,Foreground,Centre,"sb\w.png",147,123 C,0,50803,,237,158,39 F,2,50803,51103,1,0 S,2,50803,51103,1,0.2 P,0,50803,51103,A
Sprite,Foreground,Centre,"sb\w.png",77,413 C,0,51093,,255,87,171 F,2,51093,51393,1,0 S,2,51093,51393,1,0.2 P,0,51093,51393,A
Sprite,Foreground,Centre,"sb\w.png",162,355 C,0,51287,,255,87,171 F,2,51287,51587,1,0 S,2,51287,51587,1,0.2 P,0,51287,51587,A
Sprite,Foreground,Centre,"sb\w.png",77,413 C,0,51480,,111,128,249 F,2,51480,51780,1,0 S,2,51480,51780,1,0.2 P,0,51480,51780,A
Sprite,Foreground,Centre,"sb\w.png",166,359 C,0,51674,,111,128,249 F,2,51674,51974,1,0 S,2,51674,51974,1,0.2 P,0,51674,51974,A
Sprite,Foreground,Centre,"sb\w.png",166,359 C,0,51770,,111,128,249 F,2,51770,52070,1,0 S,2,51770,52070,1,0.2 P,0,51770,52070,A
Sprite,Foreground,Centre,"sb\w.png",77,413 C,0,51867,,237,158,39 F,2,51867,52167,1,0 S,2,51867,52167,1,0.2 P,0,51867,52167,A
Sprite,Foreground,Centre,"sb\w.png",351,268 C,0,52061,,237,158,39 F,2,52061,52361,1,0 S,2,52061,52361,1,0.2 P,0,52061,52361,A
Sprite,Foreground,Centre,"sb\w.png",336,328 C,0,52158,,237,158,39 F,2,52158,52458,1,0 S,2,52158,52458,1,0.2 P,0,52158,52458,A
Sprite,Foreground,Centre,"sb\w.png",276,313 C,0,52255,,237,158,39 F,2,52255,52555,1,0 S,2,52255,52555,1,0.2 P,0,52255,52555,A
Sprite,Foreground,Centre,"sb\w.png",291,256 C,0,52352,,237,158,39 F,2,52352,52652,1,0 S,2,52352,52652,1,0.2 P,0,52352,52652,A
Sprite,Foreground,Centre,"sb\w.png",563,413 C,0,52641,,255,87,171 F,2,52641,52941,1,0 S,2,52641,52941,1,0.2 P,0,52641,52941,A
Sprite,Foreground,Centre,"sb\w.png",478,355 C,0,52835,,255,87,171 F,2,52835,53135,1,0 S,2,52835,53135,1,0.2 P,0,52835,53135,A
Sprite,Foreground,Centre,"sb\w.png",563,413 C,0,53028,,111,128,249 F,2,53028,53328,1,0 S,2,53028,53328,1,0.2 P,0,53028,53328,A
Sprite,Foreground,Centre,"sb\w.png",336,328 C,0,53222,,111,128,249 F,2,53222,53522,1,0 S,2,53222,53522,1,0.2 P,0,53222,53522,A
Sprite,Foreground,Centre,"sb\w.png",563,413 C,0,53415,,237,158,39 F,2,53415,53715,1,0 S,2,53415,53715,1,0.2 P,0,53415,53715,A
Sprite,Foreground,Centre,"sb\w.png",482,151 C,0,53609,,237,158,39 F,2,53609,53909,1,0 S,2,53609,53909,1,0.2 P,0,53609,53909,A
Sprite,Foreground,Centre,"sb\w.png",497,211 C,0,53706,,237,158,39 F,2,53706,54006,1,0 S,2,53706,54006,1,0.2 P,0,53706,54006,A
Sprite,Foreground,Centre,"sb\w.png",557,196 C,0,53803,,237,158,39 F,2,53803,54103,1,0 S,2,53803,54103,1,0.2 P,0,53803,54103,A
Sprite,Foreground,Centre,"sb\w.png",542,139 C,0,53900,,237,158,39 F,2,53900,54200,1,0 S,2,53900,54200,1,0.2 P,0,53900,54200,A
Sprite,Foreground,Centre,"sb\w.png",253,73 C,0,54190,,255,87,171 F,2,54190,54490,1,0 S,2,54190,54490,1,0.2 P,0,54190,54490,A
Sprite,Foreground,Centre,"sb\w.png",353,96 C,0,54383,,255,87,171 F,2,54383,54683,1,0 S,2,54383,54683,1,0.2 P,0,54383,54683,A
Sprite,Foreground,Centre,"sb\w.png",253,73 C,0,54577,,111,128,249 F,2,54577,54877,1,0 S,2,54577,54877,1,0.2 P,0,54577,54877,A
Sprite,Foreground,Centre,"sb\w.png",357,100 C,0,54770,,111,128,249 F,2,54770,55070,1,0 S,2,54770,55070,1,0.2 P,0,54770,55070,A
Sprite,Foreground,Centre,"sb\w.png",357,100 C,0,54867,,111,128,249 F,2,54867,55167,1,0 S,2,54867,55167,1,0.2 P,0,54867,55167,A
Sprite,Foreground,Centre,"sb\w.png",253,73 C,0,54964,,237,158,39 F,2,54964,55264,1,0 S,2,54964,55264,1,0.2 P,0,54964,55264,A
Sprite,Foreground,Centre,"sb\w.png",96,257 C,0,55158,,237,158,39 F,2,55158,55458,1,0 S,2,55158,55458,1,0.2 P,0,55158,55458,A
Sprite,Foreground,Centre,"sb\w.png",139,245 C,0,55254,,237,158,39 F,2,55254,55554,1,0 S,2,55254,55554,1,0.2 P,0,55254,55554,A
Sprite,Foreground,Centre,"sb\w.png",187,232 C,0,55351,,237,158,39 F,2,55351,55651,1,0 S,2,55351,55651,1,0.2 P,0,55351,55651,A
Sprite,Foreground,Centre,"sb\w.png",231,223 C,0,55448,,237,158,39 F,2,55448,55748,1,0 S,2,55448,55748,1,0.2 P,0,55448,55748,A
Sprite,Foreground,Centre,"sb\w.png",193,375 C,0,55641,,237,158,39 F,2,55641,55941,1,0 S,2,55641,55941,1,0.2 P,0,55641,55941,A
Sprite,Foreground,Centre,"sb\w.png",266,312 C,0,55738,,255,87,171 F,2,55738,56038,1,0 S,2,55738,56038,1,0.2 P,0,55738,56038,A
Sprite,Foreground,Centre,"sb\w.png",90,366 C,0,55932,,255,87,171 F,2,55932,56232,1,0 S,2,55932,56232,1,0.2 P,0,55932,56232,A
Sprite,Foreground,Centre,"sb\w.png",183,137 C,0,56125,,255,87,171 F,2,56125,56425,1,0 S,2,56125,56425,1,0.2 P,0,56125,56425,A
Sprite,Foreground,Centre,"sb\w.png",411,224 C,0,56319,,255,87,171 F,2,56319,56619,1,0 S,2,56319,56619,1,0.2 P,0,56319,56619,A
Sprite,Foreground,Centre,"sb\w.png",336,440 C,0,56512,,111,128,249 F,2,56512,56812,1,0 S,2,56512,56812,1,0.2 P,0,56512,56812,A
Sprite,Foreground,Centre,"sb\w.png",242,244 C,0,56706,,111,128,249 F,2,56706,57006,1,0 S,2,56706,57006,1,0.2 P,0,56706,57006,A
Sprite,Foreground,Centre,"sb\w.png",268,326 C,0,56803,,111,128,249 F,2,56803,57103,1,0 S,2,56803,57103,1,0.2 P,0,56803,57103,A
Sprite,Foreground,Centre,"sb\w.png",213,299 C,0,56900,,111,128,249 F,2,56900,57200,1,0 S,2,56900,57200,1,0.2 P,0,56900,57200,A
Sprite,Foreground,Centre,"sb\w.png",294,273 C,0,56997,,111,128,249 F,2,56997,57297,1,0 S,2,56997,57297,1,0.2 P,0,56997,57297,A
Sprite,Foreground,Centre,"sb\w.png",79,94 C,0,57287,,237,158,39 F,2,57287,57587,1,0 S,2,57287,57587,1,0.2 P,0,57287,57587,A
Sprite,Foreground,Centre,"sb\w.png",184,75 C,0,57480,,237,158,39 F,2,57480,57780,1,0 S,2,57480,57780,1,0.2 P,0,57480,57780,A
Sprite,Foreground,Centre,"sb\w.png",79,94 C,0,57674,,255,87,171 F,2,57674,57974,1,0 S,2,57674,57974,1,0.2 P,0,57674,57974,A
Sprite,Foreground,Centre,"sb\w.png",189,79 C,0,57867,,255,87,171 F,2,57867,58167,1,0 S,2,57867,58167,1,0.2 P,0,57867,58167,A
Sprite,Foreground,Centre,"sb\w.png",189,79 C,0,57964,,255,87,171 F,2,57964,58264,1,0 S,2,57964,58264,1,0.2 P,0,57964,58264,A
Sprite,Foreground,Centre,"sb\w.png",79,94 C,0,58061,,111,128,249 F,2,58061,58361,1,0 S,2,58061,58361,1,0.2 P,0,58061,58361,A
Sprite,Foreground,Centre,"sb\w.png",351,107 C,0,58254,,111,128,249 F,2,58254,58554,1,0 S,2,58254,58554,1,0.2 P,0,58254,58554,A
Sprite,Foreground,Centre,"sb\w.png",308,183 C,0,58351,,111,128,249 F,2,58351,58651,1,0 S,2,58351,58651,1,0.2 P,0,58351,58651,A
Sprite,Foreground,Centre,"sb\w.png",292,125 C,0,58448,,111,128,249 F,2,58448,58748,1,0 S,2,58448,58748,1,0.2 P,0,58448,58748,A
Sprite,Foreground,Centre,"sb\w.png",368,165 C,0,58545,,111,128,249 F,2,58545,58845,1,0 S,2,58545,58845,1,0.2 P,0,58545,58845,A
Sprite,Foreground,Centre,"sb\w.png",561,94 C,0,58835,,237,158,39 F,2,58835,59135,1,0 S,2,58835,59135,1,0.2 P,0,58835,59135,A
Sprite,Foreground,Centre,"sb\w.png",455,75 C,0,59028,,237,158,39 F,2,59028,59328,1,0 S,2,59028,59328,1,0.2 P,0,59028,59328,A
Sprite,Foreground,Centre,"sb\w.png",561,94 C,0,59222,,255,87,171 F,2,59222,59522,1,0 S,2,59222,59522,1,0.2 P,0,59222,59522,A
Sprite,Foreground,Centre,"sb\w.png",308,183 C,0,59415,,255,87,171 F,2,59415,59715,1,0 S,2,59415,59715,1,0.2 P,0,59415,59715,A
Sprite,Foreground,Centre,"sb\w.png",561,94 C,0,59609,,111,128,249 F,2,59609,59909,1,0 S,2,59609,59909,1,0.2 P,0,59609,59909,A
Sprite,Foreground,Centre,"sb\w.png",527,321 C,0,59803,,111,128,249 F,2,59803,60103,1,0 S,2,59803,60103,1,0.2 P,0,59803,60103,A
Sprite,Foreground,Centre,"sb\w.png",300,287 C,0,59996,,111,128,249 F,2,59996,60296,1,0 S,2,59996,60296,1,0.2 P,0,59996,60296,A
Sprite,Foreground,Centre,"sb\w.png",334,60 C,0,60190,,111,128,249 F,2,60190,60490,1,0 S,2,60190,60490,1,0.2 P,0,60190,60490,A
Sprite,Foreground,Centre,"sb\w.png",430,190 C,0,60383,,237,158,39 F,2,60383,60683,1,0 S,2,60383,60683,1,0.2 P,0,60383,60683,A
Sprite,Foreground,Centre,"sb\w.png",167,381 C,0,60577,,237,158,39 F,2,60577,60877,1,0 S,2,60577,60877,1,0.2 P,0,60577,60877,A
Sprite,Foreground,Centre,"sb\w.png",201,154 C,0,60770,,237,158,39 F,2,60770,61070,1,0 S,2,60770,61070,1,0.2 P,0,60770,61070,A
Sprite,Foreground,Centre,"sb\w.png",394,414 C,0,60964,,237,158,39 F,2,60964,61264,1,0 S,2,60964,61264,1,0.2 P,0,60964,61264,A
Sprite,Foreground,Centre,"sb\w.png",300,287 C,0,61158,,255,87,171 F,2,61158,61458,1,0 S,2,61158,61458,1,0.2 P,0,61158,61458,A
Sprite,Foreground,Centre,"sb\w.png",299,300 C,0,61254,,255,87,171 F,2,61254,61554,1,0 S,2,61254,61554,1,0.2 P,0,61254,61554,A
Sprite,Foreground,Centre,"sb\w.png",312,301 C,0,61351,,255,87,171 F,2,61351,61651,1,0 S,2,61351,61651,1,0.2 P,0,61351,61651,A
Sprite,Foreground,Centre,"sb\w.png",313,288 C,0,61448,,255,87,171 F,2,61448,61748,1,0 S,2,61448,61748,1,0.2 P,0,61448,61748,A
Sprite,Foreground,Centre,"sb\w.png",295,284 C,0,61545,,111,128,249 F,2,61545,61845,1,0 S,2,61545,61845,1,0.2 P,0,61545,61845,A
Sprite,Foreground,Centre,"sb\w.png",296,303 C,0,61641,,111,128,249 F,2,61641,61941,1,0 S,2,61641,61941,1,0.2 P,0,61641,61941,A
Sprite,Foreground,Centre,"sb\w.png",316,301 C,0,61738,,111,128,249 F,2,61738,62038,1,0 S,2,61738,62038,1,0.2 P,0,61738,62038,A
Sprite,Foreground,Centre,"sb\w.png",314,282 C,0,61835,,111,128,249 F,2,61835,62135,1,0 S,2,61835,62135,1,0.2 P,0,61835,62135,A
Sprite,Foreground,Centre,"sb\w.png",287,282 C,0,61932,,237,158,39 F,2,61932,62232,1,0 S,2,61932,62232,1,0.2 P,0,61932,62232,A
Sprite,Foreground,Centre,"sb\w.png",294,311 C,0,62028,,237,158,39 F,2,62028,62328,1,0 S,2,62028,62328,1,0.2 P,0,62028,62328,A
Sprite,Foreground,Centre,"sb\w.png",322,303 C,0,62125,,237,158,39 F,2,62125,62425,1,0 S,2,62125,62425,1,0.2 P,0,62125,62425,A
Sprite,Foreground,Centre,"sb\w.png",316,275 C,0,62222,,237,158,39 F,2,62222,62522,1,0 S,2,62222,62522,1,0.2 P,0,62222,62522,A
Sprite,Foreground,Centre,"sb\w.png",276,281 C,0,62319,,255,87,171 F,2,62319,62619,1,0 S,2,62319,62619,1,0.2 P,0,62319,62619,A
Sprite,Foreground,Centre,"sb\w.png",291,321 C,0,62415,,255,87,171 F,2,62415,62715,1,0 S,2,62415,62715,1,0.2 P,0,62415,62715,A
Sprite,Foreground,Centre,"sb\w.png",332,303 C,0,62512,,255,87,171 F,2,62512,62812,1,0 S,2,62512,62812,1,0.2 P,0,62512,62812,A
Sprite,Foreground,Centre,"sb\w.png",316,264 C,0,62609,,255,87,171 F,2,62609,62909,1,0 S,2,62609,62909,1,0.2 P,0,62609,62909,A
Sprite,Foreground,Centre,"sb\f.jpg",433,68 C,0,37932,,255,87,171 F,2,37932,38132,1,0 S,19,37932,38132,2,1
Sprite,Foreground,Centre,"sb\f.jpg",423,77 C,0,38029,,255,87,171 F,2,38029,38229,1,0 S,19,38029,38229,2,1
Sprite,Foreground,Centre,"sb\f.jpg",510,208 C,0,38222,,111,128,249 F,2,38222,38422,1,0 S,19,38222,38422,2,1
Sprite,Foreground,Centre,"sb\f.jpg",472,199 C,0,38319,,111,128,249 F,2,38319,38519,1,0 S,19,38319,38519,2,1
Sprite,Foreground,Centre,"sb\f.jpg",428,369 C,0,38512,,237,158,39 F,2,38512,38712,1,0 S,19,38512,38712,2,1
Sprite,Foreground,Centre,"sb\f.jpg",391,284 C,0,38609,,237,158,39 F,2,38609,38809,1,0 S,19,38609,38809,2,1
Sprite,Foreground,Centre,"sb\f.jpg",232,407 C,0,38803,,255,87,171 F,2,38803,39003,1,0 S,19,38803,39003,2,1
Sprite,Foreground,Centre,"sb\f.jpg",273,292 C,0,38900,,255,87,171 F,2,38900,39100,1,0 S,19,38900,39100,2,1
Sprite,Foreground,Centre,"sb\f.jpg",73,348 C,0,39093,,111,128,249 F,2,39093,39293,1,0 S,19,39093,39293,2,1
Sprite,Foreground,Centre,"sb\f.jpg",319,158 C,0,39287,,111,128,249 F,2,39287,39487,1,0 S,19,39287,39487,2,1
Sprite,Foreground,Centre,"sb\f.jpg",73,348 C,0,39480,,237,158,39 F,2,39480,39680,1,0 S,19,39480,39680,2,1
Sprite,Foreground,Centre,"sb\f.jpg",83,329 C,0,39577,,237,158,39 F,2,39577,39777,1,0 S,19,39577,39777,2,1
Sprite,Foreground,Centre,"sb\f.jpg",232,407 C,0,39770,,255,87,171 F,2,39770,39970,1,0 S,19,39770,39970,2,1
Sprite,Foreground,Centre,"sb\f.jpg",205,371 C,0,39867,,255,87,171 F,2,39867,40067,1,0 S,19,39867,40067,2,1
Sprite,Foreground,Centre,"sb\f.jpg",428,369 C,0,40061,,111,128,249 F,2,40061,40261,1,0 S,19,40061,40261,2,1
Sprite,Foreground,Centre,"sb\f.jpg",340,350 C,0,40158,,111,128,249 F,2,40158,40358,1,0 S,19,40158,40358,2,1
Sprite,Foreground,Centre,"sb\f.jpg",510,207 C,0,40351,,237,158,39 F,2,40351,40551,1,0 S,19,40351,40551,2,1
Sprite,Foreground,Centre,"sb\f.jpg",404,253 C,0,40448,,237,158,39 F,2,40448,40648,1,0 S,19,40448,40648,2,1
Sprite,Foreground,Centre,"sb\f.jpg",545,254 C,0,40641,,237,158,39 F,2,40641,40841,1,0 S,19,40641,40841,2,1
Sprite,Foreground,Centre,"sb\f.jpg",362,211 C,0,40835,,237,158,39 F,2,40835,41035,1,0 S,19,40835,41035,2,1
Sprite,Foreground,Centre,"sb\f.jpg",123,80 C,0,41029,,255,87,171 F,2,41029,41229,1,0 S,19,41029,41229,2,1
Sprite,Foreground,Centre,"sb\f.jpg",143,88 C,0,41125,,255,87,171 F,2,41125,41325,1,0 S,19,41125,41325,2,1
Sprite,Foreground,Centre,"sb\f.jpg",76,234 C,0,41319,,111,128,249 F,2,41319,41519,1,0 S,19,41319,41519,2,1
Sprite,Foreground,Centre,"sb\f.jpg",108,200 C,0,41416,,111,128,249 F,2,41416,41616,1,0 S,19,41416,41616,2,1
Sprite,Foreground,Centre,"sb\f.jpg",238,325 C,0,41609,,237,158,39 F,2,41609,41809,1,0 S,19,41609,41809,2,1
Sprite,Foreground,Centre,"sb\f.jpg",218,240 C,0,41706,,237,158,39 F,2,41706,41906,1,0 S,19,41706,41906,2,1
Sprite,Foreground,Centre,"sb\f.jpg",425,217 C,0,41900,,255,87,171 F,2,41900,42100,1,0 S,19,41900,42100,2,1
Sprite,Foreground,Centre,"sb\f.jpg",321,187 C,0,41996,,255,87,171 F,2,41996,42196,1,0 S,19,41996,42196,2,1
Sprite,Foreground,Centre,"sb\f.jpg",468,77 C,0,42190,,111,128,249 F,2,42190,42390,1,0 S,19,42190,42390,2,1
Sprite,Foreground,Centre,"sb\f.jpg",210,125 C,0,42383,,111,128,249 F,2,42383,42583,1,0 S,19,42383,42583,2,1
Sprite,Foreground,Centre,"sb\f.jpg",468,77 C,0,42577,,237,158,39 F,2,42577,42777,1,0 S,19,42577,42777,2,1
Sprite,Foreground,Centre,"sb\f.jpg",301,288 C,0,42770,,237,158,39 F,2,42770,42970,1,0 S,19,42770,42970,2,1
Sprite,Foreground,Centre,"sb\f.jpg",574,328 C,0,42964,,237,158,39 F,2,42964,43164,1,0 S,19,42964,43164,2,1
Sprite,Foreground,Centre,"sb\f.jpg",453,212 C,0,43158,,237,158,39 F,2,43158,43358,1,0 S,19,43158,43358,2,1
Sprite,Foreground,Centre,"sb\f.jpg",435,309 C,0,43254,,255,87,171 F,2,43254,43454,1,0 S,19,43254,43454,2,1
Sprite,Foreground,Centre,"sb\f.jpg",77,70 C,0,43545,,111,128,249 F,2,43545,43745,1,0 S,19,43545,43745,2,1
Sprite,Foreground,Centre,"sb\f.jpg",137,138 C,0,43738,,111,128,249 F,2,43738,43938,1,0 S,19,43738,43938,2,1
Sprite,Foreground,Centre,"sb\f.jpg",64,274 C,0,43932,,237,158,39 F,2,43932,44132,1,0 S,19,43932,44132,2,1
Sprite,Foreground,Centre,"sb\f.jpg",304,71 C,0,44125,,255,87,171 F,2,44125,44325,1,0 S,19,44125,44325,2,1
Sprite,Foreground,Centre,"sb\f.jpg",294,56 C,0,44222,,255,87,171 F,2,44222,44422,1,0 S,19,44222,44422,2,1
Sprite,Foreground,Centre,"sb\f.jpg",370,189 C,0,44416,,111,128,249 F,2,44416,44616,1,0 S,19,44416,44616,2,1
Sprite,Foreground,Centre,"sb\f.jpg",402,151 C,0,44512,,111,128,249 F,2,44512,44712,1,0 S,19,44512,44712,2,1
Sprite,Foreground,Centre,"sb\f.jpg",253,277 C,0,44706,,237,158,39 F,2,44706,44906,1,0 S,19,44706,44906,2,1
Sprite,Foreground,Centre,"sb\f.jpg",233,191 C,0,44803,,237,158,39 F,2,44803,45003,1,0 S,19,44803,45003,2,1
Sprite,Foreground,Centre,"sb\f.jpg",307,397 C,0,44996,,255,87,171 F,2,44996,45196,1,0 S,19,44996,45196,2,1
Sprite,Foreground,Centre,"sb\f.jpg",388,312 C,0,45093,,255,87,171 F,2,45093,45293,1,0 S,19,45093,45293,2,1
Sprite,Foreground,Centre,"sb\f.jpg",199,440 C,0,45287,,111,128,249 F,2,45287,45487,1,0 S,19,45287,45487,2,1
Sprite,Foreground,Centre,"sb\f.jpg",124,185 C,0,45480,,111,128,249 F,2,45480,45680,1,0 S,19,45480,45680,2,1
Sprite,Foreground,Centre,"sb\f.jpg",199,440 C,0,45674,,237,158,39 F,2,45674,45874,1,0 S,19,45674,45874,2,1
Sprite,Foreground,Centre,"sb\f.jpg",217,432 C,0,45770,,237,158,39 F,2,45770,45970,1,0 S,19,45770,45970,2,1
Sprite,Foreground,Centre,"sb\f.jpg",233,191 C,0,45964,,255,87,171 F,2,45964,46164,1,0 S,19,45964,46164,2,1
Sprite,Foreground,Centre,"sb\f.jpg",270,207 C,0,46061,,255,87,171 F,2,46061,46261,1,0 S,19,46061,46261,2,1
Sprite,Foreground,Centre,"sb\f.jpg",387,329 C,0,46254,,111,128,249 F,2,46254,46454,1,0 S,19,46254,46454,2,1
Sprite,Foreground,Centre,"sb\f.jpg",466,282 C,0,46351,,111,128,249 F,2,46351,46551,1,0 S,19,46351,46551,2,1
Sprite,Foreground,Centre,"sb\f.jpg",427,118 C,0,46545,,237,158,39 F,2,46545,46745,1,0 S,19,46545,46745,2,1
Sprite,Foreground,Centre,"sb\f.jpg",540,165 C,0,46641,,237,158,39 F,2,46641,46841,1,0 S,19,46641,46841,2,1
Sprite,Foreground,Centre,"sb\f.jpg",404,83 C,0,46835,,237,158,39 F,2,46835,47035,1,0 S,19,46835,47035,2,1
Sprite,Foreground,Centre,"sb\f.jpg",554,208 C,0,47029,,237,158,39 F,2,47029,47229,1,0 S,19,47029,47229,2,1
Sprite,Foreground,Centre,"sb\f.jpg",291,440 C,0,47222,,255,87,171 F,2,47222,47422,1,0 S,19,47222,47422,2,1
Sprite,Foreground,Centre,"sb\f.jpg",278,424 C,0,47319,,255,87,171 F,2,47319,47519,1,0 S,19,47319,47519,2,1
Sprite,Foreground,Centre,"sb\f.jpg",130,396 C,0,47512,,111,128,249 F,2,47512,47712,1,0 S,19,47512,47712,2,1
Sprite,Foreground,Centre,"sb\f.jpg",150,350 C,0,47609,,111,128,249 F,2,47609,47809,1,0 S,19,47609,47809,2,1
Sprite,Foreground,Centre,"sb\f.jpg",339,343 C,0,47803,,237,158,39 F,2,47803,48003,1,0 S,19,47803,48003,2,1
Sprite,Foreground,Centre,"sb\f.jpg",298,264 C,0,47900,,237,158,39 F,2,47900,48100,1,0 S,19,47900,48100,2,1
Sprite,Foreground,Centre,"sb\f.jpg",81,282 C,0,48093,,255,87,171 F,2,48093,48293,1,0 S,19,48093,48293,2,1
Sprite,Foreground,Centre,"sb\f.jpg",135,182 C,0,48190,,255,87,171 F,2,48190,48390,1,0 S,19,48190,48390,2,1
Sprite,Foreground,Centre,"sb\f.jpg",368,197 C,0,48383,,111,128,249 F,2,48383,48583,1,0 S,19,48383,48583,2,1
Sprite,Foreground,Centre,"sb\f.jpg",226,56 C,0,48577,,111,128,249 F,2,48577,48777,1,0 S,19,48577,48777,2,1
Sprite,Foreground,Centre,"sb\f.jpg",569,95 C,0,48770,,237,158,39 F,2,48770,48970,1,0 S,19,48770,48970,2,1
Sprite,Foreground,Centre,"sb\w.png",306,295 C,0,62706,,111,128,249 F,2,62706,63006,1,0 S,2,62706,63006,1,0.2 P,0,62706,63006,A
Sprite,Foreground,Centre,"sb\w.png",320,248 C,0,62803,,111,128,249 F,2,62803,65909,1,0 S,2,62803,65909,1,0.2 P,0,62803,65909,A
//Storyboard Layer 4 (Overlay)
//Storyboard Sound Samples

[TimingPoints]
771,387.096774193548,4,3,0,100,1,0
771,-100,4,3,0,70,0,0
25545,-100,4,3,0,85,0,0
81287,-100,4,3,0,60,0,0
82061,-100,4,3,0,65,0,0
82835,-100,4,3,0,70,0,0
83609,-100,4,3,0,75,0,0
84383,-100,4,3,0,80,0,0
87287,-100,4,3,0,100,0,0
114093,-100,4,3,0,80,0,0

[Colours]
Combo1 : 255,87,171
Combo2 : 111,128,249
Combo3 : 237,158,39

[HitObjects]
128,121,771,5,6,1:1:0:0:
128,121,1061,1,2,1:3:0:0:
128,121,1351,1,2,1:3:0:0:
6,289,1545,5,2,0:0:0:0:
118,227,1738,1,2,0:0:0:0:
96,214,1835,1,2,0:0:0:0:
70,216,1932,1,2,0:0:0:0:
136,318,2125,1,2,0:0:0:0:
384,121,2319,5,4,1:3:0:0:
384,121,2609,1,0,1:3:0:0:
384,121,2899,1,0,1:3:0:0:
480,288,3093,5,0,0:0:0:0:
474,193,3287,1,2,0:0:0:0:
443,197,3383,1,2,0:0:0:0:
419,211,3480,1,2,0:0:0:0:
406,231,3577,1,2,0:0:0:0:
94,0,3867,5,4,1:3:0:0:
94,0,4158,1,0,1:3:0:0:
94,0,4448,1,0,1:3:0:0:
59,191,4641,5,2,0:0:0:0:
98,104,4835,1,2,0:0:0:0:
74,96,4932,1,2,0:0:0:0:
48,98,5029,1,2,0:0:0:0:
59,191,5222,5,2,0:1:0:0:
418,0,5416,5,4,1:3:0:0:
418,0,5707,1,0,1:2:0:0:
418,0,5997,1,0,1:2:0:0:
350,143,6190,5,2,0:2:0:0:
366,84,6287,1,2,0:2:0:0:
425,100,6383,1,2,0:2:0:0:
409,159,6480,1,2,0:2:0:0:
372,130,6577,5,2,0:2:0:0:
379,106,6674,1,2,0:2:0:0:
403,113,6770,1,2,0:2:0:0:
396,137,6867,1,2,0:2:0:0:
256,96,6964,5,4,1:3:0:0:
256,384,7254,1,4,1:3:0:0:
256,96,7545,1,4,1:3:0:0:
0,208,7738,5,2,0:0:0:0:
34,175,7835,1,4,0:0:0:0:
175,267,8029,1,2,0:0:0:0:
167,215,8126,1,4,0:0:0:0:
42,362,8319,1,4,0:0:0:0:
256,96,8512,5,4,1:3:0:0:
256,384,8802,1,4,1:3:0:0:
256,96,9093,1,4,1:3:0:0:
346,289,9287,5,2,0:0:0:0:
355,308,9384,1,4,0:0:0:0:
366,328,9480,1,2,0:0:0:0:
448,235,9674,5,4,0:0:0:0:
425,205,9770,1,2,0:0:0:0:
405,176,9867,1,4,1:3:0:0:
387,148,9964,1,2,0:0:0:0:
255,106,10061,5,4,1:1:0:0:
255,277,10254,1,0,0:0:0:0:
282,138,10448,5,0,0:0:0:0:
225,243,10641,1,4,0:0:0:0:
292,171,10835,5,0,0:0:0:0:
219,212,10932,1,0,0:0:0:0:
284,191,11029,5,0,0:0:0:0:
226,191,11126,1,0,0:0:0:0:
272,201,11222,5,0,0:0:0:0:
238,181,11319,1,0,0:0:0:0:
258,197,11416,5,0,0:0:0:0:
251,184,11513,1,0,0:0:0:0:
101,45,11706,5,2,0:2:0:0:
60,73,11803,1,2,0:2:0:0:
46,120,11900,1,2,0:2:0:0:
50,168,11996,1,2,0:2:0:0:
77,208,12093,1,2,0:2:0:0:
110,244,12190,1,2,0:2:0:0:
117,292,12287,1,2,0:2:0:0:
90,332,12383,5,0,1:0:0:0:
75,288,12480,1,2,0:2:0:0:
92,243,12577,1,4,0:0:0:0:
132,215,12674,1,0,1:0:0:0:
169,184,12771,1,2,0:2:0:0:
185,138,12867,1,0,1:0:0:0:
182,88,12964,1,4,0:0:0:0:
151,53,13061,1,2,0:2:0:0:
96,125,13158,5,4,1:1:0:0:
403,65,13351,1,0,0:0:0:0:
403,65,13448,1,0,0:0:0:0:
198,102,13738,5,0,0:0:0:0:
303,82,13932,1,0,0:0:0:0:
233,95,14125,1,0,0:0:0:0:
266,88,14319,1,0,0:0:0:0:
232,0,14512,5,4,0:0:0:0:
300,376,14706,5,4,0:0:0:0:
266,188,14900,1,0,0:0:0:0:
266,188,14996,1,0,0:0:0:0:
232,0,15287,5,0,0:0:0:0:
266,188,15480,1,0,0:0:0:0:
266,188,15576,1,0,0:0:0:0:
300,376,15867,5,4,0:0:0:0:
262,184,16061,1,0,0:0:0:0:
458,236,16254,5,4,0:0:0:0:
103,319,16448,1,0,0:0:0:0:
103,319,16545,1,0,0:0:0:0:
280,277,16835,5,0,0:0:0:0:
280,277,17125,5,4,0:0:0:0:
193,299,17320,1,4,0:0:0:0:
193,299,17416,1,4,0:0:0:0:
374,259,17609,1,4,0:0:0:0:
437,26,17803,5,4,0:0:0:0:
222,14,17996,1,0,0:0:0:0:
222,14,18093,1,0,0:0:0:0:
42,0,18383,5,0,0:0:0:0:
222,14,18576,1,0,0:0:0:0:
222,14,18673,1,0,0:0:0:0:
222,14,18964,1,0,0:0:0:0:
236,101,19158,1,0,0:0:0:0:
256,192,19351,1,2,1:1:0:0:
390,66,19545,5,0,0:0:0:0:
357,95,19641,1,0,0:0:0:0:
323,129,19738,1,0,0:0:0:0:
457,3,19932,1,0,0:0:0:0:
256,192,20125,1,2,1:1:0:0:
390,318,20319,5,0,0:0:0:0:
323,255,20512,1,0,0:0:0:0:
457,381,20706,1,0,0:0:0:0:
256,192,20900,1,2,1:1:0:0:
121,318,21093,5,0,0:0:0:0:
155,289,21190,1,0,0:0:0:0:
189,255,21286,5,0,0:0:0:0:
55,381,21480,1,0,0:0:0:0:
256,192,21674,1,2,1:1:0:0:
122,64,21867,5,0,0:0:0:0:
189,127,22060,1,0,0:0:0:0:
55,1,22254,5,0,0:0:0:0:
256,192,22448,1,2,1:1:0:0:
330,81,22641,5,0,1:1:0:0:
123,183,22835,1,0,1:1:0:0:
314,310,23029,1,0,1:1:0:0:
256,192,23222,5,2,1:1:0:0:
158,337,23416,5,0,1:0:0:0:
428,203,23610,1,0,1:0:0:0:
179,35,23804,1,0,1:0:0:0:
23,249,23996,5,0,0:0:0:0:
62,271,24093,1,0,0:0:0:0:
107,271,24190,1,0,0:0:0:0:
147,248,24287,1,0,0:0:0:0:
169,209,24383,1,0,0:0:0:0:
169,165,24480,1,0,0:0:0:0:
147,125,24577,1,0,0:0:0:0:
108,102,24674,1,0,0:0:0:0:
62,102,24770,1,0,0:0:0:0:
23,125,24867,1,0,0:0:0:0:
0,164,24964,1,0,0:0:0:0:
0,210,25061,1,0,0:0:0:0:
82,188,25158,5,4,0:0:0:0:
459,0,25545,5,4,1:1:0:0:
497,82,25738,1,0,0:0:0:0:
259,139,25932,5,4,1:3:0:0:
347,156,26125,1,0,0:0:0:0:
260,357,26319,5,4,1:3:0:0:
344,325,26512,1,0,0:0:0:0:
170,322,26609,5,0,1:3:0:0:
89,41,27093,5,4,1:3:0:0:
38,119,27287,1,0,0:0:0:0:
257,74,27480,5,4,1:3:0:0:
270,166,27674,1,0,0:0:0:0:
186,1,27770,5,0,1:3:0:0:
481,261,28061,5,2,0:0:0:0:
412,275,28158,1,2,0:0:0:0:
440,236,28254,1,6,0:0:0:0:
451,305,28351,1,2,0:0:0:0:
87,355,28641,5,4,1:3:0:0:
177,324,28835,1,0,0:0:0:0:
78,144,29029,5,4,1:3:0:0:
165,176,29222,1,0,0:0:0:0:
218,0,29416,5,4,1:3:0:0:
263,83,29609,1,0,0:0:0:0:
97,29,29706,5,0,1:3:0:0:
97,29,29996,1,0,0:0:0:0:
447,19,30190,5,4,1:3:0:0:
165,176,30383,1,0,1:3:0:0:
435,326,30577,1,4,1:3:0:0:
363,158,30770,1,0,0:0:0:0:
212,339,30964,5,2,0:1:0:0:
268,328,31061,1,0,0:0:0:0:
322,318,31158,1,0,1:0:0:0:
142,316,31351,5,2,0:1:0:0:
230,319,31448,1,0,0:0:0:0:
322,318,31545,1,0,1:0:0:0:
0,197,31738,5,4,1:3:0:0:
44,281,31932,1,0,0:0:0:0:
44,281,32029,1,0,0:0:0:0:
84,145,32125,5,4,1:3:0:0:
175,175,32319,1,0,0:0:0:0:
175,175,32416,1,0,0:0:0:0:
76,49,32512,5,4,1:3:0:0:
164,28,32706,1,0,0:0:0:0:
0,104,32803,5,0,1:3:0:0:
418,20,33287,5,4,1:3:0:0:
342,73,33480,1,0,0:0:0:0:
342,73,33577,1,0,0:0:0:0:
411,236,33674,5,4,1:3:0:0:
339,165,33867,1,0,0:0:0:0:
487,120,33964,5,0,1:3:0:0:
167,304,34254,5,2,0:0:0:0:
156,316,34351,1,0,0:0:0:0:
222,324,34447,5,6,0:0:0:0:
222,339,34544,1,0,0:0:0:0:
275,303,34641,5,2,0:0:0:0:
289,314,34738,1,0,0:0:0:0:
220,232,34835,5,4,1:3:0:0:
294,173,35029,1,0,0:0:0:0:
132,181,35222,5,4,1:3:0:0:
149,92,35416,1,0,0:0:0:0:
149,92,35512,1,0,0:0:0:0:
36,222,35609,5,4,1:3:0:0:
1,140,35803,1,0,0:0:0:0:
119,290,35900,5,0,1:3:0:0:
119,290,36190,1,0,0:0:0:0:
433,384,36383,5,6,0:0:0:0:
345,267,36577,1,2,0:0:0:0:
364,313,36674,1,2,0:0:0:0:
484,105,36867,1,2,0:0:0:0:
363,176,37061,1,2,0:0:0:0:
399,138,37158,5,2,0:2:0:0:
323,172,37254,5,2,0:2:0:0:
308,254,37351,5,2,0:2:0:0:
364,313,37448,5,2,0:2:0:0:
393,224,37545,5,0,0:1:0:0:
92,176,37738,1,0,0:0:0:0:
369,12,37932,5,4,1:3:0:0:
359,21,38029,1,0,0:0:0:0:
446,152,38222,5,0,1:3:0:0:
408,143,38319,1,4,0:0:0:0:
364,313,38512,5,0,1:3:0:0:
327,228,38609,1,0,0:0:0:0:
168,351,38803,5,0,1:3:0:0:
209,236,38900,1,0,0:0:0:0:
9,292,39093,5,4,1:3:0:0:
255,102,39287,1,0,1:3:0:0:
9,292,39480,5,4,1:3:0:0:
19,273,39577,1,0,0:0:0:0:
168,351,39770,5,0,1:3:0:0:
141,315,39867,1,4,0:0:0:0:
364,313,40061,5,0,1:3:0:0:
276,294,40158,1,0,0:0:0:0:
446,151,40351,5,0,1:3:0:0:
340,197,40448,1,0,1:3:0:0:
481,198,40641,1,4,1:3:0:0:
298,155,40835,1,0,1:3:0:0:
59,24,41029,5,4,1:3:0:0:
79,32,41125,1,0,0:0:0:0:
12,178,41319,5,0,1:3:0:0:
44,144,41416,1,4,0:0:0:0:
174,269,41609,5,0,1:3:0:0:
154,184,41706,1,0,0:0:0:0:
361,161,41900,5,0,1:3:0:0:
257,131,41996,1,0,0:0:0:0:
404,21,42190,5,4,1:3:0:0:
146,69,42383,1,0,1:3:0:0:
404,21,42577,5,4,1:3:0:0:
237,232,42770,1,0,1:3:0:0:
510,272,42964,1,4,1:3:0:0:
389,156,43158,1,0,0:0:0:0:
371,253,43254,5,4,1:3:0:0:
13,14,43545,5,4,1:3:0:0:
73,82,43738,1,0,0:0:0:0:
0,218,43932,5,4,1:3:0:0:
240,15,44125,5,4,1:3:0:0:
230,0,44222,1,0,0:0:0:0:
306,133,44416,5,0,1:3:0:0:
338,95,44512,1,4,0:0:0:0:
189,221,44706,5,0,1:3:0:0:
169,135,44803,1,0,0:0:0:0:
243,341,44996,5,0,1:3:0:0:
324,256,45093,1,0,0:0:0:0:
135,384,45287,5,4,1:3:0:0:
60,129,45480,1,0,1:3:0:0:
135,384,45674,5,4,1:3:0:0:
153,376,45770,1,0,0:0:0:0:
169,135,45964,5,0,1:3:0:0:
206,151,46061,1,4,0:0:0:0:
323,273,46254,5,0,1:3:0:0:
402,226,46351,1,0,0:0:0:0:
363,62,46545,5,0,1:3:0:0:
476,109,46641,1,0,1:3:0:0:
340,27,46835,1,4,1:3:0:0:
490,152,47029,1,0,1:3:0:0:
227,384,47222,5,4,1:3:0:0:
214,368,47319,1,0,0:0:0:0:
66,340,47512,5,0,1:3:0:0:
86,294,47609,1,4,0:0:0:0:
275,287,47803,5,0,1:3:0:0:
234,208,47900,1,0,0:0:0:0:
17,226,48093,5,0,1:3:0:0:
71,126,48190,1,0,0:0:0:0:
304,141,48383,5,4,1:3:0:0:
162,0,48577,1,0,1:3:0:0:
505,39,48770,5,6,1:3:0:0:
435,150,48964,1,2,0:0:0:0:
435,150,49061,1,6,0:0:0:0:
374,38,49158,5,0,1:3:0:0:
435,150,49351,1,6,1:3:0:0:
435,150,49448,1,2,1:3:0:0:
304,141,49545,5,0,1:0:0:0:
505,39,49738,1,14,0:0:0:0:
492,264,49932,1,6,0:0:0:0:
492,264,50125,1,4,0:0:0:0:
222,16,50319,5,4,0:1:0:0:
23,79,50512,1,2,1:3:0:0:
38,139,50609,1,0,0:0:0:0:
98,124,50706,1,4,0:0:0:0:
83,67,50803,1,2,1:3:0:0:
13,357,51093,5,4,1:3:0:0:
98,299,51287,1,2,0:0:0:0:
13,357,51480,5,4,0:0:0:0:
102,303,51674,1,2,1:3:0:0:
102,303,51770,1,2,0:0:0:0:
13,357,51867,5,4,0:0:0:0:
287,212,52061,1,2,1:3:0:0:
272,272,52158,1,0,0:0:0:0:
212,257,52255,1,4,0:0:0:0:
227,200,52352,1,2,1:3:0:0:
499,357,52641,5,4,1:3:0:0:
414,299,52835,1,2,0:0:0:0:
499,357,53028,5,4,0:0:0:0:
272,272,53222,1,2,1:1:0:0:
499,357,53415,5,4,0:0:0:0:
418,95,53609,1,2,1:3:0:0:
433,155,53706,1,0,0:0:0:0:
493,140,53803,1,4,0:0:0:0:
478,83,53900,1,2,1:3:0:0:
189,17,54190,5,4,1:3:0:0:
289,40,54383,1,2,0:0:0:0:
189,17,54577,5,4,0:0:0:0:
293,44,54770,1,2,1:3:0:0:
293,44,54867,1,2,0:0:0:0:
189,17,54964,5,4,0:0:0:0:
32,201,55158,1,0,1:3:0:0:
75,189,55254,1,0,0:0:0:0:
123,176,55351,1,4,0:0:0:0:
167,167,55448,1,0,1:3:0:0:
129,319,55641,1,0,0:0:0:0:
202,256,55738,5,4,1:3:0:0:
26,310,55932,1,0,1:3:0:0:
119,81,56125,1,4,1:3:0:0:
347,168,56319,1,0,1:3:0:0:
272,384,56512,5,4,0:0:0:0:
178,188,56706,1,2,1:3:0:0:
204,270,56803,1,0,0:0:0:0:
149,243,56900,1,4,0:0:0:0:
230,217,56997,1,2,1:3:0:0:
15,38,57287,5,4,1:3:0:0:
120,19,57480,1,2,0:0:0:0:
15,38,57674,5,4,0:0:0:0:
125,23,57867,1,2,1:3:0:0:
125,23,57964,1,2,0:0:0:0:
15,38,58061,5,4,0:0:0:0:
287,51,58254,1,2,1:3:0:0:
244,127,58351,1,0,0:0:0:0:
228,69,58448,1,4,0:0:0:0:
304,109,58545,1,2,1:3:0:0:
497,38,58835,5,4,1:3:0:0:
391,19,59028,1,2,0:0:0:0:
497,38,59222,5,4,0:0:0:0:
244,127,59415,1,2,0:1:0:0:
497,38,59609,5,4,0:0:0:0:
463,265,59803,1,4,0:0:0:0:
236,231,59996,1,4,0:0:0:0:
270,4,60190,1,4,0:0:0:0:
366,134,60383,5,4,0:0:0:0:
103,325,60577,1,4,0:0:0:0:
137,98,60770,1,4,0:0:0:0:
330,358,60964,1,4,0:0:0:0:
236,231,61158,5,4,0:0:0:0:
235,244,61254,1,4,0:0:0:0:
248,245,61351,1,4,0:0:0:0:
249,232,61448,1,4,0:0:0:0:
231,228,61545,5,4,0:0:0:0:
232,247,61641,1,4,0:0:0:0:
252,245,61738,1,4,0:0:0:0:
250,226,61835,1,4,0:0:0:0:
223,226,61932,5,4,0:0:0:0:
230,255,62028,1,4,0:0:0:0:
258,247,62125,1,4,0:0:0:0:
252,219,62222,1,4,0:0:0:0:
212,225,62319,5,4,0:0:0:0:
227,265,62415,1,4,0:0:0:0:
268,247,62512,1,4,0:0:0:0:
252,208,62609,1,4,0:0:0:0:
242,239,62706,5,4,0:1:0:0:
256,192,62803,12,0,65609,0:0:0:0:
23,337,65803,5,4,0:0:0:0:
156,119,65996,1,2,1:3:0:0:
97,137,66093,1,4,0:0:0:0:
113,195,66190,1,0,0:0:0:0:
173,177,66287,1,2,1:3:0:0:
136,156,66383,1,4,0:0:0:0:
382,224,66576,5,2,1:3:0:0:
361,169,66673,1,4,0:0:0:0:
322,214,66770,1,4,0:0:0:0:
471,333,66964,5,4,0:0:0:0:
337,317,67158,1,6,1:3:0:0:
337,317,67254,1,2,0:0:0:0:
471,333,67351,5,4,0:0:0:0:
211,295,67545,1,0,1:3:0:0:
433,250,67739,5,2,0:0:0:0:
266,221,67836,1,0,1:3:0:0:
407,165,68029,5,0,0:0:0:0:
318,149,68125,1,4,1:3:0:0:
376,81,68319,5,4,1:3:0:0:
350,235,68512,1,4,1:3:0:0:
325,378,68706,1,4,1:3:0:0:
178,24,68900,5,10,0:3:0:0:
178,24,69287,1,4,0:1:0:0:
256,192,69383,12,0,71802,0:0:0:0:
403,38,71996,5,4,0:0:0:0:
257,185,72190,1,2,1:3:0:0:
221,134,72287,1,4,0:0:0:0:
274,99,72383,1,0,0:0:0:0:
308,151,72480,1,2,1:3:0:0:
266,141,72577,1,4,0:0:0:0:
269,291,72770,5,2,0:0:0:0:
328,286,72867,1,0,0:0:0:0:
302,338,72964,1,4,0:0:0:0:
242,343,73061,1,4,1:3:0:0:
269,291,73158,1,4,0:0:0:0:
52,247,73351,5,6,1:3:0:0:
52,247,73448,1,2,0:0:0:0:
73,346,73545,5,4,0:0:0:0:
32,151,73738,1,0,1:3:0:0:
312,104,73932,5,0,1:0:0:0:
291,132,74029,1,0,1:0:0:0:
256,144,74125,1,4,1:3:0:0:
220,132,74222,1,0,1:0:0:0:
200,104,74319,1,0,1:0:0:0:
336,120,74512,5,8,2:3:0:0:
256,88,74706,1,0,2:3:0:0:
176,120,74900,1,0,2:3:0:0:
439,323,75093,5,4,1:1:0:0:
375,0,81287,5,4,0:1:0:0:
394,10,81383,1,2,0:2:0:0:
405,28,81480,1,2,0:2:0:0:
512,209,81674,5,2,0:3:0:0:
433,241,81867,1,0,0:0:0:0:
358,12,82061,5,2,0:2:0:0:
377,46,82158,1,2,0:2:0:0:
373,89,82254,1,2,0:2:0:0:
509,272,82447,5,2,0:0:0:0:
420,268,82640,1,0,0:0:0:0:
342,21,82835,5,2,0:2:0:0:
336,82,82932,1,2,0:2:0:0:
298,129,83029,1,2,0:2:0:0:
489,327,83222,5,2,0:0:0:0:
412,280,83415,1,0,0:0:0:0:
317,28,83609,5,2,0:2:0:0:
260,84,83706,1,2,0:2:0:0:
180,80,83803,1,2,0:2:0:0:
453,376,83996,5,2,0:0:0:0:
399,296,84189,1,0,0:0:0:0:
296,34,84383,5,4,0:3:0:0:
220,59,84480,1,2,0:2:0:0:
160,41,84577,1,2,0:2:0:0:
106,39,84674,1,0,0:0:0:0:
64,61,84770,1,2,0:0:0:0:
53,95,84867,1,0,0:0:0:0:
60,125,84964,1,0,0:0:0:0:
72,144,85061,1,0,0:0:0:0:
84,153,85158,5,2,0:2:0:0:
97,153,85254,1,2,0:2:0:0:
102,140,85351,1,2,0:2:0:0:
83,125,85448,1,0,0:0:0:0:
50,132,85545,1,2,0:0:0:0:
23,166,85641,1,0,0:0:0:0:
15,228,85738,1,0,0:0:0:0:
38,276,85835,1,0,0:0:0:0:
105,302,85932,1,4,0:0:0:0:
280,148,86125,5,2,0:1:0:0:
208,196,86222,1,2,0:1:0:0:
280,234,86318,1,2,0:1:0:0:
231,148,86415,1,2,0:1:0:0:
231,234,86512,1,2,0:1:0:0:
305,192,86609,1,2,0:1:0:0:
256,192,86706,5,4,0:0:0:0:
366,366,86900,1,8,0:1:0:0:
404,70,87287,5,4,0:0:0:0:
256,192,87311,12,4,87867,0:0:0:0:
66,33,88061,5,2,0:0:0:0:
169,348,88254,1,4,0:0:0:0:
391,129,88448,1,2,0:0:0:0:
164,117,88641,5,6,0:0:0:0:
136,195,88738,1,2,0:0:0:0:
213,227,88835,1,2,0:0:0:0:
242,149,88932,1,2,0:0:0:0:
8,261,89125,1,0,0:0:0:0:
8,261,89222,1,2,0:0:0:0:
242,149,89416,5,6,0:3:0:0:
136,195,89513,1,2,0:3:0:0:
213,227,89610,1,2,0:3:0:0:
164,117,89706,1,2,0:3:0:0:
426,76,89900,5,0,0:0:0:0:
391,129,89996,1,2,0:0:0:0:
363,73,90093,1,2,0:0:0:0:
455,317,90287,1,2,0:0:0:0:
479,229,90383,1,2,0:1:0:0:
291,366,90577,5,4,0:0:0:0:
256,192,90601,12,0,91158,0:0:0:0:
98,69,91222,5,2,0:0:0:0:
98,69,91287,5,2,0:0:0:0:
98,69,91351,5,6,0:0:0:0:
256,192,91375,12,0,91932,0:0:0:0:
408,254,92125,5,6,0:0:0:0:
167,280,92319,1,2,0:0:0:0:
245,229,92416,1,0,0:0:0:0:
250,322,92512,1,6,0:0:0:0:
123,124,92706,1,2,0:0:0:0:
365,0,92900,1,6,0:0:0:0:
245,229,93093,1,0,0:0:0:0:
64,104,93287,5,6,0:0:0:0:
123,187,93383,1,2,0:0:0:0:
26,155,93480,1,2,0:0:0:0:
123,124,93577,1,2,0:0:0:0:
63,206,93674,1,6,0:0:0:0:
256,192,93698,12,0,94254,0:0:0:0:
352,62,94448,5,6,0:0:0:0:
462,383,94641,1,2,0:0:0:0:
429,164,94835,5,6,0:0:0:0:
457,241,94932,1,2,0:0:0:0:
380,274,95029,1,2,0:0:0:0:
351,196,95126,1,2,0:0:0:0:
159,305,95319,1,0,0:0:0:0:
159,305,95416,1,2,0:0:0:0:
336,189,95610,5,6,0:0:0:0:
372,287,95707,1,2,0:0:0:0:
435,149,95804,1,2,0:0:0:0:
470,245,95900,1,2,0:0:0:0:
313,7,96093,1,0,0:0:0:0:
313,7,96190,1,2,0:0:0:0:
222,205,96383,1,4,0:0:0:0:
13,55,96577,5,2,0:0:0:0:
88,13,96673,1,2,0:0:0:0:
89,100,96770,1,6,0:0:0:0:
256,192,96795,12,0,97351,0:0:0:0:
446,117,97416,5,2,0:0:0:0:
446,117,97481,5,2,0:0:0:0:
446,117,97545,5,6,0:0:0:0:
256,192,97569,12,0,98125,0:0:0:0:
256,192,98222,5,2,0:0:0:0:
419,5,98706,5,4,1:3:0:0:
203,52,98900,1,0,0:0:0:0:
419,5,99093,5,4,1:3:0:0:
203,52,99287,1,0,0:0:0:0:
419,5,99480,5,4,1:3:0:0:
118,352,99867,1,4,0:1:0:0:
256,192,99891,12,0,100448,0:0:0:0:
412,138,100545,5,2,0:2:0:0:
412,138,100641,1,4,0:0:0:0:
333,164,100738,1,2,0:2:0:0:
305,213,100835,1,2,0:2:0:0:
306,251,100932,1,2,0:2:0:0:
405,233,101029,5,4,0:0:0:0:
396,277,101125,1,2,0:2:0:0:
402,310,101222,1,2,0:2:0:0:
410,322,101319,1,2,0:2:0:0:
492,270,101416,5,4,0:0:0:0:
256,192,101440,12,0,101996,0:0:0:0:
100,138,102093,5,2,0:2:0:0:
100,138,102189,1,4,0:0:0:0:
179,164,102286,1,2,0:2:0:0:
207,213,102383,1,2,0:2:0:0:
206,251,102480,1,2,0:2:0:0:
107,233,102577,5,4,0:0:0:0:
116,277,102673,1,2,0:2:0:0:
110,310,102770,1,2,0:2:0:0:
102,322,102867,1,2,0:2:0:0:
20,270,102964,5,4,0:0:0:0:
256,192,102988,12,0,103545,0:0:0:0:
145,52,103609,5,2,0:0:0:0:
145,52,103674,5,2,0:0:0:0:
145,52,103738,5,6,0:0:0:0:
256,192,103762,12,0,104319,0:0:0:0:
104,254,104512,5,4,0:0:0:0:
348,227,104706,1,2,0:0:0:0:
256,192,104803,1,2,0:0:0:0:
273,286,104899,1,6,0:0:0:0:
341,56,105093,1,2,0:0:0:0:
399,346,105287,1,6,0:0:0:0:
177,99,105480,1,0,0:0:0:0:
64,359,105674,5,6,0:0:0:0:
123,276,105770,1,2,0:0:0:0:
26,308,105867,1,2,0:0:0:0:
123,339,105964,1,2,0:0:0:0:
63,257,106061,1,6,0:0:0:0:
256,192,106085,12,0,106641,0:0:0:0:
358,150,106738,5,2,0:2:0:0:
358,150,106834,1,4,0:0:0:0:
435,172,106931,1,2,0:2:0:0:
472,211,107028,1,2,0:2:0:0:
482,247,107125,1,2,0:2:0:0:
369,251,107222,5,4,0:0:0:0:
413,249,107318,1,2,0:2:0:0:
444,261,107415,1,2,0:2:0:0:
455,271,107512,1,2,0:2:0:0:
397,349,107609,5,4,0:0:0:0:
256,192,107633,12,0,108190,0:0:0:0:
26,299,108287,5,2,0:2:0:0:
26,299,108383,1,4,0:0:0:0:
101,269,108480,1,2,0:2:0:0:
127,221,108577,1,2,0:2:0:0:
127,184,108674,1,2,0:2:0:0:
31,223,108771,5,4,0:0:0:0:
51,262,108867,1,2,0:2:0:0:
77,282,108964,1,2,0:2:0:0:
91,287,109061,1,2,0:2:0:0:
158,364,109158,5,4,0:0:0:0:
256,192,109182,12,0,109738,0:0:0:0:
433,323,109803,5,2,0:0:0:0:
433,323,109868,5,2,0:0:0:0:
433,323,109932,5,6,0:0:0:0:
256,192,109956,12,0,110512,0:0:0:0:
62,63,110706,5,6,0:0:0:0:
105,154,110803,1,0,0:0:0:0:
287,212,110996,5,2,0:0:0:0:
187,204,111093,1,4,0:0:0:0:
17,281,111287,5,2,0:0:0:0:
103,245,111384,1,0,0:0:0:0:
123,335,111480,1,4,0:0:0:0:
199,105,111674,1,2,0:1:0:0:
457,198,111867,5,6,0:0:0:0:
128,339,112061,1,2,0:0:0:0:
285,49,112254,5,4,0:0:0:0:
256,192,112351,12,0,113996,0:0:0:0:
256,42,114093,5,0,1:0:0:0:
256,42,114190,1,0,1:0:0:0:
229,236,114383,5,2,0:2:0:0:
265,140,114480,1,2,0:2:0:0:
296,225,114577,1,2,0:2:0:0:
206,174,114674,1,2,0:2:0:0:
296,158,114770,1,2,0:1:0:0:
265,243,114867,1,2,0:1:0:0:
229,146,114964,1,2,0:1:0:0:
308,192,115061,1,2,0:1:0:0:
206,209,115158,1,2,0:1:0:0:
255,0,115351,5,8,0:0:0:0:
