osu file format v14

[General]
AudioFilename: audio.mp3
AudioLeadIn: 0
PreviewTime: 87287
Countdown: 0
SampleSet: Soft
StackLeniency: 0.7
Mode: 0
LetterboxInBreaks: 0
EpilepsyWarning: 1
WidescreenStoryboard: 1

[Editor]
Bookmarks: 62512
DistanceSpacing: 0.9
BeatDivisor: 4
GridSize: 8
TimelineZoom: 1

[Metadata]
Title:Alt Futur
TitleUnicode:Alt Futur
Artist:Silentroom
ArtistUnicode:Silentroom
Creator:SaltyLucario
Version:Normal
Source:osu!
Tags:saltking salty jamesjan3 dtm9 nowa dtm9_nowa astronic mbc #8 monthly beatmapping contest august featured artist fa mappers' guild electronic hi-tech edm dance rhythm game instrumental memory waves juliana techno ジュリアナテクノ bms ジャンルシャッフル3 genre-shuffle genre shuffle 3
BeatmapID:2690252
BeatmapSetID:1265982

[Difficulty]
HPDrainRate:4
CircleSize:3.6
OverallDifficulty:4.5
ApproachRate:5.5
SliderMultiplier:1.3
SliderTickRate:1

[Events]
//Background and Video events
0,0,"bg.jpg",0,0
//Break Periods
2,62906,64543
2,69487,70736
2,75293,80027
//Storyboard Layer 0 (Background)
//Storyboard Layer 1 (Fail)
//Storyboard Layer 2 (Pass)
//Storyboard Layer 3 (Foreground)
Sprite,Foreground,Centre,"sb/w.png",0,0 S,2,37158,37845,1,0.2 F,2,37158,37845,1,0 P,0,37158,37845,A C,0,37158,,255,121,162 M,0,37158,37206,290,369,298.9333,382.5098 M,0,37206,37254,298.9333,382.5098,309.8501,394.4209 M,0,37254,37303,309.8501,394.4209,322.7367,404.168 M,0,37303,37351,322.7367,404.168,337.1709,411.4313 M,0,37351,37399,337.1709,411.4313,352.6796,415.9724 M,0,37399,37448,352.6796,415.9724,368.7546,417.6418 M,0,37448,37496,368.7546,417.6418,384.8689,416.3842 M,0,37496,37545,384.8689,416.3842,400.4941,412.2402
Sprite,Foreground,Centre,"sb/w.png",456,389 S,2,37738,38038,1,0.2 F,2,37738,38038,1,0 P,0,37738,38038,A C,0,37738,,255,121,162
Sprite,Foreground,Centre,"sb/a.png",0,0 S,0,771,,2.5 C,0,771,,0,0,0 F,2,771,,0,1 M,7,771,,163,398 M,0,771,819,163,398,162.1229,381.7737 M,0,819,867,162.1229,381.7737,161.2458,365.5474 M,0,867,916,161.2458,365.5474,160.3687,349.3211 M,0,916,964,160.3687,349.3211,159.4916,333.0948 M,0,964,1012,159.4916,333.0948,158.6145,316.8684 M,0,1012,1061,158.6145,316.8684,157.7374,300.6421 M,0,1061,1109,157.7374,300.6421,158.6145,316.8684 M,0,1109,1158,158.6145,316.8684,159.4916,333.0948 M,0,1158,1206,159.4916,333.0948,160.3687,349.3211 M,0,1206,1254,160.3687,349.3211,161.2458,365.5474 M,0,1254,1303,161.2458,365.5474,162.1229,381.7737 M,0,1303,1351,162.1229,381.7737,163,398 M,7,1351,2319,163,398,432,284 M,0,2319,2367,432,284,432.8771,267.7737 M,0,2367,2415,432.8771,267.7737,433.7542,251.5474 M,0,2415,2464,433.7542,251.5474,434.6313,235.3211 M,0,2464,2512,434.6313,235.3211,435.5084,219.0948 M,0,2512,2560,435.5084,219.0948,436.3855,202.8684 M,0,2560,2609,436.3855,202.8684,437.2626,186.6421 M,0,2609,2657,437.2626,186.6421,436.3855,202.8684 M,0,2657,2706,436.3855,202.8684,435.5084,219.0948 M,0,2706,2754,435.5084,219.0948,434.6313,235.3211 M,0,2754,2802,434.6313,235.3211,433.7542,251.5474 M,0,2802,2851,433.7542,251.5474,432.8771,267.7737 M,0,2851,2899,432.8771,267.7737,432,284 M,7,2899,3867,432,284,158,180 M,0,3867,3915,158,180,142.137,183.5251 M,0,3915,3963,142.137,183.5251,126.2739,187.0502 M,0,3963,4012,126.2739,187.0502,110.4109,190.5754 M,0,4012,4060,110.4109,190.5754,94.54784,194.1005 M,0,4060,4108,94.54784,194.1005,78.6848,197.6256 M,0,4108,4157,78.6848,197.6256,62.82175,201.1507 M,0,4157,4205,62.82175,201.1507,78.6848,197.6256 M,0,4205,4254,78.6848,197.6256,94.54784,194.1005 M,0,4254,4302,94.54784,194.1005,110.4109,190.5754 M,0,4302,4350,110.4109,190.5754,126.2739,187.0502 M,0,4350,4399,126.2739,187.0502,142.137,183.5251 M,0,4399,4447,142.137,183.5251,158,180 M,7,4447,5416,158,180,356,395 M,0,5416,5464,356,395,371.8311,391.3339 M,0,5464,5512,371.8311,391.3339,387.6621,387.6677 M,0,5512,5561,387.6621,387.6677,403.4931,384.0016 M,0,5561,5609,403.4931,384.0016,419.3242,380.3354 M,0,5609,5657,419.3242,380.3354,435.1552,376.6693 M,0,5657,5706,435.1552,376.6693,450.9863,373.0032 M,0,5706,5754,450.9863,373.0032,435.1552,376.6693 M,0,5754,5803,435.1552,376.6693,419.3242,380.3354 M,0,5803,5851,419.3242,380.3354,403.4931,384.0016 M,0,5851,5899,403.4931,384.0016,387.6621,387.6677 M,0,5899,5948,387.6621,387.6677,371.8311,391.3339 M,0,5948,5996,371.8311,391.3339,356,395 M,7,5996,6190,356,395,311,357 M,7,6190,6577,311,357,327,241 S,19,6964,,2.5,12.5 F,0,6964,7064,1,0
Sprite,Foreground,Centre,"sb/w.png",0,0 S,2,99867,100554,1,0.2 F,2,99867,100554,1,0 P,0,99867,100554,A C,0,99867,,4,219,192 M,0,99867,99915,365,340,349.1483,336.4244 M,0,99915,99963,349.1483,336.4244,333.2965,332.8488 M,0,99963,100012,333.2965,332.8488,317.4448,329.2733 M,0,100012,100060,317.4448,329.2733,301.593,325.6977 M,0,100060,100108,301.593,325.6977,285.7413,322.1221 M,0,100108,100157,285.7413,322.1221,269.8895,318.5465 M,0,100157,100205,269.8895,318.5465,254.0378,314.9709 M,0,100205,100254,254.0378,314.9709,238.1861,311.3954
Sprite,Foreground,Centre,"sb/w.png",187,341 S,2,100448,100748,1,0.2 F,2,100448,100748,1,0 P,0,100448,100748,A C,0,100448,,4,219,192
Sprite,Foreground,Centre,"sb/w.png",0,0 S,2,100641,101328,1,0.2 F,2,100641,101328,1,0 P,0,100641,101328,A C,0,100641,,4,219,192 M,0,100641,100689,132,361,123.5716,347.1571 M,0,100689,100737,123.5716,347.1571,117.2431,332.271 M,0,100737,100786,117.2431,332.271,113.4566,316.545 M,0,100786,100834,113.4566,316.545,112.3158,300.4098 M,0,100834,100882,112.3158,300.4098,113.852,284.3075 M,0,100882,100931,113.852,284.3075,118.023,268.679 M,0,100931,100979,118.023,268.679,124.7147,253.9526 M,0,100979,101028,124.7147,253.9526,133.7437,240.5315
Sprite,Foreground,Centre,"sb/w.png",0,0 S,2,101416,102103,1,0.2 F,2,101416,102103,1,0 P,0,101416,102103,A C,0,101416,,255,121,162 M,0,101416,101464,250,234,258.4377,220.1634 M,0,101464,101512,258.4377,220.1634,264.7682,205.2792 M,0,101512,101561,264.7682,205.2792,268.5459,189.552 M,0,101561,101609,268.5459,189.552,269.6664,173.4163 M,0,101609,101657,269.6664,173.4163,268.0989,157.3179 M,0,101657,101706,268.0989,157.3179,263.8865,141.7014 M,0,101706,101754,263.8865,141.7014,257.1456,126.9983 M,0,101754,101803,257.1456,126.9983,248.3095,113.4131
Sprite,Foreground,Centre,"sb/w.png",273,60 S,2,101996,102296,1,0.2 F,2,101996,102296,1,0 P,0,101996,102296,A C,0,101996,,255,121,162
Sprite,Foreground,Centre,"sb/w.png",0,0 S,2,102190,102683,1,0.2 F,2,102190,102683,1,0 P,0,102190,102683,A C,0,102190,,255,121,162 M,0,102190,102238,328,78,343.818,81.72189 M,0,102238,102286,343.818,81.72189,359.636,85.44378 M,0,102286,102335,359.636,85.44378,375.4541,89.16566 M,0,102335,102383,375.4541,89.16566,391.2721,92.88756
Sprite,Foreground,Centre,"sb/w.png",0,0 S,2,102577,103070,1,0.2 F,2,102577,103070,1,0 P,0,102577,103070,A C,0,102577,,255,121,162 M,0,102577,102625,423,141,438.818,137.2781 M,0,102625,102673,438.818,137.2781,454.636,133.5562 M,0,102673,102722,454.636,133.5562,470.4541,129.8343 M,0,102722,102770,470.4541,129.8343,486.2721,126.1124
Sprite,Foreground,Centre,"sb/w.png",0,0 S,2,102964,103651,1,0.2 F,2,102964,103651,1,0 P,0,102964,103651,A C,0,102964,,255,210,0 M,0,102964,103012,542,109,539.5725,125.0677 M,0,103012,103060,539.5725,125.0677,537.145,141.1353 M,0,103060,103109,537.145,141.1353,534.7175,157.203 M,0,103109,103157,534.7175,157.203,532.29,173.2707 M,0,103157,103205,532.29,173.2707,529.8625,189.3383 M,0,103205,103254,529.8625,189.3383,527.4351,205.406 M,0,103254,103302,527.4351,205.406,525.0076,221.4736 M,0,103302,103351,525.0076,221.4736,522.5801,237.5413
Sprite,Foreground,Centre,"sb/w.png",536,294 S,2,103545,103845,1,0.2 F,2,103545,103845,1,0 P,0,103545,103845,A C,0,103545,,255,210,0
Sprite,Foreground,Centre,"sb/w.png",0,0 S,2,103738,104425,1,0.2 F,2,103738,104425,1,0 P,0,103738,104425,A C,0,103738,,255,210,0 M,0,103738,103786,552,350,536.9183,344.0031 M,0,103786,103834,536.9183,344.0031,521.0527,340.5876 M,0,103834,103883,521.0527,340.5876,504.8417,339.8474 M,0,103883,103931,504.8417,339.8474,488.7333,341.8026 M,0,103931,103979,488.7333,341.8026,473.1724,346.3988 M,0,103979,104028,473.1724,346.3988,458.5888,353.5087 M,0,104028,104076,458.5888,353.5087,445.3854,362.9354 M,0,104076,104125,445.3854,362.9354,433.9267,374.4182
Sprite,Foreground,Centre,"sb/w.png",0,0 S,2,104512,105005,1,0.2 F,2,104512,105005,1,0 P,0,104512,105005,A C,0,104512,,4,219,192 M,0,104512,104560,325,418,322.7019,401.9133 M,0,104560,104608,322.7019,401.9133,320.4038,385.8266 M,0,104608,104657,320.4038,385.8266,318.1057,369.74 M,0,104657,104705,318.1057,369.74,315.8076,353.6533
Sprite,Foreground,Centre,"sb/w.png",343,305 S,2,104900,105200,1,0.2 F,2,104900,105200,1,0 P,0,104900,105200,A C,0,104900,,4,219,192
Sprite,Foreground,Centre,"sb/w.png",343,305 S,2,105093,105393,1,0.2 F,2,105093,105393,1,0 P,0,105093,105393,A C,0,105093,,4,219,192
Sprite,Foreground,Centre,"sb/w.png",0,0 S,2,105287,105974,1,0.2 F,2,105287,105974,1,0 P,0,105287,105974,A C,0,105287,,4,219,192 M,0,105287,105335,343,305,326.9463,307.5182 M,0,105335,105383,326.9463,307.5182,310.8926,310.0364 M,0,105383,105432,310.8926,310.0364,294.8389,312.5547 M,0,105432,105480,294.8389,312.5547,278.989,309.8951 M,0,105480,105528,278.989,309.8951,263.1828,306.1232 M,0,105528,105577,263.1828,306.1232,247.3766,302.3513 M,0,105577,105625,247.3766,302.3513,231.5705,298.5793 M,0,105625,105674,231.5705,298.5793,215.7643,294.8074
Sprite,Foreground,Centre,"sb/w.png",0,0 S,2,106061,106748,1,0.2 F,2,106061,106748,1,0 P,0,106061,106748,A C,0,106061,,255,121,162 M,0,106061,106109,119,355,109.952,341.5233 M,0,106109,106157,109.952,341.5233,103.1663,326.778 M,0,106157,106206,103.1663,326.778,98.81607,311.1405 M,0,106206,106254,98.81607,311.1405,97.01225,295.0101 M,0,106254,106302,97.01225,295.0101,97.80074,278.799 M,0,106302,106351,97.80074,278.799,101.1613,262.9207 M,0,106351,106399,101.1613,262.9207,107.0078,247.781 M,0,106399,106448,107.0078,247.781,115,234
Sprite,Foreground,Centre,"sb/w.png",148,186 S,2,106641,106941,1,0.2 F,2,106641,106941,1,0 P,0,106641,106941,A C,0,106641,,255,121,162
Sprite,Foreground,Centre,"sb/w.png",0,0 S,2,106835,107522,1,0.2 F,2,106835,107522,1,0 P,0,106835,107522,A C,0,106835,,255,121,162 M,0,106835,106883,182,138,196.2607,145.7546 M,0,106883,106931,196.2607,145.7546,211.5376,151.238 M,0,106931,106980,211.5376,151.238,227.4714,154.322 M,0,106980,107028,227.4714,154.322,243.6879,154.9345 M,0,107028,107076,243.6879,154.9345,259.806,153.0616 M,0,107076,107125,259.806,153.0616,275.4471,148.7477 M,0,107125,107173,275.4471,148.7477,290.2439,142.0947 M,0,107173,107222,290.2439,142.0947,303,134
Sprite,Foreground,Centre,"sb/w.png",0,0 S,2,107609,108296,1,0.2 F,2,107609,108296,1,0 P,0,107609,108296,A C,0,107609,,255,210,0 M,0,107609,107657,403,73,404.8582,89.1434 M,0,107657,107705,404.8582,89.1434,406.7165,105.2868 M,0,107705,107754,406.7165,105.2868,408.5747,121.4302 M,0,107754,107802,408.5747,121.4302,410.4329,137.5736 M,0,107802,107850,410.4329,137.5736,412.2912,153.717 M,0,107850,107899,412.2912,153.717,414.1494,169.8604 M,0,107899,107947,414.1494,169.8604,416.0076,186.0038 M,0,107947,107996,416.0076,186.0038,417.8659,202.1472
Sprite,Foreground,Centre,"sb/w.png",370,236 S,2,108190,108490,1,0.2 F,2,108190,108490,1,0 P,0,108190,108490,A C,0,108190,,255,210,0
Sprite,Foreground,Centre,"sb/w.png",0,0 S,2,108383,108876,1,0.2 F,2,108383,108876,1,0 P,0,108383,108876,A C,0,108383,,255,210,0 M,0,108383,108431,320,267,321.647,283.1544 M,0,108431,108479,321.647,283.1544,325.3092,298.9727 M,0,108479,108528,325.3092,298.9727,330.9284,314.2046 M,0,108528,108576,330.9284,314.2046,338,328
Sprite,Foreground,Centre,"sb/w.png",0,0 S,2,108770,109263,1,0.2 F,2,108770,109263,1,0 P,0,108770,109263,A C,0,108770,,255,210,0 M,0,108770,108818,346,386,360.9415,392.3025 M,0,108818,108866,360.9415,392.3025,376.508,396.7607 M,0,108866,108915,376.508,396.7607,392.5454,399.0094 M,0,108915,108963,392.5454,399.0094,408.7426,399.0044
Sprite,Foreground,Centre,"sb/w.png",0,0 S,2,109158,109845,1,0.2 F,2,109158,109845,1,0 P,0,109158,109845,A C,0,109158,,4,219,192 M,0,109158,109206,464,417,465.9727,400.8702 M,0,109206,109254,465.9727,400.8702,467.9454,384.7404 M,0,109254,109303,467.9454,384.7404,469.9181,368.6106 M,0,109303,109351,469.9181,368.6106,471.8908,352.4807 M,0,109351,109399,471.8908,352.4807,473.8636,336.3509 M,0,109399,109448,473.8636,336.3509,475.8363,320.2211 M,0,109448,109496,475.8363,320.2211,477.809,304.0913 M,0,109496,109545,477.809,304.0913,479.7817,287.9615
Sprite,Foreground,Centre,"sb/w.png",522,248 S,2,109738,110038,1,0.2 F,2,109738,110038,1,0 P,0,109738,110038,A C,0,109738,,4,219,192
Sprite,Foreground,Centre,"sb/w.png",0,0 S,2,109932,110619,1,0.2 F,2,109932,110619,1,0 P,0,109932,110619,A C,0,109932,,4,219,192 M,0,109932,109980,557,201,543.9116,191.3689 M,0,109980,110028,543.9116,191.3689,530.8232,181.7379 M,0,110028,110077,530.8232,181.7379,517.7349,172.1068 M,0,110077,110125,517.7349,172.1068,504.6465,162.4758 M,0,110125,110173,504.6465,162.4758,488.7345,164.3625 M,0,110173,110222,488.7345,164.3625,472.6757,166.8478 M,0,110222,110270,472.6757,166.8478,456.6168,169.3331 M,0,110270,110319,456.6168,169.3331,440.558,171.8184
Sprite,Foreground,Centre,"sb/w.png",326,199 S,2,110706,111006,1,0.2 F,2,110706,111006,1,0 P,0,110706,111006,A C,0,110706,,255,121,162
Sprite,Foreground,Centre,"sb/w.png",352,312 S,2,111093,111393,1,0.2 F,2,111093,111393,1,0 P,0,111093,111393,A C,0,111093,,255,121,162
Sprite,Foreground,Centre,"sb/w.png",238,340 S,2,111480,111780,1,0.2 F,2,111480,111780,1,0 P,0,111480,111780,A C,0,111480,,255,121,162
Sprite,Foreground,Centre,"sb/w.png",209,226 S,2,111867,112167,1,0.2 F,2,111867,112167,1,0 P,0,111867,112167,A C,0,111867,,255,121,162
Sprite,Foreground,Centre,"sb/w.png",0,0 S,2,114383,115650,1,0.2 F,2,114383,115650,1,0 P,0,114383,115650,A C,0,114383,,4,219,192 M,0,114383,114431,205,197,193.7204,208.5947 M,0,114431,114479,193.7204,208.5947,184.8513,222.058 M,0,114479,114528,184.8513,222.058,179.0796,237.1117 M,0,114528,114576,179.0796,237.1117,176.6747,253.0536 M,0,114576,114624,176.6747,253.0536,177.7487,269.1401 M,0,114624,114673,177.7487,269.1401,182.2515,284.621 M,0,114673,114721,182.2515,284.621,189.9733,298.7742 M,0,114721,114770,189.9733,298.7742,200.5538,310.9395 M,0,114770,114818,200.5538,310.9395,213.4997,320.5495 M,0,114818,114866,213.4997,320.5495,228.2072,327.1559 M,0,114866,114915,228.2072,327.1559,243.9904,330.4504 M,0,114915,114963,243.9904,330.4504,260.113,330.2794 M,0,114963,115012,260.113,330.2794,275.8232,326.6506 M,0,115012,115060,275.8232,326.6506,290.3881,319.7333 M,0,115060,115108,290.3881,319.7333,303.1284,309.85 M,0,115108,115157,303.1284,309.85,313.4497,297.4615 M,0,115157,115205,313.4497,297.4615,320.8706,283.1454 M,0,115205,115253,320.8706,283.1454,325.0448,267.5697 M,0,115253,115302,325.0448,267.5697,325.7774,251.4605 M,0,115302,115350,325.7774,251.4605,323.0341,235.5694
Sprite,Foreground,Centre,"sb/f.jpg",424,242 S,19,98706,98906,2,1 F,2,99480,99680,1,0 C,0,98706,,255,210,0
Sprite,Foreground,Centre,"sb/w.png",0,0 S,19,16254,17184,1,0.7 F,2,16834,17184,1,0 M,0,16254,16302,447,254,446.1327,239.4007 M,0,16302,16350,446.1327,239.4007,445.2654,224.8015 M,0,16350,16399,445.2654,224.8015,444.3982,210.2022 M,0,16399,16447,444.3982,210.2022,443.5309,195.603 M,0,16447,16495,443.5309,195.603,442.6636,181.0037 M,0,16495,16544,442.6636,181.0037,441.7963,166.4044 M,0,16544,16592,441.7963,166.4044,442.6636,181.0037 M,0,16592,16641,442.6636,181.0037,443.5309,195.603 M,0,16641,16689,443.5309,195.603,444.3982,210.2022 M,0,16689,16737,444.3982,210.2022,445.2654,224.8015 M,0,16737,16786,445.2654,224.8015,446.1327,239.4007 M,0,16786,16834,446.1327,239.4007,447,254
Sprite,Foreground,Centre,"sb/w.png",0,0 S,2,6964,7844,1,0.2 F,2,6964,7844,1,0 P,0,6964,7844,A C,0,6964,,255,210,0 M,0,6964,7012,235,159,237.0949,142.8856 M,0,7012,7060,237.0949,142.8856,239.1897,126.7712 M,0,7060,7109,239.1897,126.7712,241.2846,110.6568 M,0,7109,7157,241.2846,110.6568,243.3795,94.54239 M,0,7157,7205,243.3795,94.54239,245.4744,78.42799 M,0,7205,7254,245.4744,78.42799,247.5692,62.31358 M,0,7254,7302,247.5692,62.31358,245.4744,78.42799 M,0,7302,7351,245.4744,78.42799,243.3795,94.54239 M,0,7351,7399,243.3795,94.54239,241.2846,110.6568 M,0,7399,7447,241.2846,110.6568,239.1897,126.7712 M,0,7447,7496,239.1897,126.7712,237.0949,142.8856 M,0,7496,7544,237.0949,142.8856,235,159
Sprite,Foreground,Centre,"sb/w.png",0,0 S,2,7835,8425,1,0.2 F,2,7835,8425,1,0 P,0,7835,8425,A C,0,7835,,255,210,0 M,0,7835,7883,180,228,182.0156,244.1245 M,0,7883,7931,182.0156,244.1245,184.0311,260.249 M,0,7931,7980,184.0311,260.249,186.0467,276.3735 M,0,7980,8028,186.0467,276.3735,188.0623,292.498 M,0,8028,8076,188.0623,292.498,190.0778,308.6226 M,0,8076,8125,190.0778,308.6226,192,324
Sprite,Foreground,Centre,"sb/w.png",0,0 S,2,8512,9392,1,0.2 F,2,8512,9392,1,0 P,0,8512,9392,A C,0,8512,,255,210,0 M,0,8512,8560,277,404,293.1245,406.0156 M,0,8560,8608,293.1245,406.0156,309.249,408.0311 M,0,8608,8657,309.249,408.0311,325.3735,410.0467 M,0,8657,8705,325.3735,410.0467,341.498,412.0623 M,0,8705,8753,341.498,412.0623,357.6226,414.0778 M,0,8753,8802,357.6226,414.0778,373,416 M,0,8802,8850,373,416,357.6226,414.0778 M,0,8850,8899,357.6226,414.0778,341.498,412.0623 M,0,8899,8947,341.498,412.0623,325.3735,410.0467 M,0,8947,8995,325.3735,410.0467,309.249,408.0311 M,0,8995,9044,309.249,408.0311,293.1245,406.0156 M,0,9044,9092,293.1245,406.0156,277,404
Sprite,Foreground,Centre,"sb/w.png",0,0 S,2,9383,9973,1,0.2 F,2,9383,9973,1,0 P,0,9383,9973,A C,0,9383,,255,210,0 M,0,9383,9431,314,324,330.103,321.8194 M,0,9431,9479,330.103,321.8194,346.2061,319.6388 M,0,9479,9528,346.2061,319.6388,362.3091,317.4582 M,0,9528,9576,362.3091,317.4582,378.4121,315.2775 M,0,9576,9624,378.4121,315.2775,394.5151,313.0969 M,0,9624,9673,394.5151,313.0969,410,311
Sprite,Foreground,Centre,"sb/w.png",467,326 S,2,9867,10167,1,0.2 F,2,9867,10167,1,0 P,0,9867,10167,A C,0,9867,,255,210,0
Sprite,Foreground,Centre,"sb/w.png",0,0 S,2,10061,10941,1,0.2 F,2,10061,10941,1,0 P,0,10061,10941,A C,0,10061,,4,219,192 M,0,10061,10109,522,345,528.2577,330.0159 M,0,10109,10157,528.2577,330.0159,533.3648,314.6106 M,0,10157,10206,533.3648,314.6106,537.1248,298.8224 M,0,10206,10254,537.1248,298.8224,539.5098,282.7688 M,0,10254,10302,539.5098,282.7688,540.5019,266.5694 M,0,10302,10351,540.5019,266.5694,540.0938,250.3448 M,0,10351,10399,540.0938,250.3448,540.5019,266.5694 M,0,10399,10448,540.5019,266.5694,539.5098,282.7688 M,0,10448,10496,539.5098,282.7688,537.1248,298.8224 M,0,10496,10544,537.1248,298.8224,533.3648,314.6106 M,0,10544,10593,533.3648,314.6106,528.2577,330.0159 M,0,10593,10641,528.2577,330.0159,522,345
Sprite,Foreground,Centre,"sb/w.png",0,0 S,2,10835,11522,1,0.2 F,2,10835,11522,1,0 P,0,10835,11522,A C,0,10835,,4,219,192 M,0,10835,10883,500,399,483.9682,396.4437 M,0,10883,10931,483.9682,396.4437,467.7697,397.0333 M,0,10931,10980,467.7697,397.0333,452.3398,401.9511 M,0,10980,11028,452.3398,401.9511,438.2674,410.0573 M,0,11028,11076,438.2674,410.0573,424.1232,418.0332 M,0,11076,11125,424.1232,418.0332,408.7087,423.0422 M,0,11125,11173,408.7087,423.0422,392.5441,424.379 M,0,11173,11222,392.5441,424.379,376.3741,422.9147
Sprite,Foreground,Centre,"sb/w.png",0,0 S,2,11609,12296,1,0.2 F,2,11609,12296,1,0 P,0,11609,12296,A C,0,11609,,255,121,162 M,0,11609,11657,291,342,275.4919,337.1869 M,0,11657,11705,275.4919,337.1869,259.5003,334.3795 M,0,11705,11754,259.5003,334.3795,243.2832,333.6226 M,0,11754,11802,243.2832,333.6226,227.1024,334.9283 M,0,11802,11850,227.1024,334.9283,211.2193,338.2749 M,0,11850,11899,211.2193,338.2749,195.89,343.6082 M,0,11899,11947,195.89,343.6082,181.3619,350.8417 M,0,11947,11996,181.3619,350.8417,167.8695,359.8585
Sprite,Foreground,Centre,"sb/w.png",102,269 S,2,12383,12683,1,0.2 F,2,12383,12683,1,0 P,0,12383,12683,A C,0,12383,,255,121,162
Sprite,Foreground,Centre,"sb/w.png",0,0 S,2,12577,13264,1,0.2 F,2,12577,13264,1,0 P,0,12577,13264,A C,0,12577,,255,121,162 M,0,12577,12625,102,269,104.9783,253.0253 M,0,12625,12673,104.9783,253.0253,107.9567,237.0505 M,0,12673,12722,107.9567,237.0505,110.935,221.0758 M,0,12722,12770,110.935,221.0758,111.5939,205.2192 M,0,12770,12818,111.5939,205.2192,108.5862,189.536 M,0,12818,12867,108.5862,189.536,111.2977,173.5138 M,0,12867,12915,111.2977,173.5138,114.0091,157.4916 M,0,12915,12964,114.0091,157.4916,116.7206,141.4694
Sprite,Foreground,Centre,"sb/w.png",0,0 S,2,13158,14038,1,0.2 F,2,13158,14038,1,0 P,0,13158,14038,A C,0,13158,,255,210,0 M,0,13158,13206,157,108,171.3639,105.2761 M,0,13206,13254,171.3639,105.2761,185.933,104.1249 M,0,13254,13303,185.933,104.1249,200.4957,105.2339 M,0,13303,13351,200.4957,105.2339,214.5131,109.2953 M,0,13351,13399,214.5131,109.2953,227.3242,116.2988 M,0,13399,13448,227.3242,116.2988,238.9682,125.1393 M,0,13448,13496,238.9682,125.1393,250.4175,134.2363 M,0,13496,13545,250.4175,134.2363,262.7903,142 M,0,13545,13593,262.7903,142,276.4599,147.11 M,0,13593,13641,276.4599,147.11,290.9104,149.2008 M,0,13641,13690,290.9104,149.2008,305.5168,148.7979 M,0,13690,13738,305.5168,148.7979,319.9736,146.6309
Sprite,Foreground,Centre,"sb/w.png",529,104 S,19,14512,14862,1,0.7 F,2,14512,14862,1,0
Sprite,Foreground,Centre,"sb/w.png",0,0 S,19,14706,15346,1,0.7 F,2,14996,15346,1,0 M,0,14706,14754,529,104,527.7019,118.5673 M,0,14754,14802,527.7019,118.5673,526.4038,133.1346 M,0,14802,14851,526.4038,133.1346,525.1058,147.7018 M,0,14851,14899,525.1058,147.7018,523.8077,162.2691 M,0,14899,14947,523.8077,162.2691,522.5096,176.8364 M,0,14947,14996,522.5096,176.8364,521.2115,191.4037
Sprite,Foreground,Centre,"sb/w.png",390,309 S,19,17125,17475,1,0.7 F,2,17125,17475,1,0
Sprite,Foreground,Centre,"sb/w.png",324,265 S,19,17416,17766,1,0.7 F,2,17609,17959,1,0
Sprite,Foreground,Centre,"sb/w.png",299,166 S,19,17803,18153,1,0.7 F,2,18093,18443,1,0
Sprite,Foreground,Centre,"sb/f.jpg",429,406 S,19,49738,49938,2,1 F,2,49738,49938,1,0 C,0,49738,,4,219,192
Sprite,Foreground,Centre,"sb/f.jpg",429,406 S,19,49932,50132,2,1 F,2,50125,50325,1,0 C,0,49932,,4,219,192
Sprite,Foreground,Centre,"sb/w.png",344,257 S,2,69287,69587,1,0.2 F,2,69287,69587,1,0 P,0,69287,69587,A C,0,69287,,255,210,0
Sprite,Foreground,Centre,"sb/w.png",0,0 S,2,19351,20231,1,0.2 F,2,19351,20231,1,0 P,0,19351,20231,A C,0,19351,,255,210,0 M,0,19351,19399,198,338,212.5506,339.4735 M,0,19399,19447,212.5506,339.4735,227.1012,340.947 M,0,19447,19496,227.1012,340.947,241.6517,342.4204 M,0,19496,19544,241.6517,342.4204,256.2023,343.8939 M,0,19544,19592,256.2023,343.8939,270.7529,345.3674 M,0,19592,19641,270.7529,345.3674,284.704,342.79 M,0,19641,19689,284.704,342.79,298.204,337.165 M,0,19689,19738,298.204,337.165,312.5267,337.2651 M,0,19738,19786,312.5267,337.2651,327.0645,338.8607 M,0,19786,19834,327.0645,338.8607,341.6021,340.4563 M,0,19834,19883,341.6021,340.4563,356.1398,342.0519 M,0,19883,19931,356.1398,342.0519,370.6776,343.6475
Sprite,Foreground,Centre,"sb/w.png",0,0 S,2,20125,20812,1,0.2 F,2,20125,20812,1,0 P,0,20125,20812,A C,0,20125,,255,210,0 M,0,20125,20173,411,377,405.2136,363.6057 M,0,20173,20221,405.2136,363.6057,400.9969,349.6576 M,0,20221,20270,400.9969,349.6576,398.7202,335.2507 M,0,20270,20318,398.7202,335.2507,398.4306,320.6466 M,0,20318,20366,398.4306,320.6466,400.6032,306.219 M,0,20366,20415,400.6032,306.219,404.4171,292.1566 M,0,20415,20463,404.4171,292.1566,410.119,278.7335 M,0,20463,20512,410.119,278.7335,417.6099,266.1966
Sprite,Foreground,Centre,"sb/w.png",457,231 S,2,20706,21006,1,0.2 F,2,20706,21006,1,0 P,0,20706,21006,A C,0,20706,,255,210,0
Sprite,Foreground,Centre,"sb/w.png",0,0 S,2,20900,21587,1,0.2 F,2,20900,21587,1,0 P,0,20900,21587,A C,0,20900,,4,219,192 M,0,20900,20948,457,231,471.4733,233.101 M,0,20948,20996,471.4733,233.101,485.9466,235.2019 M,0,20996,21045,485.9466,235.2019,500.4199,237.3029 M,0,21045,21093,500.4199,237.3029,514.8932,239.4039 M,0,21093,21141,514.8932,239.4039,529.3665,241.5048 M,0,21141,21190,529.3665,241.5048,543.8398,243.6058 M,0,21190,21238,543.8398,243.6058,558.3131,245.7067 M,0,21238,21287,558.3131,245.7067,572.7864,247.8077
Sprite,Foreground,Centre,"sb/w.png",0,0 S,2,21674,22361,1,0.2 F,2,21674,22361,1,0 P,0,21674,22361,A C,0,21674,,4,219,192 M,0,21674,21722,544,146,529.5295,143.8793 M,0,21722,21770,529.5295,143.8793,515.0591,141.7587 M,0,21770,21819,515.0591,141.7587,500.5887,139.638 M,0,21819,21867,500.5887,139.638,486.1183,137.5173 M,0,21867,21915,486.1183,137.5173,471.6478,135.3967 M,0,21915,21964,471.6478,135.3967,457.1774,133.276 M,0,21964,22012,457.1774,133.276,442.707,131.1553 M,0,22012,22061,442.707,131.1553,428.2366,129.0347
Sprite,Foreground,Centre,"sb/w.png",380,151 S,2,22254,22554,1,0.2 F,2,22254,22554,1,0 P,0,22254,22554,A C,0,22254,,4,219,192
Sprite,Foreground,Centre,"sb/w.png",380,151 S,2,22448,22748,1,0.2 F,2,22448,22748,1,0 P,0,22448,22748,A C,0,22448,,255,121,162
Sprite,Foreground,Centre,"sb/w.png",367,255 S,2,22835,23135,1,0.2 F,2,22835,23135,1,0 P,0,22835,23135,A C,0,22835,,255,121,162
Sprite,Foreground,Centre,"sb/w.png",0,0 S,2,23222,24102,1,0.2 F,2,23222,24102,1,0 P,0,23222,24102,A C,0,23222,,255,121,162 M,0,23222,23270,353,359,367.5959,358.0782 M,0,23270,23318,367.5959,358.0782,382.1918,357.1563 M,0,23318,23367,382.1918,357.1563,396.7878,356.2345 M,0,23367,23415,396.7878,356.2345,411.3837,355.3126 M,0,23415,23463,411.3837,355.3126,425.9796,354.3907 M,0,23463,23512,425.9796,354.3907,440.5755,353.4689 M,0,23512,23560,440.5755,353.4689,425.9796,354.3908 M,0,23560,23609,425.9796,354.3908,411.3837,355.3126 M,0,23609,23657,411.3837,355.3126,396.7878,356.2345 M,0,23657,23705,396.7878,356.2345,382.1918,357.1563 M,0,23705,23754,382.1918,357.1563,367.5959,358.0782 M,0,23754,23802,367.5959,358.0782,353,359
Sprite,Foreground,Centre,"sb/w.png",317,320 S,2,23996,24296,1,0.2 F,2,23996,24296,1,0 P,0,23996,24296,A C,0,23996,,255,121,162
Sprite,Foreground,Centre,"sb/w.png",0,0 S,2,24190,24877,1,0.2 F,2,24190,24877,1,0 P,0,24190,24877,A C,0,24190,,255,210,0 M,0,24190,24238,317,320,302.5676,322.366 M,0,24238,24286,302.5676,322.366,288.1353,324.7319 M,0,24286,24335,288.1353,324.7319,273.7029,327.0979 M,0,24335,24383,273.7029,327.0979,259.2706,329.4638 M,0,24383,24431,259.2706,329.4638,245.3916,326.0764 M,0,24431,24480,245.3916,326.0764,231.6748,321.003 M,0,24480,24528,231.6748,321.003,217.9579,315.9296 M,0,24528,24577,217.9579,315.9296,204.2411,310.8563
Sprite,Foreground,Centre,"sb/w.png",0,0 S,2,24770,25263,1,0.2 F,2,24770,25263,1,0 P,0,24770,25263,A C,0,24770,,255,210,0 M,0,24770,24818,189,260,174.5956,262.5305 M,0,24818,24866,174.5956,262.5305,160.1912,265.061 M,0,24866,24915,160.1912,265.061,145.7868,267.5915 M,0,24915,24963,145.7868,267.5915,131.3823,270.122
Sprite,Foreground,Centre,"sb/e.jpg",113,171 S,19,25545,25745,3,1 F,2,25545,25745,1,0 C,0,25545,,4,219,192
Sprite,Foreground,Centre,"sb/e.jpg",228,186 S,19,25932,26132,3,1 F,2,25932,26132,1,0 C,0,25932,,4,219,192
Sprite,Foreground,Centre,"sb/e.jpg",343,201 S,19,26319,26519,3,1 F,2,26609,26809,1,0 C,0,26319,,4,219,192
Sprite,Foreground,Centre,"sb/e.jpg",485,66 S,19,27093,27293,3,1 F,2,27093,27293,1,0 C,0,27093,,255,121,162
Sprite,Foreground,Centre,"sb/e.jpg",475,182 S,19,27480,27680,3,1 F,2,27770,27970,1,0 C,0,27480,,255,121,162
Sprite,Foreground,Centre,"sb/e.jpg",505,351 S,19,28061,28261,3,1 F,2,28448,28648,1,0 C,0,28061,,255,121,162
Sprite,Foreground,Centre,"sb/e.jpg",342,388 S,19,28641,28841,3,1 F,2,28641,28841,1,0 C,0,28641,,255,210,0
Sprite,Foreground,Centre,"sb/e.jpg",226,370 S,19,29029,29229,3,1 F,2,29029,29229,1,0 C,0,29029,,255,210,0
Sprite,Foreground,Centre,"sb/e.jpg",110,352 S,19,29416,29616,3,1 F,2,29706,29906,1,0 C,0,29416,,255,210,0
Sprite,Foreground,Centre,"sb/e.jpg",240,180 S,19,30190,30390,3,1 F,2,30577,30777,1,0 C,0,30190,,4,219,192
Sprite,Foreground,Centre,"sb/e.jpg",213,293 S,19,30964,31164,3,1 F,2,30964,31164,1,0 C,0,30964,,4,219,192
Sprite,Foreground,Centre,"sb/e.jpg",325,261 S,19,31351,31551,3,1 F,2,31351,31551,1,0 C,0,31351,,4,219,192
Sprite,Foreground,Centre,"sb/e.jpg",414,336 S,19,31738,31938,3,1 F,2,31738,31938,1,0 C,0,31738,,255,121,162
Sprite,Foreground,Centre,"sb/e.jpg",429,220 S,19,32125,32325,3,1 F,2,32125,32325,1,0 C,0,32125,,255,121,162
Sprite,Foreground,Centre,"sb/e.jpg",441,103 S,19,32512,32712,3,1 F,2,32802,33002,1,0 C,0,32512,,255,121,162
Sprite,Foreground,Centre,"sb/e.jpg",572,247 S,19,33287,33487,3,1 F,2,33287,33487,1,0 C,0,33287,,255,210,0
Sprite,Foreground,Centre,"sb/e.jpg",459,279 S,19,33674,33874,3,1 F,2,33964,34164,1,0 C,0,33674,,255,210,0
Sprite,Foreground,Centre,"sb/e.jpg",286,315 S,19,34254,34454,3,1 F,2,34641,34841,1,0 C,0,34254,,255,210,0
Sprite,Foreground,Centre,"sb/e.jpg",323,140 S,19,34835,35035,3,1 F,2,34835,35035,1,0 C,0,34835,,4,219,192
Sprite,Foreground,Centre,"sb/e.jpg",207,121 S,19,35222,35422,3,1 F,2,35222,35422,1,0 C,0,35222,,4,219,192
Sprite,Foreground,Centre,"sb/e.jpg",91,101 S,19,35609,35809,3,1 F,2,35899,36099,1,0 C,0,35609,,4,219,192
Sprite,Foreground,Centre,"sb/w.png",307,411 S,2,50319,50619,1,0.2 F,2,50319,50619,1,0 P,0,50319,50619,A C,0,50319,,255,121,162
Sprite,Foreground,Centre,"sb/w.png",248,309 S,2,50706,51006,1,0.2 F,2,50706,51006,1,0 P,0,50706,51006,A C,0,50706,,255,121,162
Sprite,Foreground,Centre,"sb/w.png",0,0 S,2,51093,51780,1,0.2 F,2,51093,51780,1,0 P,0,51093,51780,A C,0,51093,,255,121,162 M,0,51093,51141,153,378,151.6606,361.8053 M,0,51141,51189,151.6606,361.8053,150.3212,345.6106 M,0,51189,51238,150.3212,345.6106,148.9818,329.4159 M,0,51238,51286,148.9818,329.4159,147.6424,313.2212 M,0,51286,51334,147.6424,313.2212,146.3029,297.0265 M,0,51334,51383,146.3029,297.0265,144.9635,280.8318 M,0,51383,51431,144.9635,280.8318,143.6241,264.6371 M,0,51431,51480,143.6241,264.6371,142.2847,248.4424
Sprite,Foreground,Centre,"sb/w.png",104,203 S,2,51674,51974,1,0.2 F,2,51674,51974,1,0 P,0,51674,51974,A C,0,51674,,255,121,162
Sprite,Foreground,Centre,"sb/w.png",0,0 S,2,51867,52360,1,0.2 F,2,51867,52360,1,0 P,0,51867,52360,A C,0,51867,,255,210,0 M,0,51867,51915,112,145,113.9911,128.8724 M,0,51915,51963,113.9911,128.8724,115.9821,112.7449 M,0,51963,52012,115.9821,112.7449,117.9732,96.61732 M,0,52012,52060,117.9732,96.61732,119.9642,80.48976
Sprite,Foreground,Centre,"sb/w.png",0,0 S,2,52254,52941,1,0.2 F,2,52254,52941,1,0 P,0,52254,52941,A C,0,52254,,255,210,0 M,0,52254,52302,176,65,187.9511,75.96974 M,0,52302,52350,187.9511,75.96974,201.0652,85.48447 M,0,52350,52399,201.0652,85.48447,215.3155,93.19429 M,0,52399,52447,215.3155,93.19429,230.455,98.96564 M,0,52447,52495,230.455,98.96564,246.2215,102.6985 M,0,52495,52544,246.2215,102.6985,262.3419,104.3281 M,0,52544,52592,262.3419,104.3281,278.5368,103.8262 M,0,52592,52641,278.5368,103.8262,294.5257,101.2015
Sprite,Foreground,Centre,"sb/w.png",0,0 S,2,53029,53522,1,0.2 F,2,53029,53522,1,0 P,0,53029,53522,A C,0,53029,,255,210,0 M,0,53029,53077,404,59,406.2355,75.0955 M,0,53077,53125,406.2355,75.0955,408.471,91.191 M,0,53125,53174,408.471,91.191,410.7065,107.2865 M,0,53174,53222,410.7065,107.2865,412.942,123.382
Sprite,Foreground,Centre,"sb/w.png",391,178 S,2,53416,53716,1,0.2 F,2,53416,53716,1,0 P,0,53416,53716,A C,0,53416,,4,219,192
Sprite,Foreground,Centre,"sb/w.png",276,202 S,2,53803,54103,1,0.2 F,2,53803,54103,1,0 P,0,53803,54103,A C,0,53803,,4,219,192
Sprite,Foreground,Centre,"sb/w.png",0,0 S,2,54190,54877,1,0.2 F,2,54190,54877,1,0 P,0,54190,54877,A C,0,54190,,4,219,192 M,0,54190,54238,284,318,299.4818,313.1573 M,0,54238,54286,299.4818,313.1573,315.3894,310.0891 M,0,54286,54335,315.3894,310.0891,331.5616,309.1122 M,0,54335,54383,331.5616,309.1122,347.7252,310.2433 M,0,54383,54431,347.7252,310.2433,363.6069,313.464 M,0,54431,54480,363.6069,313.464,378.9381,318.7201 M,0,54480,54528,378.9381,318.7201,393.4595,325.9236 M,0,54528,54577,393.4595,325.9236,406.9985,334.8663
Sprite,Foreground,Centre,"sb/w.png",448,375 S,2,54770,55070,1,0.2 F,2,54770,55070,1,0 P,0,54770,55070,A C,0,54770,,4,219,192
Sprite,Foreground,Centre,"sb/w.png",505,385 S,2,54964,55264,1,0.2 F,2,54964,55264,1,0 P,0,54964,55264,A C,0,54964,,255,121,162
Sprite,Foreground,Centre,"sb/w.png",569,287 S,2,55351,55651,1,0.2 F,2,55351,55651,1,0 P,0,55351,55651,A C,0,55351,,255,121,162
Sprite,Foreground,Centre,"sb/w.png",468,237 S,2,55738,56038,1,0.2 F,2,55738,56038,1,0 P,0,55738,56038,A C,0,55738,,255,121,162
Sprite,Foreground,Centre,"sb/w.png",0,0 S,2,55932,56619,1,0.2 F,2,55932,56619,1,0 P,0,55932,56619,A C,0,55932,,255,121,162 M,0,55932,55980,468,237,468.9014,220.775 M,0,55980,56028,468.9014,220.775,469.8028,204.55 M,0,56028,56077,469.8028,204.55,470.7042,188.3251 M,0,56077,56125,470.7042,188.3251,471.6056,172.1001 M,0,56125,56173,471.6056,172.1001,470.7042,188.3251 M,0,56173,56222,470.7042,188.3251,469.8028,204.55 M,0,56222,56270,469.8028,204.55,468.9014,220.775 M,0,56270,56319,468.9014,220.775,468,237
Sprite,Foreground,Centre,"sb/w.png",410,244 S,2,56512,56812,1,0.2 F,2,56512,56812,1,0 P,0,56512,56812,A C,0,56512,,255,210,0
Sprite,Foreground,Centre,"sb/w.png",295,270 S,2,56900,57200,1,0.2 F,2,56900,57200,1,0 P,0,56900,57200,A C,0,56900,,255,210,0
Sprite,Foreground,Centre,"sb/w.png",0,0 S,2,57287,57974,1,0.2 F,2,57287,57974,1,0 P,0,57287,57974,A C,0,57287,,255,210,0 M,0,57287,57335,239,166,224.0911,159.6096 M,0,57335,57383,224.0911,159.6096,208.5517,155.0323 M,0,57383,57432,208.5517,155.0323,192.536,152.5993 M,0,57432,57480,192.536,152.5993,176.3383,152.3552 M,0,57480,57528,176.3383,152.3552,160.2565,154.3045 M,0,57528,57577,160.2565,154.3045,144.586,158.4114 M,0,57577,57625,144.586,158.4114,129.6151,164.6004 M,0,57625,57674,129.6151,164.6004,115.6189,172.7578
Sprite,Foreground,Centre,"sb/w.png",77,216 S,2,57867,58167,1,0.2 F,2,57867,58167,1,0 P,0,57867,58167,A C,0,57867,,255,210,0
Sprite,Foreground,Centre,"sb/w.png",0,0 S,2,58061,58554,1,0.2 F,2,58061,58554,1,0 P,0,58061,58554,A C,0,58061,,4,219,192 M,0,58061,58109,112,262,109.8395,278.1057 M,0,58109,58157,109.8395,278.1057,107.6789,294.2115 M,0,58157,58206,107.6789,294.2115,105.5184,310.3172 M,0,58206,58254,105.5184,310.3172,103.3579,326.4229
Sprite,Foreground,Centre,"sb/w.png",0,0 S,2,58448,59135,1,0.2 F,2,58448,59135,1,0 P,0,58448,59135,A C,0,58448,,4,219,192 M,0,58448,58496,94,384,110.1841,382.5382 M,0,58496,58544,110.1841,382.5382,126.3682,381.0764 M,0,58544,58593,126.3682,381.0764,142.5524,379.6146 M,0,58593,58641,142.5524,379.6146,158.7365,378.1528 M,0,58641,58689,158.7365,378.1528,174.9206,376.691 M,0,58689,58738,174.9206,376.691,191.1047,375.2292 M,0,58738,58786,191.1047,375.2292,207.2888,373.7675 M,0,58786,58835,207.2888,373.7675,223.4729,372.3057
Sprite,Foreground,Centre,"sb/w.png",0,0 S,2,59222,59715,1,0.2 F,2,59222,59715,1,0 P,0,59222,59715,A C,0,59222,,4,219,192 M,0,59222,59270,281,270,297.061,272.4709 M,0,59270,59318,297.061,272.4709,313.1221,274.9419 M,0,59318,59367,313.1221,274.9419,329.1831,277.4128 M,0,59367,59415,329.1831,277.4128,345.2442,279.8837
Sprite,Foreground,Centre,"sb/w.png",401,295 S,2,59609,59909,1,0.2 F,2,59609,59909,1,0 P,0,59609,59909,A C,0,59609,,255,121,162
Sprite,Foreground,Centre,"sb/w.png",517,283 S,2,59996,60296,1,0.2 F,2,59996,60296,1,0 P,0,59996,60296,A C,0,59996,,255,121,162
Sprite,Foreground,Centre,"sb/w.png",573,187 S,2,60383,60683,1,0.2 F,2,60383,60683,1,0 P,0,60383,60683,A C,0,60383,,255,121,162
Sprite,Foreground,Centre,"sb/w.png",529,78 S,2,60770,61070,1,0.2 F,2,60770,61070,1,0 P,0,60770,61070,A C,0,60770,,255,121,162
Sprite,Foreground,Centre,"sb/w.png",0,0 S,2,61158,61845,1,0.2 F,2,61158,61845,1,0 P,0,61158,61845,A C,0,61158,,255,210,0 M,0,61158,61206,413,57,396.834,58.6496 M,0,61206,61254,396.834,58.6496,380.6679,60.29919 M,0,61254,61303,380.6679,60.29919,364.5018,61.94879 M,0,61303,61351,364.5018,61.94879,348.3358,63.59839 M,0,61351,61399,348.3358,63.59839,332.1697,65.24799 M,0,61399,61448,332.1697,65.24799,316.0037,66.89758 M,0,61448,61496,316.0037,66.89758,299.8376,68.54718 M,0,61496,61545,299.8376,68.54718,283.6716,70.19678
Sprite,Foreground,Centre,"sb/w.png",0,0 S,2,61932,62425,1,0.2 F,2,61932,62425,1,0 P,0,61932,62425,A C,0,61932,,255,210,0 M,0,61932,61980,167,80,164.9593,96.12135 M,0,61980,62028,164.9593,96.12135,162.9186,112.2427 M,0,62028,62077,162.9186,112.2427,160.878,128.3641 M,0,62077,62125,160.878,128.3641,158.8373,144.4854
Sprite,Foreground,Centre,"sb/w.png",0,0 S,2,62319,62812,1,0.2 F,2,62319,62812,1,0 P,0,62319,62812,A C,0,62319,,255,210,0 M,0,62319,62367,194,190,196.0407,206.1214 M,0,62367,62415,196.0407,206.1214,198.0814,222.2427 M,0,62415,62464,198.0814,222.2427,200.122,238.3641 M,0,62464,62512,200.122,238.3641,202.1627,254.4854
Sprite,Foreground,Centre,"sb/f.jpg",456,389 S,19,37932,38132,2,1 F,2,38125,38325,1,0 C,0,37932,,255,210,0
Sprite,Foreground,Centre,"sb/f.jpg",443,266 S,19,38319,38519,2,1 F,2,38319,38519,1,0 C,0,38319,,255,210,0
Sprite,Foreground,Centre,"sb/f.jpg",327,284 S,19,38706,38906,2,1 F,2,39093,39293,1,0 C,0,38706,,255,210,0
Sprite,Foreground,Centre,"sb/f.jpg",389,126 S,19,39287,39487,2,1 F,2,39287,39487,1,0 C,0,39287,,255,210,0
Sprite,Foreground,Centre,"sb/f.jpg",389,126 S,19,39480,39680,2,1 F,2,39867,40067,1,0 C,0,39480,,4,219,192
Sprite,Foreground,Centre,"sb/f.jpg",350,82 S,19,40061,40261,2,1 F,2,40061,40261,1,0 C,0,40061,,4,219,192
Sprite,Foreground,Centre,"sb/f.jpg",253,146 S,19,40448,40648,2,1 F,2,40448,40648,1,0 C,0,40448,,4,219,192
Sprite,Foreground,Centre,"sb/f.jpg",253,146 S,19,40641,40841,2,1 F,2,40834,41034,1,0 C,0,40641,,4,219,192
Sprite,Foreground,Centre,"sb/f.jpg",152,188 S,19,41029,41229,2,1 F,2,41222,41422,1,0 C,0,41029,,255,121,162
Sprite,Foreground,Centre,"sb/f.jpg",166,310 S,19,41416,41616,2,1 F,2,41416,41616,1,0 C,0,41416,,255,121,162
Sprite,Foreground,Centre,"sb/f.jpg",269,255 S,19,41803,42003,2,1 F,2,42190,42390,1,0 C,0,41803,,255,121,162
Sprite,Foreground,Centre,"sb/f.jpg",451,286 S,19,42383,42583,2,1 F,2,42383,42583,1,0 C,0,42383,,255,121,162
Sprite,Foreground,Centre,"sb/f.jpg",451,286 S,19,42577,42777,2,1 F,2,42770,42970,1,0 C,0,42577,,255,210,0
Sprite,Foreground,Centre,"sb/f.jpg",552,322 S,19,42964,43164,2,1 F,2,43544,43744,1,0 C,0,42964,,255,210,0
Sprite,Foreground,Centre,"sb/f.jpg",569,209 S,19,43932,44132,2,1 F,2,43932,44132,1,0 C,0,43932,,255,210,0
Sprite,Foreground,Centre,"sb/f.jpg",569,209 S,19,44125,44325,2,1 F,2,44318,44518,1,0 C,0,44125,,4,219,192
Sprite,Foreground,Centre,"sb/f.jpg",455,209 S,19,44512,44712,2,1 F,2,44512,44712,1,0 C,0,44512,,4,219,192
Sprite,Foreground,Centre,"sb/f.jpg",379,298 S,19,44900,45100,2,1 F,2,45287,45487,1,0 C,0,44900,,4,219,192
Sprite,Foreground,Centre,"sb/f.jpg",206,285 S,19,45480,45680,2,1 F,2,45480,45680,1,0 C,0,45480,,4,219,192
Sprite,Foreground,Centre,"sb/f.jpg",206,285 S,19,45674,45874,2,1 F,2,46061,46261,1,0 C,0,45674,,255,121,162
Sprite,Foreground,Centre,"sb/f.jpg",245,242 S,19,46254,46454,2,1 F,2,46254,46454,1,0 C,0,46254,,255,121,162
Sprite,Foreground,Centre,"sb/f.jpg",210,134 S,19,46641,46841,2,1 F,2,46641,46841,1,0 C,0,46641,,255,121,162
Sprite,Foreground,Centre,"sb/f.jpg",210,134 S,19,46835,47035,2,1 F,2,47028,47228,1,0 C,0,46835,,255,121,162
Sprite,Foreground,Centre,"sb/f.jpg",311,184 S,19,47222,47422,2,1 F,2,47512,47712,1,0 C,0,47222,,255,210,0
Sprite,Foreground,Centre,"sb/f.jpg",469,234 S,19,47803,48003,2,1 F,2,48383,48583,1,0 C,0,47803,,255,210,0
Sprite,Foreground,Centre,"sb/f.jpg",440,286 S,19,48577,48777,2,1 F,2,48577,48777,1,0 C,0,48577,,255,210,0
Sprite,Foreground,Centre,"sb/f.jpg",440,286 S,19,48770,48970,2,1 F,2,49350,49550,1,0 C,0,48770,,4,219,192
Sprite,Foreground,Centre,"sb/w.png",212,312 S,2,62706,63006,1,0.2 F,2,62706,63006,1,0 P,0,62706,63006,A C,0,62706,,4,219,192
//Storyboard Sound Samples

[TimingPoints]
771,387.096774193548,4,2,1,50,1,0
13158,-111.111111111111,4,2,1,30,0,0
25545,-100,4,2,1,55,0,0
50319,-100,4,2,1,65,0,1
62706,-100,4,2,1,50,0,0
81287,-100,4,2,1,35,0,0
84383,-100,4,2,1,40,0,0
85158,-100,4,2,1,45,0,0
85932,-100,4,2,1,55,0,0
87867,-100,4,2,1,65,0,1
98319,-100,4,2,1,65,0,0
99867,-100,4,2,1,65,0,1
112254,-100,4,2,1,65,0,0
114383,-100,4,2,1,45,0,0

[Colours]
Combo1 : 4,219,192
Combo2 : 255,121,162
Combo3 : 255,210,0

[HitObjects]
99,342,771,6,0,L|93:231,2,97.5,2|2|2,3:2|3:2|3:2,0:0:0:0:
368,228,2319,2,0,L|374:117,2,97.5,2|2|2,3:2|3:2|3:2,0:0:0:0:
94,124,3867,2,0,L|-5:146,2,97.5,2|2|2,3:2|3:2|3:2,0:0:0:0:
292,339,5416,2,0,L|387:317,2,97.5,2|2|2,3:2|3:2|3:2,0:0:0:0:
247,301,6190,1,0,0:0:0:0:
263,185,6577,1,0,1:0:0:0:
171,103,6964,6,0,L|184:3,2,97.5,2|2|2,3:2|3:2|3:2,0:0:0:0:
116,172,7835,2,0,L|128:268,1,97.5,0|0,3:2|3:2,0:0:0:0:
213,348,8512,2,0,L|309:360,2,97.5,2|2|2,3:2|3:2|3:2,0:0:0:0:
250,268,9383,2,0,L|346:255,1,97.5,0|0,3:2|3:0,0:0:0:0:
403,270,9867,1,2,3:2:0:0:
458,289,10061,6,0,P|474:239|473:170,2,97.5,2|0|2,0:2|3:0|3:2,0:0:0:0:
436,343,10835,2,0,B|367:327|381:386|294:363,1,130,2|2,0:0|0:0,0:0:0:0:
227,286,11609,6,0,P|148:282|82:325,1,130
38,213,12383,1,8,0:0:0:0:
38,213,12577,2,0,B|49:154|49:154|44:137|44:137|55:72,1,130,2|2,3:2|3:1,0:0:0:0:
93,52,13158,6,0,B|191:29|164:117|271:87,1,175.499994644165,6|2,0:0|0:0,0:0:0:0:
465,48,14512,1,0,3:0:0:0:
465,48,14706,2,0,L|456:149,1,87.7499973220826,2|2,3:2|0:2,0:0:0:0:
488,208,15287,2,0,L|479:309,2,87.7499973220826,2|2|2,0:2|0:2|3:2,0:0:0:0:
383,198,16254,6,0,L|377:97,2,87.7499973220826,2|2|2,3:2|0:2|0:2,0:0:0:0:
326,253,17125,1,0,3:0:0:0:
260,209,17416,2,0,L|269:152,1,58.4999982147217,0|0,3:0|3:0,0:0:0:0:
235,110,17803,6,0,L|147:118,1,87.7499973220826,2|2,3:2|0:2,0:0:0:0:
101,182,18383,2,0,L|13:190,2,87.7499973220826,2|2|2,0:2|0:2|0:2,0:0:0:0:
134,282,19351,6,0,B|213:290|213:290|237:280|237:280|319:289,1,175.499994644165,2|2,3:2|0:2,0:0:0:0:
347,321,20125,2,0,P|338:243|370:192,1,116.999996429443,0|0,3:0|3:0,0:0:0:0:
393,175,20706,1,0,3:0:0:0:
393,175,20900,6,0,L|517:193,1,116.999996429443,2|0,3:2|3:0,0:0:0:0:
480,90,21674,2,0,L|364:73,1,116.999996429443,0|0,3:0|3:0,0:0:0:0:
316,95,22254,1,0,3:0:0:0:
316,95,22448,5,2,3:2:0:0:
303,199,22835,1,2,3:2:0:0:
289,303,23222,2,0,L|384:297,2,87.7499973220826,2|2|2,3:2|0:2|3:2,0:0:0:0:
253,264,23996,1,2,1:1:0:0:
253,264,24190,6,0,B|192:274|192:274|119:247,1,116.999996429443,2|2,1:1|1:1,0:0:0:0:
125,204,24770,2,0,L|51:217,1,58.4999982147217,0|2,1:0|1:1,0:0:0:0:
16,228,25158,1,4,3:2:0:0:
49,115,25545,5,2,3:2:0:0:
164,130,25932,1,2,3:2:0:0:
279,145,26319,2,0,B|296:130|296:130|282:52,1,97.5,2|10,3:2|0:0,0:0:0:0:
421,10,27093,5,2,3:2:0:0:
411,126,27480,2,0,B|394:141|394:141|408:219,1,97.5,2|10,3:2|0:2,0:0:0:0:
441,295,28061,2,0,B|372:323|380:261|299:293,1,130,2|2,0:1|0:2,0:0:0:0:
278,332,28641,5,2,3:2:0:0:
162,314,29029,1,2,3:2:0:0:
46,296,29416,2,0,B|37:280|37:280|53:198,1,97.5,2|10,3:2|0:2,0:0:0:0:
176,124,30190,6,0,L|166:53,2,65,2|2|2,3:2|0:2|3:2,0:0:0:0:
149,237,30964,1,6,3:1:0:0:
261,205,31351,1,6,3:1:0:0:
350,280,31738,5,2,3:2:0:0:
365,164,32125,1,2,3:2:0:0:
377,47,32512,2,0,B|397:33|397:33|481:54,1,97.5,2|10,3:2|0:2,0:0:0:0:
508,191,33287,5,2,3:2:0:0:
395,223,33674,2,0,B|375:209|375:209|291:230,1,97.5,2|10,3:2|0:2,0:0:0:0:
222,259,34254,2,0,B|200:195|246:197|223:124,1,130,2|2,0:1|0:2,0:0:0:0:
259,84,34835,5,2,1:2:0:0:
143,65,35222,1,2,1:2:0:0:
27,45,35609,2,0,B|44:79|44:79|36:149,1,97.5,2|10,1:2|0:2,0:0:0:0:
25,283,36383,6,0,P|86:236|160:253,1,130,2|10,3:2|0:2,0:0:0:0:
226,313,37158,2,0,P|287:360|361:343,1,130,2|2,0:2|1:1,0:0:0:0:
392,333,37738,1,2,1:1:0:0:
392,333,37932,6,0,L|384:251,1,65,0|2,3:2|0:2,0:0:0:0:
379,210,38319,1,2,3:2:0:0:
263,228,38706,2,0,L|274:85,1,130,0|2,0:0|3:2,0:0:0:0:
325,70,39287,1,2,0:2:0:0:
325,70,39480,6,0,P|385:70|410:83,2,65,2|2|2,3:2|0:2|3:2,0:0:0:0:
286,26,40061,1,2,0:2:0:0:
189,90,40448,1,2,0:2:0:0:
189,90,40641,2,0,L|102:84,1,65,2|2,3:2|0:2,0:0:0:0:
88,132,41029,6,0,L|96:220,1,65,2|2,3:2|0:2,0:0:0:0:
102,254,41416,1,2,3:2:0:0:
205,199,41803,2,0,B|237:185|237:185|347:210,1,130,0|0,3:2|3:2,0:0:0:0:
387,230,42383,1,0,0:2:0:0:
387,230,42577,6,0,L|470:218,1,65,2|2,3:2|0:2,0:0:0:0:
488,266,42964,2,0,L|477:362,2,97.5,2|2|2,3:2|3:2|3:2,0:0:0:0:
505,153,43932,1,2,3:2:0:0:
505,153,44125,6,0,P|469:133|424:136,1,65,0|2,3:2|0:2,0:0:0:0:
391,153,44512,1,2,3:2:0:0:
315,242,44900,2,0,P|254:264|173:234,1,130,0|2,3:0|3:2,0:0:0:0:
142,229,45480,1,2,0:2:0:0:
142,229,45674,6,0,L|47:243,2,65,2|2|2,3:2|0:2|3:2,0:0:0:0:
181,186,46254,1,2,0:2:0:0:
146,78,46641,1,2,0:2:0:0:
146,78,46835,2,0,L|233:85,1,65,2|2,3:2|0:2,0:0:0:0:
247,128,47222,6,0,L|366:113,1,97.5,2|2,3:2|0:2,0:0:0:0:
405,178,47803,2,0,L|501:190,2,97.5,2|2|2,0:2|0:2|3:2,0:0:0:0:
376,230,48577,1,0,1:2:0:0:
376,230,48770,6,0,P|321:230|275:281,2,97.5,8|8|8,3:2|0:2|3:2,0:0:0:0:
365,350,49738,1,0,3:2:0:0:
365,350,49932,2,0,L|296:342,1,65,8|0,3:2|3:2,0:0:0:0:
243,355,50319,5,2,3:2:0:0:
184,253,50706,1,0,3:2:0:0:
89,322,51093,2,0,L|78:189,1,130,2|0,3:2|3:2,0:0:0:0:
40,147,51674,1,2,0:1:0:0:
48,89,51867,6,0,L|58:8,1,65,2|2,3:2|0:2,0:0:0:0:
112,9,52254,2,0,P|169:44|255:37,1,130,0|2,3:2|3:2,0:0:0:0:
340,3,53029,2,0,L|350:75,1,65,2|2,3:2|0:2,0:0:0:0:
327,122,53416,5,2,3:2:0:0:
212,146,53803,1,0,3:2:0:0:
220,262,54190,2,0,P|290:255|347:282,1,130,2|2,3:2|3:1,0:0:0:0:
384,319,54770,1,2,0:1:0:0:
441,329,54964,5,2,3:2:0:0:
505,231,55351,1,2,3:2:0:0:
404,181,55738,1,0,3:2:0:0:
404,181,55932,2,0,L|408:109,2,65,2|2|2,0:2|3:2|0:2,0:0:0:0:
346,188,56512,5,2,3:2:0:0:
231,214,56900,1,0,3:2:0:0:
175,110,57287,2,0,P|114:96|32:133,1,130,2|2,3:2|3:1,0:0:0:0:
13,160,57867,1,2,0:1:0:0:
48,206,58061,6,0,L|37:288,1,65,0|2,3:2|0:2,0:0:0:0:
30,328,58448,2,0,L|185:314,1,130,0|2,3:2|3:2,0:0:0:0:
217,214,59222,2,0,L|295:226,1,65,2|2,3:2|0:2,0:0:0:0:
337,239,59609,5,0,3:2:0:0:
453,227,59996,1,0,3:2:0:0:
509,131,60383,1,0,3:2:0:0:
465,22,60770,1,0,3:2:0:0:
349,1,61158,6,0,L|202:16,1,130,8|8,3:2|3:2,0:0:0:0:
103,24,61932,2,0,L|93:103,1,65,8|8,1:2|1:2,0:0:0:0:
130,134,62319,2,0,L|140:213,1,65,8|8,1:2|1:2,0:0:0:0:
148,256,62706,5,12,3:2:0:0:
412,347,65803,6,0,B|440:313|440:313|423:213,1,130,4|10,3:2|0:2,0:0:0:0:
456,118,66577,1,2,0:2:0:0:
456,118,66770,2,0,P|401:136|326:94,1,130,2|10,3:2|3:1,0:0:0:0:
305,59,67351,1,2,3:2:0:0:
207,124,67738,1,10,3:2:0:0:
100,75,68125,2,0,L|92:157,1,65,8|8,1:2|0:2,0:0:0:0:
120,192,68512,2,0,L|113:264,1,65,2|2,3:2|3:2,0:0:0:0:
280,201,69287,5,10,3:1:0:0:
87,47,71996,6,0,L|95:184,1,130,4|10,3:2|0:2,0:0:0:0:
50,287,72770,1,2,0:2:0:0:
50,287,72964,2,0,B|115:299|115:299|188:263,1,130,2|10,3:2|0:1,0:0:0:0:
223,241,73545,1,2,1:2:0:0:
289,337,73932,2,0,B|385:286|377:371|484:307,1,195,10|0,1:2|3:2,0:0:0:0:
397,154,75093,5,4,3:2:0:0:
256,192,81287,5,0,3:2:0:0:
256,192,81480,12,10,85932,3:2:0:0:
397,347,86900,5,8,0:2:0:0:
289,300,87287,2,0,B|193:265|197:363|82:313,1,195,2|4,0:2|3:2,0:0:0:0:
54,298,88061,5,2,0:2:0:0:
60,239,88254,2,0,L|67:163,1,65,2|2,3:2|0:2,0:0:0:0:
108,133,88641,2,0,L|100:46,1,65,2|2,3:2|0:2,0:0:0:0:
93,9,89029,5,2,3:2:0:0:
208,29,89416,2,0,L|201:111,1,65,2|2,3:2|0:2,0:0:0:0:
230,145,89803,2,0,L|238:258,2,97.5,2|2|2,3:2|0:2|0:2,0:0:0:0:
280,114,90577,6,0,P|353:106|416:139,1,130,2|0,3:2|3:2,0:0:0:0:
446,167,91158,1,2,0:2:0:0:
416,217,91351,2,0,P|392:276|401:340,1,130,2|0,3:2|3:2,0:0:0:0:
288,373,92125,6,0,L|209:357,1,65,10|2,3:2|0:2,0:0:0:0:
197,320,92512,1,2,3:2:0:0:
197,320,92706,1,2,3:2:0:0:
197,320,92900,2,0,L|48:340,1,130,2|2,3:2|3:2,0:0:0:0:
14,233,93674,6,0,L|159:214,1,130,2|0,3:2|3:2,0:0:0:0:
197,236,94254,1,2,0:2:0:0:
253,251,94448,2,0,P|267:224|272:189,1,65,2|2,3:2|0:2,0:0:0:0:
323,160,94835,2,0,P|318:127|305:98,1,65,2|2,3:2|0:2,0:0:0:0:
267,53,95222,5,2,3:2:0:0:
172,122,95609,2,0,P|141:141|112:150,1,65,2|2,3:2|0:2,0:0:0:0:
55,148,95996,1,2,3:2:0:0:
1,124,96190,2,0,P|19:199|-12:271,1,130,2|2,0:2|0:2,0:0:0:0:
21,303,96770,6,0,L|161:316,1,130,2|0,3:2|3:2,0:0:0:0:
198,348,97351,1,2,0:2:0:0:
250,374,97545,2,0,L|396:361,1,130,2|0,3:2|3:2,0:0:0:0:
446,266,98319,5,2,1:1:0:0:
360,186,98706,2,0,B|386:128|386:128|461:142,2,130,2|2|0,1:2|1:2|1:2,0:0:0:0:
301,284,99867,6,0,L|168:254,1,130,2|0,3:2|3:2,0:0:0:0:
123,285,100448,1,2,0:2:0:0:
68,305,100641,2,0,P|48:248|75:178,1,130,2|2,3:2|3:2,0:0:0:0:
186,178,101416,6,0,P|206:117|184:57,1,130,2|0,3:2|3:2,0:0:0:0:
209,4,101996,1,2,0:2:0:0:
264,22,102190,2,0,L|349:42,1,65,2|2,3:2|0:2,0:0:0:0:
359,85,102577,2,0,L|444:65,1,65,2|2,3:2|0:2,0:0:0:0:
478,53,102964,6,0,L|457:192,1,130,2|0,3:2|3:2,0:0:0:0:
472,238,103545,1,2,0:2:0:0:
488,294,103738,2,0,P|416:288|357:338,1,130,2|0,3:2|3:2,0:0:0:0:
261,362,104512,6,0,L|251:292,1,65,10|2,3:2|0:2,0:0:0:0:
279,249,104900,1,2,3:2:0:0:
279,249,105093,1,2,3:2:0:0:
279,249,105287,2,0,B|228:257|228:257|140:236,1,130,2|2,3:2|3:2,0:0:0:0:
55,299,106061,6,0,P|33:239|51:178,1,130,2|0,3:2|3:2,0:0:0:0:
84,130,106641,1,2,0:2:0:0:
118,82,106835,2,0,P|179:99|239:78,1,130,2|2,3:2|3:2,0:0:0:0:
339,17,107609,6,0,L|355:156,1,130,2|0,3:2|3:2,0:0:0:0:
306,180,108190,1,2,0:2:0:0:
256,211,108383,2,0,P|261:242|274:272,1,65,2|2,3:2|0:2,0:0:0:0:
282,330,108770,2,0,P|325:343|365:340,1,65,2|2,3:2|0:2,0:0:0:0:
400,361,109158,6,0,L|417:222,1,130,2|0,3:2|3:2,0:0:0:0:
458,192,109738,1,2,0:2:0:0:
493,145,109932,2,0,B|440:106|440:106|356:119,1,130,2|0,3:2|3:2,0:0:0:0:
262,143,110706,5,0,1:2:0:0:
288,256,111093,1,2,3:2:0:0:
174,284,111480,1,0,3:2:0:0:
145,170,111867,1,2,3:2:0:0:
262,143,112254,5,0,3:2:0:0:
183,41,113996,6,0,L|188:109,1,65,0|8,1:2|1:2,0:0:0:0:
141,141,114383,2,0,P|113:189|248:156,1,325,2|0,0:2|0:0,0:0:0:0:
