osu file format v14

[General]
AudioFilename: audio.mp3
AudioLeadIn: 0
PreviewTime: 87287
Countdown: 0
SampleSet: Soft
StackLeniency: 0.5
Mode: 0
LetterboxInBreaks: 0
EpilepsyWarning: 1
WidescreenStoryboard: 1

[Editor]
Bookmarks: 62512
DistanceSpacing: 0.9
BeatDivisor: 4
GridSize: 8
TimelineZoom: 1

[Metadata]
Title:Alt Futur
TitleUnicode:Alt Futur
Artist:Silentroom
ArtistUnicode:Silentroom
Creator:SaltyLucario
Version:Hard
Source:osu!
Tags:saltking salty jamesjan3 dtm9 nowa dtm9_nowa astronic mbc #8 monthly beatmapping contest august featured artist fa mappers' guild electronic hi-tech edm dance rhythm game instrumental memory waves juliana techno ジュリアナテクノ bms ジャンルシャッフル3 genre-shuffle genre shuffle 3
BeatmapID:2692550
BeatmapSetID:1265982

[Difficulty]
HPDrainRate:5
CircleSize:4
OverallDifficulty:6
ApproachRate:8
SliderMultiplier:1.5
SliderTickRate:1

[Events]
//Background and Video events
0,0,"bg.jpg",0,0
//Break Periods
2,62906,65053
2,69487,71246
2,75293,80537
//Storyboard Layer 0 (Background)
//Storyboard Layer 1 (Fail)
//Storyboard Layer 2 (Pass)
//Storyboard Layer 3 (Foreground)
Sprite,Foreground,Centre,"sb/w.png",0,0 S,2,37158,37554,1,0.2 F,2,37158,37554,1,0 P,0,37158,37554,A C,0,37158,,4,219,192 M,0,37158,37206,267,357,248.2865,355.8304 M,0,37206,37254,248.2865,355.8304,229.573,354.6608
Sprite,Foreground,Centre,"sb/w.png",0,0 S,2,37351,37747,1,0.2 F,2,37351,37747,1,0 P,0,37351,37747,A C,0,37351,,4,219,192 M,0,37351,37399,215,273,196.389,275.2789 M,0,37399,37447,196.389,275.2789,177.778,277.5578
Sprite,Foreground,Centre,"sb/w.png",0,0 S,2,37545,38135,1,0.2 F,2,37545,38135,1,0 P,0,37545,38135,A C,0,37545,,4,219,192 M,0,37545,37593,145,348,126.3647,345.9294 M,0,37593,37641,126.3647,345.9294,107.7294,343.8588 M,0,37641,37690,107.7294,343.8588,126.3647,345.9294 M,0,37690,37738,126.3647,345.9294,145,348 M,0,37738,37786,145,348,126.3647,345.9294 M,0,37786,37835,126.3647,345.9294,107.7294,343.8588
Sprite,Foreground,Centre,"sb/a.png",0,0 S,0,771,,2.5 C,0,771,,0,0,0 F,2,771,,0,1 M,7,771,,183,399 M,0,771,819,183,399,181.6915,384.9985 M,0,819,867,181.6915,384.9985,180.3829,370.997 M,0,867,916,180.3829,370.997,179.0743,356.9955 M,0,916,964,179.0743,356.9955,177.7658,342.994 M,0,964,1012,177.7658,342.994,176.4572,328.9926 M,0,1012,1061,176.4572,328.9926,175.1487,314.9911 M,7,1061,1351,175.1487,314.9911,164,199 M,7,1351,2319,164,199,422,310 M,0,2319,2367,422,310,423.3086,295.9985 M,0,2367,2415,423.3086,295.9985,424.6171,281.997 M,0,2415,2464,424.6171,281.997,425.9257,267.9955 M,0,2464,2512,425.9257,267.9955,427.2342,253.994 M,0,2512,2560,427.2342,253.994,428.5428,239.9926 M,0,2560,2609,428.5428,239.9926,429.8513,225.9911 M,7,2609,2899,429.8513,225.9911,441,110 M,7,2899,3867,441,110,145,182 M,0,3867,3915,145,182,159.0015,180.6915 M,0,3915,3963,159.0015,180.6915,173.003,179.3829 M,0,3963,4012,173.003,179.3829,187.0045,178.0743 M,0,4012,4060,187.0045,178.0743,201.006,176.7658 M,0,4060,4108,201.006,176.7658,215.0074,175.4572 M,0,4108,4157,215.0074,175.4572,229.0089,174.1487 M,7,4157,4447,229.0089,174.1487,345,163 M,7,4447,5416,345,163,498,430 M,0,5416,5464,498,430,483.9985,428.6914 M,0,5464,5512,483.9985,428.6914,469.997,427.3829 M,0,5512,5561,469.997,427.3829,455.9955,426.0743 M,0,5561,5609,455.9955,426.0743,441.994,424.7658 M,0,5609,5657,441.994,424.7658,427.9926,423.4572 M,0,5657,5706,427.9926,423.4572,413.9911,422.1487 M,7,5706,5996,413.9911,422.1487,302,418 M,7,5996,6190,302,418,372,339 M,7,6190,6287,372,339,373,319 M,7,6287,6383,373,319,373,299 M,0,6383,6431,373,299,372.4795,284.9471 M,0,6431,6479,372.4795,284.9471,371.959,270.8943 M,7,6479,6577,371.959,270.8943,286,295 M,0,6577,6625,286,295,283.8385,308.8954 M,0,6625,6673,283.8385,308.8954,281.677,322.7908 M,0,6673,6722,281.677,322.7908,283.8385,308.8954 M,0,6722,6770,283.8385,308.8954,286,295 M,0,6770,6818,286,295,283.8385,308.8954 M,0,6818,6867,283.8385,308.8954,281.677,322.7908 S,19,6964,,2.5,12.5 F,0,6964,7064,1,0
Sprite,Foreground,Centre,"sb/w.png",0,0 S,2,99867,100554,1,0.2 F,2,99867,100554,1,0 P,0,99867,100554,A C,0,99867,,255,210,0 M,0,99867,99915,397,381,417.5076,378.8028 M,0,99915,99963,417.5076,378.8028,438.0153,376.6055 M,0,99963,100012,438.0153,376.6055,458.5229,374.4083 M,0,100012,100060,458.5229,374.4083,479.0305,372.211 M,0,100060,100108,479.0305,372.211,499.5381,370.0138 M,0,100108,100157,499.5381,370.0138,514.9925,359.6459 M,0,100157,100205,514.9925,359.6459,526.1182,342.279 M,0,100205,100254,526.1182,342.279,537.2438,324.912
Sprite,Foreground,Centre,"sb/w.png",468,247 S,2,100448,100748,1,0.2 F,2,100448,100748,1,0 P,0,100448,100748,A C,0,100448,,255,210,0
Sprite,Foreground,Centre,"sb/w.png",439,248 S,2,100545,100845,1,0.2 F,2,100545,100845,1,0 P,0,100545,100845,A C,0,100545,,255,210,0
Sprite,Foreground,Centre,"sb/w.png",0,0 S,2,100641,101231,1,0.2 F,2,100641,101231,1,0 P,0,100641,101231,A C,0,100641,,255,210,0 M,0,100641,100689,410,250,405.5258,229.8661 M,0,100689,100737,405.5258,229.8661,401.0516,209.7323 M,0,100737,100786,401.0516,209.7323,405.5258,229.8661 M,0,100786,100834,405.5258,229.8661,410,250 M,0,100834,100882,410,250,405.5258,229.8661 M,0,100882,100931,405.5258,229.8661,401.0516,209.7323
Sprite,Foreground,Centre,"sb/w.png",0,0 S,2,101029,101619,1,0.2 F,2,101029,101619,1,0 P,0,101029,101619,A C,0,101029,,255,210,0 M,0,101029,101077,375,195,370.5258,174.8661 M,0,101077,101125,370.5258,174.8661,366.0516,154.7323 M,0,101125,101174,366.0516,154.7323,370.5258,174.8661 M,0,101174,101222,370.5258,174.8661,375,195 M,0,101222,101270,375,195,370.5258,174.8661 M,0,101270,101319,370.5258,174.8661,366.0516,154.7323
Sprite,Foreground,Centre,"sb/w.png",0,0 S,2,101416,102103,1,0.2 F,2,101416,102103,1,0 P,0,101416,102103,A C,0,101416,,4,219,192 M,0,101416,101464,340,141,321.0245,132.9178 M,0,101464,101512,321.0245,132.9178,302.049,124.8357 M,0,101512,101561,302.049,124.8357,282.9824,119.0059 M,0,101561,101609,282.9824,119.0059,263.4158,125.5281 M,0,101609,101657,263.4158,125.5281,243.8492,132.0503 M,0,101657,101706,243.8492,132.0503,224.2826,138.5725 M,0,101706,101754,224.2826,138.5725,204.716,145.0947 M,0,101754,101803,204.716,145.0947,185.1494,151.6169
Sprite,Foreground,Centre,"sb/w.png",96,221 S,2,101996,102296,1,0.2 F,2,101996,102296,1,0 P,0,101996,102296,A C,0,101996,,4,219,192
Sprite,Foreground,Centre,"sb/w.png",0,0 S,2,102190,102780,1,0.2 F,2,102190,102780,1,0 P,0,102190,102780,A C,0,102190,,4,219,192 M,0,102190,102238,198,270,217.3723,262.9216 M,0,102238,102286,217.3723,262.9216,236.7447,255.8433 M,0,102286,102335,236.7447,255.8433,217.3723,262.9216 M,0,102335,102383,217.3723,262.9216,198,270 M,0,102383,102431,198,270,217.3723,262.9216 M,0,102431,102480,217.3723,262.9216,236.7447,255.8433
Sprite,Foreground,Centre,"sb/w.png",0,0 S,2,102577,103167,1,0.2 F,2,102577,103167,1,0 P,0,102577,103167,A C,0,102577,,4,219,192 M,0,102577,102625,262,268,281.3723,260.9216 M,0,102625,102673,281.3723,260.9216,300.7447,253.8433 M,0,102673,102722,300.7447,253.8433,281.3723,260.9216 M,0,102722,102770,281.3723,260.9216,262,268 M,0,102770,102818,262,268,281.3723,260.9216 M,0,102818,102867,281.3723,260.9216,300.7447,253.8433
Sprite,Foreground,Centre,"sb/w.png",0,0 S,2,102964,103651,1,0.2 F,2,102964,103651,1,0 P,0,102964,103651,A C,0,102964,,255,121,162 M,0,102964,103012,325,268,322.9763,288.5255 M,0,103012,103060,322.9763,288.5255,320.9527,309.051 M,0,103060,103109,320.9527,309.051,318.9291,329.5764 M,0,103109,103157,318.9291,329.5764,323.9893,348.4117 M,0,103157,103205,323.9893,348.4117,323.7105,368.6979 M,0,103205,103254,323.7105,368.6979,322.2914,389.2741 M,0,103254,103302,322.2914,389.2741,320.8724,409.8502 M,0,103302,103351,320.8724,409.8502,319.4534,430.4263
Sprite,Foreground,Centre,"sb/w.png",435,393 S,2,103545,103845,1,0.2 F,2,103545,103845,1,0 P,0,103545,103845,A C,0,103545,,255,121,162
Sprite,Foreground,Centre,"sb/w.png",434,364 S,2,103641,103941,1,0.2 F,2,103641,103941,1,0 P,0,103641,103941,A C,0,103641,,255,121,162
Sprite,Foreground,Centre,"sb/w.png",0,0 S,2,103738,104425,1,0.2 F,2,103738,104425,1,0 P,0,103738,104425,A C,0,103738,,255,121,162 M,0,103738,103786,433,335,431.4764,314.4313 M,0,103786,103834,431.4764,314.4313,429.9528,293.8627 M,0,103834,103883,429.9528,293.8627,428.4292,273.2941 M,0,103883,103931,428.4292,273.2941,427.6862,252.9217 M,0,103931,103979,427.6862,252.9217,433.1302,234.1781 M,0,103979,104028,433.1302,234.1781,431.1066,213.6526 M,0,104028,104076,431.1066,213.6526,429.0829,193.1271 M,0,104076,104125,429.0829,193.1271,427.0593,172.6016
Sprite,Foreground,Centre,"sb/w.png",504,107 S,2,104319,104619,1,0.2 F,2,104319,104619,1,0 P,0,104319,104619,A C,0,104319,,255,121,162
Sprite,Foreground,Centre,"sb/w.png",0,0 S,2,104512,105005,1,0.2 F,2,104512,105005,1,0 P,0,104512,105005,A C,0,104512,,255,210,0 M,0,104512,104560,402,64,386.317,77.28825 M,0,104560,104608,386.317,77.28825,368.3291,87.18916 M,0,104608,104657,368.3291,87.18916,348.7487,93.32318 M,0,104657,104705,348.7487,93.32318,328.2937,95.10942
Sprite,Foreground,Centre,"sb/w.png",299,90 S,2,104803,105103,1,0.2 F,2,104803,105103,1,0 P,0,104803,105103,A C,0,104803,,255,210,0
Sprite,Foreground,Centre,"sb/w.png",272,79 S,2,104900,105200,1,0.2 F,2,104900,105200,1,0 P,0,104900,105200,A C,0,104900,,255,210,0
Sprite,Foreground,Centre,"sb/w.png",235,172 S,2,105093,105393,1,0.2 F,2,105093,105393,1,0 P,0,105093,105393,A C,0,105093,,255,210,0
Sprite,Foreground,Centre,"sb/w.png",0,0 S,2,105287,105780,1,0.2 F,2,105287,105780,1,0 P,0,105287,105780,A C,0,105287,,255,210,0 M,0,105287,105335,142,140,146.0449,160.2245 M,0,105335,105383,146.0449,160.2245,150.0898,180.4489 M,0,105383,105432,150.0898,180.4489,154.1347,200.6734 M,0,105432,105480,154.1347,200.6734,158.1796,220.8979
Sprite,Foreground,Centre,"sb/w.png",164,319 S,2,105674,105974,1,0.2 F,2,105674,105974,1,0 P,0,105674,105974,A C,0,105674,,255,210,0
Sprite,Foreground,Centre,"sb/w.png",192,316 S,2,105770,106070,1,0.2 F,2,105770,106070,1,0 P,0,105770,106070,A C,0,105770,,255,210,0
Sprite,Foreground,Centre,"sb/w.png",0,0 S,2,105867,106263,1,0.2 F,2,105867,106263,1,0 P,0,105867,106263,A C,0,105867,,255,210,0 M,0,105867,105915,216,300,223.0052,319.3989 M,0,105915,105963,223.0052,319.3989,230.0103,338.7979
Sprite,Foreground,Centre,"sb/w.png",0,0 S,2,106061,106748,1,0.2 F,2,106061,106748,1,0 P,0,106061,106748,A C,0,106061,,4,219,192 M,0,106061,106109,294,394,309.1706,380.0271 M,0,106109,106157,309.1706,380.0271,324.3412,366.0541 M,0,106157,106206,324.3412,366.0541,328.6567,349.3501 M,0,106206,106254,328.6567,349.3501,321.9048,329.8616 M,0,106254,106302,321.9048,329.8616,315.1529,310.3731 M,0,106302,106351,315.1529,310.3731,308.4009,290.8846 M,0,106351,106399,308.4009,290.8846,301.649,271.3961 M,0,106399,106448,301.649,271.3961,294.8971,251.9075
Sprite,Foreground,Centre,"sb/w.png",337,154 S,2,106641,106941,1,0.2 F,2,106641,106941,1,0 P,0,106641,106941,A C,0,106641,,4,219,192
Sprite,Foreground,Centre,"sb/w.png",365,151 S,2,106738,107038,1,0.2 F,2,106738,107038,1,0 P,0,106738,107038,A C,0,106738,,4,219,192
Sprite,Foreground,Centre,"sb/w.png",0,0 S,2,106835,107425,1,0.2 F,2,106835,107425,1,0 P,0,106835,107425,A C,0,106835,,4,219,192 M,0,106835,106883,393,151,390.61,171.4861 M,0,106883,106931,390.61,171.4861,388.2199,191.9721 M,0,106931,106980,388.2199,191.9721,390.61,171.4861 M,0,106980,107028,390.61,171.4861,393,151 M,0,107028,107076,393,151,390.61,171.4861 M,0,107076,107125,390.61,171.4861,388.2199,191.9721
Sprite,Foreground,Centre,"sb/w.png",0,0 S,2,107222,107812,1,0.2 F,2,107222,107812,1,0 P,0,107222,107812,A C,0,107222,,4,219,192 M,0,107222,107270,405,215,402.61,235.4861 M,0,107270,107318,402.61,235.4861,400.2199,255.9721 M,0,107318,107367,400.2199,255.9721,402.61,235.4861 M,0,107367,107415,402.61,235.4861,405,215 M,0,107415,107463,405,215,402.61,235.4861 M,0,107463,107512,402.61,235.4861,400.2199,255.9721
Sprite,Foreground,Centre,"sb/w.png",0,0 S,2,107609,108296,1,0.2 F,2,107609,108296,1,0 P,0,107609,108296,A C,0,107609,,255,121,162 M,0,107609,107657,398,284,415.9326,294.189 M,0,107657,107705,415.9326,294.189,433.8651,304.3779 M,0,107705,107754,433.8651,304.3779,452.9105,306.1815 M,0,107754,107802,452.9105,306.1815,472.8799,301.0227 M,0,107802,107850,472.8799,301.0227,492.8493,295.8639 M,0,107850,107899,492.8493,295.8639,512.8187,290.7051 M,0,107899,107947,512.8187,290.7051,532.7882,285.5464 M,0,107947,107996,532.7882,285.5464,552.7576,280.3876
Sprite,Foreground,Centre,"sb/w.png",547,386 S,2,108190,108490,1,0.2 F,2,108190,108490,1,0 P,0,108190,108490,A C,0,108190,,255,121,162
Sprite,Foreground,Centre,"sb/w.png",518,393 S,2,108287,108587,1,0.2 F,2,108287,108587,1,0 P,0,108287,108587,A C,0,108287,,255,121,162
Sprite,Foreground,Centre,"sb/w.png",0,0 S,2,108383,108973,1,0.2 F,2,108383,108973,1,0 P,0,108383,108973,A C,0,108383,,255,121,162 M,0,108383,108431,490,400,469.6642,396.5585 M,0,108431,108479,469.6642,396.5585,449.3283,393.1171 M,0,108479,108528,449.3283,393.1171,469.6642,396.5585 M,0,108528,108576,469.6642,396.5585,490,400 M,0,108576,108624,490,400,469.6642,396.5585 M,0,108624,108673,469.6642,396.5585,449.3283,393.1171
Sprite,Foreground,Centre,"sb/w.png",0,0 S,2,108770,109360,1,0.2 F,2,108770,109360,1,0 P,0,108770,109360,A C,0,108770,,255,121,162 M,0,108770,108818,423,405,402.6642,401.5585 M,0,108818,108866,402.6642,401.5585,382.3283,398.1171 M,0,108866,108915,382.3283,398.1171,402.6642,401.5585 M,0,108915,108963,402.6642,401.5585,423,405 M,0,108963,109011,423,405,402.6642,401.5585 M,0,109011,109060,402.6642,401.5585,382.3283,398.1171
Sprite,Foreground,Centre,"sb/w.png",0,0 S,2,109158,109845,1,0.2 F,2,109158,109845,1,0 P,0,109158,109845,A C,0,109158,,255,210,0 M,0,109158,109206,356,412,335.4623,413.8958 M,0,109206,109254,335.4623,413.8958,314.9246,415.7916 M,0,109254,109303,314.9246,415.7916,294.3869,417.6873 M,0,109303,109351,294.3869,417.6873,276.3943,408.8715 M,0,109351,109399,276.3943,408.8715,256.0764,409.4718 M,0,109399,109448,256.0764,409.4718,235.5135,411.0712 M,0,109448,109496,235.5135,411.0712,214.9507,412.6705 M,0,109496,109545,214.9507,412.6705,194.3878,414.2698
Sprite,Foreground,Centre,"sb/w.png",95,356 S,2,109738,110038,1,0.2 F,2,109738,110038,1,0 P,0,109738,110038,A C,0,109738,,255,210,0
Sprite,Foreground,Centre,"sb/w.png",107,329 S,2,109835,110135,1,0.2 F,2,109835,110135,1,0 P,0,109835,110135,A C,0,109835,,255,210,0
Sprite,Foreground,Centre,"sb/w.png",0,0 S,2,109932,110619,1,0.2 F,2,109932,110619,1,0 P,0,109932,110619,A C,0,109932,,255,210,0 M,0,109932,109980,118,302,138.5377,303.8958 M,0,109980,110028,138.5377,303.8958,159.0754,305.7916 M,0,110028,110077,159.0754,305.7916,179.6131,307.6874 M,0,110077,110125,179.6131,307.6874,197.6056,298.8715 M,0,110125,110173,197.6056,298.8715,217.9275,299.4196 M,0,110173,110222,217.9275,299.4196,238.4948,300.9621 M,0,110222,110270,238.4948,300.9621,259.062,302.5046 M,0,110270,110319,259.062,302.5046,279,304
Sprite,Foreground,Centre,"sb/w.png",0,0 S,2,110512,110908,1,0.2 F,2,110512,110908,1,0 P,0,110512,110908,A C,0,110512,,255,210,0 M,0,110512,110560,408,278,404.3398,298.2976 M,0,110560,110608,404.3398,298.2976,400.6795,318.5952
Sprite,Foreground,Centre,"sb/w.png",0,0 S,2,110706,111199,1,0.2 F,2,110706,111199,1,0 P,0,110706,111199,A C,0,110706,,4,219,192 M,0,110706,110754,326,214,323.5619,193.5196 M,0,110754,110802,323.5619,193.5196,321.1237,173.0392 M,0,110802,110851,321.1237,173.0392,318.6856,152.5589 M,0,110851,110899,318.6856,152.5589,316.2474,132.0785
Sprite,Foreground,Centre,"sb/w.png",285,121 S,2,110996,111296,1,0.2 F,2,110996,111296,1,0 P,0,110996,111296,A C,0,110996,,4,219,192
Sprite,Foreground,Centre,"sb/w.png",0,0 S,2,111093,111586,1,0.2 F,2,111093,111586,1,0 P,0,111093,111586,A C,0,111093,,4,219,192 M,0,111093,111141,258,109,237.7617,112.9754 M,0,111141,111189,237.7617,112.9754,217.5235,116.9507 M,0,111189,111238,217.5235,116.9507,197.383,118.6697 M,0,111238,111286,197.383,118.6697,177.5643,112.9592
Sprite,Foreground,Centre,"sb/w.png",72,141 S,2,111480,111780,1,0.2 F,2,111480,111780,1,0 P,0,111480,111780,A C,0,111480,,4,219,192
Sprite,Foreground,Centre,"sb/w.png",142,214 S,2,111674,111974,1,0.2 F,2,111674,111974,1,0 P,0,111674,111974,A C,0,111674,,4,219,192
Sprite,Foreground,Centre,"sb/w.png",74,286 S,2,111867,112167,1,0.2 F,2,111867,112167,1,0 P,0,111867,112167,A C,0,111867,,4,219,192
Sprite,Foreground,Centre,"sb/w.png",152,349 S,2,112061,112361,1,0.2 F,2,112061,112361,1,0 P,0,112061,112361,A C,0,112061,,4,219,192
Sprite,Foreground,Centre,"sb/w.png",372,228 S,2,114383,114683,1,0.2 F,2,114383,114683,1,0 P,0,114383,114683,A C,0,114383,,4,219,192
Sprite,Foreground,Centre,"sb/w.png",0,0 S,2,114480,114973,1,0.2 F,2,114480,114973,1,0 P,0,114480,114973,A C,0,114480,,4,219,192 M,0,114480,114528,370,212,367.8434,193.3745 M,0,114528,114576,367.8434,193.3745,365.6867,174.7489 M,0,114576,114625,365.6867,174.7489,363.5301,156.1233 M,0,114625,114673,363.5301,156.1233,361.3734,137.4978
Sprite,Foreground,Centre,"sb/w.png",0,0 S,2,114770,115166,1,0.2 F,2,114770,115166,1,0 P,0,114770,115166,A C,0,114770,,4,219,192 M,0,114770,114818,336,127,318.4061,120.518 M,0,114818,114866,318.4061,120.518,300.8121,114.036
Sprite,Foreground,Centre,"sb/w.png",0,0 S,2,114964,115360,1,0.2 F,2,114964,115360,1,0 P,0,114964,115360,A C,0,114964,,4,219,192 M,0,114964,115012,289,193,271.4061,186.518 M,0,115012,115060,271.4061,186.518,253.8121,180.036
Sprite,Foreground,Centre,"sb/w.png",0,0 S,2,115158,115554,1,0.2 F,2,115158,115554,1,0 P,0,115158,115554,A C,0,115158,,4,219,192 M,0,115158,115206,247,259,229.4061,252.518 M,0,115206,115254,229.4061,252.518,211.8121,246.036
Sprite,Foreground,Centre,"sb/f.jpg",252,339 S,19,98706,98906,2,1 F,2,98706,98906,1,0 C,0,98706,,255,121,162
Sprite,Foreground,Centre,"sb/f.jpg",252,339 S,19,99093,99293,2,1 F,2,99093,99293,1,0 C,0,99093,,255,121,162
Sprite,Foreground,Centre,"sb/f.jpg",252,339 S,19,99480,99680,2,1 F,2,99480,99680,1,0 C,0,99480,,255,121,162
Sprite,Foreground,Centre,"sb/f.jpg",314,289 S,19,99674,99874,2,1 F,2,99674,99874,1,0 C,0,99674,,255,121,162
Sprite,Foreground,Centre,"sb/f.jpg",225,203 S,19,49061,49261,2,1 F,2,49351,49551,1,0 C,0,49061,,255,210,0
Sprite,Foreground,Centre,"sb/w.png",0,0 S,19,16254,17184,1,0.7 F,2,16834,17184,1,0 M,0,16254,16302,466,86,475.3973,96.38687 M,0,16302,16350,475.3973,96.38687,483.2474,107.9595 M,0,16350,16399,483.2474,107.9595,489.0392,120.7319 M,0,16399,16447,489.0392,120.7319,491.9648,134.4275 M,0,16447,16495,491.9648,134.4275,492.8924,148.3738 M,0,16495,16544,492.8924,148.3738,491.4402,162.3109 M,0,16544,16592,491.4402,162.3109,492.8924,148.3738 M,0,16592,16641,492.8924,148.3738,491.9648,134.4275 M,0,16641,16689,491.9648,134.4275,489.0392,120.7319 M,0,16689,16737,489.0392,120.7319,483.2474,107.9595 M,0,16737,16786,483.2474,107.9595,475.3973,96.38687 M,0,16786,16834,475.3973,96.38687,466,86
Sprite,Foreground,Centre,"sb/w.png",408,149 S,19,15867,16217,1,0.7 F,2,15867,16217,1,0
Sprite,Foreground,Centre,"sb/w.png",0,0 S,2,6964,7457,1,0.2 F,2,6964,7457,1,0 P,0,6964,7457,A C,0,6964,,4,219,192 M,0,6964,7012,263,345,244.5962,341.978 M,0,7012,7060,244.5962,341.978,227.7038,334.1699 M,0,7060,7109,227.7038,334.1699,213.5311,322.1522 M,0,7109,7157,213.5311,322.1522,203.0916,306.7978
Sprite,Foreground,Centre,"sb/w.png",0,0 S,2,7254,7747,1,0.2 F,2,7254,7747,1,0 P,0,7254,7747,A C,0,7254,,4,219,192 M,0,7254,7302,176,312,163.5886,298.083 M,0,7302,7350,163.5886,298.083,155.4663,281.3437 M,0,7350,7399,155.4663,281.3437,152.2295,263.0515 M,0,7399,7447,152.2295,263.0515,154.1108,244.5882
Sprite,Foreground,Centre,"sb/w.png",0,0 S,2,7545,8038,1,0.2 F,2,7545,8038,1,0 P,0,7545,8038,A C,0,7545,,4,219,192 M,0,7545,7593,129,235,128.6502,216.351 M,0,7593,7641,128.6502,216.351,133.2384,198.3129 M,0,7641,7690,133.2384,198.3129,142.4246,182.1566 M,0,7690,7738,142.4246,182.1566,155.5504,169.0199
Sprite,Foreground,Centre,"sb/w.png",0,0 S,2,7835,8425,1,0.2 F,2,7835,8425,1,0 P,0,7835,8425,A C,0,7835,,4,219,192 M,0,7835,7883,146,142,160.3256,129.9029 M,0,7883,7931,160.3256,129.9029,174.6511,117.8057 M,0,7931,7980,174.6511,117.8057,188.9767,105.7086 M,0,7980,8028,188.9767,105.7086,206.9808,105.9702 M,0,8028,8076,206.9808,105.9702,225.5899,108.2645 M,0,8076,8125,225.5899,108.2645,244.199,110.5588
Sprite,Foreground,Centre,"sb/w.png",300,172 S,2,8319,8619,1,0.2 F,2,8319,8619,1,0 P,0,8319,8619,A C,0,8319,,4,219,192
Sprite,Foreground,Centre,"sb/w.png",0,0 S,2,8512,9005,1,0.2 F,2,8512,9005,1,0 P,0,8512,9005,A C,0,8512,,255,121,162 M,0,8512,8560,374,98,373.5279,116.652 M,0,8560,8608,373.5279,116.652,377.9726,134.7352 M,0,8608,8657,377.9726,134.7352,387.0076,150.9862 M,0,8657,8705,387.0076,150.9862,399.9898,164.2714
Sprite,Foreground,Centre,"sb/w.png",0,0 S,2,8803,9296,1,0.2 F,2,8803,9296,1,0 P,0,8803,9296,A C,0,8803,,255,121,162 M,0,8803,8851,421,180,408.4968,193.8439 M,0,8851,8899,408.4968,193.8439,400.1537,210.4857 M,0,8899,8948,400.1537,210.4857,396.556,228.7219 M,0,8948,8996,396.556,228.7219,397.9512,247.2387
Sprite,Foreground,Centre,"sb/w.png",0,0 S,2,9093,9586,1,0.2 F,2,9093,9586,1,0 P,0,9093,9586,A C,0,9093,,255,121,162 M,0,9093,9141,402,273,383.5367,275.7001 M,0,9141,9189,383.5367,275.7001,366.4411,283.0883 M,0,9189,9238,366.4411,283.0883,351.8729,294.6472 M,0,9238,9286,351.8729,294.6472,340.8188,309.58
Sprite,Foreground,Centre,"sb/w.png",0,0 S,2,9384,9974,1,0.2 F,2,9384,9974,1,0 P,0,9384,9974,A C,0,9384,,255,121,162 M,0,9384,9432,328,332,311.2955,323.484 M,0,9432,9480,311.2955,323.484,294.591,314.968 M,0,9480,9529,294.591,314.968,277.8865,306.452 M,0,9529,9577,277.8865,306.452,259.864,310.647 M,0,9577,9625,259.864,310.647,241.7676,315.5545 M,0,9625,9674,241.7676,315.5545,223.6713,320.462
Sprite,Foreground,Centre,"sb/w.png",170,403 S,2,9867,10167,1,0.2 F,2,9867,10167,1,0 P,0,9867,10167,A C,0,9867,,255,121,162
Sprite,Foreground,Centre,"sb/w.png",0,0 S,2,10061,10554,1,0.2 F,2,10061,10554,1,0 P,0,10061,10554,A C,0,10061,,255,210,0 M,0,10061,10109,272,424,290.6496,422.0624 M,0,10109,10157,290.6496,422.0624,309.2992,420.1248 M,0,10157,10206,309.2992,420.1248,327.9489,418.1871 M,0,10206,10254,327.9489,418.1871,346.5984,416.2495
Sprite,Foreground,Centre,"sb/w.png",0,0 S,2,10448,10941,1,0.2 F,2,10448,10941,1,0 P,0,10448,10941,A C,0,10448,,255,210,0 M,0,10448,10496,417,334,435.5616,336.6516 M,0,10496,10544,435.5616,336.6516,454.1231,339.3033 M,0,10544,10593,454.1231,339.3033,472.6847,341.955 M,0,10593,10641,472.6847,341.955,491.2462,344.6066
Sprite,Foreground,Centre,"sb/w.png",0,0 S,2,10835,11425,1,0.2 F,2,10835,11425,1,0 P,0,10835,11425,A C,0,10835,,255,210,0 M,0,10835,10883,548,254,544.5446,235.5712 M,0,10883,10931,544.5446,235.5712,541.0892,217.1423 M,0,10931,10980,541.0892,217.1423,544.5446,235.5712 M,0,10980,11028,544.5446,235.5712,548,254 M,0,11028,11076,548,254,544.5446,235.5712 M,0,11076,11125,544.5446,235.5712,541.0892,217.1423
Sprite,Foreground,Centre,"sb/w.png",0,0 S,2,11222,11812,1,0.2 F,2,11222,11812,1,0 P,0,11222,11812,A C,0,11222,,255,210,0 M,0,11222,11270,516,207,512.6725,188.5476 M,0,11270,11318,512.6725,188.5476,509.345,170.0952 M,0,11318,11367,509.345,170.0952,512.6725,188.5476 M,0,11367,11415,512.6725,188.5476,516,207 M,0,11415,11463,516,207,512.6725,188.5476 M,0,11463,11512,512.6725,188.5476,509.345,170.0952
Sprite,Foreground,Centre,"sb/w.png",0,0 S,2,11609,12489,1,0.2 F,2,11609,12489,1,0 P,0,11609,12489,A C,0,11609,,4,219,192 M,0,11609,11657,482,147,468.3987,143.4581 M,0,11657,11705,468.3987,143.4581,454.4587,141.7224 M,0,11705,11754,454.4587,141.7224,440.441,142.474 M,0,11754,11802,440.441,142.474,426.8962,146.1517 M,0,11802,11850,426.8962,146.1517,414.2703,152.3111 M,0,11850,11899,414.2703,152.3111,402.3236,159.7267 M,0,11899,11947,402.3236,159.7267,390.2703,166.9636 M,0,11947,11996,390.2703,166.9636,377.3994,172.5804 M,0,11996,12044,377.3994,172.5804,363.664,175.4557 M,0,12044,12092,363.664,175.4557,349.624,175.3956 M,0,12092,12141,349.624,175.3956,335.7821,172.9838 M,0,12141,12189,335.7821,172.9838,322.3305,168.9059
Sprite,Foreground,Centre,"sb/w.png",261,83 S,2,12383,12683,1,0.2 F,2,12383,12683,1,0 P,0,12383,12683,A C,0,12383,,4,219,192
Sprite,Foreground,Centre,"sb/w.png",0,0 S,2,12577,13070,1,0.2 F,2,12577,13070,1,0 P,0,12577,13070,A C,0,12577,,4,219,192 M,0,12577,12625,261,83,264.4106,69.35737 M,0,12625,12673,264.4106,69.35737,267.8213,55.71474 M,0,12673,12722,267.8213,55.71474,264.4106,69.35737 M,0,12722,12770,264.4106,69.35737,261,83
Sprite,Foreground,Centre,"sb/w.png",232,181 S,2,12964,13264,1,0.2 F,2,12964,13264,1,0 P,0,12964,13264,A C,0,12964,,4,219,192
Sprite,Foreground,Centre,"sb/w.png",0,0 S,2,13158,13845,1,0.2 F,2,13158,13845,1,0 P,0,13158,13845,A C,0,13158,,255,121,162 M,0,13158,13206,126,144,124.9569,158.0238 M,0,13206,13254,124.9569,158.0238,123.9138,172.0475 M,0,13254,13303,123.9138,172.0475,122.8707,186.0713 M,0,13303,13351,122.8707,186.0713,121.8276,200.095 M,0,13351,13399,121.8276,200.095,120.7846,214.1188 M,0,13399,13448,120.7846,214.1188,119.7415,228.1426 M,0,13448,13496,119.7415,228.1426,118.6984,242.1663 M,0,13496,13545,118.6984,242.1663,117.6553,256.1901
Sprite,Foreground,Centre,"sb/w.png",406,357 S,19,14512,14862,1,0.7 F,2,14512,14862,1,0
Sprite,Foreground,Centre,"sb/w.png",0,0 S,19,14706,15346,1,0.7 F,2,14996,15346,1,0 M,0,14706,14754,406,357,419.9941,358.3856 M,0,14754,14802,419.9941,358.3856,433.9882,359.7711 M,0,14802,14851,433.9882,359.7711,447.9822,361.1566 M,0,14851,14899,447.9822,361.1566,461.9763,362.5422 M,0,14899,14947,461.9763,362.5422,475.9704,363.9278 M,0,14947,14996,475.9704,363.9278,489.9644,365.3133
Sprite,Foreground,Centre,"sb/w.png",0,0 S,19,17125,17765,1,0.7 F,2,17415,17765,1,0 M,0,17125,17173,335,125,321.0116,123.5579 M,0,17173,17221,321.0116,123.5579,307.0233,122.1158 M,0,17221,17270,307.0233,122.1158,293.0349,120.6737 M,0,17270,17318,293.0349,120.6737,279.0466,119.2316 M,0,17318,17366,279.0466,119.2316,265.0582,117.7895 M,0,17366,17415,265.0582,117.7895,251.0698,116.3474
Sprite,Foreground,Centre,"sb/w.png",175,171 S,19,17609,17959,1,0.7 F,2,17609,17959,1,0
Sprite,Foreground,Centre,"sb/w.png",175,171 S,19,17803,18153,1,0.7 F,2,18093,18443,1,0
Sprite,Foreground,Centre,"sb/f.jpg",219,335 S,19,49448,49648,2,1 F,2,49448,49648,1,0 C,0,49448,,255,210,0
Sprite,Foreground,Centre,"sb/f.jpg",234,356 S,19,49545,49745,2,1 F,2,49738,49938,1,0 C,0,49545,,255,210,0
Sprite,Foreground,Centre,"sb/f.jpg",133,427 S,19,49932,50132,2,1 F,2,49932,50132,1,0 C,0,49932,,255,210,0
Sprite,Foreground,Centre,"sb/f.jpg",133,427 S,19,50125,50325,2,1 F,2,50125,50325,1,0 C,0,50125,,255,210,0
Sprite,Foreground,Centre,"sb/w.png",290,292 S,2,69287,69587,1,0.2 F,2,69287,69587,1,0 P,0,69287,69587,A C,0,69287,,4,219,192
Sprite,Foreground,Centre,"sb/w.png",0,0 S,2,19351,20038,1,0.2 F,2,19351,20038,1,0 P,0,19351,20038,A C,0,19351,,255,210,0 M,0,19351,19399,173,397,185.5012,390.56 M,0,19399,19447,185.5012,390.56,198.0024,384.12 M,0,19447,19496,198.0024,384.12,210.9179,381.2162 M,0,19496,19544,210.9179,381.2162,224.5691,384.5924 M,0,19544,19592,224.5691,384.5924,238.2204,387.9685 M,0,19592,19641,238.2204,387.9685,251.8716,391.3446 M,0,19641,19689,251.8716,391.3446,265.5228,394.7207 M,0,19689,19738,265.5228,394.7207,279.174,398.0968
Sprite,Foreground,Centre,"sb/w.png",0,0 S,2,20125,20812,1,0.2 F,2,20125,20812,1,0 P,0,20125,20812,A C,0,20125,,255,210,0 M,0,20125,20173,457,440,455.5772,426.0096 M,0,20173,20221,455.5772,426.0096,454.1545,412.0193 M,0,20221,20270,454.1545,412.0193,452.7318,398.029 M,0,20270,20318,452.7318,398.029,451.309,384.0386 M,0,20318,20366,451.309,384.0386,449.8863,370.0483 M,0,20366,20415,449.8863,370.0483,448.4635,356.0579 M,0,20415,20463,448.4635,356.0579,447.0408,342.0676 M,0,20463,20512,447.0408,342.0676,445.618,328.0772
Sprite,Foreground,Centre,"sb/w.png",528,271 S,2,20706,21006,1,0.2 F,2,20706,21006,1,0 P,0,20706,21006,A C,0,20706,,255,210,0
Sprite,Foreground,Centre,"sb/w.png",0,0 S,2,20900,21490,1,0.2 F,2,20900,21490,1,0 P,0,20900,21490,A C,0,20900,,4,219,192 M,0,20900,20948,528,271,529.1327,256.9832 M,0,20948,20996,529.1327,256.9832,530.2654,242.9664 M,0,20996,21045,530.2654,242.9664,531.398,228.9496 M,0,21045,21093,531.398,228.9496,532.5307,214.9328 M,0,21093,21141,532.5307,214.9328,533.6633,200.916 M,0,21141,21190,533.6633,200.916,534.796,186.8991
Sprite,Foreground,Centre,"sb/w.png",0,0 S,2,21287,21780,1,0.2 F,2,21287,21780,1,0 P,0,21287,21780,A C,0,21287,,4,219,192 M,0,21287,21335,524,170,509.9936,171.2543 M,0,21335,21383,509.9936,171.2543,495.9871,172.5086 M,0,21383,21432,495.9871,172.5086,481.9807,173.7629 M,0,21432,21480,481.9807,173.7629,467.9742,175.0172
Sprite,Foreground,Centre,"sb/w.png",0,0 S,2,21673,22263,1,0.2 F,2,21673,22263,1,0 P,0,21673,22263,A C,0,21673,,255,121,162 M,0,21673,21721,383,147,384.1327,161.0168 M,0,21721,21769,384.1327,161.0168,385.2654,175.0336 M,0,21769,21818,385.2654,175.0336,386.398,189.0504 M,0,21818,21866,386.398,189.0504,387.5307,203.0672 M,0,21866,21914,387.5307,203.0672,388.6634,217.084 M,0,21914,21963,388.6634,217.084,389.796,231.1009
Sprite,Foreground,Centre,"sb/w.png",0,0 S,2,22060,22553,1,0.2 F,2,22060,22553,1,0 P,0,22060,22553,A C,0,22060,,255,121,162 M,0,22060,22108,379,248,364.9936,246.7457 M,0,22108,22156,364.9936,246.7457,350.9871,245.4914 M,0,22156,22205,350.9871,245.4914,336.9807,244.2371 M,0,22205,22253,336.9807,244.2371,322.9742,242.9828
Sprite,Foreground,Centre,"sb/w.png",0,0 S,2,22448,22941,1,0.2 F,2,22448,22941,1,0 P,0,22448,22941,A C,0,22448,,255,210,0 M,0,22448,22496,245,194,253.3969,182.7928 M,0,22496,22544,253.3969,182.7928,260.0502,170.5022 M,0,22544,22593,260.0502,170.5022,264.4331,157.1949 M,0,22593,22641,264.4331,157.1949,265.8427,143.2667
Sprite,Foreground,Centre,"sb/w.png",0,0 S,2,22835,23328,1,0.2 F,2,22835,23328,1,0 P,0,22835,23328,A C,0,22835,,255,210,0 M,0,22835,22883,214,81,200.077,79.42608 M,0,22883,22931,200.077,79.42608,186.0931,79.75721 M,0,22931,22980,186.0931,79.75721,172.3239,82.39066 M,0,22980,23028,172.3239,82.39066,159.377,87.73871
Sprite,Foreground,Centre,"sb/w.png",0,0 S,2,23222,23715,1,0.2 F,2,23222,23715,1,0 P,0,23222,23715,A C,0,23222,,255,210,0 M,0,23222,23270,127,163,132.5831,175.8461 M,0,23270,23318,132.5831,175.8461,139.9494,187.7261 M,0,23318,23367,139.9494,187.7261,149.2915,198.1632 M,0,23367,23415,149.2915,198.1632,160.5944,206.427
Sprite,Foreground,Centre,"sb/w.png",0,0 S,2,23512,24102,1,0.2 F,2,23512,24102,1,0 P,0,23512,24102,A C,0,23512,,255,210,0 M,0,23512,23560,174,220,172.0878,233.9319 M,0,23560,23608,172.0878,233.9319,170.1756,247.8638 M,0,23608,23657,170.1756,247.8638,168.2633,261.7957 M,0,23657,23705,168.2633,261.7957,166.3511,275.7275 M,0,23705,23753,166.3511,275.7275,164.4389,289.6594 M,0,23753,23802,164.4389,289.6594,162.5267,303.5913
Sprite,Foreground,Centre,"sb/w.png",196,407 S,2,23996,24296,1,0.2 F,2,23996,24296,1,0 P,0,23996,24296,A C,0,23996,,4,219,192
Sprite,Foreground,Centre,"sb/w.png",0,0 S,2,24190,24877,1,0.2 F,2,24190,24877,1,0 P,0,24190,24877,A C,0,24190,,4,219,192 M,0,24190,24238,277,335,290.7669,337.8681 M,0,24238,24286,290.7669,337.8681,304.5338,340.7362 M,0,24286,24335,304.5338,340.7362,318.3007,343.6043 M,0,24335,24383,318.3007,343.6043,332.1561,344.0459 M,0,24383,24431,332.1561,344.0459,346.042,344.1431 M,0,24431,24480,346.042,344.1431,359.8594,346.7572 M,0,24480,24528,359.8594,346.7572,373.6768,349.3713 M,0,24528,24577,373.6768,349.3713,387.4942,351.9854
Sprite,Foreground,Centre,"sb/w.png",0,0 S,2,24770,25263,1,0.2 F,2,24770,25263,1,0 P,0,24770,25263,A C,0,24770,,4,219,192 M,0,24770,24818,464,414,473.2486,403.4928 M,0,24818,24866,473.2486,403.4928,480.7339,391.7033 M,0,24866,24915,480.7339,391.7033,485.8896,378.6873 M,0,24915,24963,485.8896,378.6873,487.9875,364.8537
Sprite,Foreground,Centre,"sb/w.png",488,344 S,2,25061,25361,1,0.2 F,2,25061,25361,1,0 P,0,25061,25361,A C,0,25061,,4,219,192
Sprite,Foreground,Centre,"sb/e.jpg",356,220 S,19,25545,25745,3,1 F,2,25545,25745,1,0 C,0,25545,,255,121,162
Sprite,Foreground,Centre,"sb/e.jpg",356,220 S,19,25932,26132,3,1 F,2,25932,26132,1,0 C,0,25932,,255,121,162
Sprite,Foreground,Centre,"sb/e.jpg",356,220 S,19,26319,26519,3,1 F,2,26609,26809,1,0 C,0,26319,,255,121,162
Sprite,Foreground,Centre,"sb/e.jpg",462,158 S,19,26706,26906,3,1 F,2,26706,26906,1,0 C,0,26706,,255,121,162
Sprite,Foreground,Centre,"sb/e.jpg",288,126 S,19,27093,27293,3,1 F,2,27093,27293,1,0 C,0,27093,,255,210,0
Sprite,Foreground,Centre,"sb/e.jpg",288,126 S,19,27480,27680,3,1 F,2,27770,27970,1,0 C,0,27480,,255,210,0
Sprite,Foreground,Centre,"sb/e.jpg",182,64 S,19,27867,28067,3,1 F,2,27867,28067,1,0 C,0,27867,,255,210,0
Sprite,Foreground,Centre,"sb/e.jpg",94,101 S,19,28061,28261,3,1 F,2,28061,28261,1,0 C,0,28061,,255,210,0
Sprite,Foreground,Centre,"sb/e.jpg",102,125 S,19,28158,28358,3,1 F,2,28158,28358,1,0 C,0,28158,,255,210,0
Sprite,Foreground,Centre,"sb/e.jpg",112,148 S,19,28254,28454,3,1 F,2,28447,28647,1,0 C,0,28254,,255,210,0
Sprite,Foreground,Centre,"sb/e.jpg",204,207 S,19,28641,28841,3,1 F,2,28641,28841,1,0 C,0,28641,,4,219,192
Sprite,Foreground,Centre,"sb/e.jpg",204,207 S,19,29029,29229,3,1 F,2,29029,29229,1,0 C,0,29029,,4,219,192
Sprite,Foreground,Centre,"sb/e.jpg",204,207 S,19,29416,29616,3,1 F,2,29706,29906,1,0 C,0,29416,,4,219,192
Sprite,Foreground,Centre,"sb/e.jpg",184,335 S,19,29803,30003,3,1 F,2,29803,30003,1,0 C,0,29803,,4,219,192
Sprite,Foreground,Centre,"sb/e.jpg",362,394 S,19,30190,30390,3,1 F,2,30190,30390,1,0 C,0,30190,,255,121,162
Sprite,Foreground,Centre,"sb/e.jpg",343,290 S,19,30383,30583,3,1 F,2,30383,30583,1,0 C,0,30383,,255,121,162
Sprite,Foreground,Centre,"sb/e.jpg",323,186 S,19,30577,30777,3,1 F,2,30867,31067,1,0 C,0,30577,,255,121,162
Sprite,Foreground,Centre,"sb/e.jpg",456,196 S,19,30964,31164,3,1 F,2,31157,31357,1,0 C,0,30964,,255,210,0
Sprite,Foreground,Centre,"sb/e.jpg",536,253 S,19,31351,31551,3,1 F,2,31544,31744,1,0 C,0,31351,,255,210,0
Sprite,Foreground,Centre,"sb/e.jpg",449,298 S,19,31738,31938,3,1 F,2,31738,31938,1,0 C,0,31738,,4,219,192
Sprite,Foreground,Centre,"sb/e.jpg",449,298 S,19,32125,32325,3,1 F,2,32125,32325,1,0 C,0,32125,,4,219,192
Sprite,Foreground,Centre,"sb/e.jpg",449,298 S,19,32512,32712,3,1 F,2,32802,33002,1,0 C,0,32512,,4,219,192
Sprite,Foreground,Centre,"sb/e.jpg",314,298 S,19,32900,33100,3,1 F,2,32900,33100,1,0 C,0,32900,,4,219,192
Sprite,Foreground,Centre,"sb/e.jpg",193,198 S,19,33287,33487,3,1 F,2,33287,33487,1,0 C,0,33287,,255,121,162
Sprite,Foreground,Centre,"sb/e.jpg",193,198 S,19,33674,33874,3,1 F,2,33964,34164,1,0 C,0,33674,,255,121,162
Sprite,Foreground,Centre,"sb/e.jpg",328,198 S,19,34062,34262,3,1 F,2,34062,34262,1,0 C,0,34062,,255,121,162
Sprite,Foreground,Centre,"sb/e.jpg",251,126 S,19,34254,34454,3,1 F,2,34254,34454,1,0 C,0,34254,,255,121,162
Sprite,Foreground,Centre,"sb/e.jpg",225,121 S,19,34351,34551,3,1 F,2,34351,34551,1,0 C,0,34351,,255,121,162
Sprite,Foreground,Centre,"sb/e.jpg",198,118 S,19,34448,34648,3,1 F,2,34641,34841,1,0 C,0,34448,,255,121,162
Sprite,Foreground,Centre,"sb/e.jpg",387,85 S,19,34835,35035,3,1 F,2,34835,35035,1,0 C,0,34835,,255,210,0
Sprite,Foreground,Centre,"sb/e.jpg",387,85 S,19,35222,35422,3,1 F,2,35222,35422,1,0 C,0,35222,,255,210,0
Sprite,Foreground,Centre,"sb/e.jpg",387,85 S,19,35609,35809,3,1 F,2,35899,36099,1,0 C,0,35609,,255,210,0
Sprite,Foreground,Centre,"sb/e.jpg",459,184 S,19,35996,36196,3,1 F,2,35996,36196,1,0 C,0,35996,,255,210,0
Sprite,Foreground,Centre,"sb/w.png",0,0 S,2,50319,50812,1,0.2 F,2,50319,50812,1,0 P,0,50319,50812,A C,0,50319,,4,219,192 M,0,50319,50367,91,316,89.53053,295.4274 M,0,50367,50415,89.53053,295.4274,88.06106,274.8548 M,0,50415,50464,88.06106,274.8548,86.59159,254.2822 M,0,50464,50512,86.59159,254.2822,85.12212,233.7097
Sprite,Foreground,Centre,"sb/w.png",84,123 S,2,50706,51006,1,0.2 F,2,50706,51006,1,0 P,0,50706,51006,A C,0,50706,,4,219,192
Sprite,Foreground,Centre,"sb/w.png",0,0 S,2,50803,51296,1,0.2 F,2,50803,51296,1,0 P,0,50803,51296,A C,0,50803,,4,219,192 M,0,50803,50851,99,129,118.0894,136.8093 M,0,50851,50899,118.0894,136.8093,137.1788,144.6186 M,0,50899,50948,137.1788,144.6186,157.1043,144.4356 M,0,50948,50996,157.1043,144.4356,177.3966,140.7461
Sprite,Foreground,Centre,"sb/w.png",0,0 S,2,51093,51586,1,0.2 F,2,51093,51586,1,0 P,0,51093,51586,A C,0,51093,,4,219,192 M,0,51093,51141,196,118,216.3073,114.394 M,0,51141,51189,216.3073,114.394,236.6147,110.7881 M,0,51189,51238,236.6147,110.7881,256.922,107.1821 M,0,51238,51286,256.922,107.1821,277.2293,103.5761
Sprite,Foreground,Centre,"sb/w.png",373,134 S,2,51480,51780,1,0.2 F,2,51480,51780,1,0 P,0,51480,51780,A C,0,51480,,4,219,192
Sprite,Foreground,Centre,"sb/w.png",330,227 S,2,51674,51974,1,0.2 F,2,51674,51974,1,0 P,0,51674,51974,A C,0,51674,,4,219,192
Sprite,Foreground,Centre,"sb/w.png",317,252 S,2,51770,52070,1,0.2 F,2,51770,52070,1,0 P,0,51770,52070,A C,0,51770,,4,219,192
Sprite,Foreground,Centre,"sb/w.png",0,0 S,2,51867,52360,1,0.2 F,2,51867,52360,1,0 P,0,51867,52360,A C,0,51867,,255,121,162 M,0,51867,51915,305,278,308.0684,298.3955 M,0,51915,51963,308.0684,298.3955,311.1367,318.791 M,0,51963,52012,311.1367,318.791,314.205,339.1865 M,0,52012,52060,314.205,339.1865,317.2734,359.5819
Sprite,Foreground,Centre,"sb/w.png",422,418 S,2,52254,52554,1,0.2 F,2,52254,52554,1,0 P,0,52254,52554,A C,0,52254,,255,121,162
Sprite,Foreground,Centre,"sb/w.png",0,0 S,2,52351,52844,1,0.2 F,2,52351,52844,1,0 P,0,52351,52844,A C,0,52351,,255,121,162 M,0,52351,52399,434,409,449.9211,395.8885 M,0,52399,52447,449.9211,395.8885,452.4431,375.827 M,0,52447,52496,452.4431,375.827,453.9912,355.2601 M,0,52496,52544,453.9912,355.2601,455.5392,334.6933
Sprite,Foreground,Centre,"sb/w.png",0,0 S,2,52641,53134,1,0.2 F,2,52641,53134,1,0 P,0,52641,53134,A C,0,52641,,255,121,162 M,0,52641,52689,442,308,462.4384,305.2323 M,0,52689,52737,462.4384,305.2323,482.8769,302.4646 M,0,52737,52786,482.8769,302.4646,503.3154,299.6969 M,0,52786,52834,503.3154,299.6969,523.7538,296.9292
Sprite,Foreground,Centre,"sb/w.png",553,196 S,2,53029,53329,1,0.2 F,2,53029,53329,1,0 P,0,53029,53329,A C,0,53029,,255,121,162
Sprite,Foreground,Centre,"sb/w.png",450,209 S,2,53222,53522,1,0.2 F,2,53222,53522,1,0 P,0,53222,53522,A C,0,53222,,255,121,162
Sprite,Foreground,Centre,"sb/w.png",0,0 S,2,53416,53909,1,0.2 F,2,53416,53909,1,0 P,0,53416,53909,A C,0,53416,,255,210,0 M,0,53416,53464,344,230,323.5148,227.6028 M,0,53464,53512,323.5148,227.6028,303.0296,225.2056 M,0,53512,53561,303.0296,225.2056,282.5443,222.8084 M,0,53561,53609,282.5443,222.8084,262.0591,220.4112
Sprite,Foreground,Centre,"sb/w.png",154,211 S,2,53803,54103,1,0.2 F,2,53803,54103,1,0 P,0,53803,54103,A C,0,53803,,255,210,0
Sprite,Foreground,Centre,"sb/w.png",0,0 S,2,53900,54393,1,0.2 F,2,53900,54393,1,0 P,0,53900,54393,A C,0,53900,,255,210,0 M,0,53900,53948,163,226,173.0164,244.0295 M,0,53948,53996,173.0164,244.0295,182.9781,262.0638 M,0,53996,54045,182.9781,262.0638,176.2815,281.5714 M,0,54045,54093,176.2815,281.5714,169.5848,301.079
Sprite,Foreground,Centre,"sb/w.png",0,0 S,2,54190,54683,1,0.2 F,2,54190,54683,1,0 P,0,54190,54683,A C,0,54190,,255,210,0 M,0,54190,54238,144,315,147.5043,335.3251 M,0,54238,54286,147.5043,335.3251,151.0087,355.6502 M,0,54286,54335,151.0087,355.6502,154.513,375.9753 M,0,54335,54383,154.513,375.9753,158.0173,396.3005
Sprite,Foreground,Centre,"sb/w.png",0,0 S,2,54577,54973,1,0.2 F,2,54577,54973,1,0 P,0,54577,54973,A C,0,54577,,255,210,0 M,0,54577,54625,262,431,282.5259,428.981 M,0,54625,54673,282.5259,428.981,303.0519,426.9621
Sprite,Foreground,Centre,"sb/w.png",0,0 S,2,54770,55166,1,0.2 F,2,54770,55166,1,0 P,0,54770,55166,A C,0,54770,,255,210,0 M,0,54770,54818,283,352,303.4861,349.61 M,0,54818,54866,303.4861,349.61,323.9721,347.2199
Sprite,Foreground,Centre,"sb/w.png",0,0 S,2,54964,55457,1,0.2 F,2,54964,55457,1,0 P,0,54964,55457,A C,0,54964,,4,219,192 M,0,54964,55012,382,409,402.5128,411.149 M,0,55012,55060,402.5128,411.149,423.0255,413.2979 M,0,55060,55109,423.0255,413.2979,443.5382,415.4469 M,0,55109,55157,443.5382,415.4469,464.051,417.5958
Sprite,Foreground,Centre,"sb/w.png",0,0 S,2,55351,55844,1,0.2 F,2,55351,55844,1,0 P,0,55351,55844,A C,0,55351,,4,219,192 M,0,55351,55399,526,308,505.4872,310.149 M,0,55399,55447,505.4872,310.149,484.9745,312.2979 M,0,55447,55496,484.9745,312.2979,464.4618,314.4469 M,0,55496,55544,464.4618,314.4469,443.949,316.5958
Sprite,Foreground,Centre,"sb/w.png",332,266 S,2,55738,56038,1,0.2 F,2,55738,56038,1,0 P,0,55738,56038,A C,0,55738,,4,219,192
Sprite,Foreground,Centre,"sb/w.png",436,212 S,2,55932,56232,1,0.2 F,2,55932,56232,1,0 P,0,55932,56232,A C,0,55932,,4,219,192
Sprite,Foreground,Centre,"sb/w.png",357,153 S,2,56125,56425,1,0.2 F,2,56125,56425,1,0 P,0,56125,56425,A C,0,56125,,4,219,192
Sprite,Foreground,Centre,"sb/w.png",435,232 S,2,56319,56619,1,0.2 F,2,56319,56619,1,0 P,0,56319,56619,A C,0,56319,,4,219,192
Sprite,Foreground,Centre,"sb/w.png",0,0 S,2,56512,57005,1,0.2 F,2,56512,57005,1,0 P,0,56512,57005,A C,0,56512,,255,121,162 M,0,56512,56560,483,137,480.4173,116.5373 M,0,56560,56608,480.4173,116.5373,477.8347,96.07468 M,0,56608,56657,477.8347,96.07468,475.252,75.61201 M,0,56657,56705,475.252,75.61201,472.6693,55.14935
Sprite,Foreground,Centre,"sb/w.png",347,56 S,2,56900,57200,1,0.2 F,2,56900,57200,1,0 P,0,56900,57200,A C,0,56900,,255,121,162
Sprite,Foreground,Centre,"sb/w.png",0,0 S,2,56996,57489,1,0.2 F,2,56996,57489,1,0 P,0,56996,57489,A C,0,56996,,255,121,162 M,0,56996,57044,354,71,362.9474,89.58316 M,0,57044,57092,362.9474,89.58316,364.7478,109.0563 M,0,57092,57141,364.7478,109.0563,360.631,129.2663 M,0,57141,57189,360.631,129.2663,356.5141,149.4762
Sprite,Foreground,Centre,"sb/w.png",0,0 S,2,57287,57780,1,0.2 F,2,57287,57780,1,0 P,0,57287,57780,A C,0,57287,,255,121,162 M,0,57287,57335,346,176,325.4234,174.5879 M,0,57335,57383,325.4234,174.5879,304.8468,173.1758 M,0,57383,57432,304.8468,173.1758,284.2702,171.7636 M,0,57432,57480,284.2702,171.7636,263.6936,170.3515
Sprite,Foreground,Centre,"sb/w.png",153,170 S,2,57674,57974,1,0.2 F,2,57674,57974,1,0 P,0,57674,57974,A C,0,57674,,255,121,162
Sprite,Foreground,Centre,"sb/w.png",159,199 S,2,57771,58071,1,0.2 F,2,57771,58071,1,0 P,0,57771,58071,A C,0,57771,,255,121,162
Sprite,Foreground,Centre,"sb/w.png",166,228 S,2,57867,58167,1,0.2 F,2,57867,58167,1,0 P,0,57867,58167,A C,0,57867,,255,121,162
Sprite,Foreground,Centre,"sb/w.png",0,0 S,2,58061,58554,1,0.2 F,2,58061,58554,1,0 P,0,58061,58554,A C,0,58061,,255,210,0 M,0,58061,58109,269,255,265.6455,275.3504 M,0,58109,58157,265.6455,275.3504,262.2911,295.7008 M,0,58157,58206,262.2911,295.7008,258.9366,316.0511 M,0,58206,58254,258.9366,316.0511,255.5822,336.4016
Sprite,Foreground,Centre,"sb/w.png",209,420 S,2,58448,58748,1,0.2 F,2,58448,58748,1,0 P,0,58448,58748,A C,0,58448,,255,210,0
Sprite,Foreground,Centre,"sb/w.png",0,0 S,2,58545,59135,1,0.2 F,2,58545,59135,1,0 P,0,58545,59135,A C,0,58545,,255,210,0 M,0,58545,58593,225,425,245.0376,429.8872 M,0,58593,58641,245.0376,429.8872,265.0752,434.7744 M,0,58641,58690,265.0752,434.7744,285.3911,431.6808 M,0,58690,58738,285.3911,431.6808,305.7204,428.201 M,0,58738,58786,305.7204,428.201,326.0497,424.7212 M,0,58786,58835,326.0497,424.7212,346.3791,421.2414
Sprite,Foreground,Centre,"sb/w.png",409,332 S,2,59029,59329,1,0.2 F,2,59029,59329,1,0 P,0,59029,59329,A C,0,59029,,255,210,0
Sprite,Foreground,Centre,"sb/w.png",458,422 S,2,59222,59522,1,0.2 F,2,59222,59522,1,0 P,0,59222,59522,A C,0,59222,,255,210,0
Sprite,Foreground,Centre,"sb/w.png",528,347 S,2,59416,59716,1,0.2 F,2,59416,59716,1,0 P,0,59416,59716,A C,0,59416,,255,210,0
Sprite,Foreground,Centre,"sb/w.png",0,0 S,2,59609,60102,1,0.2 F,2,59609,60102,1,0 P,0,59609,60102,A C,0,59609,,4,219,192 M,0,59609,59657,412,309,391.8328,313.3215 M,0,59657,59705,391.8328,313.3215,371.6656,317.6431 M,0,59705,59754,371.6656,317.6431,351.4985,321.9646 M,0,59754,59802,351.4985,321.9646,331.3313,326.2862
Sprite,Foreground,Centre,"sb/w.png",275,244 S,2,59996,60296,1,0.2 F,2,59996,60296,1,0 P,0,59996,60296,A C,0,59996,,4,219,192
Sprite,Foreground,Centre,"sb/w.png",275,244 S,2,60190,60490,1,0.2 F,2,60190,60490,1,0 P,0,60190,60490,A C,0,60190,,4,219,192
Sprite,Foreground,Centre,"sb/w.png",0,0 S,2,60384,60877,1,0.2 F,2,60384,60877,1,0 P,0,60384,60877,A C,0,60384,,4,219,192 M,0,60384,60432,375,215,395.1745,219.2871 M,0,60432,60480,395.1745,219.2871,415.3491,223.5742 M,0,60480,60529,415.3491,223.5742,435.5236,227.8613 M,0,60529,60577,435.5236,227.8613,455,232
Sprite,Foreground,Centre,"sb/w.png",540,171 S,2,60770,61070,1,0.2 F,2,60770,61070,1,0 P,0,60770,61070,A C,0,60770,,4,219,192
Sprite,Foreground,Centre,"sb/w.png",540,171 S,2,60964,61264,1,0.2 F,2,60964,61264,1,0 P,0,60964,61264,A C,0,60964,,4,219,192
Sprite,Foreground,Centre,"sb/w.png",0,0 S,2,61158,61748,1,0.2 F,2,61158,61748,1,0 P,0,61158,61748,A C,0,61158,,255,121,162 M,0,61158,61206,455,117,434.8266,121.2922 M,0,61206,61254,434.8266,121.2922,414.6531,125.5844 M,0,61254,61303,414.6531,125.5844,434.8266,121.2922 M,0,61303,61351,434.8266,121.2922,455,117 M,0,61351,61399,455,117,434.8266,121.2922 M,0,61399,61448,434.8266,121.2922,414.6531,125.5844
Sprite,Foreground,Centre,"sb/w.png",0,0 S,2,61545,62135,1,0.2 F,2,61545,62135,1,0 P,0,61545,62135,A C,0,61545,,255,121,162 M,0,61545,61593,387,114,366.8266,118.2922 M,0,61593,61641,366.8266,118.2922,346.6531,122.5844 M,0,61641,61690,346.6531,122.5844,366.8266,118.2922 M,0,61690,61738,366.8266,118.2922,387,114 M,0,61738,61786,387,114,366.8266,118.2922 M,0,61786,61835,366.8266,118.2922,346.6531,122.5844
Sprite,Foreground,Centre,"sb/w.png",319,111 S,2,61932,62232,1,0.2 F,2,61932,62232,1,0 P,0,61932,62232,A C,0,61932,,255,210,0
Sprite,Foreground,Centre,"sb/w.png",310,213 S,2,62125,62425,1,0.2 F,2,62125,62425,1,0 P,0,62125,62425,A C,0,62125,,255,210,0
Sprite,Foreground,Centre,"sb/w.png",207,201 S,2,62319,62619,1,0.2 F,2,62319,62619,1,0 P,0,62319,62619,A C,0,62319,,255,210,0
Sprite,Foreground,Centre,"sb/w.png",216,105 S,2,62512,62812,1,0.2 F,2,62512,62812,1,0 P,0,62512,62812,A C,0,62512,,255,210,0
Sprite,Foreground,Centre,"sb/f.jpg",83,314 S,19,37932,38132,2,1 F,2,38125,38325,1,0 C,0,37932,,255,121,162
Sprite,Foreground,Centre,"sb/f.jpg",108,135 S,19,38319,38519,2,1 F,2,38319,38519,1,0 C,0,38319,,255,121,162
Sprite,Foreground,Centre,"sb/f.jpg",194,204 S,19,38512,38712,2,1 F,2,38512,38712,1,0 C,0,38512,,255,121,162
Sprite,Foreground,Centre,"sb/f.jpg",205,211 S,19,38609,38809,2,1 F,2,38899,39099,1,0 C,0,38609,,255,121,162
Sprite,Foreground,Centre,"sb/f.jpg",430,176 S,19,39093,39293,2,1 F,2,39093,39293,1,0 C,0,39093,,255,121,162
Sprite,Foreground,Centre,"sb/f.jpg",347,126 S,19,39287,39487,2,1 F,2,39287,39487,1,0 C,0,39287,,255,121,162
Sprite,Foreground,Centre,"sb/f.jpg",388,257 S,19,39480,39680,2,1 F,2,39673,39873,1,0 C,0,39480,,255,210,0
Sprite,Foreground,Centre,"sb/f.jpg",417,436 S,19,39867,40067,2,1 F,2,39867,40067,1,0 C,0,39867,,255,210,0
Sprite,Foreground,Centre,"sb/f.jpg",514,396 S,19,40061,40261,2,1 F,2,40061,40261,1,0 C,0,40061,,255,210,0
Sprite,Foreground,Centre,"sb/f.jpg",511,381 S,19,40158,40358,2,1 F,2,40351,40551,1,0 C,0,40158,,255,210,0
Sprite,Foreground,Centre,"sb/f.jpg",493,281 S,19,40448,40648,2,1 F,2,40448,40648,1,0 C,0,40448,,255,210,0
Sprite,Foreground,Centre,"sb/f.jpg",576,212 S,19,40641,40841,2,1 F,2,40641,40841,1,0 C,0,40641,,255,210,0
Sprite,Foreground,Centre,"sb/f.jpg",486,141 S,19,40835,41035,2,1 F,2,40835,41035,1,0 C,0,40835,,255,210,0
Sprite,Foreground,Centre,"sb/f.jpg",486,141 S,19,41029,41229,2,1 F,2,41222,41422,1,0 C,0,41029,,4,219,192
Sprite,Foreground,Centre,"sb/f.jpg",305,113 S,19,41416,41616,2,1 F,2,41416,41616,1,0 C,0,41416,,4,219,192
Sprite,Foreground,Centre,"sb/f.jpg",336,216 S,19,41609,41809,2,1 F,2,41609,41809,1,0 C,0,41609,,4,219,192
Sprite,Foreground,Centre,"sb/f.jpg",324,216 S,19,41706,41906,2,1 F,2,41996,42196,1,0 C,0,41706,,4,219,192
Sprite,Foreground,Centre,"sb/f.jpg",90,257 S,19,42190,42390,2,1 F,2,42190,42390,1,0 C,0,42190,,4,219,192
Sprite,Foreground,Centre,"sb/f.jpg",134,168 S,19,42383,42583,2,1 F,2,42383,42583,1,0 C,0,42383,,4,219,192
Sprite,Foreground,Centre,"sb/f.jpg",170,305 S,19,42577,42777,2,1 F,2,42770,42970,1,0 C,0,42577,,255,121,162
Sprite,Foreground,Centre,"sb/f.jpg",315,402 S,19,42964,43164,2,1 F,2,43157,43357,1,0 C,0,42964,,255,121,162
Sprite,Foreground,Centre,"sb/f.jpg",378,333 S,19,43254,43454,2,1 F,2,43544,43744,1,0 C,0,43254,,255,121,162
Sprite,Foreground,Centre,"sb/f.jpg",511,136 S,19,43932,44132,2,1 F,2,43932,44132,1,0 C,0,43932,,255,121,162
Sprite,Foreground,Centre,"sb/f.jpg",504,224 S,19,44125,44325,2,1 F,2,44318,44518,1,0 C,0,44125,,255,210,0
Sprite,Foreground,Centre,"sb/f.jpg",460,399 S,19,44512,44712,2,1 F,2,44512,44712,1,0 C,0,44512,,255,210,0
Sprite,Foreground,Centre,"sb/f.jpg",378,333 S,19,44706,44906,2,1 F,2,44706,44906,1,0 C,0,44706,,255,210,0
Sprite,Foreground,Centre,"sb/f.jpg",364,324 S,19,44803,45003,2,1 F,2,45093,45293,1,0 C,0,44803,,255,210,0
Sprite,Foreground,Centre,"sb/f.jpg",200,405 S,19,45287,45487,2,1 F,2,45287,45487,1,0 C,0,45287,,255,210,0
Sprite,Foreground,Centre,"sb/f.jpg",125,343 S,19,45480,45680,2,1 F,2,45480,45680,1,0 C,0,45480,,255,210,0
Sprite,Foreground,Centre,"sb/f.jpg",178,259 S,19,45674,45874,2,1 F,2,45867,46067,1,0 C,0,45674,,4,219,192
Sprite,Foreground,Centre,"sb/f.jpg",185,78 S,19,46061,46261,2,1 F,2,46061,46261,1,0 C,0,46061,,4,219,192
Sprite,Foreground,Centre,"sb/f.jpg",279,130 S,19,46254,46454,2,1 F,2,46254,46454,1,0 C,0,46254,,4,219,192
Sprite,Foreground,Centre,"sb/f.jpg",289,140 S,19,46351,46551,2,1 F,2,46544,46744,1,0 C,0,46351,,4,219,192
Sprite,Foreground,Centre,"sb/f.jpg",300,234 S,19,46641,46841,2,1 F,2,46641,46841,1,0 C,0,46641,,4,219,192
Sprite,Foreground,Centre,"sb/f.jpg",328,332 S,19,46835,47035,2,1 F,2,46835,47035,1,0 C,0,46835,,4,219,192
Sprite,Foreground,Centre,"sb/f.jpg",427,305 S,19,47029,47229,2,1 F,2,47029,47229,1,0 C,0,47029,,4,219,192
Sprite,Foreground,Centre,"sb/f.jpg",404,209 S,19,47222,47422,2,1 F,2,47512,47712,1,0 C,0,47222,,255,121,162
Sprite,Foreground,Centre,"sb/f.jpg",528,249 S,19,47609,47809,2,1 F,2,47609,47809,1,0 C,0,47609,,255,121,162
Sprite,Foreground,Centre,"sb/f.jpg",575,159 S,19,47803,48003,2,1 F,2,48093,48293,1,0 C,0,47803,,255,121,162
Sprite,Foreground,Centre,"sb/f.jpg",336,71 S,19,48383,48583,2,1 F,2,48576,48776,1,0 C,0,48383,,255,121,162
Sprite,Foreground,Centre,"sb/f.jpg",247,104 S,19,48674,48874,2,1 F,2,48674,48874,1,0 C,0,48674,,255,121,162
Sprite,Foreground,Centre,"sb/f.jpg",221,110 S,19,48770,48970,2,1 F,2,48963,49163,1,0 C,0,48770,,255,210,0
Sprite,Foreground,Centre,"sb/w.png",319,111 S,2,62706,63006,1,0.2 F,2,62706,63006,1,0 P,0,62706,63006,A C,0,62706,,4,219,192
//Storyboard Sound Samples

[TimingPoints]
771,387.096774193548,4,2,1,50,1,0
771,-133.333333333333,4,2,1,50,0,0
6964,-100,4,2,1,50,0,0
11609,-133.333333333333,4,2,1,50,0,0
13158,-133.333333333333,4,2,1,30,0,0
25545,-100,4,2,1,55,0,0
50319,-90.9090909090909,4,2,1,65,0,1
62706,-117.647058823529,4,2,1,50,0,0
81287,-100,4,2,1,35,0,0
84383,-100,4,2,1,40,0,0
85158,-117.647058823529,4,2,1,45,0,0
85932,-100,4,2,1,55,0,0
87287,-250,4,2,1,55,0,0
87867,-90.9090909090909,4,2,1,65,0,1
98319,-100,4,2,1,65,0,0
99867,-90.9090909090909,4,2,1,65,0,1
112254,-100,4,2,1,65,0,0
114383,-100,4,2,1,45,0,0

[Colours]
Combo1 : 4,219,192
Combo2 : 255,121,162
Combo3 : 255,210,0

[HitObjects]
119,343,771,6,0,L|109:236,1,84.3750032186509,2|2,3:2|3:2,0:0:0:0:
100,143,1351,1,2,3:2:0:0:
358,254,2319,6,0,L|368:147,1,84.3750032186509,2|2,3:2|3:2,0:0:0:0:
377,54,2899,1,2,3:2:0:0:
81,126,3867,6,0,L|188:116,1,84.3750032186509,2|2,3:2|3:2,0:0:0:0:
281,107,4447,1,2,3:2:0:0:
434,374,5416,6,0,L|327:364,1,84.3750032186509,2|2,3:2|3:2,0:0:0:0:
238,362,5996,1,2,3:2:0:0:
308,283,6190,5,0,0:0:0:0:
309,263,6287,1,0,0:0:0:0:
309,243,6383,2,0,L|307:189,1,28.1250010728836
222,239,6577,2,0,L|215:284,3,28.1250010728836,0|0|0|0,1:0|1:0|1:0|0:0,0:0:0:0:
199,289,6964,6,0,P|144:260|133:235,1,75,2|0,3:2|0:0,0:0:0:0:
112,256,7254,2,0,P|88:198|96:172,1,75,2|0,3:2|0:0,0:0:0:0:
65,179,7545,2,0,P|84:119|106:104,1,75,2|0,3:2|0:0,0:0:0:0:
82,86,7835,2,0,B|127:48|127:48|200:57,1,112.5,0|0,3:2|3:0,0:0:0:0:
236,116,8319,1,0,3:2:0:0:
310,42,8512,6,0,P|324:97|360:121,1,75,2|0,3:2|0:0,0:0:0:0:
357,124,8803,2,0,P|332:175|344:216,1,75,2|0,3:2|0:0,0:0:0:0:
338,217,9093,2,0,P|286:240|268:279,1,75,2|0,3:2|0:0,0:0:0:0:
264,276,9384,2,0,B|213:250|213:250|154:266,1,112.5,0|0,3:2|3:0,0:0:0:0:
106,347,9867,1,2,3:2:0:0:
208,368,10061,6,0,L|285:360,1,75,2|2,0:2|0:2,0:0:0:0:
353,278,10448,2,0,L|444:291,1,75,2|2,0:2|3:2,0:0:0:0:
484,198,10835,2,0,L|475:150,3,37.5,2|2|2|2,0:0|0:0|0:0|0:0,0:0:0:0:
452,151,11222,2,0,L|441:90,3,37.5,2|2|2|2,0:0|0:0|0:0|0:0,0:0:0:0:
418,91,11609,6,0,B|333:64|342:150|246:108,1,168.750006437302
197,27,12383,1,8,0:0:0:0:
197,27,12577,2,0,L|209:-21,2,28.1250010728836,2|0|0,3:2|0:0|1:1,0:0:0:0:
168,125,12964,1,2,3:1:0:0:
62,88,13158,6,0,L|53:209,1,112.500004291535,6|0,0:0|0:0,0:0:0:0:
83,288,13738,2,0,B|146:282|146:282|169:259|169:259|259:251,1,168.750006437302,2|0,0:0|0:0,0:0:0:0:
342,301,14512,1,0,3:0:0:0:
342,301,14706,6,0,L|443:311,1,84.3750032186509,2|2,3:2|0:2,0:0:0:0:
485,188,15287,2,0,L|384:198,1,84.3750032186509,2|2,0:2|0:2,0:0:0:0:
344,93,15867,1,2,3:2:0:0:
344,93,16061,1,2,0:2:0:0:
402,30,16254,6,0,P|429:84|423:121,2,84.3750032186509,2|2|2,3:2|0:2|0:2,0:0:0:0:
271,69,17125,2,0,L|174:59,1,84.3750032186509,0|0,3:0|3:0,0:0:0:0:
111,115,17609,1,0,3:0:0:0:
111,115,17803,6,0,P|117:184|139:213,1,84.3750032186509,2|2,3:2|0:2,0:0:0:0:
249,234,18383,2,0,P|243:165|221:136,2,84.3750032186509,2|2|2,0:2|0:2|0:2,0:0:0:0:
109,341,19351,6,0,B|142:324|142:324|235:347,1,112.500004291535,2|0,3:2|0:0,0:0:0:0:
393,384,20125,2,0,L|381:266,1,112.500004291535,0|0,3:0|3:0,0:0:0:0:
464,215,20706,1,0,3:0:0:0:
464,215,20900,6,0,L|472:116,1,84.3750032186509,2|2,3:2|3:2,0:0:0:0:
460,114,21287,2,0,L|393:120,1,56.2500021457673,0|2,3:0|3:2,0:0:0:0:
319,91,21673,6,0,L|327:190,1,84.3750032186509,0|0,3:0|3:0,0:0:0:0:
315,192,22060,2,0,L|248:186,1,56.2500021457673,0|0,3:0|3:0,0:0:0:0:
181,138,22448,6,0,P|201:99|202:78,1,56.2500021457673,2|0,3:2|3:0,0:0:0:0:
150,25,22835,2,0,P|106:27|87:36,1,56.2500021457673,2|0,3:2|3:0,0:0:0:0:
63,107,23222,2,0,P|86:143|104:155,1,56.2500021457673,2|0,3:2|3:0,0:0:0:0:
110,164,23512,2,0,L|96:266,1,84.3750032186509,2|2,0:2|3:2,0:0:0:0:
132,351,23996,5,2,1:1:0:0:
213,279,24190,2,0,B|261:289|261:289|276:287|276:287|350:301,1,112.500004291535,2|2,1:1|1:1,0:0:0:0:
400,358,24770,2,0,P|420:329|422:284,1,56.2500021457673,0|2,1:0|1:1,0:0:0:0:
424,288,25061,1,2,1:1:0:0:
418,269,25158,1,4,3:2:0:0:
292,164,25545,5,2,3:2:0:0:
292,164,25932,1,2,3:2:0:0:
292,164,26319,2,0,B|383:146|383:146|396:109,1,112.5,2|10,3:2|0:0,0:0:0:0:
398,102,26706,1,2,3:2:0:0:
224,70,27093,5,2,3:2:0:0:
224,70,27480,2,0,B|133:52|133:52|120:15,1,112.5,2|10,3:2|0:2,0:0:0:0:
118,8,27867,1,2,3:2:0:0:
30,45,28061,1,2,0:1:0:0:
38,69,28158,1,2,0:1:0:0:
48,92,28254,2,0,L|37:144,2,37.5,2|2|2,3:1|0:1|0:2,0:0:0:0:
140,151,28641,5,2,3:2:0:0:
140,151,29029,1,2,3:2:0:0:
140,151,29416,2,0,B|152:231|152:231|132:262,1,112.5,2|10,3:2|0:2,0:0:0:0:
120,279,29803,1,2,3:2:0:0:
298,338,30190,5,2,3:2:0:0:
279,234,30383,1,2,0:2:0:0:
259,130,30577,2,0,P|329:149|378:144,1,112.5,2|0,3:2|0:2,0:0:0:0:
392,140,30964,6,0,L|382:56,1,75,6|0,3:1|0:2,0:0:0:0:
472,197,31351,2,0,L|480:105,1,75,6|0,3:1|0:2,0:0:0:0:
385,242,31738,5,2,3:2:0:0:
385,242,32125,1,2,3:2:0:0:
385,242,32512,2,0,B|300:259|300:259|266:251,1,112.5,2|10,3:2|0:2,0:0:0:0:
250,242,32900,1,2,3:2:0:0:
129,142,33287,5,2,3:2:0:0:
129,142,33674,2,0,B|214:159|214:159|248:151,1,112.5,2|10,3:2|0:2,0:0:0:0:
264,142,34062,1,2,3:2:0:0:
187,70,34254,1,2,0:1:0:0:
161,65,34351,1,2,0:1:0:0:
134,62,34448,2,0,L|123:19,2,37.5,2|2|2,3:1|0:1|0:2,0:0:0:0:
323,29,34835,5,2,1:2:0:0:
323,29,35222,1,2,1:2:0:0:
323,29,35609,2,0,B|343:109|343:109|402:134,1,112.5,2|10,1:2|0:2,0:0:0:0:
395,128,35996,1,2,1:2:0:0:
410,311,36383,5,2,3:2:0:0:
478,242,36577,1,0,0:2:0:0:
354,226,36770,2,0,L|267:214,1,75,10|2,0:2|0:2,0:0:0:0:
203,301,37158,2,0,L|139:297,1,37.5,2|0,0:2|0:2,0:0:0:0:
151,217,37351,2,0,L|102:223,1,37.5,2|0,0:2|0:2,0:0:0:0:
81,292,37545,2,0,L|27:286,3,37.5,2|0|2|0,1:1|1:2|1:1|1:2,0:0:0:0:
19,258,37932,6,0,L|10:152,1,75,0|2,3:2|0:2,0:0:0:0:
44,79,38319,1,2,3:2:0:0:
130,148,38512,1,2,0:2:0:0:
141,155,38609,2,0,B|173:176|173:176|277:152,1,112.5,2|2,0:2|0:2,0:0:0:0:
366,120,39093,1,2,3:2:0:0:
283,70,39287,1,2,0:2:0:0:
324,201,39480,6,0,L|314:292,1,75,2|2,3:2|0:2,0:0:0:0:
353,380,39867,1,2,3:2:0:0:
450,340,40061,1,2,0:2:0:0:
447,325,40158,2,0,B|433:229,1,75,2|0,0:2|0:2,0:0:0:0:
429,225,40448,1,2,0:2:0:0:
512,156,40641,1,2,3:2:0:0:
422,85,40835,1,2,0:2:0:0:
422,85,41029,6,0,L|318:70,1,75,2|2,3:2|0:2,0:0:0:0:
241,57,41416,1,2,3:2:0:0:
272,160,41609,1,2,0:2:0:0:
260,160,41706,2,0,L|138:178,1,112.5,2|2,0:2|1:2,0:0:0:0:
26,201,42190,1,0,3:2:0:0:
70,112,42383,1,0,0:2:0:0:
106,249,42577,6,0,L|196:263,1,75,2|2,3:2|0:2,0:0:0:0:
251,346,42964,2,0,P|285:301|289:261,1,75,2|0,3:2|0:0,0:0:0:0:
314,277,43254,2,0,P|310:224|257:160,1,112.5,2|2,3:2|3:2,0:0:0:0:
447,80,43932,1,2,3:2:0:0:
440,168,44125,6,0,L|432:265,1,75,0|2,3:2|0:2,0:0:0:0:
396,343,44512,1,2,3:2:0:0:
314,277,44706,1,2,0:2:0:0:
300,268,44803,2,0,B|277:254|277:254|173:262,1,112.5,2|2,0:2|0:2,0:0:0:0:
136,349,45287,1,2,3:2:0:0:
61,287,45480,1,2,0:2:0:0:
114,203,45674,6,0,L|96:109,1,75,2|2,3:2|0:2,0:0:0:0:
121,22,46061,1,2,3:2:0:0:
215,74,46254,1,2,0:2:0:0:
225,84,46351,2,0,B|238:100|238:100|225:169,1,75,2|0,0:2|0:2,0:0:0:0:
236,178,46641,1,2,0:2:0:0:
264,276,46835,1,2,3:2:0:0:
363,249,47029,1,2,0:2:0:0:
340,153,47222,6,0,L|461:173,1,112.5,2|2,3:2|0:2,0:0:0:0:
464,193,47609,1,0,0:0:0:0:
511,103,47803,2,0,L|400:84,1,112.5,2|2,0:2|0:2,0:0:0:0:
272,15,48383,2,0,B|263:34|263:34|208:45,1,75,2|0,3:2|1:2,0:0:0:0:
183,48,48674,1,0,1:2:0:0:
157,54,48770,6,0,L|138:155,1,75,8|0,3:2|0:2,0:0:0:0:
161,147,49061,2,0,L|140:266,1,112.5,8|8,0:2|3:2,0:0:0:0:
155,279,49448,1,0,3:2:0:0:
170,300,49545,2,0,L|230:289,2,37.5,0|0|0,3:2|3:2|3:2,0:0:0:0:
69,371,49932,1,8,3:2:0:0:
69,371,50125,1,0,3:2:0:0:
27,260,50319,6,0,L|20:162,1,82.5000025177003,2|2,3:2|0:2,0:0:0:0:
20,67,50706,1,0,3:2:0:0:
35,73,50803,2,0,B|79:91|79:91|145:79,1,82.5000025177003,2|0,0:2|0:2,0:0:0:0:
132,62,51093,2,0,L|239:43,1,82.5000025177003,2|2,3:2|0:2,0:0:0:0:
309,78,51480,1,0,3:2:0:0:
266,171,51674,1,2,0:1:0:0:
253,196,51770,1,2,0:1:0:0:
241,222,51867,6,0,L|258:335,1,82.5000025177003,2|2,3:2|0:2,0:0:0:0:
358,362,52254,1,0,3:2:0:0:
370,353,52351,2,0,B|387:339|387:339|394:246,1,82.5000025177003,2|0,0:2|0:2,0:0:0:0:
378,252,52641,2,0,L|474:239,1,82.5000025177003,2|2,3:2|0:2,0:0:0:0:
489,140,53029,1,2,3:2:0:0:
386,153,53222,1,2,0:2:0:0:
280,174,53416,6,0,L|186:163,1,82.5000025177003,2|0,3:2|0:2,0:0:0:0:
90,155,53803,1,0,3:2:0:0:
99,170,53900,2,0,B|119:206|119:206|96:273,1,82.5000025177003,2|0,0:2|0:2,0:0:0:0:
80,259,54190,2,0,L|100:375,1,82.5000025177003,2|2,3:2|0:2,0:0:0:0:
198,375,54577,2,0,L|259:369,1,41.2500012588501,2|2,3:1|0:1,0:0:0:0:
219,296,54770,2,0,L|279:289,1,41.2500012588501,2|2,0:1|0:1,0:0:0:0:
318,353,54964,6,0,L|423:364,1,82.5000025177003,2|0,3:2|0:2,0:0:0:0:
462,252,55351,2,0,L|357:263,1,82.5000025177003,2|0,3:2|0:2,0:0:0:0:
268,210,55738,1,0,3:2:0:0:
372,156,55932,1,2,0:2:0:0:
293,97,56125,1,2,3:2:0:0:
371,176,56319,1,2,0:2:0:0:
419,81,56512,6,0,L|406:-22,1,82.5000025177003,2|2,3:2|0:2,0:0:0:0:
283,0,56900,1,0,3:2:0:0:
290,15,56996,2,0,B|303:42|303:42|292:96,1,82.5000025177003,2|0,0:2|0:2,0:0:0:0:
282,120,57287,2,0,L|180:113,1,82.5000025177003,2|2,3:2|0:2,0:0:0:0:
89,114,57674,1,2,3:1:0:0:
95,143,57771,1,2,0:1:0:0:
102,172,57867,1,2,0:1:0:0:
205,199,58061,6,0,L|190:290,1,82.5000025177003,0|2,3:2|0:2,0:0:0:0:
145,364,58448,1,0,3:2:0:0:
161,369,58545,2,0,B|202:379|202:379|313:360,1,123.75000377655,2|2,0:2|3:2,0:0:0:0:
345,276,59029,1,2,0:2:0:0:
394,366,59222,1,2,3:2:0:0:
464,291,59416,1,2,0:2:0:0:
348,253,59609,6,0,L|250:274,1,82.5000025177003,0|0,3:2|3:2,0:0:0:0:
211,188,59996,1,0,3:2:0:0:
211,188,60190,1,0,3:2:0:0:
311,159,60384,2,0,L|391:176,1,82.5000025177003,0|0,3:2|3:2,0:0:0:0:
476,115,60770,1,0,3:2:0:0:
476,115,60964,1,0,3:2:0:0:
391,61,61158,6,0,L|344:71,3,41.2500012588501,8|0|0|0,3:2|3:2|3:2|3:2,0:0:0:0:
323,58,61545,2,0,L|276:68,3,41.2500012588501,8|0|0|0,3:2|3:2|3:2|3:2,0:0:0:0:
255,55,61932,5,8,1:2:0:0:
246,157,62125,1,8,1:2:0:0:
143,145,62319,1,8,1:2:0:0:
152,49,62512,1,8,1:2:0:0:
255,55,62706,5,12,3:2:0:0:
96,339,65803,6,0,L|84:262,1,63.7500012159348,4|0,3:2|1:2,0:0:0:0:
74,187,66190,1,10,0:2:0:0:
85,177,66287,2,0,B|134:177|134:177|187:222,1,95.6250018239022,2|2,0:2|0:2,0:0:0:0:
192,302,66770,2,0,L|271:290,1,63.7500012159348,2|8,3:2|0:2,0:0:0:0:
265,203,67158,1,10,3:1:0:0:
287,199,67255,1,2,0:1:0:0:
308,195,67352,6,0,L|420:208,1,95.6250018239022,2|0,3:2|3:2,0:0:0:0:
424,199,67738,2,0,P|410:159|410:125,1,63.7500012159348,10|0,3:2|3:2,0:0:0:0:
467,86,68125,1,8,1:2:0:0:
412,26,68319,1,8,0:2:0:0:
337,68,68512,1,2,3:2:0:0:
260,19,68706,1,2,3:2:0:0:
226,236,69287,5,10,3:1:0:0:
58,44,71996,6,0,L|67:131,1,63.7500012159348,4|0,3:2|1:2,0:0:0:0:
131,169,72383,1,10,0:2:0:0:
142,161,72480,2,0,B|172:144|172:144|253:154,1,95.6250018239022,2|2,0:2|0:2,0:0:0:0:
267,237,72964,2,0,L|340:231,1,63.7500012159348,2|8,3:2|0:2,0:0:0:0:
414,178,73351,1,10,0:1:0:0:
431,192,73448,1,2,0:1:0:0:
447,207,73545,6,0,L|432:318,1,95.6250018239022,2|0,1:2|3:2,0:0:0:0:
417,317,73932,2,0,P|368:306|288:354,1,127.50000243187,10|0,1:2|1:2,0:0:0:0:
220,285,74512,5,0,3:2:0:0:
447,207,75093,5,4,3:2:0:0:
256,192,81287,5,0,3:2:0:0:
256,192,81383,12,2,85158,0:2:0:0:
286,291,85932,6,0,L|276:192,1,75,2|0,3:2|1:2,0:0:0:0:
255,203,86222,2,0,P|192:232|125:226,1,112.5,2|10,3:2|1:2,0:0:0:0:
139,208,86609,1,8,1:2:0:0:
132,182,86706,1,2,0:2:0:0:
42,245,86900,1,8,0:2:0:0:
9,67,87287,6,0,B|20:71|20:71|25:68|25:68|34:71|34:71|49:66|49:66|55:75|55:75|67:69|67:69|89:77,1,90,2|4,0:2|3:2,0:0:0:0:
168,26,88061,5,2,0:2:0:0:
180,125,88254,1,2,3:2:0:0:
282,90,88448,1,2,0:2:0:0:
291,181,88641,2,0,L|297:248,3,41.2500012588501,2|2|2|2,3:2|0:2|0:2|0:2,0:0:0:0:
321,233,89029,6,0,P|379:216|410:225,1,82.5000025177003,2|2,3:2|0:2,0:0:0:0:
485,303,89416,2,0,L|475:371,3,41.2500012588501,2|2|2|2,3:2|0:2|0:2|0:2,0:0:0:0:
455,355,89804,2,0,P|397:338|366:347,1,82.5000025177003,2|2,3:2|0:2,0:0:0:0:
355,360,90093,2,0,P|331:321|286:301,1,82.5000025177003,2|2,0:2|0:2,0:0:0:0:
269,304,90383,1,2,0:2:0:0:
162,360,90577,6,0,B|172:291|172:291|166:276|166:276|176:196,1,165.000005035401,2|0,3:2|3:2,0:0:0:0:
73,179,91158,1,2,0:2:0:0:
67,207,91254,1,2,0:0:0:0:
64,235,91351,2,0,B|54:166|54:166|60:151|60:151|50:71,1,165.000005035401,2|0,3:2|3:2,0:0:0:0:
143,11,91932,1,2,0:2:0:0:
201,105,92125,6,0,L|306:91,1,82.5000025177003,10|2,3:2|0:2,0:0:0:0:
310,103,92416,1,2,0:0:0:0:
337,111,92512,1,2,3:2:0:0:
435,96,92706,1,2,3:2:0:0:
450,202,92900,2,0,L|359:215,1,82.5000025177003,2|0,3:2|0:2,0:0:0:0:
269,176,93287,1,2,3:2:0:0:
279,203,93383,1,2,0:2:0:0:
264,229,93480,2,0,L|193:242,1,41.2500012588501,2|2,0:2|0:2,0:0:0:0:
181,309,93674,6,0,B|288:328|288:328|344:282,1,165.000005035401,2|0,3:2|3:2,0:0:0:0:
415,222,94254,1,2,0:2:0:0:
329,169,94448,1,2,3:2:0:0:
410,107,94641,1,2,0:2:0:0:
320,54,94835,2,0,L|249:65,3,41.2500012588501,2|2|2|2,3:2|0:2|0:2|0:2,0:0:0:0:
252,50,95222,6,0,P|240:119|253:142,1,82.5000025177003,2|2,3:2|0:2,0:0:0:0:
161,191,95609,1,2,3:2:0:0:
133,181,95706,1,2,0:2:0:0:
104,181,95803,2,0,P|68:196|52:214,1,41.2500012588501,2|2,0:2|0:2,0:0:0:0:
59,281,95996,1,2,3:2:0:0:
168,290,96190,2,0,P|180:359|167:382,1,82.5000025177003,2|2,0:2|3:2,0:0:0:0:
290,317,96577,5,2,0:2:0:0:
307,293,96674,1,2,0:2:0:0:
323,269,96770,2,0,B|394:283|394:283|403:277|403:277|489:291,1,165.000005035401,2|0,3:2|3:2,0:0:0:0:
418,192,97351,1,2,0:2:0:0:
401,168,97448,1,2,0:0:0:0:
385,144,97544,2,0,B|314:158|314:158|305:152|305:152|219:166,1,165.000005035401,2|0,3:2|3:2,0:0:0:0:
111,187,98125,2,0,L|42:177,1,41.2500012588501,2|2,0:2|0:2,0:0:0:0:
117,103,98319,6,0,B|141:105|141:105|177:126,1,37.5,2|2,1:1|1:1,0:0:0:0:
188,283,98706,5,2,1:2:0:0:
188,283,99093,1,2,1:2:0:0:
188,283,99480,1,0,1:2:0:0:
250,233,99674,1,2,0:1:0:0:
333,325,99867,6,0,B|445:313|445:313|486:249,1,165.000005035401,2|0,3:2|3:2,0:0:0:0:
404,191,100448,1,2,0:2:0:0:
375,192,100545,1,2,0:2:0:0:
346,194,100641,2,0,L|332:131,3,41.2500012588501,2|2|2|2,3:2|0:2|0:2|0:2,0:0:0:0:
311,139,101029,2,0,L|297:76,3,41.2500012588501,2|2|2|2,3:2|0:2|0:2|0:2,0:0:0:0:
276,85,101416,6,0,B|222:62|222:62|87:107,1,165.000005035401,2|0,3:2|3:2,0:0:0:0:
32,165,101996,1,2,0:2:0:0:
134,214,102190,2,0,L|186:195,3,41.2500012588501,2|2|2|2,3:2|0:2|0:2|0:2,0:0:0:0:
198,212,102577,2,0,L|250:193,3,41.2500012588501,2|2|2|2,3:2|0:2|0:2|0:2,0:0:0:0:
261,212,102964,6,0,B|254:283|254:283|261:294|261:294|255:381,1,165.000005035401,2|0,3:2|3:2,0:0:0:0:
371,337,103545,1,2,0:2:0:0:
370,308,103641,1,2,0:0:0:0:
369,279,103738,2,0,B|363:198|363:198|370:187|370:187|363:116,1,165.000005035401,2|0,3:2|3:2,0:0:0:0:
440,51,104319,1,0,0:2:0:0:
338,8,104512,6,0,P|298:34|256:39,1,82.5000025177003,10|2,3:2|0:2,0:0:0:0:
235,34,104803,1,2,0:0:0:0:
208,23,104900,1,2,3:2:0:0:
171,116,105093,1,2,3:2:0:0:
78,84,105287,2,0,L|95:169,1,82.5000025177003,2|0,3:2|0:2,0:0:0:0:
100,263,105674,1,2,3:2:0:0:
128,260,105770,1,2,0:2:0:0:
152,244,105867,2,0,L|178:316,1,41.2500012588501,2|2,0:2|0:2,0:0:0:0:
230,338,106061,6,0,B|268:303|268:303|224:176,1,165.000005035401,2|0,3:2|3:2,0:0:0:0:
273,98,106641,1,2,0:2:0:0:
301,95,106738,1,2,0:2:0:0:
329,95,106835,2,0,L|322:155,3,41.2500012588501,2|2|2|2,3:2|0:2|0:2|0:2,0:0:0:0:
341,159,107222,2,0,L|334:219,3,41.2500012588501,2|0|2|0,3:2|0:2|0:2|0:0,0:0:0:0:
334,228,107609,6,0,B|378:253|378:253|498:222,1,165.000005035401,2|0,3:2|3:2,0:0:0:0:
483,330,108190,1,2,0:2:0:0:
454,337,108287,1,0,0:2:0:0:
426,344,108383,2,0,L|361:333,3,41.2500012588501,2|2|2|2,3:2|0:2|0:2|0:2,0:0:0:0:
359,349,108770,2,0,L|294:338,3,41.2500012588501,2|2|2|2,3:2|0:2|0:2|0:2,0:0:0:0:
292,356,109158,6,0,B|227:362|227:362|211:352|211:352|121:359,1,165.000005035401,2|0,3:2|3:2,0:0:0:0:
31,300,109738,1,2,0:2:0:0:
43,273,109835,1,2,0:0:0:0:
54,246,109932,2,0,B|119:252|119:252|135:242|135:242|215:248,1,165.000005035401,2|0,3:2|3:2,0:0:0:0:
344,222,110512,2,0,L|333:283,1,41.2500012588501,0|0,1:2|1:2,0:0:0:0:
262,158,110706,6,0,L|252:74,1,82.5000025177003,0|0,1:2|0:2,0:0:0:0:
221,65,110996,1,0,0:2:0:0:
194,53,111093,2,0,B|138:64|138:64|79:47,1,82.5000025177003,2|0,3:2|1:2,0:0:0:0:
8,85,111480,1,0,3:2:0:0:
78,158,111674,1,2,1:2:0:0:
10,230,111867,1,2,3:2:0:0:
88,293,112061,1,2,0:2:0:0:
155,223,112254,5,0,3:2:0:0:
405,64,113996,5,0,1:2:0:0:
403,90,114093,1,0,1:2:0:0:
401,116,114190,1,8,1:2:0:0:
308,172,114383,5,2,0:2:0:0:
306,156,114480,2,0,B|295:61,1,75,2|0,0:2|0:2,0:0:0:0:
272,71,114770,2,0,L|215:50,1,37.5,2|2,0:2|0:2,0:0:0:0:
225,137,114964,2,0,L|168:116,1,37.5,2|2,0:2|0:2,0:0:0:0:
183,203,115158,2,0,L|126:182,1,37.5,2|2,0:2|0:2,0:0:0:0:
