osu file format v14

[General]
AudioFilename: audio.mp3
AudioLeadIn: 0
PreviewTime: 87287
Countdown: 0
SampleSet: Soft
StackLeniency: 0.7
Mode: 0
LetterboxInBreaks: 0
EpilepsyWarning: 1
WidescreenStoryboard: 1

[Editor]
Bookmarks: 62512
DistanceSpacing: 0.7
BeatDivisor: 4
GridSize: 8
TimelineZoom: 1

[Metadata]
Title:Alt Futur
TitleUnicode:Alt Futur
Artist:Silentroom
ArtistUnicode:Silentroom
Creator:SaltyLucario
Version:Funky
Source:osu!
Tags:saltking salty jamesjan3 dtm9 nowa dtm9_nowa astronic mbc #8 monthly beatmapping contest august featured artist fa mappers' guild electronic hi-tech edm dance rhythm game instrumental memory waves juliana techno ジュリアナテクノ bms ジャンルシャッフル3 genre-shuffle genre shuffle 3
BeatmapID:2631156
BeatmapSetID:1265982

[Difficulty]
HPDrainRate:5
CircleSize:4.8
OverallDifficulty:9
ApproachRate:9.5
SliderMultiplier:1.4
SliderTickRate:1

[Events]
//Background and Video events
0,0,"bg.jpg",0,0
//Break Periods
2,75293,80762
//Storyboard Layer 0 (Background)
//Storyboard Layer 1 (Fail)
//Storyboard Layer 2 (Pass)
//Storyboard Layer 3 (Foreground)
Sprite,Foreground,Centre,"sb/w.png",253,373 S,2,37158,37458,1,0.2 F,2,37158,37458,1,0 P,0,37158,37458,A C,0,37158,,255,210,0
Sprite,Foreground,Centre,"sb/w.png",238,304 S,2,37254,37554,1,0.2 F,2,37254,37554,1,0 P,0,37254,37554,A C,0,37254,,255,210,0
Sprite,Foreground,Centre,"sb/w.png",296,250 S,2,37351,37651,1,0.2 F,2,37351,37651,1,0 P,0,37351,37651,A C,0,37351,,4,219,192
Sprite,Foreground,Centre,"sb/w.png",302,173 S,2,37448,37748,1,0.2 F,2,37448,37748,1,0 P,0,37448,37748,A C,0,37448,,4,219,192
Sprite,Foreground,Centre,"sb/w.png",249,121 S,2,37545,37845,1,0.2 F,2,37545,37845,1,0 P,0,37545,37845,A C,0,37545,,255,121,162
Sprite,Foreground,Centre,"sb/w.png",231,127 S,2,37641,37941,1,0.2 F,2,37641,37941,1,0 P,0,37641,37941,A C,0,37641,,255,121,162
Sprite,Foreground,Centre,"sb/w.png",196,160 S,2,37738,38038,1,0.2 F,2,37738,38038,1,0 P,0,37738,38038,A C,0,37738,,255,210,0
Sprite,Foreground,Centre,"sb/w.png",160,151 S,2,37834,38134,1,0.2 F,2,37834,38134,1,0 P,0,37834,38134,A C,0,37834,,255,210,0
Sprite,Foreground,Centre,"sb/a.png",0,0 S,0,771,,2.5 C,0,771,,0,0,0 F,2,771,,0,1 M,7,771,,137,395 M,7,771,1061,137,395,154,255 M,7,1061,1351,154,255,168,116 M,7,1351,1738,168,116,255,293 M,7,1738,1932,255,293,244,220 M,7,1932,2319,244,220,399,421 M,7,2319,2609,399,421,382,281 M,7,2609,2899,382,281,368,142 M,7,2899,3287,368,142,478,305 M,7,3287,3383,478,305,481,284 M,7,3383,3480,481,284,514,264 M,7,3480,3577,514,264,513,254 M,7,3577,3674,513,254,512,244 M,7,3674,3770,512,244,512,235 M,7,3770,3867,512,235,511,225 M,7,3867,4157,511,225,371,210 M,7,4157,4447,371,210,232,194 M,7,4447,4835,232,194,450,279 M,7,4835,4932,450,279,453,299 M,7,4932,5029,453,299,390,308 M,7,5029,5125,390,308,388,327 M,7,5125,5222,388,327,324,311 M,7,5222,5416,324,311,522,385 M,7,5416,5706,522,385,382,402 M,7,5706,5996,382,402,243,416 M,7,5996,6190,243,416,333,281 M,7,6190,6287,333,281,300,249 M,7,6287,6383,300,249,253,237 M,7,6383,6480,253,237,206,252 M,7,6480,6577,206,252,163,316 M,7,6577,6674,163,316,149,323 M,7,6674,6770,149,323,132,325 M,7,6770,6867,132,325,121,324 S,19,6964,,2.5,12.5 F,0,6964,7064,1,0
Sprite,Foreground,Centre,"sb/w.png",331,170 S,2,99867,100167,1,0.2 F,2,99867,100167,1,0 P,0,99867,100167,A C,0,99867,,255,121,162
Sprite,Foreground,Centre,"sb/w.png",323,70 S,2,100061,100361,1,0.2 F,2,100061,100361,1,0 P,0,100061,100361,A C,0,100061,,255,121,162
Sprite,Foreground,Centre,"sb/w.png",342,276 S,2,100254,100554,1,0.2 F,2,100254,100554,1,0 P,0,100254,100554,A C,0,100254,,255,121,162
Sprite,Foreground,Centre,"sb/w.png",142,57 S,2,100448,100748,1,0.2 F,2,100448,100748,1,0 P,0,100448,100748,A C,0,100448,,255,210,0
Sprite,Foreground,Centre,"sb/w.png",218,78 S,2,100545,100845,1,0.2 F,2,100545,100845,1,0 P,0,100545,100845,A C,0,100545,,255,210,0
Sprite,Foreground,Centre,"sb/w.png",239,146 S,2,100641,100941,1,0.2 F,2,100641,100941,1,0 P,0,100641,100941,A C,0,100641,,255,210,0
Sprite,Foreground,Centre,"sb/w.png",203,209 S,2,100738,101038,1,0.2 F,2,100738,101038,1,0 P,0,100738,101038,A C,0,100738,,255,210,0
Sprite,Foreground,Centre,"sb/w.png",131,225 S,2,100835,101135,1,0.2 F,2,100835,101135,1,0 P,0,100835,101135,A C,0,100835,,255,210,0
Sprite,Foreground,Centre,"sb/w.png",100,290 S,2,100932,101232,1,0.2 F,2,100932,101232,1,0 P,0,100932,101232,A C,0,100932,,255,210,0
Sprite,Foreground,Centre,"sb/w.png",147,349 S,2,101029,101329,1,0.2 F,2,101029,101329,1,0 P,0,101029,101329,A C,0,101029,,255,210,0
Sprite,Foreground,Centre,"sb/w.png",172,323 S,2,101125,101425,1,0.2 F,2,101125,101425,1,0 P,0,101125,101425,A C,0,101125,,255,210,0
Sprite,Foreground,Centre,"sb/w.png",206,310 S,2,101222,101522,1,0.2 F,2,101222,101522,1,0 P,0,101222,101522,A C,0,101222,,255,210,0
Sprite,Foreground,Centre,"sb/w.png",243,312 S,2,101319,101619,1,0.2 F,2,101319,101619,1,0 P,0,101319,101619,A C,0,101319,,255,210,0
Sprite,Foreground,Centre,"sb/w.png",276,330 S,2,101416,101716,1,0.2 F,2,101416,101716,1,0 P,0,101416,101716,A C,0,101416,,4,219,192
Sprite,Foreground,Centre,"sb/w.png",262,440 S,2,101609,101909,1,0.2 F,2,101609,101909,1,0 P,0,101609,101909,A C,0,101609,,4,219,192
Sprite,Foreground,Centre,"sb/w.png",292,216 S,2,101803,102103,1,0.2 F,2,101803,102103,1,0 P,0,101803,102103,A C,0,101803,,4,219,192
Sprite,Foreground,Centre,"sb/w.png",524,393 S,2,101996,102296,1,0.2 F,2,101996,102296,1,0 P,0,101996,102296,A C,0,101996,,255,121,162
Sprite,Foreground,Centre,"sb/w.png",530,352 S,2,102093,102393,1,0.2 F,2,102093,102393,1,0 P,0,102093,102393,A C,0,102093,,255,121,162
Sprite,Foreground,Centre,"sb/w.png",516,315 S,2,102190,102490,1,0.2 F,2,102190,102490,1,0 P,0,102190,102490,A C,0,102190,,255,121,162
Sprite,Foreground,Centre,"sb/w.png",453,362 S,2,102287,102587,1,0.2 F,2,102287,102587,1,0 P,0,102287,102587,A C,0,102287,,255,121,162
Sprite,Foreground,Centre,"sb/w.png",374,355 S,2,102383,102683,1,0.2 F,2,102383,102683,1,0 P,0,102383,102683,A C,0,102383,,255,121,162
Sprite,Foreground,Centre,"sb/w.png",337,283 S,2,102480,102780,1,0.2 F,2,102480,102780,1,0 P,0,102480,102780,A C,0,102480,,255,121,162
Sprite,Foreground,Centre,"sb/w.png",371,211 S,2,102577,102877,1,0.2 F,2,102577,102877,1,0 P,0,102577,102877,A C,0,102577,,255,121,162
Sprite,Foreground,Centre,"sb/w.png",342,201 S,2,102674,102974,1,0.2 F,2,102674,102974,1,0 P,0,102674,102974,A C,0,102674,,255,121,162
Sprite,Foreground,Centre,"sb/w.png",309,204 S,2,102770,103070,1,0.2 F,2,102770,103070,1,0 P,0,102770,103070,A C,0,102770,,255,121,162
Sprite,Foreground,Centre,"sb/w.png",276,227 S,2,102867,103167,1,0.2 F,2,102867,103167,1,0 P,0,102867,103167,A C,0,102867,,255,121,162
Sprite,Foreground,Centre,"sb/w.png",261,256 S,2,102964,103264,1,0.2 F,2,102964,103264,1,0 P,0,102964,103264,A C,0,102964,,255,210,0
Sprite,Foreground,Centre,"sb/w.png",337,283 S,2,103157,103457,1,0.2 F,2,103157,103457,1,0 P,0,103157,103457,A C,0,103157,,255,210,0
Sprite,Foreground,Centre,"sb/w.png",179,229 S,2,103351,103651,1,0.2 F,2,103351,103651,1,0 P,0,103351,103651,A C,0,103351,,255,210,0
Sprite,Foreground,Centre,"sb/w.png",219,397 S,2,103545,103845,1,0.2 F,2,103545,103845,1,0 P,0,103545,103845,A C,0,103545,,4,219,192
Sprite,Foreground,Centre,"sb/w.png",259,358 S,2,103609,103909,1,0.2 F,2,103609,103909,1,0 P,0,103609,103909,A C,0,103609,,255,121,162
Sprite,Foreground,Centre,"sb/w.png",299,320 S,2,103674,103974,1,0.2 F,2,103674,103974,1,0 P,0,103674,103974,A C,0,103674,,255,210,0
Sprite,Foreground,Centre,"sb/w.png",337,283 S,2,103738,104038,1,0.2 F,2,103738,104038,1,0 P,0,103738,104038,A C,0,103738,,4,219,192
Sprite,Foreground,Centre,"sb/w.png",417,311 S,2,103932,104232,1,0.2 F,2,103932,104232,1,0 P,0,103932,104232,A C,0,103932,,4,219,192
Sprite,Foreground,Centre,"sb/w.png",179,229 S,2,104125,104425,1,0.2 F,2,104125,104425,1,0 P,0,104125,104425,A C,0,104125,,4,219,192
Sprite,Foreground,Centre,"sb/w.png",383,56 S,2,104319,104619,1,0.2 F,2,104319,104619,1,0 P,0,104319,104619,A C,0,104319,,4,219,192
Sprite,Foreground,Centre,"sb/w.png",416,311 S,2,104512,104812,1,0.2 F,2,104512,104812,1,0 P,0,104512,104812,A C,0,104512,,255,121,162
Sprite,Foreground,Centre,"sb/w.png",253,138 S,2,104706,105006,1,0.2 F,2,104706,105006,1,0 P,0,104706,105006,A C,0,104706,,255,210,0
Sprite,Foreground,Centre,"sb/w.png",317,196 S,2,104803,105103,1,0.2 F,2,104803,105103,1,0 P,0,104803,105103,A C,0,104803,,255,210,0
Sprite,Foreground,Centre,"sb/w.png",339,108 S,2,104899,105199,1,0.2 F,2,104899,105199,1,0 P,0,104899,105199,A C,0,104899,,255,210,0
Sprite,Foreground,Centre,"sb/w.png",151,323 S,2,105093,105393,1,0.2 F,2,105093,105393,1,0 P,0,105093,105393,A C,0,105093,,255,210,0
Sprite,Foreground,Centre,"sb/w.png",337,283 S,2,105287,105587,1,0.2 F,2,105287,105587,1,0 P,0,105287,105587,A C,0,105287,,4,219,192
Sprite,Foreground,Centre,"sb/w.png",259,255 S,2,105480,105780,1,0.2 F,2,105480,105780,1,0 P,0,105480,105780,A C,0,105480,,4,219,192
Sprite,Foreground,Centre,"sb/w.png",465,402 S,2,105674,105974,1,0.2 F,2,105674,105974,1,0 P,0,105674,105974,A C,0,105674,,255,121,162
Sprite,Foreground,Centre,"sb/w.png",462,373 S,2,105770,106070,1,0.2 F,2,105770,106070,1,0 P,0,105770,106070,A C,0,105770,,255,121,162
Sprite,Foreground,Centre,"sb/w.png",455,299 S,2,105867,106167,1,0.2 F,2,105867,106167,1,0 P,0,105867,106167,A C,0,105867,,255,121,162
Sprite,Foreground,Centre,"sb/w.png",452,270 S,2,105963,106263,1,0.2 F,2,105963,106263,1,0 P,0,105963,106263,A C,0,105963,,255,121,162
Sprite,Foreground,Centre,"sb/w.png",445,195 S,2,106061,106361,1,0.2 F,2,106061,106361,1,0 P,0,106061,106361,A C,0,106061,,255,210,0
Sprite,Foreground,Centre,"sb/w.png",555,223 S,2,106254,106554,1,0.2 F,2,106254,106554,1,0 P,0,106254,106554,A C,0,106254,,255,210,0
Sprite,Foreground,Centre,"sb/w.png",337,167 S,2,106448,106748,1,0.2 F,2,106448,106748,1,0 P,0,106448,106748,A C,0,106448,,255,210,0
Sprite,Foreground,Centre,"sb/w.png",536,372 S,2,106641,106941,1,0.2 F,2,106641,106941,1,0 P,0,106641,106941,A C,0,106641,,4,219,192
Sprite,Foreground,Centre,"sb/w.png",469,332 S,2,106738,107038,1,0.2 F,2,106738,107038,1,0 P,0,106738,107038,A C,0,106738,,4,219,192
Sprite,Foreground,Centre,"sb/w.png",392,332 S,2,106835,107135,1,0.2 F,2,106835,107135,1,0 P,0,106835,107135,A C,0,106835,,4,219,192
Sprite,Foreground,Centre,"sb/w.png",331,383 S,2,106932,107232,1,0.2 F,2,106932,107232,1,0 P,0,106932,107232,A C,0,106932,,4,219,192
Sprite,Foreground,Centre,"sb/w.png",253,400 S,2,107029,107329,1,0.2 F,2,107029,107329,1,0 P,0,107029,107329,A C,0,107029,,4,219,192
Sprite,Foreground,Centre,"sb/w.png",180,372 S,2,107125,107425,1,0.2 F,2,107125,107425,1,0 P,0,107125,107425,A C,0,107125,,4,219,192
Sprite,Foreground,Centre,"sb/w.png",142,305 S,2,107222,107522,1,0.2 F,2,107222,107522,1,0 P,0,107222,107522,A C,0,107222,,4,219,192
Sprite,Foreground,Centre,"sb/w.png",176,292 S,2,107319,107619,1,0.2 F,2,107319,107619,1,0 P,0,107319,107619,A C,0,107319,,4,219,192
Sprite,Foreground,Centre,"sb/w.png",212,300 S,2,107416,107716,1,0.2 F,2,107416,107716,1,0 P,0,107416,107716,A C,0,107416,,255,121,162
Sprite,Foreground,Centre,"sb/w.png",222,276 S,2,107480,107780,1,0.2 F,2,107480,107780,1,0 P,0,107480,107780,A C,0,107480,,255,210,0
Sprite,Foreground,Centre,"sb/w.png",233,253 S,2,107545,107845,1,0.2 F,2,107545,107845,1,0 P,0,107545,107845,A C,0,107545,,4,219,192
Sprite,Foreground,Centre,"sb/w.png",243,233 S,2,107609,107909,1,0.2 F,2,107609,107909,1,0 P,0,107609,107909,A C,0,107609,,255,121,162
Sprite,Foreground,Centre,"sb/w.png",204,135 S,2,107803,108103,1,0.2 F,2,107803,108103,1,0 P,0,107803,108103,A C,0,107803,,255,121,162
Sprite,Foreground,Centre,"sb/w.png",288,338 S,2,107996,108296,1,0.2 F,2,107996,108296,1,0 P,0,107996,108296,A C,0,107996,,255,121,162
Sprite,Foreground,Centre,"sb/w.png",483,159 S,2,108190,108490,1,0.2 F,2,108190,108490,1,0 P,0,108190,108490,A C,0,108190,,255,210,0
Sprite,Foreground,Centre,"sb/w.png",456,179 S,2,108287,108587,1,0.2 F,2,108287,108587,1,0 P,0,108287,108587,A C,0,108287,,255,210,0
Sprite,Foreground,Centre,"sb/w.png",421,182 S,2,108383,108683,1,0.2 F,2,108383,108683,1,0 P,0,108383,108683,A C,0,108383,,255,210,0
Sprite,Foreground,Centre,"sb/w.png",383,115 S,2,108480,108780,1,0.2 F,2,108480,108780,1,0 P,0,108480,108780,A C,0,108480,,255,210,0
Sprite,Foreground,Centre,"sb/w.png",306,91 S,2,108577,108877,1,0.2 F,2,108577,108877,1,0 P,0,108577,108877,A C,0,108577,,255,210,0
Sprite,Foreground,Centre,"sb/w.png",230,112 S,2,108674,108974,1,0.2 F,2,108674,108974,1,0 P,0,108674,108974,A C,0,108674,,255,210,0
Sprite,Foreground,Centre,"sb/w.png",193,182 S,2,108770,109070,1,0.2 F,2,108770,109070,1,0 P,0,108770,109070,A C,0,108770,,255,210,0
Sprite,Foreground,Centre,"sb/w.png",217,192 S,2,108867,109167,1,0.2 F,2,108867,109167,1,0 P,0,108867,109167,A C,0,108867,,255,210,0
Sprite,Foreground,Centre,"sb/w.png",236,216 S,2,108964,109264,1,0.2 F,2,108964,109264,1,0 P,0,108964,109264,A C,0,108964,,255,210,0
Sprite,Foreground,Centre,"sb/w.png",197,247 S,2,109061,109361,1,0.2 F,2,109061,109361,1,0 P,0,109061,109361,A C,0,109061,,255,210,0
Sprite,Foreground,Centre,"sb/w.png",186,293 S,2,109158,109458,1,0.2 F,2,109158,109458,1,0 P,0,109158,109458,A C,0,109158,,4,219,192
Sprite,Foreground,Centre,"sb/w.png",316,312 S,2,109351,109651,1,0.2 F,2,109351,109651,1,0 P,0,109351,109651,A C,0,109351,,4,219,192
Sprite,Foreground,Centre,"sb/w.png",64,276 S,2,109545,109845,1,0.2 F,2,109545,109845,1,0 P,0,109545,109845,A C,0,109545,,4,219,192
Sprite,Foreground,Centre,"sb/w.png",321,224 S,2,109738,110038,1,0.2 F,2,109738,110038,1,0 P,0,109738,110038,A C,0,109738,,255,121,162
Sprite,Foreground,Centre,"sb/w.png",371,213 S,2,109803,110103,1,0.2 F,2,109803,110103,1,0 P,0,109803,110103,A C,0,109803,,255,210,0
Sprite,Foreground,Centre,"sb/w.png",424,205 S,2,109867,110167,1,0.2 F,2,109867,110167,1,0 P,0,109867,110167,A C,0,109867,,4,219,192
Sprite,Foreground,Centre,"sb/w.png",473,195 S,2,109932,110232,1,0.2 F,2,109932,110232,1,0 P,0,109932,110232,A C,0,109932,,255,121,162
Sprite,Foreground,Centre,"sb/w.png",445,339 S,2,110125,110425,1,0.2 F,2,110125,110425,1,0 P,0,110125,110425,A C,0,110125,,255,121,162
Sprite,Foreground,Centre,"sb/w.png",500,56 S,2,110319,110619,1,0.2 F,2,110319,110619,1,0 P,0,110319,110619,A C,0,110319,,255,121,162
Sprite,Foreground,Centre,"sb/w.png",212,167 S,2,110512,110812,1,0.2 F,2,110512,110812,1,0 P,0,110512,110812,A C,0,110512,,255,210,0
Sprite,Foreground,Centre,"sb/w.png",301,134 S,2,110609,110909,1,0.2 F,2,110609,110909,1,0 P,0,110609,110909,A C,0,110609,,255,210,0
Sprite,Foreground,Centre,"sb/w.png",289,226 S,2,110706,111006,1,0.2 F,2,110706,111006,1,0 P,0,110706,111006,A C,0,110706,,255,210,0
Sprite,Foreground,Centre,"sb/w.png",106,96 S,2,110900,111200,1,0.2 F,2,110900,111200,1,0 P,0,110900,111200,A C,0,110900,,4,219,192
Sprite,Foreground,Centre,"sb/w.png",150,79 S,2,110997,111297,1,0.2 F,2,110997,111297,1,0 P,0,110997,111297,A C,0,110997,,4,219,192
Sprite,Foreground,Centre,"sb/w.png",144,125 S,2,111094,111394,1,0.2 F,2,111094,111394,1,0 P,0,111094,111394,A C,0,111094,,255,121,162
Sprite,Foreground,Centre,"sb/w.png",124,243 S,2,111287,111587,1,0.2 F,2,111287,111587,1,0 P,0,111287,111587,A C,0,111287,,255,121,162
Sprite,Foreground,Centre,"sb/w.png",410,205 S,2,111480,111780,1,0.2 F,2,111480,111780,1,0 P,0,111480,111780,A C,0,111480,,255,210,0
Sprite,Foreground,Centre,"sb/w.png",442,373 S,2,111674,111974,1,0.2 F,2,111674,111974,1,0 P,0,111674,111974,A C,0,111674,,255,210,0
Sprite,Foreground,Centre,"sb/w.png",215,125 S,2,111867,112167,1,0.2 F,2,111867,112167,1,0 P,0,111867,112167,A C,0,111867,,4,219,192
Sprite,Foreground,Centre,"sb/w.png",158,437 S,2,112062,112362,1,0.2 F,2,112062,112362,1,0 P,0,112062,112362,A C,0,112062,,4,219,192
Sprite,Foreground,Centre,"sb/w.png",485,135 S,2,114383,114683,1,0.2 F,2,114383,114683,1,0 P,0,114383,114683,A C,0,114383,,4,219,192
Sprite,Foreground,Centre,"sb/w.png",497,94 S,2,114480,114780,1,0.2 F,2,114480,114780,1,0 P,0,114480,114780,A C,0,114480,,4,219,192
Sprite,Foreground,Centre,"sb/w.png",465,56 S,2,114577,114877,1,0.2 F,2,114577,114877,1,0 P,0,114577,114877,A C,0,114577,,4,219,192
Sprite,Foreground,Centre,"sb/w.png",411,62 S,2,114674,114974,1,0.2 F,2,114674,114974,1,0 P,0,114674,114974,A C,0,114674,,4,219,192
Sprite,Foreground,Centre,"sb/w.png",381,126 S,2,114770,115070,1,0.2 F,2,114770,115070,1,0 P,0,114770,115070,A C,0,114770,,4,219,192
Sprite,Foreground,Centre,"sb/w.png",428,185 S,2,114867,115167,1,0.2 F,2,114867,115167,1,0 P,0,114867,115167,A C,0,114867,,4,219,192
Sprite,Foreground,Centre,"sb/w.png",500,172 S,2,114964,115264,1,0.2 F,2,114964,115264,1,0 P,0,114964,115264,A C,0,114964,,255,121,162
Sprite,Foreground,Centre,"sb/w.png",458,253 S,2,115061,115361,1,0.2 F,2,115061,115361,1,0 P,0,115061,115361,A C,0,115061,,255,121,162
Sprite,Foreground,Centre,"sb/w.png",499,324 S,2,115158,115458,1,0.2 F,2,115158,115458,1,0 P,0,115158,115458,A C,0,115158,,255,121,162
Sprite,Foreground,Centre,"sb/w.png",472,387 S,2,115254,115554,1,0.2 F,2,115254,115554,1,0 P,0,115254,115554,A C,0,115254,,255,121,162
Sprite,Foreground,Centre,"sb/f.jpg",518,269 S,19,98706,98906,2,1 F,2,98706,98906,1,0 C,0,98706,,255,210,0
Sprite,Foreground,Centre,"sb/f.jpg",518,269 S,19,99093,99293,2,1 F,2,99093,99293,1,0 C,0,99093,,255,210,0
Sprite,Foreground,Centre,"sb/f.jpg",531,176 S,19,99480,99680,2,1 F,2,99480,99680,1,0 C,0,99480,,4,219,192
Sprite,Foreground,Centre,"sb/f.jpg",518,269 S,19,99674,99874,2,1 F,2,99674,99874,1,0 C,0,99674,,4,219,192
Sprite,Foreground,Centre,"sb/f.jpg",515,271 S,19,49061,49261,2,1 F,2,49061,49261,1,0 C,0,49061,,255,121,162
Sprite,Foreground,Centre,"sb/w.png",365,403 S,19,16254,16604,1,0.7 F,2,16254,16604,1,0
Sprite,Foreground,Centre,"sb/w.png",202,228 S,19,15867,16217,1,0.7 F,2,15867,16217,1,0
Sprite,Foreground,Centre,"sb/w.png",83,261 S,2,6964,7264,1,0.2 F,2,6964,7264,1,0 P,0,6964,7264,A C,0,6964,,255,210,0
Sprite,Foreground,Centre,"sb/w.png",278,397 S,2,7254,7554,1,0.2 F,2,7254,7554,1,0 P,0,7254,7554,A C,0,7254,,255,210,0
Sprite,Foreground,Centre,"sb/w.png",414,201 S,2,7545,7845,1,0.2 F,2,7545,7845,1,0 P,0,7545,7845,A C,0,7545,,255,210,0
Sprite,Foreground,Centre,"sb/w.png",218,65 S,2,7835,8135,1,0.2 F,2,7835,8135,1,0 P,0,7835,8135,A C,0,7835,,255,210,0
Sprite,Foreground,Centre,"sb/w.png",268,329 S,2,8125,8425,1,0.2 F,2,8125,8425,1,0 P,0,8125,8425,A C,0,8125,,4,219,192
Sprite,Foreground,Centre,"sb/w.png",240,147 S,2,8319,8619,1,0.2 F,2,8319,8619,1,0 P,0,8319,8619,A C,0,8319,,4,219,192
Sprite,Foreground,Centre,"sb/w.png",428,129 S,2,8512,8812,1,0.2 F,2,8512,8812,1,0 P,0,8512,8812,A C,0,8512,,255,121,162
Sprite,Foreground,Centre,"sb/w.png",196,90 S,2,8802,9102,1,0.2 F,2,8802,9102,1,0 P,0,8802,9102,A C,0,8802,,255,121,162
Sprite,Foreground,Centre,"sb/w.png",157,322 S,2,9093,9393,1,0.2 F,2,9093,9393,1,0 P,0,9093,9393,A C,0,9093,,255,121,162
Sprite,Foreground,Centre,"sb/w.png",389,361 S,2,9383,9683,1,0.2 F,2,9383,9683,1,0 P,0,9383,9683,A C,0,9383,,255,121,162
Sprite,Foreground,Centre,"sb/w.png",232,160 S,2,9674,9974,1,0.2 F,2,9674,9974,1,0 P,0,9674,9974,A C,0,9674,,255,210,0
Sprite,Foreground,Centre,"sb/w.png",236,177 S,2,9770,10070,1,0.2 F,2,9770,10070,1,0 P,0,9770,10070,A C,0,9770,,255,210,0
Sprite,Foreground,Centre,"sb/w.png",241,197 S,2,9867,10167,1,0.2 F,2,9867,10167,1,0 P,0,9867,10167,A C,0,9867,,255,210,0
Sprite,Foreground,Centre,"sb/w.png",305,187 S,2,9964,10264,1,0.2 F,2,9964,10264,1,0 P,0,9964,10264,A C,0,9964,,255,210,0
Sprite,Foreground,Centre,"sb/w.png",370,175 S,2,10061,10361,1,0.2 F,2,10061,10361,1,0 P,0,10061,10361,A C,0,10061,,4,219,192
Sprite,Foreground,Centre,"sb/w.png",420,346 S,2,10254,10554,1,0.2 F,2,10254,10554,1,0 P,0,10254,10554,A C,0,10254,,4,219,192
Sprite,Foreground,Centre,"sb/w.png",434,380 S,2,10351,10651,1,0.2 F,2,10351,10651,1,0 P,0,10351,10651,A C,0,10351,,4,219,192
Sprite,Foreground,Centre,"sb/w.png",454,349 S,2,10448,10748,1,0.2 F,2,10448,10748,1,0 P,0,10448,10748,A C,0,10448,,4,219,192
Sprite,Foreground,Centre,"sb/w.png",244,327 S,2,10641,10941,1,0.2 F,2,10641,10941,1,0 P,0,10641,10941,A C,0,10641,,4,219,192
Sprite,Foreground,Centre,"sb/w.png",502,399 S,2,10835,11135,1,0.2 F,2,10835,11135,1,0 P,0,10835,11135,A C,0,10835,,255,121,162
Sprite,Foreground,Centre,"sb/w.png",525,363 S,2,10932,11232,1,0.2 F,2,10932,11232,1,0 P,0,10932,11232,A C,0,10932,,255,121,162
Sprite,Foreground,Centre,"sb/w.png",525,320 S,2,11029,11329,1,0.2 F,2,11029,11329,1,0 P,0,11029,11329,A C,0,11029,,255,121,162
Sprite,Foreground,Centre,"sb/w.png",498,287 S,2,11125,11425,1,0.2 F,2,11125,11425,1,0 P,0,11125,11425,A C,0,11125,,255,121,162
Sprite,Foreground,Centre,"sb/w.png",468,256 S,2,11222,11522,1,0.2 F,2,11222,11522,1,0 P,0,11222,11522,A C,0,11222,,255,121,162
Sprite,Foreground,Centre,"sb/w.png",463,214 S,2,11319,11619,1,0.2 F,2,11319,11619,1,0 P,0,11319,11619,A C,0,11319,,255,121,162
Sprite,Foreground,Centre,"sb/w.png",477,174 S,2,11416,11716,1,0.2 F,2,11416,11716,1,0 P,0,11416,11716,A C,0,11416,,255,121,162
Sprite,Foreground,Centre,"sb/w.png",513,153 S,2,11512,11812,1,0.2 F,2,11512,11812,1,0 P,0,11512,11812,A C,0,11512,,255,121,162
Sprite,Foreground,Centre,"sb/w.png",561,230 S,2,11609,11909,1,0.2 F,2,11609,11909,1,0 P,0,11609,11909,A C,0,11609,,255,210,0
Sprite,Foreground,Centre,"sb/w.png",547,228 S,2,11706,12006,1,0.2 F,2,11706,12006,1,0 P,0,11706,12006,A C,0,11706,,255,210,0
Sprite,Foreground,Centre,"sb/w.png",533,225 S,2,11803,12103,1,0.2 F,2,11803,12103,1,0 P,0,11803,12103,A C,0,11803,,255,210,0
Sprite,Foreground,Centre,"sb/w.png",519,223 S,2,11900,12200,1,0.2 F,2,11900,12200,1,0 P,0,11900,12200,A C,0,11900,,255,210,0
Sprite,Foreground,Centre,"sb/w.png",505,221 S,2,11996,12296,1,0.2 F,2,11996,12296,1,0 P,0,11996,12296,A C,0,11996,,255,210,0
Sprite,Foreground,Centre,"sb/w.png",491,219 S,2,12093,12393,1,0.2 F,2,12093,12393,1,0 P,0,12093,12393,A C,0,12093,,255,210,0
Sprite,Foreground,Centre,"sb/w.png",478,217 S,2,12190,12490,1,0.2 F,2,12190,12490,1,0 P,0,12190,12490,A C,0,12190,,255,210,0
Sprite,Foreground,Centre,"sb/w.png",463,214 S,2,12287,12587,1,0.2 F,2,12287,12587,1,0 P,0,12287,12587,A C,0,12287,,255,210,0
Sprite,Foreground,Centre,"sb/w.png",449,212 S,2,12383,12683,1,0.2 F,2,12383,12683,1,0 P,0,12383,12683,A C,0,12383,,4,219,192
Sprite,Foreground,Centre,"sb/w.png",190,150 S,2,12577,12877,1,0.2 F,2,12577,12877,1,0 P,0,12577,12877,A C,0,12577,,4,219,192
Sprite,Foreground,Centre,"sb/w.png",349,110 S,2,12770,13070,1,0.2 F,2,12770,13070,1,0 P,0,12770,13070,A C,0,12770,,4,219,192
Sprite,Foreground,Centre,"sb/w.png",334,113 S,2,12867,13167,1,0.2 F,2,12867,13167,1,0 P,0,12867,13167,A C,0,12867,,4,219,192
Sprite,Foreground,Centre,"sb/w.png",320,115 S,2,12963,13263,1,0.2 F,2,12963,13263,1,0 P,0,12963,13263,A C,0,12963,,4,219,192
Sprite,Foreground,Centre,"sb/w.png",78,149 S,2,13158,13458,1,0.2 F,2,13158,13458,1,0 P,0,13158,13458,A C,0,13158,,255,121,162
Sprite,Foreground,Centre,"sb/w.png",258,287 S,19,14512,14862,1,0.7 F,2,14512,14862,1,0
Sprite,Foreground,Centre,"sb/w.png",285,65 S,19,14706,15056,1,0.7 F,2,14706,15056,1,0
Sprite,Foreground,Centre,"sb/w.png",365,403 S,19,17125,17475,1,0.7 F,2,17125,17475,1,0
Sprite,Foreground,Centre,"sb/w.png",393,261 S,19,17416,17766,1,0.7 F,2,17416,17766,1,0
Sprite,Foreground,Centre,"sb/w.png",541,334 S,19,17609,17959,1,0.7 F,2,17609,17959,1,0
Sprite,Foreground,Centre,"sb/w.png",501,114 S,19,17803,18153,1,0.7 F,2,17803,18153,1,0
Sprite,Foreground,Centre,"sb/f.jpg",325,385 S,19,49351,49551,2,1 F,2,49351,49551,1,0 C,0,49351,,255,210,0
Sprite,Foreground,Centre,"sb/f.jpg",328,373 S,19,49448,49648,2,1 F,2,49448,49648,1,0 C,0,49448,,255,210,0
Sprite,Foreground,Centre,"sb/f.jpg",330,360 S,19,49544,49744,2,1 F,2,49544,49744,1,0 C,0,49544,,255,210,0
Sprite,Foreground,Centre,"sb/f.jpg",333,347 S,19,49641,49841,2,1 F,2,49641,49841,1,0 C,0,49641,,255,210,0
Sprite,Foreground,Centre,"sb/f.jpg",336,334 S,19,49738,49938,2,1 F,2,49738,49938,1,0 C,0,49738,,255,210,0
Sprite,Foreground,Centre,"sb/f.jpg",261,440 S,19,49932,50132,2,1 F,2,49932,50132,1,0 C,0,49932,,4,219,192
Sprite,Foreground,Centre,"sb/f.jpg",395,421 S,19,50125,50325,2,1 F,2,50125,50325,1,0 C,0,50125,,4,219,192
Sprite,Foreground,Centre,"sb/w.png",136,416 S,2,69287,69587,1,0.2 F,2,69287,69587,1,0 P,0,69287,69587,A C,0,69287,,255,210,0
Sprite,Foreground,Centre,"sb/w.png",79,361 S,2,69383,69683,1,0.2 F,2,69383,69683,1,0 P,0,69383,69683,A C,0,69383,,255,210,0
Sprite,Foreground,Centre,"sb/w.png",121,335 S,2,69480,69780,1,0.2 F,2,69480,69780,1,0 P,0,69480,69780,A C,0,69480,,255,210,0
Sprite,Foreground,Centre,"sb/w.png",170,342 S,2,69577,69877,1,0.2 F,2,69577,69877,1,0 P,0,69577,69877,A C,0,69577,,255,210,0
Sprite,Foreground,Centre,"sb/w.png",231,393 S,2,69674,69974,1,0.2 F,2,69674,69974,1,0 P,0,69674,69974,A C,0,69674,,255,210,0
Sprite,Foreground,Centre,"sb/w.png",237,377 S,2,69770,70070,1,0.2 F,2,69770,70070,1,0 P,0,69770,70070,A C,0,69770,,255,210,0
Sprite,Foreground,Centre,"sb/w.png",243,359 S,2,69867,70167,1,0.2 F,2,69867,70167,1,0 P,0,69867,70167,A C,0,69867,,255,210,0
Sprite,Foreground,Centre,"sb/w.png",271,286 S,2,69964,70264,1,0.2 F,2,69964,70264,1,0 P,0,69964,70264,A C,0,69964,,255,210,0
Sprite,Foreground,Centre,"sb/w.png",327,340 S,2,70061,70361,1,0.2 F,2,70061,70361,1,0 P,0,70061,70361,A C,0,70061,,255,210,0
Sprite,Foreground,Centre,"sb/w.png",400,327 S,2,70158,70458,1,0.2 F,2,70158,70458,1,0 P,0,70158,70458,A C,0,70158,,255,210,0
Sprite,Foreground,Centre,"sb/w.png",320,362 S,2,70254,70554,1,0.2 F,2,70254,70554,1,0 P,0,70254,70554,A C,0,70254,,255,210,0
Sprite,Foreground,Centre,"sb/w.png",356,195 S,2,70448,70748,1,0.2 F,2,70448,70748,1,0 P,0,70448,70748,A C,0,70448,,4,219,192
Sprite,Foreground,Centre,"sb/w.png",469,356 S,2,70641,70941,1,0.2 F,2,70641,70941,1,0 P,0,70641,70941,A C,0,70641,,255,121,162
Sprite,Foreground,Centre,"sb/w.png",473,322 S,2,70738,71038,1,0.2 F,2,70738,71038,1,0 P,0,70738,71038,A C,0,70738,,255,121,162
Sprite,Foreground,Centre,"sb/w.png",478,285 S,2,70835,71135,1,0.2 F,2,70835,71135,1,0 P,0,70835,71135,A C,0,70835,,255,121,162
Sprite,Foreground,Centre,"sb/w.png",445,218 S,2,70931,71231,1,0.2 F,2,70931,71231,1,0 P,0,70931,71231,A C,0,70931,,255,121,162
Sprite,Foreground,Centre,"sb/w.png",386,265 S,2,71028,71328,1,0.2 F,2,71028,71328,1,0 P,0,71028,71328,A C,0,71028,,255,121,162
Sprite,Foreground,Centre,"sb/w.png",356,269 S,2,71125,71425,1,0.2 F,2,71125,71425,1,0 P,0,71125,71425,A C,0,71125,,255,121,162
Sprite,Foreground,Centre,"sb/w.png",324,275 S,2,71222,71522,1,0.2 F,2,71222,71522,1,0 P,0,71222,71522,A C,0,71222,,255,121,162
Sprite,Foreground,Centre,"sb/w.png",253,311 S,2,71318,71618,1,0.2 F,2,71318,71618,1,0 P,0,71318,71618,A C,0,71318,,255,121,162
Sprite,Foreground,Centre,"sb/w.png",242,290 S,2,71415,71715,1,0.2 F,2,71415,71715,1,0 P,0,71415,71715,A C,0,71415,,255,121,162
Sprite,Foreground,Centre,"sb/w.png",267,220 S,2,71512,71812,1,0.2 F,2,71512,71812,1,0 P,0,71512,71812,A C,0,71512,,255,121,162
Sprite,Foreground,Centre,"sb/w.png",200,200 S,2,71609,71909,1,0.2 F,2,71609,71909,1,0 P,0,71609,71909,A C,0,71609,,255,121,162
Sprite,Foreground,Centre,"sb/w.png",204,169 S,2,71705,72005,1,0.2 F,2,71705,72005,1,0 P,0,71705,72005,A C,0,71705,,255,121,162
Sprite,Foreground,Centre,"sb/w.png",250,107 S,2,71802,72102,1,0.2 F,2,71802,72102,1,0 P,0,71802,72102,A C,0,71802,,255,121,162
Sprite,Foreground,Centre,"sb/w.png",170,97 S,2,71899,72199,1,0.2 F,2,71899,72199,1,0 P,0,71899,72199,A C,0,71899,,255,121,162
Sprite,Foreground,Centre,"sb/w.png",216,148 S,2,19351,19651,1,0.2 F,2,19351,19651,1,0 P,0,19351,19651,A C,0,19351,,255,121,162
Sprite,Foreground,Centre,"sb/w.png",216,148 S,2,19448,19748,1,0.2 F,2,19448,19748,1,0 P,0,19448,19748,A C,0,19448,,255,121,162
Sprite,Foreground,Centre,"sb/w.png",300,163 S,2,19641,19941,1,0.2 F,2,19641,19941,1,0 P,0,19641,19941,A C,0,19641,,255,121,162
Sprite,Foreground,Centre,"sb/w.png",300,163 S,2,19738,20038,1,0.2 F,2,19738,20038,1,0 P,0,19738,20038,A C,0,19738,,255,121,162
Sprite,Foreground,Centre,"sb/w.png",311,241 S,2,19932,20232,1,0.2 F,2,19932,20232,1,0 P,0,19932,20232,A C,0,19932,,255,121,162
Sprite,Foreground,Centre,"sb/w.png",286,88 S,2,20125,20425,1,0.2 F,2,20125,20425,1,0 P,0,20125,20425,A C,0,20125,,255,210,0
Sprite,Foreground,Centre,"sb/w.png",329,324 S,2,20512,20812,1,0.2 F,2,20512,20812,1,0 P,0,20512,20812,A C,0,20512,,255,210,0
Sprite,Foreground,Centre,"sb/w.png",329,324 S,2,20706,21006,1,0.2 F,2,20706,21006,1,0 P,0,20706,21006,A C,0,20706,,255,210,0
Sprite,Foreground,Centre,"sb/w.png",116,217 S,2,20900,21200,1,0.2 F,2,20900,21200,1,0 P,0,20900,21200,A C,0,20900,,4,219,192
Sprite,Foreground,Centre,"sb/w.png",232,208 S,2,21190,21490,1,0.2 F,2,21190,21490,1,0 P,0,21190,21490,A C,0,21190,,4,219,192
Sprite,Foreground,Centre,"sb/w.png",232,208 S,2,21287,21587,1,0.2 F,2,21287,21587,1,0 P,0,21287,21587,A C,0,21287,,4,219,192
Sprite,Foreground,Centre,"sb/w.png",308,232 S,2,21480,21780,1,0.2 F,2,21480,21780,1,0 P,0,21480,21780,A C,0,21480,,4,219,192
Sprite,Foreground,Centre,"sb/w.png",384,266 S,2,21674,21974,1,0.2 F,2,21674,21974,1,0 P,0,21674,21974,A C,0,21674,,255,121,162
Sprite,Foreground,Centre,"sb/w.png",500,257 S,2,21964,22264,1,0.2 F,2,21964,22264,1,0 P,0,21964,22264,A C,0,21964,,255,121,162
Sprite,Foreground,Centre,"sb/w.png",500,257 S,2,22061,22361,1,0.2 F,2,22061,22361,1,0 P,0,22061,22361,A C,0,22061,,255,121,162
Sprite,Foreground,Centre,"sb/w.png",576,281 S,2,22254,22554,1,0.2 F,2,22254,22554,1,0 P,0,22254,22554,A C,0,22254,,255,121,162
Sprite,Foreground,Centre,"sb/w.png",470,160 S,2,22448,22748,1,0.2 F,2,22448,22748,1,0 P,0,22448,22748,A C,0,22448,,255,210,0
Sprite,Foreground,Centre,"sb/w.png",446,341 S,2,22641,22941,1,0.2 F,2,22641,22941,1,0 P,0,22641,22941,A C,0,22641,,255,210,0
Sprite,Foreground,Centre,"sb/w.png",446,341 S,2,22738,23038,1,0.2 F,2,22738,23038,1,0 P,0,22738,23038,A C,0,22738,,255,210,0
Sprite,Foreground,Centre,"sb/w.png",446,341 S,2,22835,23135,1,0.2 F,2,22835,23135,1,0 P,0,22835,23135,A C,0,22835,,255,210,0
Sprite,Foreground,Centre,"sb/w.png",320,272 S,2,23029,23329,1,0.2 F,2,23029,23329,1,0 P,0,23029,23329,A C,0,23029,,255,210,0
Sprite,Foreground,Centre,"sb/w.png",547,199 S,2,23222,23522,1,0.2 F,2,23222,23522,1,0 P,0,23222,23522,A C,0,23222,,4,219,192
Sprite,Foreground,Centre,"sb/w.png",369,102 S,2,23416,23716,1,0.2 F,2,23416,23716,1,0 P,0,23416,23716,A C,0,23416,,4,219,192
Sprite,Foreground,Centre,"sb/w.png",349,111 S,2,23512,23812,1,0.2 F,2,23512,23812,1,0 P,0,23512,23812,A C,0,23512,,4,219,192
Sprite,Foreground,Centre,"sb/w.png",330,119 S,2,23609,23909,1,0.2 F,2,23609,23909,1,0 P,0,23609,23909,A C,0,23609,,4,219,192
Sprite,Foreground,Centre,"sb/w.png",121,181 S,2,23803,24103,1,0.2 F,2,23803,24103,1,0 P,0,23803,24103,A C,0,23803,,4,219,192
Sprite,Foreground,Centre,"sb/w.png",165,193 S,2,23900,24200,1,0.2 F,2,23900,24200,1,0 P,0,23900,24200,A C,0,23900,,4,219,192
Sprite,Foreground,Centre,"sb/w.png",211,206 S,2,23996,24296,1,0.2 F,2,23996,24296,1,0 P,0,23996,24296,A C,0,23996,,255,121,162
Sprite,Foreground,Centre,"sb/w.png",207,224 S,2,24093,24393,1,0.2 F,2,24093,24393,1,0 P,0,24093,24393,A C,0,24093,,255,121,162
Sprite,Foreground,Centre,"sb/w.png",270,245 S,2,24190,24490,1,0.2 F,2,24190,24490,1,0 P,0,24190,24490,A C,0,24190,,255,210,0
Sprite,Foreground,Centre,"sb/w.png",273,262 S,2,24287,24587,1,0.2 F,2,24287,24587,1,0 P,0,24287,24587,A C,0,24287,,255,210,0
Sprite,Foreground,Centre,"sb/w.png",278,284 S,2,24383,24683,1,0.2 F,2,24383,24683,1,0 P,0,24383,24683,A C,0,24383,,255,210,0
Sprite,Foreground,Centre,"sb/w.png",281,301 S,2,24480,24780,1,0.2 F,2,24480,24780,1,0 P,0,24480,24780,A C,0,24480,,255,210,0
Sprite,Foreground,Centre,"sb/w.png",350,333 S,2,24577,24877,1,0.2 F,2,24577,24877,1,0 P,0,24577,24877,A C,0,24577,,4,219,192
Sprite,Foreground,Centre,"sb/w.png",355,311 S,2,24674,24974,1,0.2 F,2,24674,24974,1,0 P,0,24674,24974,A C,0,24674,,4,219,192
Sprite,Foreground,Centre,"sb/w.png",366,288 S,2,24770,25070,1,0.2 F,2,24770,25070,1,0 P,0,24770,25070,A C,0,24770,,4,219,192
Sprite,Foreground,Centre,"sb/w.png",400,267 S,2,24867,25167,1,0.2 F,2,24867,25167,1,0 P,0,24867,25167,A C,0,24867,,4,219,192
Sprite,Foreground,Centre,"sb/w.png",453,267 S,2,24964,25264,1,0.2 F,2,24964,25264,1,0 P,0,24964,25264,A C,0,24964,,4,219,192
Sprite,Foreground,Centre,"sb/w.png",503,311 S,2,25061,25361,1,0.2 F,2,25061,25361,1,0 P,0,25061,25361,A C,0,25061,,4,219,192
Sprite,Foreground,Centre,"sb/e.jpg",242,405 S,19,25545,25745,3,1 F,2,25545,25745,1,0 C,0,25545,,255,210,0
Sprite,Foreground,Centre,"sb/e.jpg",242,405 S,19,25932,26132,3,1 F,2,25932,26132,1,0 C,0,25932,,255,210,0
Sprite,Foreground,Centre,"sb/e.jpg",242,405 S,19,26319,26519,3,1 F,2,26319,26519,1,0 C,0,26319,,255,210,0
Sprite,Foreground,Centre,"sb/e.jpg",263,274 S,19,26609,26809,3,1 F,2,26609,26809,1,0 C,0,26609,,4,219,192
Sprite,Foreground,Centre,"sb/e.jpg",242,405 S,19,26707,26907,3,1 F,2,26707,26907,1,0 C,0,26707,,4,219,192
Sprite,Foreground,Centre,"sb/e.jpg",128,148 S,19,27093,27293,3,1 F,2,27093,27293,1,0 C,0,27093,,255,121,162
Sprite,Foreground,Centre,"sb/e.jpg",128,148 S,19,27480,27680,3,1 F,2,27480,27680,1,0 C,0,27480,,255,121,162
Sprite,Foreground,Centre,"sb/e.jpg",140,280 S,19,27770,27970,3,1 F,2,27770,27970,1,0 C,0,27770,,255,210,0
Sprite,Foreground,Centre,"sb/e.jpg",128,148 S,19,27867,28067,3,1 F,2,27867,28067,1,0 C,0,27867,,255,210,0
Sprite,Foreground,Centre,"sb/e.jpg",252,276 S,19,28061,28261,3,1 F,2,28061,28261,1,0 C,0,28061,,4,219,192
Sprite,Foreground,Centre,"sb/e.jpg",249,249 S,19,28158,28358,3,1 F,2,28158,28358,1,0 C,0,28158,,4,219,192
Sprite,Foreground,Centre,"sb/e.jpg",302,201 S,19,28254,28454,3,1 F,2,28254,28454,1,0 C,0,28254,,4,219,192
Sprite,Foreground,Centre,"sb/e.jpg",304,162 S,19,28351,28551,3,1 F,2,28351,28551,1,0 C,0,28351,,4,219,192
Sprite,Foreground,Centre,"sb/e.jpg",235,121 S,19,28448,28648,3,1 F,2,28448,28648,1,0 C,0,28448,,255,121,162
Sprite,Foreground,Centre,"sb/e.jpg",576,217 S,19,28641,28841,3,1 F,2,28641,28841,1,0 C,0,28641,,255,210,0
Sprite,Foreground,Centre,"sb/e.jpg",576,217 S,19,29029,29229,3,1 F,2,29029,29229,1,0 C,0,29029,,255,210,0
Sprite,Foreground,Centre,"sb/e.jpg",576,217 S,19,29416,29616,3,1 F,2,29416,29616,1,0 C,0,29416,,255,210,0
Sprite,Foreground,Centre,"sb/e.jpg",431,239 S,19,29706,29906,3,1 F,2,29706,29906,1,0 C,0,29706,,4,219,192
Sprite,Foreground,Centre,"sb/e.jpg",576,217 S,19,29803,30003,3,1 F,2,29803,30003,1,0 C,0,29803,,4,219,192
Sprite,Foreground,Centre,"sb/e.jpg",290,391 S,19,30190,30390,3,1 F,2,30190,30390,1,0 C,0,30190,,255,121,162
Sprite,Foreground,Centre,"sb/e.jpg",249,124 S,19,30383,30583,3,1 F,2,30383,30583,1,0 C,0,30383,,255,121,162
Sprite,Foreground,Centre,"sb/e.jpg",290,391 S,19,30577,30777,3,1 F,2,30577,30777,1,0 C,0,30577,,255,121,162
Sprite,Foreground,Centre,"sb/e.jpg",144,253 S,19,30770,30970,3,1 F,2,30770,30970,1,0 C,0,30770,,255,121,162
Sprite,Foreground,Centre,"sb/e.jpg",148,229 S,19,30867,31067,3,1 F,2,30867,31067,1,0 C,0,30867,,255,121,162
Sprite,Foreground,Centre,"sb/e.jpg",171,294 S,19,30964,31164,3,1 F,2,30964,31164,1,0 C,0,30964,,255,210,0
Sprite,Foreground,Centre,"sb/e.jpg",88,312 S,19,31158,31358,3,1 F,2,31158,31358,1,0 C,0,31158,,255,210,0
Sprite,Foreground,Centre,"sb/e.jpg",370,201 S,19,31351,31551,3,1 F,2,31351,31551,1,0 C,0,31351,,4,219,192
Sprite,Foreground,Centre,"sb/e.jpg",287,219 S,19,31545,31745,3,1 F,2,31545,31745,1,0 C,0,31545,,4,219,192
Sprite,Foreground,Centre,"sb/e.jpg",538,116 S,19,31738,31938,3,1 F,2,31738,31938,1,0 C,0,31738,,255,121,162
Sprite,Foreground,Centre,"sb/e.jpg",538,116 S,19,32125,32325,3,1 F,2,32125,32325,1,0 C,0,32125,,255,121,162
Sprite,Foreground,Centre,"sb/e.jpg",538,116 S,19,32512,32712,3,1 F,2,32512,32712,1,0 C,0,32512,,255,121,162
Sprite,Foreground,Centre,"sb/e.jpg",518,265 S,19,32803,33003,3,1 F,2,32803,33003,1,0 C,0,32803,,255,210,0
Sprite,Foreground,Centre,"sb/e.jpg",538,116 S,19,32900,33100,3,1 F,2,32900,33100,1,0 C,0,32900,,255,210,0
Sprite,Foreground,Centre,"sb/e.jpg",380,409 S,19,33287,33487,3,1 F,2,33287,33487,1,0 C,0,33287,,4,219,192
Sprite,Foreground,Centre,"sb/e.jpg",380,409 S,19,33674,33874,3,1 F,2,33674,33874,1,0 C,0,33674,,4,219,192
Sprite,Foreground,Centre,"sb/e.jpg",360,260 S,19,33965,34165,3,1 F,2,33965,34165,1,0 C,0,33965,,255,121,162
Sprite,Foreground,Centre,"sb/e.jpg",380,409 S,19,34062,34262,3,1 F,2,34062,34262,1,0 C,0,34062,,255,121,162
Sprite,Foreground,Centre,"sb/e.jpg",294,237 S,19,34254,34454,3,1 F,2,34254,34454,1,0 C,0,34254,,255,210,0
Sprite,Foreground,Centre,"sb/e.jpg",307,213 S,19,34351,34551,3,1 F,2,34351,34551,1,0 C,0,34351,,255,210,0
Sprite,Foreground,Centre,"sb/e.jpg",225,245 S,19,34448,34648,3,1 F,2,34448,34648,1,0 C,0,34448,,4,219,192
Sprite,Foreground,Centre,"sb/e.jpg",198,245 S,19,34545,34745,3,1 F,2,34545,34745,1,0 C,0,34545,,4,219,192
Sprite,Foreground,Centre,"sb/e.jpg",267,303 S,19,34641,34841,3,1 F,2,34641,34841,1,0 C,0,34641,,255,121,162
Sprite,Foreground,Centre,"sb/e.jpg",179,91 S,19,34835,35035,3,1 F,2,34835,35035,1,0 C,0,34835,,255,210,0
Sprite,Foreground,Centre,"sb/e.jpg",179,91 S,19,35222,35422,3,1 F,2,35222,35422,1,0 C,0,35222,,255,210,0
Sprite,Foreground,Centre,"sb/e.jpg",179,91 S,19,35609,35809,3,1 F,2,35609,35809,1,0 C,0,35609,,255,210,0
Sprite,Foreground,Centre,"sb/e.jpg",334,115 S,19,35900,36100,3,1 F,2,35900,36100,1,0 C,0,35900,,4,219,192
Sprite,Foreground,Centre,"sb/e.jpg",179,91 S,19,35996,36196,3,1 F,2,35996,36196,1,0 C,0,35996,,4,219,192
Sprite,Foreground,Centre,"sb/w.png",409,153 S,2,50319,50619,1,0.2 F,2,50319,50619,1,0 P,0,50319,50619,A C,0,50319,,255,121,162
Sprite,Foreground,Centre,"sb/w.png",240,173 S,2,50512,50812,1,0.2 F,2,50512,50812,1,0 P,0,50512,50812,A C,0,50512,,255,121,162
Sprite,Foreground,Centre,"sb/w.png",64,189 S,2,50706,51006,1,0.2 F,2,50706,51006,1,0 P,0,50706,51006,A C,0,50706,,255,210,0
Sprite,Foreground,Centre,"sb/w.png",145,201 S,2,50803,51103,1,0.2 F,2,50803,51103,1,0 P,0,50803,51103,A C,0,50803,,255,210,0
Sprite,Foreground,Centre,"sb/w.png",283,59 S,2,50996,51296,1,0.2 F,2,50996,51296,1,0 P,0,50996,51296,A C,0,50996,,4,219,192
Sprite,Foreground,Centre,"sb/w.png",199,75 S,2,51093,51393,1,0.2 F,2,51093,51393,1,0 P,0,51093,51393,A C,0,51093,,4,219,192
Sprite,Foreground,Centre,"sb/w.png",243,278 S,2,51287,51587,1,0.2 F,2,51287,51587,1,0 P,0,51287,51587,A C,0,51287,,4,219,192
Sprite,Foreground,Centre,"sb/w.png",422,400 S,2,51480,51780,1,0.2 F,2,51480,51780,1,0 P,0,51480,51780,A C,0,51480,,255,121,162
Sprite,Foreground,Centre,"sb/w.png",453,194 S,2,51674,51974,1,0.2 F,2,51674,51974,1,0 P,0,51674,51974,A C,0,51674,,255,121,162
Sprite,Foreground,Centre,"sb/w.png",385,223 S,2,51770,52070,1,0.2 F,2,51770,52070,1,0 P,0,51770,52070,A C,0,51770,,255,121,162
Sprite,Foreground,Centre,"sb/w.png",311,251 S,2,51867,52167,1,0.2 F,2,51867,52167,1,0 P,0,51867,52167,A C,0,51867,,255,210,0
Sprite,Foreground,Centre,"sb/w.png",522,292 S,2,52061,52361,1,0.2 F,2,52061,52361,1,0 P,0,52061,52361,A C,0,52061,,255,210,0
Sprite,Foreground,Centre,"sb/w.png",457,78 S,2,52254,52554,1,0.2 F,2,52254,52554,1,0 P,0,52254,52554,A C,0,52254,,4,219,192
Sprite,Foreground,Centre,"sb/w.png",392,106 S,2,52351,52651,1,0.2 F,2,52351,52651,1,0 P,0,52351,52651,A C,0,52351,,4,219,192
Sprite,Foreground,Centre,"sb/w.png",382,88 S,2,52448,52748,1,0.2 F,2,52448,52748,1,0 P,0,52448,52748,A C,0,52448,,4,219,192
Sprite,Foreground,Centre,"sb/w.png",360,75 S,2,52545,52845,1,0.2 F,2,52545,52845,1,0 P,0,52545,52845,A C,0,52545,,4,219,192
Sprite,Foreground,Centre,"sb/w.png",324,134 S,2,52641,52941,1,0.2 F,2,52641,52941,1,0 P,0,52641,52941,A C,0,52641,,255,121,162
Sprite,Foreground,Centre,"sb/w.png",305,274 S,2,52835,53135,1,0.2 F,2,52835,53135,1,0 P,0,52835,53135,A C,0,52835,,255,121,162
Sprite,Foreground,Centre,"sb/w.png",162,396 S,2,53029,53329,1,0.2 F,2,53029,53329,1,0 P,0,53029,53329,A C,0,53029,,255,210,0
Sprite,Foreground,Centre,"sb/w.png",106,142 S,2,53222,53522,1,0.2 F,2,53222,53522,1,0 P,0,53222,53522,A C,0,53222,,255,210,0
Sprite,Foreground,Centre,"sb/w.png",364,434 S,2,53416,53716,1,0.2 F,2,53416,53716,1,0 P,0,53416,53716,A C,0,53416,,4,219,192
Sprite,Foreground,Centre,"sb/w.png",391,273 S,2,53609,53909,1,0.2 F,2,53609,53909,1,0 P,0,53609,53909,A C,0,53609,,4,219,192
Sprite,Foreground,Centre,"sb/w.png",418,127 S,2,53803,54103,1,0.2 F,2,53803,54103,1,0 P,0,53803,54103,A C,0,53803,,255,121,162
Sprite,Foreground,Centre,"sb/w.png",488,188 S,2,53900,54200,1,0.2 F,2,53900,54200,1,0 P,0,53900,54200,A C,0,53900,,255,121,162
Sprite,Foreground,Centre,"sb/w.png",302,244 S,2,54093,54393,1,0.2 F,2,54093,54393,1,0 P,0,54093,54393,A C,0,54093,,255,210,0
Sprite,Foreground,Centre,"sb/w.png",319,155 S,2,54190,54490,1,0.2 F,2,54190,54490,1,0 P,0,54190,54490,A C,0,54190,,255,210,0
Sprite,Foreground,Centre,"sb/w.png",483,306 S,2,54383,54683,1,0.2 F,2,54383,54683,1,0 P,0,54383,54683,A C,0,54383,,255,210,0
Sprite,Foreground,Centre,"sb/w.png",241,193 S,2,54577,54877,1,0.2 F,2,54577,54877,1,0 P,0,54577,54877,A C,0,54577,,4,219,192
Sprite,Foreground,Centre,"sb/w.png",161,176 S,2,54674,54974,1,0.2 F,2,54674,54974,1,0 P,0,54674,54974,A C,0,54674,,4,219,192
Sprite,Foreground,Centre,"sb/w.png",143,256 S,2,54770,55070,1,0.2 F,2,54770,55070,1,0 P,0,54770,55070,A C,0,54770,,4,219,192
Sprite,Foreground,Centre,"sb/w.png",226,275 S,2,54867,55167,1,0.2 F,2,54867,55167,1,0 P,0,54867,55167,A C,0,54867,,4,219,192
Sprite,Foreground,Centre,"sb/w.png",310,296 S,2,54964,55264,1,0.2 F,2,54964,55264,1,0 P,0,54964,55264,A C,0,54964,,255,121,162
Sprite,Foreground,Centre,"sb/w.png",318,337 S,2,55158,55458,1,0.2 F,2,55158,55458,1,0 P,0,55158,55458,A C,0,55158,,255,121,162
Sprite,Foreground,Centre,"sb/w.png",507,196 S,2,55351,55651,1,0.2 F,2,55351,55651,1,0 P,0,55351,55651,A C,0,55351,,255,210,0
Sprite,Foreground,Centre,"sb/w.png",499,236 S,2,55545,55845,1,0.2 F,2,55545,55845,1,0 P,0,55545,55845,A C,0,55545,,255,210,0
Sprite,Foreground,Centre,"sb/w.png",453,404 S,2,55738,56038,1,0.2 F,2,55738,56038,1,0 P,0,55738,56038,A C,0,55738,,255,210,0
Sprite,Foreground,Centre,"sb/w.png",269,97 S,2,55932,56232,1,0.2 F,2,55932,56232,1,0 P,0,55932,56232,A C,0,55932,,4,219,192
Sprite,Foreground,Centre,"sb/w.png",252,414 S,2,56125,56425,1,0.2 F,2,56125,56425,1,0 P,0,56125,56425,A C,0,56125,,4,219,192
Sprite,Foreground,Centre,"sb/w.png",525,297 S,2,56319,56619,1,0.2 F,2,56319,56619,1,0 P,0,56319,56619,A C,0,56319,,4,219,192
Sprite,Foreground,Centre,"sb/w.png",115,236 S,2,56512,56812,1,0.2 F,2,56512,56812,1,0 P,0,56512,56812,A C,0,56512,,255,121,162
Sprite,Foreground,Centre,"sb/w.png",293,252 S,2,56706,57006,1,0.2 F,2,56706,57006,1,0 P,0,56706,57006,A C,0,56706,,255,121,162
Sprite,Foreground,Centre,"sb/w.png",462,266 S,2,56900,57200,1,0.2 F,2,56900,57200,1,0 P,0,56900,57200,A C,0,56900,,255,210,0
Sprite,Foreground,Centre,"sb/w.png",383,301 S,2,56997,57297,1,0.2 F,2,56997,57297,1,0 P,0,56997,57297,A C,0,56997,,255,210,0
Sprite,Foreground,Centre,"sb/w.png",290,163 S,2,57190,57490,1,0.2 F,2,57190,57490,1,0 P,0,57190,57490,A C,0,57190,,4,219,192
Sprite,Foreground,Centre,"sb/w.png",369,198 S,2,57287,57587,1,0.2 F,2,57287,57587,1,0 P,0,57287,57587,A C,0,57287,,4,219,192
Sprite,Foreground,Centre,"sb/w.png",284,357 S,2,57480,57780,1,0.2 F,2,57480,57780,1,0 P,0,57480,57780,A C,0,57480,,4,219,192
Sprite,Foreground,Centre,"sb/w.png",154,165 S,2,57674,57974,1,0.2 F,2,57674,57974,1,0 P,0,57674,57974,A C,0,57674,,255,121,162
Sprite,Foreground,Centre,"sb/w.png",158,235 S,2,57770,58070,1,0.2 F,2,57770,58070,1,0 P,0,57770,58070,A C,0,57770,,255,121,162
Sprite,Foreground,Centre,"sb/w.png",165,305 S,2,57867,58167,1,0.2 F,2,57867,58167,1,0 P,0,57867,58167,A C,0,57867,,255,121,162
Sprite,Foreground,Centre,"sb/w.png",359,56 S,2,58061,58361,1,0.2 F,2,58061,58361,1,0 P,0,58061,58361,A C,0,58061,,255,210,0
Sprite,Foreground,Centre,"sb/w.png",337,194 S,2,58254,58554,1,0.2 F,2,58254,58554,1,0 P,0,58254,58554,A C,0,58254,,255,210,0
Sprite,Foreground,Centre,"sb/w.png",311,330 S,2,58448,58748,1,0.2 F,2,58448,58748,1,0 P,0,58448,58748,A C,0,58448,,4,219,192
Sprite,Foreground,Centre,"sb/w.png",271,266 S,2,58545,58845,1,0.2 F,2,58545,58845,1,0 P,0,58545,58845,A C,0,58545,,4,219,192
Sprite,Foreground,Centre,"sb/w.png",287,258 S,2,58641,58941,1,0.2 F,2,58641,58941,1,0 P,0,58641,58941,A C,0,58641,,4,219,192
Sprite,Foreground,Centre,"sb/w.png",308,256 S,2,58738,59038,1,0.2 F,2,58738,59038,1,0 P,0,58738,59038,A C,0,58738,,4,219,192
Sprite,Foreground,Centre,"sb/w.png",372,285 S,2,58835,59135,1,0.2 F,2,58835,59135,1,0 P,0,58835,59135,A C,0,58835,,255,121,162
Sprite,Foreground,Centre,"sb/w.png",553,245 S,2,59029,59329,1,0.2 F,2,59029,59329,1,0 P,0,59029,59329,A C,0,59029,,255,121,162
Sprite,Foreground,Centre,"sb/w.png",428,109 S,2,59222,59522,1,0.2 F,2,59222,59522,1,0 P,0,59222,59522,A C,0,59222,,255,210,0
Sprite,Foreground,Centre,"sb/w.png",380,355 S,2,59416,59716,1,0.2 F,2,59416,59716,1,0 P,0,59416,59716,A C,0,59416,,255,210,0
Sprite,Foreground,Centre,"sb/w.png",178,196 S,2,59609,59909,1,0.2 F,2,59609,59909,1,0 P,0,59609,59909,A C,0,59609,,4,219,192
Sprite,Foreground,Centre,"sb/w.png",165,121 S,2,59803,60103,1,0.2 F,2,59803,60103,1,0 P,0,59803,60103,A C,0,59803,,4,219,192
Sprite,Foreground,Centre,"sb/w.png",422,291 S,2,59996,60296,1,0.2 F,2,59996,60296,1,0 P,0,59996,60296,A C,0,59996,,255,121,162
Sprite,Foreground,Centre,"sb/w.png",443,186 S,2,60190,60490,1,0.2 F,2,60190,60490,1,0 P,0,60190,60490,A C,0,60190,,255,121,162
Sprite,Foreground,Centre,"sb/w.png",147,371 S,2,60383,60683,1,0.2 F,2,60383,60683,1,0 P,0,60383,60683,A C,0,60383,,255,210,0
Sprite,Foreground,Centre,"sb/w.png",113,240 S,2,60577,60877,1,0.2 F,2,60577,60877,1,0 P,0,60577,60877,A C,0,60577,,255,210,0
Sprite,Foreground,Centre,"sb/w.png",479,440 S,2,60770,61070,1,0.2 F,2,60770,61070,1,0 P,0,60770,61070,A C,0,60770,,4,219,192
Sprite,Foreground,Centre,"sb/w.png",512,276 S,2,60964,61264,1,0.2 F,2,60964,61264,1,0 P,0,60964,61264,A C,0,60964,,4,219,192
Sprite,Foreground,Centre,"sb/w.png",216,95 S,2,61158,61458,1,0.2 F,2,61158,61458,1,0 P,0,61158,61458,A C,0,61158,,255,121,162
Sprite,Foreground,Centre,"sb/w.png",221,111 S,2,61254,61554,1,0.2 F,2,61254,61554,1,0 P,0,61254,61554,A C,0,61254,,255,121,162
Sprite,Foreground,Centre,"sb/w.png",222,131 S,2,61351,61651,1,0.2 F,2,61351,61651,1,0 P,0,61351,61651,A C,0,61351,,255,121,162
Sprite,Foreground,Centre,"sb/w.png",220,151 S,2,61448,61748,1,0.2 F,2,61448,61748,1,0 P,0,61448,61748,A C,0,61448,,255,121,162
Sprite,Foreground,Centre,"sb/w.png",139,204 S,2,61545,61845,1,0.2 F,2,61545,61845,1,0 P,0,61545,61845,A C,0,61545,,255,210,0
Sprite,Foreground,Centre,"sb/w.png",131,228 S,2,61641,61941,1,0.2 F,2,61641,61941,1,0 P,0,61641,61941,A C,0,61641,,255,210,0
Sprite,Foreground,Centre,"sb/w.png",130,258 S,2,61738,62038,1,0.2 F,2,61738,62038,1,0 P,0,61738,62038,A C,0,61738,,255,210,0
Sprite,Foreground,Centre,"sb/w.png",139,288 S,2,61835,62135,1,0.2 F,2,61835,62135,1,0 P,0,61835,62135,A C,0,61835,,255,210,0
Sprite,Foreground,Centre,"sb/w.png",224,328 S,2,61932,62232,1,0.2 F,2,61932,62232,1,0 P,0,61932,62232,A C,0,61932,,4,219,192
Sprite,Foreground,Centre,"sb/w.png",261,318 S,2,62029,62329,1,0.2 F,2,62029,62329,1,0 P,0,62029,62329,A C,0,62029,,4,219,192
Sprite,Foreground,Centre,"sb/w.png",288,388 S,2,62125,62425,1,0.2 F,2,62125,62425,1,0 P,0,62125,62425,A C,0,62125,,255,121,162
Sprite,Foreground,Centre,"sb/w.png",332,399 S,2,62222,62522,1,0.2 F,2,62222,62522,1,0 P,0,62222,62522,A C,0,62222,,255,121,162
Sprite,Foreground,Centre,"sb/w.png",356,311 S,2,62319,62619,1,0.2 F,2,62319,62619,1,0 P,0,62319,62619,A C,0,62319,,255,210,0
Sprite,Foreground,Centre,"sb/w.png",402,299 S,2,62416,62716,1,0.2 F,2,62416,62716,1,0 P,0,62416,62716,A C,0,62416,,255,210,0
Sprite,Foreground,Centre,"sb/w.png",425,395 S,2,62512,62812,1,0.2 F,2,62512,62812,1,0 P,0,62512,62812,A C,0,62512,,4,219,192
Sprite,Foreground,Centre,"sb/w.png",476,411 S,2,62609,62909,1,0.2 F,2,62609,62909,1,0 P,0,62609,62909,A C,0,62609,,4,219,192
Sprite,Foreground,Centre,"sb/f.jpg",96,197 S,19,37932,38132,2,1 F,2,37932,38132,1,0 C,0,37932,,4,219,192
Sprite,Foreground,Centre,"sb/f.jpg",313,286 S,19,38125,38325,2,1 F,2,38125,38325,1,0 C,0,38125,,255,121,162
Sprite,Foreground,Centre,"sb/f.jpg",307,168 S,19,38319,38519,2,1 F,2,38319,38519,1,0 C,0,38319,,255,121,162
Sprite,Foreground,Centre,"sb/f.jpg",413,225 S,19,38512,38712,2,1 F,2,38512,38712,1,0 C,0,38512,,255,121,162
Sprite,Foreground,Centre,"sb/f.jpg",423,231 S,19,38609,38809,2,1 F,2,38609,38809,1,0 C,0,38609,,255,121,162
Sprite,Foreground,Centre,"sb/f.jpg",299,295 S,19,38803,39003,2,1 F,2,38803,39003,1,0 C,0,38803,,255,121,162
Sprite,Foreground,Centre,"sb/f.jpg",289,301 S,19,38900,39100,2,1 F,2,38900,39100,1,0 C,0,38900,,255,121,162
Sprite,Foreground,Centre,"sb/f.jpg",393,141 S,19,39093,39293,2,1 F,2,39093,39293,1,0 C,0,39093,,255,210,0
Sprite,Foreground,Centre,"sb/f.jpg",222,228 S,19,39287,39487,2,1 F,2,39287,39487,1,0 C,0,39287,,255,210,0
Sprite,Foreground,Centre,"sb/f.jpg",392,342 S,19,39480,39680,2,1 F,2,39480,39680,1,0 C,0,39480,,4,219,192
Sprite,Foreground,Centre,"sb/f.jpg",192,440 S,19,39674,39874,2,1 F,2,39674,39874,1,0 C,0,39674,,255,121,162
Sprite,Foreground,Centre,"sb/f.jpg",298,386 S,19,39868,40068,2,1 F,2,39868,40068,1,0 C,0,39868,,255,121,162
Sprite,Foreground,Centre,"sb/f.jpg",201,324 S,19,40061,40261,2,1 F,2,40061,40261,1,0 C,0,40061,,255,121,162
Sprite,Foreground,Centre,"sb/f.jpg",191,318 S,19,40158,40358,2,1 F,2,40158,40358,1,0 C,0,40158,,255,121,162
Sprite,Foreground,Centre,"sb/f.jpg",310,393 S,19,40351,40551,2,1 F,2,40351,40551,1,0 C,0,40351,,255,121,162
Sprite,Foreground,Centre,"sb/f.jpg",320,399 S,19,40448,40648,2,1 F,2,40448,40648,1,0 C,0,40448,,255,210,0
Sprite,Foreground,Centre,"sb/f.jpg",107,270 S,19,40641,40841,2,1 F,2,40641,40841,1,0 C,0,40641,,255,210,0
Sprite,Foreground,Centre,"sb/f.jpg",249,57 S,19,40835,41035,2,1 F,2,40835,41035,1,0 C,0,40835,,255,210,0
Sprite,Foreground,Centre,"sb/f.jpg",462,186 S,19,41028,41228,2,1 F,2,41028,41228,1,0 C,0,41028,,4,219,192
Sprite,Foreground,Centre,"sb/f.jpg",298,225 S,19,41222,41422,2,1 F,2,41222,41422,1,0 C,0,41222,,4,219,192
Sprite,Foreground,Centre,"sb/f.jpg",144,259 S,19,41416,41616,2,1 F,2,41416,41616,1,0 C,0,41416,,4,219,192
Sprite,Foreground,Centre,"sb/f.jpg",398,291 S,19,41609,41809,2,1 F,2,41609,41809,1,0 C,0,41609,,255,121,162
Sprite,Foreground,Centre,"sb/f.jpg",410,292 S,19,41706,41906,2,1 F,2,41706,41906,1,0 C,0,41706,,255,121,162
Sprite,Foreground,Centre,"sb/f.jpg",422,294 S,19,41803,42003,2,1 F,2,41803,42003,1,0 C,0,41803,,255,121,162
Sprite,Foreground,Centre,"sb/f.jpg",350,151 S,19,41996,42196,2,1 F,2,41996,42196,1,0 C,0,41996,,255,121,162
Sprite,Foreground,Centre,"sb/f.jpg",339,153 S,19,42093,42293,2,1 F,2,42093,42293,1,0 C,0,42093,,255,121,162
Sprite,Foreground,Centre,"sb/f.jpg",328,156 S,19,42190,42390,2,1 F,2,42190,42390,1,0 C,0,42190,,255,121,162
Sprite,Foreground,Centre,"sb/f.jpg",181,190 S,19,42383,42583,2,1 F,2,42383,42583,1,0 C,0,42383,,255,121,162
Sprite,Foreground,Centre,"sb/f.jpg",304,353 S,19,42577,42777,2,1 F,2,42577,42777,1,0 C,0,42577,,255,210,0
Sprite,Foreground,Centre,"sb/f.jpg",341,56 S,19,42770,42970,2,1 F,2,42770,42970,1,0 C,0,42770,,255,210,0
Sprite,Foreground,Centre,"sb/f.jpg",304,353 S,19,42964,43164,2,1 F,2,42964,43164,1,0 C,0,42964,,4,219,192
Sprite,Foreground,Centre,"sb/f.jpg",443,165 S,19,43254,43454,2,1 F,2,43254,43454,1,0 C,0,43254,,4,219,192
Sprite,Foreground,Centre,"sb/f.jpg",213,149 S,19,43545,43745,2,1 F,2,43545,43745,1,0 C,0,43545,,4,219,192
Sprite,Foreground,Centre,"sb/f.jpg",213,149 S,19,43932,44132,2,1 F,2,43932,44132,1,0 C,0,43932,,255,121,162
Sprite,Foreground,Centre,"sb/f.jpg",273,417 S,19,44125,44325,2,1 F,2,44125,44325,1,0 C,0,44125,,255,210,0
Sprite,Foreground,Centre,"sb/f.jpg",230,232 S,19,44319,44519,2,1 F,2,44319,44519,1,0 C,0,44319,,4,219,192
Sprite,Foreground,Centre,"sb/f.jpg",318,331 S,19,44512,44712,2,1 F,2,44512,44712,1,0 C,0,44512,,4,219,192
Sprite,Foreground,Centre,"sb/f.jpg",198,360 S,19,44706,44906,2,1 F,2,44706,44906,1,0 C,0,44706,,4,219,192
Sprite,Foreground,Centre,"sb/f.jpg",187,362 S,19,44803,45003,2,1 F,2,44803,45003,1,0 C,0,44803,,4,219,192
Sprite,Foreground,Centre,"sb/f.jpg",331,328 S,19,44996,45196,2,1 F,2,44996,45196,1,0 C,0,44996,,4,219,192
Sprite,Foreground,Centre,"sb/f.jpg",340,327 S,19,45093,45293,2,1 F,2,45093,45293,1,0 C,0,45093,,4,219,192
Sprite,Foreground,Centre,"sb/f.jpg",131,262 S,19,45287,45487,2,1 F,2,45287,45487,1,0 C,0,45287,,255,121,162
Sprite,Foreground,Centre,"sb/f.jpg",274,440 S,19,45480,45680,2,1 F,2,45480,45680,1,0 C,0,45480,,255,121,162
Sprite,Foreground,Centre,"sb/f.jpg",360,218 S,19,45674,45874,2,1 F,2,45674,45874,1,0 C,0,45674,,255,210,0
Sprite,Foreground,Centre,"sb/f.jpg",523,398 S,19,45867,46067,2,1 F,2,45867,46067,1,0 C,0,45867,,4,219,192
Sprite,Foreground,Centre,"sb/f.jpg",385,355 S,19,46061,46261,2,1 F,2,46061,46261,1,0 C,0,46061,,4,219,192
Sprite,Foreground,Centre,"sb/f.jpg",486,251 S,19,46254,46454,2,1 F,2,46254,46454,1,0 C,0,46254,,4,219,192
Sprite,Foreground,Centre,"sb/f.jpg",497,242 S,19,46351,46551,2,1 F,2,46351,46551,1,0 C,0,46351,,4,219,192
Sprite,Foreground,Centre,"sb/f.jpg",525,411 S,19,46545,46745,2,1 F,2,46545,46745,1,0 C,0,46545,,4,219,192
Sprite,Foreground,Centre,"sb/f.jpg",529,425 S,19,46641,46841,2,1 F,2,46641,46841,1,0 C,0,46641,,255,121,162
Sprite,Foreground,Centre,"sb/f.jpg",573,152 S,19,46834,47034,2,1 F,2,46834,47034,1,0 C,0,46834,,255,121,162
Sprite,Foreground,Centre,"sb/f.jpg",290,104 S,19,47029,47229,2,1 F,2,47029,47229,1,0 C,0,47029,,255,121,162
Sprite,Foreground,Centre,"sb/f.jpg",246,377 S,19,47222,47422,2,1 F,2,47222,47422,1,0 C,0,47222,,255,210,0
Sprite,Foreground,Centre,"sb/f.jpg",443,242 S,19,47512,47712,2,1 F,2,47512,47712,1,0 C,0,47512,,255,210,0
Sprite,Foreground,Centre,"sb/f.jpg",300,58 S,19,47803,48003,2,1 F,2,47803,48003,1,0 C,0,47803,,255,210,0
Sprite,Foreground,Centre,"sb/f.jpg",104,203 S,19,48093,48293,2,1 F,2,48093,48293,1,0 C,0,48093,,255,210,0
Sprite,Foreground,Centre,"sb/f.jpg",246,377 S,19,48383,48583,2,1 F,2,48383,48583,1,0 C,0,48383,,4,219,192
Sprite,Foreground,Centre,"sb/f.jpg",273,227 S,19,48577,48777,2,1 F,2,48577,48777,1,0 C,0,48577,,4,219,192
Sprite,Foreground,Centre,"sb/f.jpg",276,214 S,19,48674,48874,2,1 F,2,48674,48874,1,0 C,0,48674,,4,219,192
Sprite,Foreground,Centre,"sb/f.jpg",278,201 S,19,48770,48970,2,1 F,2,48770,48970,1,0 C,0,48770,,255,121,162
Sprite,Foreground,Centre,"sb/w.png",543,324 S,2,62706,63006,1,0.2 F,2,62706,63006,1,0 P,0,62706,63006,A C,0,62706,,255,121,162
Sprite,Foreground,Centre,"sb/w.png",518,204 S,2,62900,63200,1,0.2 F,2,62900,63200,1,0 P,0,62900,63200,A C,0,62900,,255,121,162
Sprite,Foreground,Centre,"sb/w.png",514,184 S,2,62996,63296,1,0.2 F,2,62996,63296,1,0 P,0,62996,63296,A C,0,62996,,255,121,162
Sprite,Foreground,Centre,"sb/w.png",500,114 S,2,63093,63393,1,0.2 F,2,63093,63393,1,0 P,0,63093,63393,A C,0,63093,,255,121,162
Sprite,Foreground,Centre,"sb/w.png",437,144 S,2,63191,63491,1,0.2 F,2,63191,63491,1,0 P,0,63191,63491,A C,0,63191,,255,121,162
Sprite,Foreground,Centre,"sb/w.png",401,115 S,2,63287,63587,1,0.2 F,2,63287,63587,1,0 P,0,63287,63587,A C,0,63287,,255,121,162
Sprite,Foreground,Centre,"sb/w.png",356,108 S,2,63383,63683,1,0.2 F,2,63383,63683,1,0 P,0,63383,63683,A C,0,63383,,255,121,162
Sprite,Foreground,Centre,"sb/w.png",298,153 S,2,63480,63780,1,0.2 F,2,63480,63780,1,0 P,0,63480,63780,A C,0,63480,,255,121,162
Sprite,Foreground,Centre,"sb/w.png",302,167 S,2,63577,63877,1,0.2 F,2,63577,63877,1,0 P,0,63577,63877,A C,0,63577,,255,121,162
Sprite,Foreground,Centre,"sb/w.png",308,183 S,2,63674,63974,1,0.2 F,2,63674,63974,1,0 P,0,63674,63974,A C,0,63674,,255,121,162
Sprite,Foreground,Centre,"sb/w.png",261,244 S,2,63770,64070,1,0.2 F,2,63770,64070,1,0 P,0,63770,64070,A C,0,63770,,255,121,162
Sprite,Foreground,Centre,"sb/w.png",219,181 S,2,63867,64167,1,0.2 F,2,63867,64167,1,0 P,0,63867,64167,A C,0,63867,,255,121,162
Sprite,Foreground,Centre,"sb/w.png",143,195 S,2,63964,64264,1,0.2 F,2,63964,64264,1,0 P,0,63964,64264,A C,0,63964,,255,121,162
Sprite,Foreground,Centre,"sb/w.png",209,155 S,2,64061,64361,1,0.2 F,2,64061,64361,1,0 P,0,64061,64361,A C,0,64061,,255,121,162
Sprite,Foreground,Centre,"sb/w.png",146,332 S,2,64254,64554,1,0.2 F,2,64254,64554,1,0 P,0,64254,64554,A C,0,64254,,255,210,0
Sprite,Foreground,Centre,"sb/w.png",320,391 S,2,64448,64748,1,0.2 F,2,64448,64748,1,0 P,0,64448,64748,A C,0,64448,,4,219,192
Sprite,Foreground,Centre,"sb/w.png",319,381 S,2,64512,64812,1,0.2 F,2,64512,64812,1,0 P,0,64512,64812,A C,0,64512,,255,121,162
Sprite,Foreground,Centre,"sb/w.png",317,369 S,2,64577,64877,1,0.2 F,2,64577,64877,1,0 P,0,64577,64877,A C,0,64577,,255,210,0
Sprite,Foreground,Centre,"sb/w.png",316,357 S,2,64641,64941,1,0.2 F,2,64641,64941,1,0 P,0,64641,64941,A C,0,64641,,4,219,192
Sprite,Foreground,Centre,"sb/w.png",371,308 S,2,64738,65038,1,0.2 F,2,64738,65038,1,0 P,0,64738,65038,A C,0,64738,,4,219,192
Sprite,Foreground,Centre,"sb/w.png",430,346 S,2,64835,65135,1,0.2 F,2,64835,65135,1,0 P,0,64835,65135,A C,0,64835,,4,219,192
Sprite,Foreground,Centre,"sb/w.png",426,376 S,2,64932,65232,1,0.2 F,2,64932,65232,1,0 P,0,64932,65232,A C,0,64932,,4,219,192
Sprite,Foreground,Centre,"sb/w.png",420,408 S,2,65029,65329,1,0.2 F,2,65029,65329,1,0 P,0,65029,65329,A C,0,65029,,4,219,192
Sprite,Foreground,Centre,"sb/w.png",491,433 S,2,65125,65425,1,0.2 F,2,65125,65425,1,0 P,0,65125,65425,A C,0,65125,,4,219,192
Sprite,Foreground,Centre,"sb/w.png",533,372 S,2,65222,65522,1,0.2 F,2,65222,65522,1,0 P,0,65222,65522,A C,0,65222,,4,219,192
Sprite,Foreground,Centre,"sb/w.png",509,338 S,2,65319,65619,1,0.2 F,2,65319,65619,1,0 P,0,65319,65619,A C,0,65319,,4,219,192
Sprite,Foreground,Centre,"sb/w.png",515,267 S,2,65416,65716,1,0.2 F,2,65416,65716,1,0 P,0,65416,65716,A C,0,65416,,4,219,192
Sprite,Foreground,Centre,"sb/w.png",536,274 S,2,65512,65812,1,0.2 F,2,65512,65812,1,0 P,0,65512,65812,A C,0,65512,,4,219,192
Sprite,Foreground,Centre,"sb/w.png",576,214 S,2,65609,65909,1,0.2 F,2,65609,65909,1,0 P,0,65609,65909,A C,0,65609,,4,219,192
Sprite,Foreground,Centre,"sb/w.png",509,196 S,2,65706,66006,1,0.2 F,2,65706,66006,1,0 P,0,65706,66006,A C,0,65706,,4,219,192
//Storyboard Sound Samples

[TimingPoints]
771,387.096774193548,4,2,1,50,1,0
13158,-100,4,2,1,30,0,0
25545,-100,4,2,1,55,0,0
50319,-100,4,2,1,65,0,1
62706,-100,4,2,1,50,0,0
81287,-100,4,2,1,35,0,0
84383,-100,4,2,1,40,0,0
85158,-100,4,2,1,45,0,0
85932,-100,4,2,1,55,0,0
87867,-100,4,2,1,65,0,1
98319,-100,4,2,1,65,0,0
99867,-100,4,2,1,65,0,1
112254,-100,4,2,1,65,0,0
114383,-100,4,2,1,45,0,0

[Colours]
Combo1 : 4,219,192
Combo2 : 255,121,162
Combo3 : 255,210,0

[HitObjects]
73,339,771,5,2,3:2:0:0:
90,199,1061,1,2,3:2:0:0:
104,60,1351,1,2,3:2:0:0:
191,237,1738,5,2,0:1:0:0:
180,164,1932,1,2,0:1:0:0:
335,365,2319,5,2,3:2:0:0:
318,225,2609,1,2,3:2:0:0:
304,86,2899,1,2,3:2:0:0:
414,249,3287,5,2,0:1:0:0:
417,228,3383,1,2,0:1:0:0:
450,208,3480,5,2,0:1:0:0:
449,198,3577,1,2,0:1:0:0:
448,188,3674,1,2,0:1:0:0:
448,179,3770,1,2,0:1:0:0:
447,169,3867,5,2,3:2:0:0:
307,154,4157,1,2,3:2:0:0:
168,138,4447,1,2,3:2:0:0:
386,223,4835,5,2,0:1:0:0:
389,243,4932,1,2,0:1:0:0:
326,252,5029,1,2,0:1:0:0:
324,271,5125,1,2,0:1:0:0:
260,255,5222,1,2,0:1:0:0:
458,329,5416,5,2,3:2:0:0:
318,346,5706,1,2,3:2:0:0:
179,360,5996,1,2,3:2:0:0:
269,225,6190,5,0,0:0:0:0:
236,193,6287,1,0,0:0:0:0:
189,181,6383,1,0,0:0:0:0:
142,196,6480,1,0,0:0:0:0:
99,260,6577,5,0,1:0:0:0:
85,267,6674,1,0,1:0:0:0:
68,269,6770,1,0,1:0:0:0:
57,268,6867,1,0,1:0:0:0:
19,205,6964,5,2,3:2:0:0:
214,341,7254,1,2,3:2:0:0:
350,145,7545,1,0,3:2:0:0:
154,9,7835,1,0,3:2:0:0:
204,273,8125,5,0,3:2:0:0:
176,91,8319,1,0,3:2:0:0:
364,73,8512,5,2,3:2:0:0:
132,34,8802,1,2,3:2:0:0:
93,266,9093,1,2,3:2:0:0:
325,305,9383,1,2,3:2:0:0:
168,104,9674,5,0,3:0:0:0:
172,121,9770,1,0,0:0:0:0:
177,141,9867,1,2,3:2:0:0:
241,131,9964,1,0,0:0:0:0:
306,119,10061,5,2,0:2:0:0:
356,290,10254,1,2,0:2:0:0:
370,324,10351,1,0,3:0:0:0:
390,293,10448,1,2,0:2:0:0:
180,271,10641,1,2,3:2:0:0:
438,343,10835,5,2,0:0:0:0:
461,307,10932,1,2,0:0:0:0:
461,264,11029,1,2,0:0:0:0:
434,231,11125,1,2,0:0:0:0:
404,200,11222,1,2,0:0:0:0:
399,158,11319,1,2,0:0:0:0:
413,118,11416,1,2,0:0:0:0:
449,97,11512,1,2,0:0:0:0:
497,174,11609,5,0,0:0:0:0:
483,172,11706,1,0,0:0:0:0:
469,169,11803,1,0,0:0:0:0:
455,167,11900,1,0,0:0:0:0:
441,165,11996,1,0,0:0:0:0:
427,163,12093,1,0,0:0:0:0:
414,161,12190,1,0,0:0:0:0:
399,158,12287,1,0,0:0:0:0:
385,156,12383,5,8,0:0:0:0:
126,94,12577,1,2,3:2:0:0:
285,54,12770,1,0,1:1:0:0:
270,57,12867,1,2,1:1:0:0:
256,59,12963,1,2,3:1:0:0:
14,93,13158,5,6,0:0:0:0:
14,93,13738,1,2,0:0:0:0:
194,231,14512,1,0,3:0:0:0:
221,9,14706,5,2,3:2:0:0:
211,81,14996,1,2,0:2:0:0:
206,153,15287,1,2,0:2:0:0:
277,135,15480,1,0,0:2:0:0:
277,135,15577,1,2,0:2:0:0:
138,172,15867,5,2,3:2:0:0:
347,119,16061,1,2,0:2:0:0:
301,347,16254,5,2,3:2:0:0:
315,276,16545,1,2,0:2:0:0:
329,205,16835,1,2,0:2:0:0:
301,347,17125,1,0,3:0:0:0:
329,205,17416,5,0,3:0:0:0:
477,278,17609,1,0,3:0:0:0:
437,58,17803,5,2,3:2:0:0:
447,130,18093,1,2,0:2:0:0:
462,208,18384,1,2,0:2:0:0:
447,130,18674,1,2,0:2:0:0:
462,208,18964,1,2,0:2:0:0:
152,92,19351,5,2,3:2:0:0:
152,92,19448,1,0,0:0:0:0:
236,107,19641,1,2,0:2:0:0:
236,107,19738,1,0,0:0:0:0:
247,185,19932,1,2,0:2:0:0:
222,32,20125,5,0,3:0:0:0:
265,268,20512,1,0,3:0:0:0:
265,268,20706,1,0,3:0:0:0:
52,161,20900,5,2,3:2:0:0:
168,152,21190,1,2,3:2:0:0:
168,152,21287,1,0,3:0:0:0:
244,176,21480,1,2,3:2:0:0:
320,210,21674,5,0,3:0:0:0:
436,201,21964,1,0,3:0:0:0:
436,201,22061,1,0,3:0:0:0:
512,225,22254,1,0,3:0:0:0:
406,104,22448,5,2,3:2:0:0:
382,285,22641,1,0,3:0:0:0:
382,285,22738,1,0,0:0:0:0:
382,285,22835,1,2,3:2:0:0:
256,216,23029,1,0,3:0:0:0:
483,143,23222,5,2,3:2:0:0:
305,46,23416,1,0,3:0:0:0:
285,55,23512,1,2,0:2:0:0:
266,63,23609,1,0,3:0:0:0:
57,125,23803,1,2,3:2:0:0:
101,137,23900,1,0,0:0:0:0:
147,150,23996,5,2,1:1:0:0:
143,168,24093,1,0,1:0:0:0:
206,189,24190,5,2,1:1:0:0:
209,206,24287,1,0,1:0:0:0:
214,228,24383,1,0,1:0:0:0:
217,245,24480,1,0,1:0:0:0:
286,277,24577,5,2,1:1:0:0:
291,255,24674,1,0,1:0:0:0:
302,232,24770,1,0,1:0:0:0:
336,211,24867,1,2,1:1:0:0:
389,211,24964,1,2,1:1:0:0:
439,255,25061,1,2,1:1:0:0:
425,154,25158,5,4,3:2:0:0:
178,349,25545,5,2,3:2:0:0:
178,349,25932,1,2,3:2:0:0:
178,349,26319,1,2,3:2:0:0:
199,218,26609,5,10,0:0:0:0:
178,349,26707,1,2,3:2:0:0:
64,92,27093,5,2,3:2:0:0:
64,92,27480,1,2,3:2:0:0:
76,224,27770,5,10,0:2:0:0:
64,92,27867,1,2,3:2:0:0:
188,220,28061,5,2,0:1:0:0:
185,193,28158,1,2,0:1:0:0:
238,145,28254,1,2,3:1:0:0:
240,106,28351,1,2,0:1:0:0:
171,65,28448,5,2,0:2:0:0:
512,161,28641,5,2,3:2:0:0:
512,161,29029,1,2,3:2:0:0:
512,161,29416,1,2,3:2:0:0:
367,183,29706,5,10,0:2:0:0:
512,161,29803,1,2,3:2:0:0:
226,335,30190,5,2,3:2:0:0:
185,68,30383,1,2,0:2:0:0:
226,335,30577,1,2,3:2:0:0:
80,197,30770,1,0,0:2:0:0:
84,173,30867,1,0,0:2:0:0:
107,238,30964,5,6,3:1:0:0:
24,256,31158,1,0,0:2:0:0:
306,145,31351,5,6,3:1:0:0:
223,163,31545,1,0,0:2:0:0:
474,60,31738,5,2,3:2:0:0:
474,60,32125,1,2,3:2:0:0:
474,60,32512,1,2,3:2:0:0:
454,209,32803,5,10,0:2:0:0:
474,60,32900,1,2,3:2:0:0:
316,353,33287,5,2,3:2:0:0:
316,353,33674,1,2,3:2:0:0:
296,204,33965,5,10,0:2:0:0:
316,353,34062,1,2,3:2:0:0:
230,181,34254,5,2,0:1:0:0:
243,157,34351,1,2,0:1:0:0:
161,189,34448,5,2,3:1:0:0:
134,189,34545,1,2,0:1:0:0:
203,247,34641,5,2,0:2:0:0:
115,35,34835,5,2,1:2:0:0:
115,35,35222,1,2,1:2:0:0:
115,35,35609,1,2,1:2:0:0:
270,59,35900,5,10,0:2:0:0:
115,35,35996,1,2,1:2:0:0:
446,49,36383,5,2,3:2:0:0:
386,99,36577,1,0,0:2:0:0:
389,110,36674,1,0,0:2:0:0:
391,120,36770,1,10,0:2:0:0:
416,191,36964,1,2,0:2:0:0:
189,317,37158,5,2,0:2:0:0:
174,248,37254,1,0,0:2:0:0:
232,194,37351,5,2,0:2:0:0:
238,117,37448,1,0,0:2:0:0:
185,65,37545,5,2,1:1:0:0:
167,71,37641,1,0,1:2:0:0:
132,104,37738,5,2,1:1:0:0:
96,95,37834,1,0,1:2:0:0:
32,141,37932,5,0,3:2:0:0:
249,230,38125,5,2,0:2:0:0:
243,112,38319,1,2,3:2:0:0:
349,169,38512,1,2,0:2:0:0:
359,175,38609,1,2,0:2:0:0:
235,239,38803,1,0,0:2:0:0:
225,245,38900,1,2,0:2:0:0:
329,85,39093,5,2,3:2:0:0:
158,172,39287,1,2,0:2:0:0:
328,286,39480,5,2,3:2:0:0:
128,384,39674,5,2,0:2:0:0:
234,330,39868,1,2,3:2:0:0:
137,268,40061,1,2,0:2:0:0:
127,262,40158,1,2,0:2:0:0:
246,337,40351,1,0,0:2:0:0:
256,343,40448,5,2,0:2:0:0:
43,214,40641,1,2,3:2:0:0:
185,1,40835,1,2,0:2:0:0:
398,130,41028,5,2,3:2:0:0:
234,169,41222,1,2,0:2:0:0:
80,203,41416,1,2,3:2:0:0:
334,235,41609,5,2,0:2:0:0:
346,236,41706,1,2,0:2:0:0:
358,238,41803,1,0,3:2:0:0:
286,95,41996,1,2,1:2:0:0:
275,97,42093,1,2,1:2:0:0:
264,100,42190,1,0,3:2:0:0:
117,134,42383,1,0,0:2:0:0:
240,297,42577,5,2,3:2:0:0:
277,0,42770,1,2,0:2:0:0:
240,297,42964,5,2,3:2:0:0:
379,109,43254,1,2,3:2:0:0:
149,93,43545,1,2,3:2:0:0:
149,93,43932,5,2,3:2:0:0:
209,361,44125,5,0,3:2:0:0:
166,176,44319,5,2,0:2:0:0:
254,275,44512,1,2,3:2:0:0:
134,304,44706,1,2,0:2:0:0:
123,306,44803,1,2,0:2:0:0:
267,272,44996,1,0,0:2:0:0:
276,271,45093,1,2,0:2:0:0:
67,206,45287,5,2,3:2:0:0:
210,384,45480,1,2,0:2:0:0:
296,162,45674,5,2,3:2:0:0:
459,342,45867,5,2,0:2:0:0:
321,299,46061,1,2,3:2:0:0:
422,195,46254,1,2,0:2:0:0:
433,186,46351,1,2,0:2:0:0:
461,355,46545,1,0,0:2:0:0:
465,369,46641,5,2,0:2:0:0:
509,96,46834,1,2,3:2:0:0:
226,48,47029,1,2,0:2:0:0:
182,321,47222,5,2,3:2:0:0:
379,186,47512,1,2,0:2:0:0:
236,2,47803,1,2,0:2:0:0:
40,147,48093,1,2,0:2:0:0:
182,321,48383,5,2,3:2:0:0:
209,171,48577,1,0,1:2:0:0:
212,158,48674,1,0,1:2:0:0:
214,145,48770,5,8,3:2:0:0:
451,215,49061,1,8,0:2:0:0:
261,329,49351,5,8,3:2:0:0:
264,317,49448,1,0,3:2:0:0:
266,304,49544,1,0,3:2:0:0:
269,291,49641,1,0,3:2:0:0:
272,278,49738,1,0,3:2:0:0:
197,384,49932,5,8,3:2:0:0:
331,365,50125,1,0,3:2:0:0:
345,97,50319,5,2,3:2:0:0:
176,117,50512,1,2,0:2:0:0:
0,133,50706,5,0,3:2:0:0:
81,145,50803,1,2,0:2:0:0:
219,3,50996,5,0,0:2:0:0:
135,19,51093,1,2,3:2:0:0:
179,222,51287,1,2,0:2:0:0:
358,344,51480,5,0,3:2:0:0:
389,138,51674,1,2,0:1:0:0:
321,167,51770,1,2,0:1:0:0:
247,195,51867,5,2,3:2:0:0:
458,236,52061,1,2,0:2:0:0:
393,22,52254,5,0,3:2:0:0:
328,50,52351,1,2,0:2:0:0:
318,32,52448,1,0,0:2:0:0:
296,19,52545,1,0,0:2:0:0:
260,78,52641,5,2,3:2:0:0:
241,218,52835,1,2,0:2:0:0:
98,340,53029,5,2,3:2:0:0:
42,86,53222,1,2,0:2:0:0:
300,378,53416,5,2,3:2:0:0:
327,217,53609,1,0,0:2:0:0:
354,71,53803,5,0,3:2:0:0:
424,132,53900,1,2,0:2:0:0:
238,188,54093,5,0,0:2:0:0:
255,99,54190,1,2,3:2:0:0:
419,250,54383,1,2,0:2:0:0:
177,137,54577,5,2,3:1:0:0:
97,120,54674,1,2,0:1:0:0:
79,200,54770,1,2,0:1:0:0:
162,219,54867,1,2,0:1:0:0:
246,240,54964,5,2,3:2:0:0:
254,281,55158,1,0,0:2:0:0:
443,140,55351,5,2,3:2:0:0:
435,180,55545,1,0,0:2:0:0:
389,348,55738,1,0,3:2:0:0:
205,41,55932,5,2,0:2:0:0:
188,358,56125,1,2,3:2:0:0:
461,241,56319,1,2,0:2:0:0:
51,180,56512,5,2,3:2:0:0:
229,196,56706,1,2,0:2:0:0:
398,210,56900,5,0,3:2:0:0:
319,245,56997,1,2,0:2:0:0:
226,107,57190,5,0,0:2:0:0:
305,142,57287,1,2,3:2:0:0:
220,301,57480,1,2,0:2:0:0:
90,109,57674,5,2,3:1:0:0:
94,179,57770,1,2,0:1:0:0:
101,249,57867,1,2,0:1:0:0:
295,0,58061,5,0,3:2:0:0:
273,138,58254,1,2,0:2:0:0:
247,274,58448,5,0,3:2:0:0:
207,210,58545,1,2,0:2:0:0:
223,202,58641,1,0,0:0:0:0:
244,200,58738,1,0,0:0:0:0:
308,229,58835,5,2,3:2:0:0:
489,189,59029,1,2,0:2:0:0:
364,53,59222,5,2,3:2:0:0:
316,299,59416,1,2,0:2:0:0:
114,140,59609,5,0,3:2:0:0:
101,65,59803,1,0,3:2:0:0:
358,235,59996,5,0,3:2:0:0:
379,130,60190,1,0,3:2:0:0:
83,315,60383,5,0,3:2:0:0:
49,184,60577,1,0,3:2:0:0:
415,384,60770,5,0,3:2:0:0:
448,220,60964,1,0,3:2:0:0:
152,39,61158,5,8,3:2:0:0:
157,55,61254,1,0,3:2:0:0:
158,75,61351,1,0,3:2:0:0:
156,95,61448,1,0,3:2:0:0:
75,148,61545,5,8,3:2:0:0:
67,172,61641,1,0,3:2:0:0:
66,202,61738,1,0,3:2:0:0:
75,232,61835,1,0,3:2:0:0:
160,272,61932,5,8,1:2:0:0:
197,262,62029,1,0,1:2:0:0:
224,332,62125,5,8,1:2:0:0:
268,343,62222,1,0,1:2:0:0:
292,255,62319,5,8,1:2:0:0:
338,243,62416,1,0,1:2:0:0:
361,339,62512,5,8,1:2:0:0:
412,355,62609,1,0,1:2:0:0:
479,268,62706,5,12,3:2:0:0:
454,148,62900,1,2,0:1:0:0:
450,128,62996,1,2,0:1:0:0:
436,58,63093,1,10,0:1:0:0:
373,88,63191,1,2,0:1:0:0:
337,59,63287,1,2,3:1:0:0:
292,52,63383,1,2,0:1:0:0:
234,97,63480,1,2,0:1:0:0:
238,111,63577,1,2,0:1:0:0:
244,127,63674,1,2,3:1:0:0:
197,188,63770,1,2,0:1:0:0:
155,125,63867,1,2,0:1:0:0:
79,139,63964,1,2,3:1:0:0:
145,99,64061,1,10,0:1:0:0:
82,276,64254,5,2,3:1:0:0:
256,335,64448,5,2,0:1:0:0:
255,325,64512,5,2,0:1:0:0:
253,313,64577,5,2,0:1:0:0:
252,301,64641,5,10,0:1:0:0:
307,252,64738,1,2,0:1:0:0:
366,290,64835,1,2,3:1:0:0:
362,320,64932,1,2,0:1:0:0:
356,352,65029,1,2,0:1:0:0:
427,377,65125,1,2,0:1:0:0:
469,316,65222,1,2,3:1:0:0:
445,282,65319,1,2,0:1:0:0:
451,211,65416,1,10,0:1:0:0:
472,218,65512,1,2,0:1:0:0:
512,158,65609,1,2,0:1:0:0:
445,140,65706,1,2,0:1:0:0:
376,189,65803,5,4,3:2:0:0:
351,199,65900,1,0,0:2:0:0:
332,209,65996,1,0,1:2:0:0:
341,156,66093,1,0,1:2:0:0:
350,102,66190,5,10,0:2:0:0:
267,132,66287,1,2,0:2:0:0:
264,107,66383,1,0,3:2:0:0:
260,81,66480,1,0,0:2:0:0:
190,39,66577,5,2,0:2:0:0:
154,52,66674,1,0,3:2:0:0:
108,115,66770,5,2,3:2:0:0:
87,107,66867,1,0,0:2:0:0:
61,100,66964,1,8,0:2:0:0:
71,92,67061,1,0,0:2:0:0:
52,184,67158,5,10,3:1:0:0:
117,212,67254,1,2,0:1:0:0:
186,239,67351,5,2,3:2:0:0:
165,269,67448,1,0,1:2:0:0:
161,306,67545,1,0,1:2:0:0:
180,344,67642,1,0,3:2:0:0:
252,293,67738,5,10,3:2:0:0:
296,262,67835,1,0,1:2:0:0:
349,265,67932,1,0,3:2:0:0:
386,299,68029,1,0,1:2:0:0:
471,359,68125,5,8,1:2:0:0:
481,327,68222,1,0,3:2:0:0:
447,251,68319,5,8,0:2:0:0:
440,210,68416,1,0,0:2:0:0:
492,132,68512,5,2,3:2:0:0:
480,133,68577,5,0,3:2:0:0:
464,134,68641,5,0,3:2:0:0:
425,105,68706,5,2,3:2:0:0:
413,106,68771,5,0,3:2:0:0:
397,107,68835,5,0,3:2:0:0:
357,76,68900,5,0,0:2:0:0:
72,360,69287,5,10,3:1:0:0:
15,305,69383,1,2,0:1:0:0:
57,279,69480,1,2,3:1:0:0:
106,286,69577,1,2,0:1:0:0:
167,337,69674,1,2,0:1:0:0:
173,321,69770,1,2,3:1:0:0:
179,303,69867,1,2,3:1:0:0:
207,230,69964,1,2,0:1:0:0:
263,284,70061,1,2,0:1:0:0:
336,271,70158,1,2,0:1:0:0:
256,306,70254,1,10,0:1:0:0:
292,139,70448,5,2,3:1:0:0:
405,300,70641,5,2,0:1:0:0:
409,266,70738,1,2,3:1:0:0:
414,229,70835,1,10,0:1:0:0:
381,162,70931,1,2,0:1:0:0:
322,209,71028,1,2,3:1:0:0:
292,213,71125,1,2,0:1:0:0:
260,219,71222,1,2,0:1:0:0:
189,255,71318,1,2,0:1:0:0:
178,234,71415,1,2,0:1:0:0:
203,164,71512,1,2,0:1:0:0:
136,144,71609,1,10,0:1:0:0:
140,113,71705,1,2,0:1:0:0:
186,51,71802,1,2,0:1:0:0:
106,41,71899,1,2,0:1:0:0:
53,111,71996,5,4,3:2:0:0:
59,128,72093,1,0,0:2:0:0:
65,152,72190,1,0,1:2:0:0:
47,191,72287,1,0,1:2:0:0:
28,233,72383,5,10,0:2:0:0:
110,212,72480,1,2,0:2:0:0:
132,218,72576,1,0,3:2:0:0:
153,223,72673,1,0,0:2:0:0:
207,300,72770,5,2,0:2:0:0:
214,265,72866,1,0,3:2:0:0:
257,174,72964,5,2,3:2:0:0:
233,180,73061,1,0,0:2:0:0:
211,185,73158,1,8,0:2:0:0:
224,193,73254,1,0,0:0:0:0:
254,97,73351,5,10,0:1:0:0:
334,106,73448,1,2,0:1:0:0:
418,119,73545,5,2,1:2:0:0:
404,153,73641,1,0,1:2:0:0:
406,188,73738,1,0,1:2:0:0:
422,212,73835,1,0,3:2:0:0:
336,252,73932,5,10,1:2:0:0:
342,236,74029,1,0,1:2:0:0:
360,257,74125,1,0,1:2:0:0:
344,316,74222,1,0,1:2:0:0:
280,340,74319,1,0,1:2:0:0:
225,294,74416,1,0,1:2:0:0:
144,369,74512,5,0,3:2:0:0:
120,360,75093,5,4,3:2:0:0:
65,117,81287,5,0,3:2:0:0:
60,78,81480,1,0,0:2:0:0:
80,259,81674,1,2,0:2:0:0:
83,275,81770,1,0,0:2:0:0:
85,290,81867,1,0,0:2:0:0:
130,288,81964,5,2,0:2:0:0:
143,292,82061,1,0,0:2:0:0:
157,298,82158,1,0,0:2:0:0:
184,276,82254,5,2,0:2:0:0:
197,272,82351,1,0,0:2:0:0:
227,241,82448,5,2,0:2:0:0:
225,227,82545,1,0,0:2:0:0:
222,213,82641,1,0,0:2:0:0:
219,199,82738,1,0,0:2:0:0:
216,185,82835,5,2,0:2:0:0:
308,96,83029,1,2,0:2:0:0:
350,213,83222,1,2,0:2:0:0:
344,233,83319,1,0,1:2:0:0:
338,253,83416,1,0,0:2:0:0:
332,273,83512,1,0,1:2:0:0:
325,293,83609,5,2,0:2:0:0:
375,140,83803,1,2,0:2:0:0:
213,173,83996,1,2,0:2:0:0:
185,178,84093,1,0,0:2:0:0:
157,183,84190,1,0,0:2:0:0:
129,188,84286,1,0,0:2:0:0:
101,193,84383,5,6,3:2:0:0:
274,18,84577,1,2,0:2:0:0:
345,216,84770,1,2,0:2:0:0:
353,250,84867,1,0,0:2:0:0:
362,283,84964,1,0,0:2:0:0:
371,316,85060,1,0,0:2:0:0:
379,350,85157,5,2,1:2:0:0:
335,337,85254,1,0,1:2:0:0:
272,297,85351,5,2,1:2:0:0:
237,311,85448,1,0,1:2:0:0:
146,341,85545,5,2,1:2:0:0:
159,288,85641,1,0,1:2:0:0:
174,236,85738,1,0,1:2:0:0:
189,185,85835,1,0,1:2:0:0:
145,87,85932,5,2,3:2:0:0:
110,107,86029,1,0,1:2:0:0:
76,126,86125,1,0,1:2:0:0:
31,2,86222,5,2,3:2:0:0:
65,22,86319,1,0,1:2:0:0:
98,42,86415,1,0,1:2:0:0:
9,153,86512,5,10,1:2:0:0:
20,78,86609,1,8,1:2:0:0:
31,2,86706,5,2,0:2:0:0:
109,332,86900,1,8,0:2:0:0:
140,343,87287,5,2,0:2:0:0:
140,343,87868,1,4,3:2:0:0:
184,117,88061,5,2,0:2:0:0:
376,152,88255,1,2,3:2:0:0:
341,342,88448,1,2,0:2:0:0:
149,307,88642,5,2,3:2:0:0:
146,288,88738,1,2,0:2:0:0:
132,218,88835,1,2,0:2:0:0:
129,199,88932,1,2,0:2:0:0:
116,132,89030,1,2,3:2:0:0:
313,217,89222,1,2,0:2:0:0:
75,345,89417,5,2,3:2:0:0:
71,322,89513,1,2,0:2:0:0:
54,238,89610,1,2,0:2:0:0:
50,215,89707,1,2,0:2:0:0:
35,135,89803,1,2,3:2:0:0:
271,237,89997,5,2,0:2:0:0:
175,289,90093,1,2,0:2:0:0:
350,198,90287,5,2,0:2:0:0:
443,255,90383,1,2,0:2:0:0:
278,155,90578,5,2,3:2:0:0:
278,155,90770,1,0,0:2:0:0:
275,310,90964,1,0,3:2:0:0:
425,165,91158,5,2,0:2:0:0:
377,137,91222,5,2,0:2:0:0:
330,108,91287,5,2,0:2:0:0:
284,81,91352,5,2,3:2:0:0:
287,0,91545,1,0,0:2:0:0:
275,241,91739,1,0,3:2:0:0:
51,121,91932,1,2,0:2:0:0:
293,1,92126,5,10,3:2:0:0:
120,256,92319,1,2,0:2:0:0:
169,181,92416,1,2,0:2:0:0:
212,257,92513,1,2,3:2:0:0:
16,146,92706,1,2,3:2:0:0:
248,136,92901,5,2,3:2:0:0:
58,227,93093,1,0,0:2:0:0:
226,348,93288,5,2,3:2:0:0:
277,300,93383,1,2,0:2:0:0:
348,289,93480,1,2,0:2:0:0:
414,309,93577,1,2,0:2:0:0:
454,368,93675,5,2,3:2:0:0:
469,235,93867,1,0,0:2:0:0:
482,106,94062,1,0,3:2:0:0:
446,117,94158,1,0,0:2:0:0:
412,127,94254,5,2,0:2:0:0:
383,383,94449,1,2,3:2:0:0:
136,356,94641,1,2,0:2:0:0:
164,99,94836,5,2,3:2:0:0:
203,103,94932,1,2,0:2:0:0:
284,111,95029,1,2,0:2:0:0:
326,115,95126,1,2,0:2:0:0:
407,124,95223,1,2,3:2:0:0:
252,342,95416,1,2,0:2:0:0:
103,15,95610,5,2,3:2:0:0:
195,24,95706,1,2,0:2:0:0:
289,35,95803,1,2,0:2:0:0:
382,45,95900,1,2,0:2:0:0:
475,55,95997,1,2,3:2:0:0:
267,248,96190,5,2,0:2:0:0:
280,123,96384,1,2,3:2:0:0:
75,100,96577,5,2,0:2:0:0:
62,225,96674,1,2,0:2:0:0:
49,348,96771,1,2,3:2:0:0:
300,247,96964,5,0,0:2:0:0:
75,100,97158,1,0,3:2:0:0:
223,312,97351,5,2,0:2:0:0:
227,266,97415,5,2,0:2:0:0:
232,218,97480,5,2,0:2:0:0:
238,171,97545,5,2,3:2:0:0:
49,348,97738,5,0,0:2:0:0:
300,247,97933,1,0,3:2:0:0:
159,134,98125,5,2,0:2:0:0:
148,233,98222,1,2,0:2:0:0:
137,328,98319,5,2,1:1:0:0:
218,299,98416,1,2,1:1:0:0:
454,213,98706,5,2,1:2:0:0:
454,213,99093,1,2,1:2:0:0:
467,120,99480,5,0,1:2:0:0:
454,213,99674,1,2,0:1:0:0:
267,114,99867,5,2,3:2:0:0:
259,14,100061,1,0,0:2:0:0:
278,220,100254,1,0,3:2:0:0:
78,1,100448,5,2,0:2:0:0:
154,22,100545,1,2,0:2:0:0:
175,90,100641,1,2,3:2:0:0:
139,153,100738,1,2,0:2:0:0:
67,169,100835,1,2,0:2:0:0:
36,234,100932,1,2,0:2:0:0:
83,293,101029,1,2,3:2:0:0:
108,267,101125,1,2,0:2:0:0:
142,254,101222,1,2,0:2:0:0:
179,256,101319,1,2,0:2:0:0:
212,274,101416,5,2,3:2:0:0:
198,384,101609,1,0,0:2:0:0:
228,160,101803,1,0,3:2:0:0:
460,337,101996,5,2,0:2:0:0:
466,296,102093,1,0,0:2:0:0:
452,259,102190,1,2,3:2:0:0:
389,306,102287,1,2,0:2:0:0:
310,299,102383,1,2,0:2:0:0:
273,227,102480,1,2,0:2:0:0:
307,155,102577,1,2,3:2:0:0:
278,145,102674,1,2,0:2:0:0:
245,148,102770,1,2,0:2:0:0:
212,171,102867,1,2,0:2:0:0:
197,200,102964,5,2,3:2:0:0:
273,227,103157,1,0,0:2:0:0:
115,173,103351,1,0,3:2:0:0:
155,341,103545,5,2,0:2:0:0:
195,302,103609,5,2,0:2:0:0:
235,264,103674,5,2,0:2:0:0:
273,227,103738,5,2,3:2:0:0:
353,255,103932,1,0,0:2:0:0:
115,173,104125,1,0,3:2:0:0:
319,0,104319,1,0,0:2:0:0:
352,255,104512,5,10,3:2:0:0:
189,82,104706,5,2,0:2:0:0:
253,140,104803,1,2,0:2:0:0:
275,52,104899,1,2,3:2:0:0:
87,267,105093,1,2,3:2:0:0:
273,227,105287,5,2,3:2:0:0:
195,199,105480,1,0,0:2:0:0:
401,346,105674,5,2,3:2:0:0:
398,317,105770,1,2,0:2:0:0:
391,243,105867,1,2,0:2:0:0:
388,214,105963,1,2,0:2:0:0:
381,139,106061,5,2,3:2:0:0:
491,167,106254,1,0,0:2:0:0:
273,111,106448,1,0,3:2:0:0:
472,316,106641,5,2,0:2:0:0:
405,276,106738,1,2,0:2:0:0:
328,276,106835,1,2,3:2:0:0:
267,327,106932,1,2,0:2:0:0:
189,344,107029,1,2,0:2:0:0:
116,316,107125,1,2,0:2:0:0:
78,249,107222,1,2,3:2:0:0:
112,236,107319,1,0,0:2:0:0:
148,244,107416,5,2,0:2:0:0:
158,220,107480,5,2,0:2:0:0:
169,197,107545,5,2,0:2:0:0:
179,177,107609,5,2,3:2:0:0:
140,79,107803,1,0,0:2:0:0:
224,282,107996,1,0,3:2:0:0:
419,103,108190,5,2,0:2:0:0:
392,123,108287,1,0,0:2:0:0:
357,126,108383,1,2,3:2:0:0:
319,59,108480,1,2,0:2:0:0:
242,35,108577,1,2,0:2:0:0:
166,56,108674,1,2,0:2:0:0:
129,126,108770,1,2,3:2:0:0:
153,136,108867,1,2,0:2:0:0:
172,160,108964,1,2,0:2:0:0:
133,191,109061,1,2,0:2:0:0:
122,237,109158,5,2,3:2:0:0:
252,256,109351,1,0,0:2:0:0:
0,220,109545,1,0,3:2:0:0:
257,168,109738,5,2,0:2:0:0:
307,157,109803,5,2,0:2:0:0:
360,149,109867,5,2,0:2:0:0:
409,139,109932,5,2,3:2:0:0:
381,283,110125,1,0,0:2:0:0:
436,0,110319,1,0,3:2:0:0:
148,111,110512,5,0,1:2:0:0:
237,78,110609,1,0,1:2:0:0:
225,170,110706,1,0,1:2:0:0:
42,40,110900,5,0,0:2:0:0:
86,23,110997,1,0,0:2:0:0:
80,69,111094,5,2,3:2:0:0:
60,187,111287,1,0,1:2:0:0:
346,149,111480,5,0,3:2:0:0:
378,317,111674,1,2,1:2:0:0:
151,69,111867,5,2,0:2:0:0:
94,381,112062,1,2,3:2:0:0:
435,260,112254,5,0,3:2:0:0:
180,198,113996,5,0,1:2:0:0:
194,119,114093,1,0,1:2:0:0:
242,247,114190,1,8,1:2:0:0:
421,79,114383,5,2,0:2:0:0:
433,38,114480,1,2,0:2:0:0:
401,0,114577,1,2,0:2:0:0:
347,6,114674,1,0,0:2:0:0:
317,70,114770,1,2,0:2:0:0:
364,129,114867,1,2,0:2:0:0:
436,116,114964,5,2,0:2:0:0:
394,197,115061,1,2,0:2:0:0:
435,268,115158,1,2,0:2:0:0:
408,331,115254,1,2,0:2:0:0:
