osu file format v14

[General]
AudioFilename: audio.mp3
AudioLeadIn: 0
PreviewTime: 87287
Countdown: 0
SampleSet: Soft
StackLeniency: 0.7
Mode: 0
LetterboxInBreaks: 0
EpilepsyWarning: 1
WidescreenStoryboard: 1

[Editor]
Bookmarks: 62512
DistanceSpacing: 0.5
BeatDivisor: 4
GridSize: 8
TimelineZoom: 1

[Metadata]
Title:Alt Futur
TitleUnicode:Alt Futur
Artist:Silentroom
ArtistUnicode:Silentroom
Creator:SaltyLucario
Version:Easy
Source:osu!
Tags:saltking salty jamesjan3 dtm9 nowa dtm9_nowa astronic mbc #8 monthly beatmapping contest august featured artist fa mappers' guild electronic hi-tech edm dance rhythm game instrumental memory waves juliana techno ジュリアナテクノ bms ジャンルシャッフル3 genre-shuffle genre shuffle 3
BeatmapID:2656851
BeatmapSetID:1265982

[Difficulty]
HPDrainRate:3
CircleSize:3.2
OverallDifficulty:3
ApproachRate:3
SliderMultiplier:1
SliderTickRate:1

[Events]
//Background and Video events
0,0,"bg.jpg",0,0
//Break Periods
2,62906,64363
2,69287,70556
2,75293,79847
//Storyboard Layer 0 (Background)
//Storyboard Layer 1 (Fail)
//Storyboard Layer 2 (Pass)
//Storyboard Layer 3 (Foreground)
Sprite,Foreground,Centre,"sb/w.png",0,0 S,2,37158,37845,1,0.2 F,2,37158,37845,1,0 P,0,37158,37845,A C,0,37158,,255,121,162 M,0,37158,37206,247,322,239.5319,331.9584 M,0,37206,37254,239.5319,331.9584,230.9011,340.9376 M,0,37254,37303,230.9011,340.9376,220.5501,347.8431 M,0,37303,37351,220.5501,347.8431,209.3964,353.3466 M,0,37351,37399,209.3964,353.3466,197.3419,356.4158 M,0,37399,37448,197.3419,356.4158,184.9953,357.7986 M,0,37448,37496,184.9953,357.7986,172.6093,356.6844 M,0,37496,37545,172.6093,356.6844,160.5387,353.79
Sprite,Foreground,Centre,"sb/a.png",0,0 S,0,771,,2.5 C,0,771,,0,0,0 F,2,771,,0,1 M,7,771,,412,386 M,0,771,819,412,386,411.1952,373.5259 M,0,819,867,411.1952,373.5259,410.3904,361.0519 M,0,867,916,410.3904,361.0519,409.5857,348.5778 M,0,916,964,409.5857,348.5778,408.7809,336.1037 M,0,964,1012,408.7809,336.1037,407.9761,323.6297 M,0,1012,1061,407.9761,323.6297,407.1713,311.1556 M,0,1061,1109,407.1713,311.1556,407.9761,323.6297 M,0,1109,1158,407.9761,323.6297,408.7809,336.1037 M,0,1158,1206,408.7809,336.1037,409.5857,348.5778 M,0,1206,1254,409.5857,348.5778,410.3904,361.0519 M,0,1254,1303,410.3904,361.0519,411.1952,373.5259 M,0,1303,1351,411.1952,373.5259,412,386 M,7,1351,2319,412,386,474,143 M,0,2319,2367,474,143,461.5259,143.8048 M,0,2367,2415,461.5259,143.8048,449.0519,144.6096 M,0,2415,2464,449.0519,144.6096,436.5778,145.4143 M,0,2464,2512,436.5778,145.4143,424.1037,146.2191 M,0,2512,2560,424.1037,146.2191,411.6297,147.0239 M,0,2560,2609,411.6297,147.0239,399.1556,147.8287 M,0,2609,2657,399.1556,147.8287,411.6297,147.0239 M,0,2657,2706,411.6297,147.0239,424.1037,146.2191 M,0,2706,2754,424.1037,146.2191,436.5778,145.4143 M,0,2754,2802,436.5778,145.4143,449.0519,144.6096 M,0,2802,2851,449.0519,144.6096,461.5259,143.8048 M,0,2851,2899,461.5259,143.8048,474,143 M,7,2899,3867,474,143,224,151 M,0,3867,3915,224,151,224.8048,163.4741 M,0,3915,3963,224.8048,163.4741,225.6096,175.9481 M,0,3963,4012,225.6096,175.9481,226.4143,188.4222 M,0,4012,4060,226.4143,188.4222,227.2191,200.8963 M,0,4060,4108,227.2191,200.8963,228.0239,213.3703 M,0,4108,4157,228.0239,213.3703,228.8287,225.8444 M,0,4157,4205,228.8287,225.8444,228.0239,213.3703 M,0,4205,4254,228.0239,213.3703,227.2191,200.8963 M,0,4254,4302,227.2191,200.8963,226.4143,188.4222 M,0,4302,4350,226.4143,188.4222,225.6096,175.9481 M,0,4350,4399,225.6096,175.9481,224.8048,163.4741 M,0,4399,4447,224.8048,163.4741,224,151 M,7,4447,5415,224,151,237,400 M,0,5415,5463,237,400,249.4741,399.1952 M,0,5463,5511,249.4741,399.1952,261.9481,398.3904 M,0,5511,5560,261.9481,398.3904,274.4222,397.5857 M,0,5560,5608,274.4222,397.5857,286.8963,396.7809 M,0,5608,5656,286.8963,396.7809,299.3703,395.9761 M,0,5656,5705,299.3703,395.9761,311.8444,395.1713 M,0,5705,5753,311.8444,395.1713,299.3703,395.9761 M,0,5753,5802,299.3703,395.9761,286.8963,396.7809 M,0,5802,5850,286.8963,396.7809,274.4222,397.5857 M,0,5850,5898,274.4222,397.5857,261.9481,398.3904 M,0,5898,5947,261.9481,398.3904,249.4741,399.1952 M,0,5947,5995,249.4741,399.1952,237,400 S,19,6964,,2.5,12.5 F,0,6964,7064,1,0
Sprite,Foreground,Centre,"sb/w.png",267,353 S,2,99867,100167,1,0.2 F,2,99867,100167,1,0 P,0,99867,100167,A C,0,99867,,4,219,192
Sprite,Foreground,Centre,"sb/w.png",0,0 S,2,100254,101328,1,0.2 F,2,100254,101328,1,0 P,0,100254,101328,A C,0,100254,,4,219,192 M,0,100254,100302,352,405,364.291,402.7239 M,0,100302,100350,364.291,402.7239,376.5821,400.4478 M,0,100350,100399,376.5821,400.4478,388.8731,398.1717 M,0,100399,100447,388.8731,398.1717,401.1641,395.8955 M,0,100447,100495,401.1641,395.8955,412.8966,398.1485 M,0,100495,100544,412.8966,398.1485,424.5382,402.6928 M,0,100544,100592,424.5382,402.6928,436.4992,406.3108 M,0,100592,100641,436.4992,406.3108,448.7325,408.856 M,0,100641,100689,448.7325,408.856,461.1556,410.1878 M,0,100689,100737,461.1556,410.1878,473.649,410.1865 M,0,100737,100786,473.649,410.1865,486.063,408.7836 M,0,100786,100834,486.063,408.7836,498.2357,405.9721 M,0,100834,100883,498.2357,405.9721,510.0198,401.822 M,0,100883,100931,510.0198,401.822,521.3035,396.4561 M,0,100931,100979,521.3035,396.4561,532.0183,390.0275 M,0,100979,101028,532.0183,390.0275,542.1394,382.6978
Sprite,Foreground,Centre,"sb/w.png",526,283 S,2,101416,101716,1,0.2 F,2,101416,101716,1,0 P,0,101416,101716,A C,0,101416,,4,219,192
Sprite,Foreground,Centre,"sb/w.png",0,0 S,2,101803,102877,1,0.2 F,2,101803,102877,1,0 P,0,101803,102877,A C,0,101803,,4,219,192 M,0,101803,101851,547,185,534.709,187.2761 M,0,101851,101899,534.709,187.2761,522.418,189.5522 M,0,101899,101948,522.418,189.5522,510.1269,191.8284 M,0,101948,101996,510.1269,191.8284,497.8359,194.1045 M,0,101996,102044,497.8359,194.1045,486.1097,191.8374 M,0,102044,102093,486.1097,191.8374,474.5018,187.2065 M,0,102093,102141,474.5018,187.2065,462.5929,183.4186 M,0,102141,102190,462.5929,183.4186,450.4141,180.6216 M,0,102190,102238,450.4141,180.6216,438.028,178.9772 M,0,102238,102286,438.028,178.9772,425.5391,178.6371 M,0,102286,102335,425.5391,178.6371,413.094,179.725 M,0,102335,102383,413.094,179.725,400.8695,182.2974 M,0,102383,102432,400.8695,182.2974,389.0479,186.3358 M,0,102432,102480,389.0479,186.3358,377.7802,191.7318 M,0,102480,102528,377.7802,191.7318,367.1678,198.3257 M,0,102528,102577,367.1678,198.3257,357.255,205.933
Sprite,Foreground,Centre,"sb/w.png",0,0 S,2,102964,103651,1,0.2 F,2,102964,103651,1,0 P,0,102964,103651,A C,0,102964,,255,121,162 M,0,102964,103012,257,206,256.0226,193.5383 M,0,103012,103060,256.0226,193.5383,255.0452,181.0765 M,0,103060,103109,255.0452,181.0765,254.0678,168.6148 M,0,103109,103157,254.0678,168.6148,253.0904,156.1531 M,0,103157,103205,253.0904,156.1531,252.1131,143.6913 M,0,103205,103254,252.1131,143.6913,251.1357,131.2296 M,0,103254,103302,251.1357,131.2296,250.1583,118.7679 M,0,103302,103351,250.1583,118.7679,249.1809,106.3062
Sprite,Foreground,Centre,"sb/w.png",0,0 S,2,103738,104425,1,0.2 F,2,103738,104425,1,0 P,0,103738,104425,A C,0,103738,,255,121,162 M,0,103738,103786,153,76,151.9932,88.45939 M,0,103786,103834,151.9932,88.45939,150.9864,100.9188 M,0,103834,103883,150.9864,100.9188,149.9796,113.3782 M,0,103883,103931,149.9796,113.3782,148.9727,125.8375 M,0,103931,103979,148.9727,125.8375,147.9659,138.2969 M,0,103979,104028,147.9659,138.2969,146.9591,150.7563 M,0,104028,104076,146.9591,150.7563,145.9523,163.2157 M,0,104076,104125,145.9523,163.2157,145,175
Sprite,Foreground,Centre,"sb/w.png",0,0 S,2,104512,105586,1,0.2 F,2,104512,105586,1,0 P,0,104512,105586,A C,0,104512,,255,121,162 M,0,104512,104560,176,270,164.1805,265.9793 M,0,104560,104608,164.1805,265.9793,152.1187,262.7506 M,0,104608,104657,152.1187,262.7506,139.7657,260.9521 M,0,104657,104705,139.7657,260.9521,127.3184,260.0324 M,0,104705,104753,127.3184,260.0324,114.8456,260.5157 M,0,104753,104802,114.8456,260.5157,102.4496,261.9356 M,0,104802,104850,102.4496,261.9356,90.27487,264.6843 M,0,104850,104899,90.27487,264.6843,78.36494,268.3926 M,0,104899,104947,78.36494,268.3926,90.27487,264.6843 M,0,104947,104995,90.27487,264.6843,102.4496,261.9356 M,0,104995,105044,102.4496,261.9356,114.8456,260.5157 M,0,105044,105092,114.8456,260.5157,127.3184,260.0324 M,0,105092,105141,127.3184,260.0324,139.7657,260.9521 M,0,105141,105189,139.7657,260.9521,152.1187,262.7506 M,0,105189,105237,152.1187,262.7506,164.1805,265.9793 M,0,105237,105286,164.1805,265.9793,176,270
Sprite,Foreground,Centre,"sb/w.png",288,435 S,2,106061,106361,1,0.2 F,2,106061,106361,1,0 P,0,106061,106361,A C,0,106061,,255,210,0
Sprite,Foreground,Centre,"sb/w.png",0,0 S,2,106448,107522,1,0.2 F,2,106448,107522,1,0 P,0,106448,107522,A C,0,106448,,255,210,0 M,0,106448,106496,315,338,318.1714,325.909 M,0,106496,106544,318.1714,325.909,321.3428,313.818 M,0,106544,106593,321.3428,313.818,324.5142,301.727 M,0,106593,106641,324.5142,301.727,327.6856,289.636 M,0,106641,106689,327.6856,289.636,330.8571,277.545 M,0,106689,106738,330.8571,277.545,320.1733,271.9825 M,0,106738,106786,320.1733,271.9825,309.3949,265.6638 M,0,106786,106835,309.3949,265.6638,299.4243,258.1386 M,0,106835,106883,299.4243,258.1386,290.5439,249.3566 M,0,106883,106931,290.5439,249.3566,283.0493,239.3678 M,0,106931,106980,283.0493,239.3678,277.162,228.3548 M,0,106980,107028,277.162,228.3548,272.9666,216.5914 M,0,107028,107077,272.9666,216.5914,270.3928,204.368 M,0,107077,107125,270.3928,204.368,269.2745,191.9245 M,0,107125,107173,269.2745,191.9245,269.4055,179.4297 M,0,107173,107222,269.4055,179.4297,270.585,166.9887
Sprite,Foreground,Centre,"sb/w.png",323,82 S,2,107609,107909,1,0.2 F,2,107609,107909,1,0 P,0,107609,107909,A C,0,107609,,255,210,0
Sprite,Foreground,Centre,"sb/w.png",0,0 S,2,107996,109070,1,0.2 F,2,107996,109070,1,0 P,0,107996,109070,A C,0,107996,,255,210,0 M,0,107996,108044,415,119,411.5391,131.0113 M,0,108044,108092,411.5391,131.0113,408.0782,143.0227 M,0,108092,108141,408.0782,143.0227,404.6173,155.034 M,0,108141,108189,404.6173,155.034,401.1564,167.0453 M,0,108189,108237,401.1564,167.0453,399.0184,178.4149 M,0,108237,108286,399.0184,178.4149,410.3878,183.6016 M,0,108286,108334,410.3878,183.6016,421.2508,189.7756 M,0,108334,108383,421.2508,189.7756,431.3918,197.0713 M,0,108383,108431,431.3918,197.0713,440.5202,205.5959 M,0,108431,108479,440.5202,205.5959,448.2949,215.3674 M,0,108479,108528,448.2949,215.3674,454.4005,226.2581 M,0,108528,108576,454.4005,226.2581,458.6483,237.9994 M,0,108576,108625,458.6483,237.9994,461.042,250.2564 M,0,108625,108673,461.042,250.2564,461.7511,262.7278 M,0,108673,108721,461.7511,262.7278,461.016,275.2004 M,0,108721,108770,461.016,275.2004,459.0905,287.5472
Sprite,Foreground,Centre,"sb/w.png",0,0 S,2,109158,109845,1,0.2 F,2,109158,109845,1,0 P,0,109158,109845,A C,0,109158,,4,219,192 M,0,109158,109206,494,381,482.0301,377.4344 M,0,109206,109254,482.0301,377.4344,469.8539,374.6688 M,0,109254,109303,469.8539,374.6688,457.528,372.7046 M,0,109303,109351,457.528,372.7046,445.0764,371.7739 M,0,109351,109399,445.0764,371.7739,432.5953,371.6509 M,0,109399,109448,432.5953,371.6509,420.1432,372.5757 M,0,109448,109496,420.1432,372.5757,407.7805,374.2966 M,0,109496,109545,407.7805,374.2966,395.5532,376.8685
Sprite,Foreground,Centre,"sb/w.png",0,0 S,2,109932,110619,1,0.2 F,2,109932,110619,1,0 P,0,109932,110619,A C,0,109932,,4,219,192 M,0,109932,109980,309,320,296.9785,323.392 M,0,109980,110028,296.9785,323.392,284.7719,326.0271 M,0,110028,110077,284.7719,326.0271,272.4301,327.9024 M,0,110077,110125,272.4301,327.9024,259.9749,328.8049 M,0,110125,110173,259.9749,328.8049,247.4921,328.9408 M,0,110173,110222,247.4921,328.9408,235.033,328.0928 M,0,110222,110270,235.033,328.0928,222.6531,326.4866 M,0,110270,110319,222.6531,326.4866,210.3904,324.0863
Sprite,Foreground,Centre,"sb/w.png",117,288 S,2,110706,111006,1,0.2 F,2,110706,111006,1,0 P,0,110706,111006,A C,0,110706,,4,219,192
Sprite,Foreground,Centre,"sb/w.png",129,188 S,2,111093,111393,1,0.2 F,2,111093,111393,1,0 P,0,111093,111393,A C,0,111093,,4,219,192
Sprite,Foreground,Centre,"sb/w.png",0,0 S,2,111480,112167,1,0.2 F,2,111480,112167,1,0 P,0,111480,112167,A C,0,111480,,4,219,192 M,0,111480,111528,140,88,151.5248,92.84041 M,0,111528,111576,151.5248,92.84041,163.0496,97.68082 M,0,111576,111625,163.0496,97.68082,174.5743,102.5212 M,0,111625,111673,174.5743,102.5212,186.0991,107.3616 M,0,111673,111721,186.0991,107.3616,198.2215,108.1146 M,0,111721,111770,198.2215,108.1146,210.6496,106.7762 M,0,111770,111818,210.6496,106.7762,223.0778,105.4378 M,0,111818,111867,223.0778,105.4378,235.5059,104.0994
Sprite,Foreground,Centre,"sb/f.jpg",186,411 S,19,98706,98906,2,1 F,2,99480,99680,1,0 C,0,98706,,255,210,0
Sprite,Foreground,Centre,"sb/w.png",0,0 S,19,15867,16604,1,0.7 F,2,16254,16604,1,0 M,0,15867,15915,255,85,267.3437,86.97083 M,0,15915,15963,267.3437,86.97083,279.6873,88.94167 M,0,15963,16012,279.6873,88.94167,292.0309,90.91251 M,0,16012,16060,292.0309,90.91251,304.3746,92.88335 M,0,16060,16108,304.3746,92.88335,316.7183,94.85418 M,0,16108,16157,316.7183,94.85418,329.0619,96.82501 M,0,16157,16205,329.0619,96.82501,341.4056,98.79585 M,0,16205,16254,341.4056,98.79585,353.7492,100.7667
Sprite,Foreground,Centre,"sb/w.png",0,0 S,2,6964,8038,1,0.2 F,2,6964,8038,1,0 P,0,6964,8038,A C,0,6964,,255,210,0 M,0,6964,7012,111,183,123.1458,180.0456 M,0,7012,7060,123.1458,180.0456,135.2917,177.0912 M,0,7060,7109,135.2917,177.0912,147.4375,174.1368 M,0,7109,7157,147.4375,174.1368,159.5834,171.1824 M,0,7157,7205,159.5834,171.1824,171.7292,168.228 M,0,7205,7254,171.7292,168.228,183.8751,165.2736 M,0,7254,7302,183.8751,165.2736,195.9186,168.0709 M,0,7302,7351,195.9186,168.0709,207.9518,171.4552 M,0,7351,7399,207.9518,171.4552,219.9849,174.8395 M,0,7399,7447,219.9849,174.8395,232.0181,178.2238 M,0,7447,7496,232.0181,178.2238,244.0512,181.6082 M,0,7496,7544,244.0512,181.6082,256.1864,181.4148 M,0,7544,7593,256.1864,181.4148,268.393,178.7221 M,0,7593,7641,268.393,178.7221,280.5995,176.0295 M,0,7641,7689,280.5995,176.0295,292.8061,173.3369 M,0,7689,7738,292.8061,173.3369,305.0126,170.6443
Sprite,Foreground,Centre,"sb/w.png",403,186 S,2,8125,8425,1,0.2 F,2,8125,8425,1,0 P,0,8125,8425,A C,0,8125,,255,210,0
Sprite,Foreground,Centre,"sb/w.png",0,0 S,2,8512,9586,1,0.2 F,2,8512,9586,1,0 P,0,8512,9586,A C,0,8512,,255,210,0 M,0,8512,8560,460,267,447.8092,269.7632 M,0,8560,8608,447.8092,269.7632,435.6185,272.5265 M,0,8608,8657,435.6185,272.5265,423.4277,275.2897 M,0,8657,8705,423.4277,275.2897,411.237,278.0529 M,0,8705,8753,411.237,278.0529,399.0462,280.8162 M,0,8753,8802,399.0462,280.8162,386.8555,283.5794 M,0,8802,8850,386.8555,283.5794,377.115,291.0804 M,0,8850,8899,377.115,291.0804,367.8144,299.432 M,0,8899,8947,367.8144,299.432,358.5138,307.7836 M,0,8947,8995,358.5138,307.7836,349.2131,316.1351 M,0,8995,9044,349.2131,316.1351,339.9125,324.4867 M,0,9044,9092,339.9125,324.4867,328.9485,329.6484 M,0,9092,9141,328.9485,329.6484,316.7767,332.4938 M,0,9141,9189,316.7767,332.4938,304.6049,335.3391 M,0,9189,9237,304.6049,335.3391,292.433,338.1845 M,0,9237,9286,292.433,338.1845,280.2612,341.0298
Sprite,Foreground,Centre,"sb/w.png",185,376 S,2,9673,9973,1,0.2 F,2,9673,9973,1,0 P,0,9673,9973,A C,0,9673,,255,210,0
Sprite,Foreground,Centre,"sb/w.png",0,0 S,2,10061,10748,1,0.2 F,2,10061,10748,1,0 P,0,10061,10748,A C,0,10061,,4,219,192 M,0,10061,10109,98,325,99.08287,312.547 M,0,10109,10157,99.08287,312.547,100.1657,300.094 M,0,10157,10206,100.1657,300.094,101.2486,287.641 M,0,10206,10254,101.2486,287.641,102.3315,275.188 M,0,10254,10302,102.3315,275.188,103.4144,262.735 M,0,10302,10351,103.4144,262.735,104.4972,250.282 M,0,10351,10399,104.4972,250.282,105.5801,237.8289 M,0,10399,10448,105.5801,237.8289,106.663,225.3759
Sprite,Foreground,Centre,"sb/w.png",0,0 S,2,10835,11522,1,0.2 F,2,10835,11522,1,0 P,0,10835,11522,A C,0,10835,,4,219,192 M,0,10835,10883,193,175,194.0286,187.4576 M,0,10883,10931,194.0286,187.4576,195.0572,199.9152 M,0,10931,10980,195.0572,199.9152,196.0858,212.3728 M,0,10980,11028,196.0858,212.3728,197.1144,224.8304 M,0,11028,11076,197.1144,224.8304,198.1431,237.288 M,0,11076,11125,198.1431,237.288,199.1717,249.7456 M,0,11125,11173,199.1717,249.7456,200.2003,262.2032 M,0,11173,11222,200.2003,262.2032,201.2289,274.6609
Sprite,Foreground,Centre,"sb/w.png",0,0 S,2,11609,12683,1,0.2 F,2,11609,12683,1,0 P,0,11609,12683,A C,0,11609,,4,219,192 M,0,11609,11657,257,355,269.08,351.7984 M,0,11657,11705,269.08,351.7984,281.3801,349.6017 M,0,11705,11754,281.3801,349.6017,293.8436,348.7786 M,0,11754,11802,293.8436,348.7786,306.2886,349.7762 M,0,11802,11850,306.2886,349.7762,318.3467,352.9932 M,0,11850,11899,318.3467,352.9932,329.5817,358.4316 M,0,11899,11947,329.5817,358.4316,339.8476,365.5484 M,0,11947,11996,339.8476,365.5484,349.4676,373.528 M,0,11996,12044,349.4676,373.528,359.0487,381.555 M,0,12044,12092,359.0487,381.555,369.2082,388.825 M,0,12092,12141,369.2082,388.825,380.3132,394.5274 M,0,12141,12189,380.3132,394.5274,392.2744,398.0902 M,0,12189,12238,392.2744,398.0902,404.6869,399.4313 M,0,12238,12286,404.6869,399.4313,417.167,398.9218 M,0,12286,12334,417.167,398.9218,429.5111,396.9871 M,0,12334,12383,429.5111,396.9871,441.646,393.9999
Sprite,Foreground,Centre,"sb/w.png",562,234 S,2,13158,13458,1,0.2 F,2,13158,13458,1,0 P,0,13158,13458,A C,0,13158,,255,121,162
Sprite,Foreground,Centre,"sb/w.png",0,0 S,19,14512,15055,1,0.7 F,2,14705,15055,1,0 M,0,14512,14560,562,234,549.6256,235.7678 M,0,14560,14608,549.6256,235.7678,537.2512,237.5355 M,0,14608,14657,537.2512,237.5355,524.8769,239.3033 M,0,14657,14705,524.8769,239.3033,512.5026,241.0711
Sprite,Foreground,Centre,"sb/w.png",0,0 S,19,17125,17765,1,0.7 F,2,17415,17765,1,0 M,0,17125,17173,432,311,419.7853,313.6554 M,0,17173,17221,419.7853,313.6554,407.5706,316.3107 M,0,17221,17270,407.5706,316.3107,395.3559,318.9661 M,0,17270,17318,395.3559,318.9661,383.1412,321.6215 M,0,17318,17366,383.1412,321.6215,370.9265,324.2769 M,0,17366,17415,370.9265,324.2769,358.7118,326.9322
Sprite,Foreground,Centre,"sb/w.png",261,350 S,19,17803,18153,1,0.7 F,2,17803,18153,1,0
Sprite,Foreground,Centre,"sb/w.png",0,0 S,2,19351,20425,1,0.2 F,2,19351,20425,1,0 P,0,19351,20425,A C,0,19351,,255,210,0 M,0,19351,19399,261,350,248.9262,353.2363 M,0,19399,19447,248.9262,353.2363,236.8524,356.4726 M,0,19447,19496,236.8524,356.4726,224.7786,359.7088 M,0,19496,19544,224.7786,359.7088,212.7048,362.9451 M,0,19544,19592,212.7048,362.9451,200.631,366.1814 M,0,19592,19641,200.631,366.1814,188.5572,369.4177 M,0,19641,19689,188.5572,369.4177,176.4834,372.6539 M,0,19689,19738,176.4834,372.6539,164.4096,375.8902 M,0,19738,19786,164.4096,375.8902,156.5207,366.5191 M,0,19786,19834,156.5207,366.5191,148.7786,356.7053 M,0,19834,19883,148.7786,356.7053,141.0366,346.8915 M,0,19883,19931,141.0366,346.8915,133.2946,337.0777 M,0,19931,19980,133.2946,337.0777,125.5526,327.2639 M,0,19980,20028,125.5526,327.2639,117.8106,317.45 M,0,20028,20076,117.8106,317.45,110.0686,307.6362 M,0,20076,20125,110.0686,307.6362,102.3265,297.8224
Sprite,Foreground,Centre,"sb/w.png",125,200 S,2,20512,20812,1,0.2 F,2,20512,20812,1,0 P,0,20512,20812,A C,0,20512,,255,210,0
Sprite,Foreground,Centre,"sb/w.png",0,0 S,2,20900,21974,1,0.2 F,2,20900,21974,1,0 P,0,20900,21974,A C,0,20900,,255,210,0 M,0,20900,20948,147,102,159.1567,99.0907 M,0,20948,20996,159.1567,99.0907,171.3134,96.1814 M,0,20996,21045,171.3134,96.1814,183.4702,93.27209 M,0,21045,21093,183.4702,93.27209,195.6269,90.36279 M,0,21093,21141,195.6269,90.36279,207.7836,87.45349 M,0,21141,21190,207.7836,87.45349,219.9403,84.54419 M,0,21190,21238,219.9403,84.54419,232.0971,81.63489 M,0,21238,21287,232.0971,81.63489,244.2538,78.72559 M,0,21287,21335,244.2538,78.72559,232.0971,81.63489 M,0,21335,21383,232.0971,81.63489,219.9403,84.54419 M,0,21383,21432,219.9403,84.54419,207.7836,87.45349 M,0,21432,21480,207.7836,87.45349,195.6269,90.36279 M,0,21480,21529,195.6269,90.36279,183.4702,93.27209 M,0,21529,21577,183.4702,93.27209,171.3134,96.1814 M,0,21577,21625,171.3134,96.1814,159.1567,99.0907 M,0,21625,21674,159.1567,99.0907,147,102
Sprite,Foreground,Centre,"sb/w.png",0,0 S,2,22448,23135,1,0.2 F,2,22448,23135,1,0 P,0,22448,23135,A C,0,22448,,4,219,192 M,0,22448,22496,280,250,291.2119,255.4875 M,0,22496,22544,291.2119,255.4875,302.7697,260.2189 M,0,22544,22593,302.7697,260.2189,314.8277,263.4449 M,0,22593,22641,314.8277,263.4449,327.0818,265.8412 M,0,22641,22689,327.0818,265.8412,339.5347,266.6852 M,0,22689,22738,339.5347,266.6852,352.0186,266.6558 M,0,22738,22786,352.0186,266.6558,364.4004,265.0865 M,0,22786,22835,364.4004,265.0865,376.6387,262.6336
Sprite,Foreground,Centre,"sb/w.png",0,0 S,2,23222,23909,1,0.2 F,2,23222,23909,1,0 P,0,23222,23909,A C,0,23222,,4,219,192 M,0,23222,23270,459,317,469.0983,309.6547 M,0,23270,23318,469.0983,309.6547,478.7505,301.7272 M,0,23318,23367,478.7505,301.7272,487.4817,292.8011 M,0,23367,23415,487.4817,292.8011,495.6513,283.3568 M,0,23415,23463,495.6513,283.3568,502.7709,273.0999 M,0,23463,23512,502.7709,273.0999,509.2232,262.4116 M,0,23512,23560,509.2232,262.4116,514.5321,251.1116 M,0,23560,23609,514.5321,251.1116,519.0818,239.4877
Sprite,Foreground,Centre,"sb/w.png",0,0 S,2,23996,25070,1,0.2 F,2,23996,25070,1,0 P,0,23996,25070,A C,0,23996,,4,219,192 M,0,23996,24044,506,140,496.3452,132.1044 M,0,24044,24092,496.3452,132.1044,486.0608,125.0266 M,0,24092,24141,486.0608,125.0266,474.7786,119.7106 M,0,24141,24189,474.7786,119.7106,463.0818,115.3509 M,0,24189,24237,463.0818,115.3509,450.8472,112.9323 M,0,24237,24286,450.8472,112.9323,438.4424,111.5523 M,0,24286,24334,438.4424,111.5523,425.987,112.1755 M,0,24334,24383,425.987,112.1755,413.6211,113.8576 M,0,24383,24431,413.6211,113.8576,401.6898,117.4851 M,0,24431,24479,401.6898,117.4851,390.1072,122.1273 M,0,24479,24528,390.1072,122.1273,379.4134,128.5421 M,0,24528,24576,379.4134,128.5421,369.3111,135.8641 M,0,24576,24625,369.3111,135.8641,360.4943,144.6823 M,0,24625,24673,360.4943,144.6823,352.4801,154.2429 M,0,24673,24721,352.4801,154.2429,346.0674,164.9371 M,0,24721,24770,346.0674,164.9371,340.6233,176.1602
Sprite,Foreground,Centre,"sb/e.jpg",326,353 S,19,25545,25745,3,1 F,2,26319,26519,1,0 C,0,25545,,255,121,162
Sprite,Foreground,Centre,"sb/e.jpg",282,157 S,19,27093,27293,3,1 F,2,27480,27680,1,0 C,0,27093,,255,121,162
Sprite,Foreground,Centre,"sb/e.jpg",85,121 S,19,27867,28067,3,1 F,2,27867,28067,1,0 C,0,27867,,255,121,162
Sprite,Foreground,Centre,"sb/e.jpg",235,252 S,19,28641,28841,3,1 F,2,29415,29615,1,0 C,0,28641,,255,210,0
Sprite,Foreground,Centre,"sb/e.jpg",295,75 S,19,30190,30390,3,1 F,2,30577,30777,1,0 C,0,30190,,255,210,0
Sprite,Foreground,Centre,"sb/e.jpg",489,110 S,19,30964,31164,3,1 F,2,30964,31164,1,0 C,0,30964,,255,210,0
Sprite,Foreground,Centre,"sb/e.jpg",489,110 S,19,31351,31551,3,1 F,2,31351,31551,1,0 C,0,31351,,255,210,0
Sprite,Foreground,Centre,"sb/e.jpg",479,209 S,19,31738,31938,3,1 F,2,32512,32712,1,0 C,0,31738,,4,219,192
Sprite,Foreground,Centre,"sb/e.jpg",289,157 S,19,33287,33487,3,1 F,2,33674,33874,1,0 C,0,33287,,4,219,192
Sprite,Foreground,Centre,"sb/e.jpg",265,355 S,19,34061,34261,3,1 F,2,34061,34261,1,0 C,0,34061,,4,219,192
Sprite,Foreground,Centre,"sb/e.jpg",400,208 S,19,34835,35035,3,1 F,2,35609,35809,1,0 C,0,34835,,255,121,162
Sprite,Foreground,Centre,"sb/w.png",543,196 S,2,50319,50619,1,0.2 F,2,50319,50619,1,0 P,0,50319,50619,A C,0,50319,,4,219,192
Sprite,Foreground,Centre,"sb/w.png",448,228 S,2,50706,51006,1,0.2 F,2,50706,51006,1,0 P,0,50706,51006,A C,0,50706,,4,219,192
Sprite,Foreground,Centre,"sb/w.png",0,0 S,2,51093,51780,1,0.2 F,2,51093,51780,1,0 P,0,51093,51780,A C,0,51093,,4,219,192 M,0,51093,51141,353,194,340.5454,195.0645 M,0,51141,51189,340.5454,195.0645,328.0908,196.129 M,0,51189,51238,328.0908,196.129,315.6362,197.1935 M,0,51238,51286,315.6362,197.1935,303.1816,198.258 M,0,51286,51334,303.1816,198.258,290.7271,199.3225 M,0,51334,51383,290.7271,199.3225,278.2725,200.387 M,0,51383,51431,278.2725,200.387,265.8179,201.4515 M,0,51431,51480,265.8179,201.4515,253.3633,202.516
Sprite,Foreground,Centre,"sb/w.png",231,299 S,2,51867,52167,1,0.2 F,2,51867,52167,1,0 P,0,51867,52167,A C,0,51867,,4,219,192
Sprite,Foreground,Centre,"sb/w.png",0,0 S,2,52254,53328,1,0.2 F,2,52254,53328,1,0 P,0,52254,53328,A C,0,52254,,4,219,192 M,0,52254,52302,133,276,137.1572,264.2154 M,0,52302,52350,137.1572,264.2154,140.1978,252.0975 M,0,52350,52399,140.1978,252.0975,141.7647,239.7066 M,0,52399,52447,141.7647,239.7066,141.469,227.2247 M,0,52447,52495,141.469,227.2247,139.0888,214.9693 M,0,52495,52544,139.0888,214.9693,134.7659,203.2526 M,0,52544,52592,134.7659,203.2526,129.0504,192.141 M,0,52592,52641,129.0504,192.141,122.6566,181.4006 M,0,52641,52689,122.6566,181.4006,116.3063,170.6348 M,0,52689,52737,116.3063,170.6348,110.722,159.4576 M,0,52737,52786,110.722,159.4576,106.614,147.6646 M,0,52786,52834,106.614,147.6646,104.4921,135.3618 M,0,52834,52883,104.4921,135.3618,104.453,122.8755 M,0,52883,52931,104.453,122.8755,106.2415,110.5138 M,0,52931,52979,106.2415,110.5138,109.4513,98.43898 M,0,52979,53028,109.4513,98.43898,113.75,86.7051
Sprite,Foreground,Centre,"sb/w.png",204,128 S,2,53415,53715,1,0.2 F,2,53415,53715,1,0 P,0,53415,53715,A C,0,53415,,255,121,162
Sprite,Foreground,Centre,"sb/w.png",298,94 S,2,53802,54102,1,0.2 F,2,53802,54102,1,0 P,0,53802,54102,A C,0,53802,,255,121,162
Sprite,Foreground,Centre,"sb/w.png",0,0 S,2,54189,54876,1,0.2 F,2,54189,54876,1,0 P,0,54189,54876,A C,0,54189,,255,121,162 M,0,54189,54237,377,157,389.4546,155.9355 M,0,54237,54285,389.4546,155.9355,401.9092,154.871 M,0,54285,54334,401.9092,154.871,414.3638,153.8065 M,0,54334,54382,414.3638,153.8065,426.8184,152.742 M,0,54382,54430,426.8184,152.742,439.2729,151.6775 M,0,54430,54479,439.2729,151.6775,451.7275,150.613 M,0,54479,54527,451.7275,150.613,464.1821,149.5485 M,0,54527,54576,464.1821,149.5485,476.6367,148.484
Sprite,Foreground,Centre,"sb/w.png",547,226 S,2,54964,55264,1,0.2 F,2,54964,55264,1,0 P,0,54964,55264,A C,0,54964,,255,121,162
Sprite,Foreground,Centre,"sb/w.png",547,226 S,2,55351,55651,1,0.2 F,2,55351,55651,1,0 P,0,55351,55651,A C,0,55351,,255,121,162
Sprite,Foreground,Centre,"sb/w.png",0,0 S,2,55738,56812,1,0.2 F,2,55738,56812,1,0 P,0,55738,56812,A C,0,55738,,255,121,162 M,0,55738,55786,486,305,496.243,311.939 M,0,55786,55834,496.243,311.939,505.1318,320.6247 M,0,55834,55883,505.1318,320.6247,510.4903,331.7739 M,0,55883,55931,510.4903,331.7739,513.776,343.7513 M,0,55931,55979,513.776,343.7513,512.7958,356.0804 M,0,55979,56028,512.7958,356.0804,509.5871,368.0704 M,0,56028,56076,509.5871,368.0704,502.5366,378.2296 M,0,56076,56125,502.5366,378.2296,493.7189,386.9539 M,0,56125,56173,493.7189,386.9539,482.5154,392.1839 M,0,56173,56221,482.5154,392.1839,470.5067,395.2611 M,0,56221,56270,470.5067,395.2611,458.1952,394.1425 M,0,56270,56318,458.1952,394.1425,446.2829,390.7378 M,0,56318,56367,446.2829,390.7378,436.2084,383.5765 M,0,56367,56415,436.2084,383.5765,427.6497,374.6285 M,0,56415,56463,427.6497,374.6285,422.5487,363.3717 M,0,56463,56512,422.5487,363.3717,419.6802,351.3336
Sprite,Foreground,Centre,"sb/w.png",401,252 S,2,56900,57200,1,0.2 F,2,56900,57200,1,0 P,0,56900,57200,A C,0,56900,,255,210,0
Sprite,Foreground,Centre,"sb/w.png",0,0 S,2,57287,57974,1,0.2 F,2,57287,57974,1,0 P,0,57287,57974,A C,0,57287,,255,210,0 M,0,57287,57335,303,275,290.5896,273.5062 M,0,57335,57383,290.5896,273.5062,278.1792,272.0123 M,0,57383,57432,278.1792,272.0123,265.7687,270.5185 M,0,57432,57480,265.7687,270.5185,253.3583,269.0246 M,0,57480,57528,253.3583,269.0246,240.9479,267.5308 M,0,57528,57577,240.9479,267.5308,228.5375,266.0369 M,0,57577,57625,228.5375,266.0369,216.1271,264.5431 M,0,57625,57674,216.1271,264.5431,203.7167,263.0492
Sprite,Foreground,Centre,"sb/w.png",140,340 S,2,58061,58361,1,0.2 F,2,58061,58361,1,0 P,0,58061,58361,A C,0,58061,,255,210,0
Sprite,Foreground,Centre,"sb/w.png",0,0 S,2,58448,59522,1,0.2 F,2,58448,59522,1,0 P,0,58448,59522,A C,0,58448,,255,210,0 M,0,58448,58496,212,409,223.142,403.3382 M,0,58496,58544,223.142,403.3382,234.6399,398.4433 M,0,58544,58593,234.6399,398.4433,246.5234,394.5847 M,0,58593,58641,246.5234,394.5847,258.766,392.1073 M,0,58641,58689,258.766,392.1073,271.2316,391.3731 M,0,58689,58738,271.2316,391.3731,283.6622,392.563 M,0,58738,58786,283.6622,392.563,295.8197,395.439 M,0,58786,58835,295.8197,395.439,307.7032,399.312 M,0,58835,58883,307.7032,399.312,319.549,403.3014 M,0,58883,58931,319.549,403.3014,331.615,406.5482 M,0,58931,58980,331.615,406.5482,343.9703,408.3786 M,0,58980,59028,343.9703,408.3786,356.459,408.477 M,0,59028,59077,356.459,408.477,368.8507,406.9034 M,0,59077,59125,368.8507,406.9034,380.9879,403.9381 M,0,59125,59173,380.9879,403.9381,392.8055,399.8748 M,0,59173,59222,392.8055,399.8748,404.3014,394.9716
Sprite,Foreground,Centre,"sb/w.png",503,407 S,2,59609,59909,1,0.2 F,2,59609,59909,1,0 P,0,59609,59909,A C,0,59609,,4,219,192
Sprite,Foreground,Centre,"sb/w.png",519,308 S,2,59996,60296,1,0.2 F,2,59996,60296,1,0 P,0,59996,60296,A C,0,59996,,4,219,192
Sprite,Foreground,Centre,"sb/w.png",472,209 S,2,60383,60683,1,0.2 F,2,60383,60683,1,0 P,0,60383,60683,A C,0,60383,,4,219,192
Sprite,Foreground,Centre,"sb/w.png",492,111 S,2,60770,61070,1,0.2 F,2,60770,61070,1,0 P,0,60770,61070,A C,0,60770,,4,219,192
Sprite,Foreground,Centre,"sb/w.png",320,248 S,2,61158,63006,1,0.2 F,2,61158,63006,1,0 P,0,61158,63006,A C,0,61158,,4,219,192
Sprite,Foreground,Centre,"sb/f.jpg",64,373 S,19,37932,38132,2,1 F,2,38706,38906,1,0 C,0,37932,,255,210,0
Sprite,Foreground,Centre,"sb/f.jpg",83,82 S,19,39093,39293,2,1 F,2,39093,39293,1,0 C,0,39093,,255,210,0
Sprite,Foreground,Centre,"sb/f.jpg",180,102 S,19,39480,39680,2,1 F,2,40254,40454,1,0 C,0,39480,,255,210,0
Sprite,Foreground,Centre,"sb/f.jpg",465,100 S,19,40641,40841,2,1 F,2,40641,40841,1,0 C,0,40641,,255,210,0
Sprite,Foreground,Centre,"sb/f.jpg",480,198 S,19,41029,41229,2,1 F,2,41803,42003,1,0 C,0,41029,,4,219,192
Sprite,Foreground,Centre,"sb/f.jpg",282,228 S,19,42577,42777,2,1 F,2,42964,43164,1,0 C,0,42577,,4,219,192
Sprite,Foreground,Centre,"sb/f.jpg",331,418 S,19,43351,43551,2,1 F,2,43931,44131,1,0 C,0,43351,,4,219,192
Sprite,Foreground,Centre,"sb/f.jpg",515,381 S,19,44125,44325,2,1 F,2,44899,45099,1,0 C,0,44125,,255,121,162
Sprite,Foreground,Centre,"sb/f.jpg",513,111 S,19,45287,45487,2,1 F,2,45287,45487,1,0 C,0,45287,,255,121,162
Sprite,Foreground,Centre,"sb/f.jpg",411,110 S,19,45674,45874,2,1 F,2,46448,46648,1,0 C,0,45674,,255,121,162
Sprite,Foreground,Centre,"sb/f.jpg",133,136 S,19,46835,47035,2,1 F,2,46835,47035,1,0 C,0,46835,,255,121,162
Sprite,Foreground,Centre,"sb/f.jpg",175,226 S,19,47222,47422,2,1 F,2,47609,47809,1,0 C,0,47222,,255,210,0
Sprite,Foreground,Centre,"sb/f.jpg",114,412 S,19,47996,48196,2,1 F,2,48383,48583,1,0 C,0,47996,,255,210,0
Sprite,Foreground,Centre,"sb/f.jpg",306,384 S,19,48770,48970,2,1 F,2,49544,49744,1,0 C,0,48770,,255,210,0
//Storyboard Sound Samples

[TimingPoints]
771,387.096774193548,4,2,1,50,1,0
13158,-100,4,2,1,30,0,0
25545,-100,4,2,1,55,0,0
50319,-100,4,2,1,65,0,1
62706,-100,4,2,1,50,0,0
81287,-100,4,2,1,35,0,0
84383,-100,4,2,1,40,0,0
85158,-100,4,2,1,45,0,0
85932,-100,4,2,1,55,0,0
87867,-100,4,2,1,65,0,1
98319,-100,4,2,1,65,0,0
99867,-100,4,2,1,65,0,1
112254,-100,4,2,1,65,0,0
114383,-100,4,2,1,45,0,0

[Colours]
Combo1 : 4,219,192
Combo2 : 255,121,162
Combo3 : 255,210,0

[HitObjects]
348,330,771,6,0,L|342:237,2,75,2|2|2,3:2|3:2|3:2,0:0:0:0:
410,87,2319,2,0,L|317:93,2,75,2|2|2,3:2|3:2|3:2,0:0:0:0:
160,95,3867,2,0,L|166:188,2,75,2|2|2,3:2|3:2|3:2,0:0:0:0:
173,344,5415,2,0,L|266:338,2,75,2|2|2,3:2|3:2|3:2,0:0:0:0:
47,127,6964,6,0,B|121:109|121:109|185:127|185:127|253:112,1,200,2|0,3:2|0:2,0:0:0:0:
339,130,8125,1,0,3:2:0:0:
396,211,8512,2,0,B|321:228|321:228|272:272|272:272|195:290,1,200,2|0,3:2|2:2,0:0:0:0:
121,320,9673,1,0,3:0:0:0:
34,269,10061,6,0,L|44:154,1,100,2|2,0:2|0:2,0:0:0:0:
129,119,10835,2,0,L|138:228,1,100,2|2,0:0|0:0,0:0:0:0:
193,299,11609,2,0,B|302:266|272:377|393:333,1,200,0|8,0:0|0:0,0:0:0:0:
498,178,13158,5,6,0:0:0:0:
498,178,14512,2,0,L|428:188,1,50,0|2,3:0|3:2,0:0:0:0:
191,29,15867,2,0,L|310:48,1,100,2|2,3:2|3:2,0:0:0:0:
368,255,17125,2,0,L|276:275,1,75,0|0,3:0|3:0,0:0:0:0:
197,294,17803,1,2,3:2:0:0:
197,294,19351,6,0,B|100:320|100:320|29:230,1,200,2|0,3:2|3:0,0:0:0:0:
61,144,20512,1,0,3:0:0:0:
83,46,20900,2,0,L|200:18,2,100,2|0|0,3:2|3:0|3:0,0:0:0:0:
216,194,22448,6,0,P|264:210|327:202,1,100,2|2,3:2|3:2,0:0:0:0:
395,261,23222,2,0,P|432:227|459:170,1,100,2|0,3:2|3:0,0:0:0:0:
442,84,23996,2,0,P|361:56|272:135,1,200,2|0,1:1|1:0,0:0:0:0:
316,213,25158,1,4,3:2:0:0:
262,297,25545,6,0,L|152:280,2,100,2|2|2,3:2|3:2|3:2,0:0:0:0:
218,101,27093,2,0,L|106:82,1,100,2|2,3:2|3:2,0:0:0:0:
21,65,27867,1,2,3:2:0:0:
171,196,28641,6,0,L|283:183,2,100,2|2|2,3:2|3:2|3:2,0:0:0:0:
231,19,30190,2,0,L|343:8,1,100,2|2,3:2|3:2,0:0:0:0:
425,54,30964,1,6,3:1:0:0:
425,54,31351,1,6,3:1:0:0:
415,153,31738,6,0,L|401:273,2,100,2|2|2,3:2|3:2|3:2,0:0:0:0:
225,101,33287,2,0,L|211:219,1,100,2|2,3:2|3:2,0:0:0:0:
201,299,34061,1,2,3:2:0:0:
336,152,34835,6,0,L|320:31,2,100,2|2|2,1:2|1:2|1:2,0:0:0:0:
366,349,36383,1,2,3:2:0:0:
183,266,37158,2,0,P|141:299|85:293,1,100,2|2,0:2|1:1,0:0:0:0:
0,317,37932,6,0,B|-8:272|15:239|15:239|11:197|11:197|30:170|34:119,1,200,0|0,3:2|3:2,0:0:0:0:
19,26,39093,1,2,3:2:0:0:
116,46,39480,2,0,B|158:31|197:58|197:58|234:54|234:54|269:82|329:74,1,200,2|0,3:2|3:2,0:0:0:0:
401,44,40641,1,2,3:2:0:0:
416,142,41029,6,0,L|529:171,2,100,2|2|0,3:2|3:2|3:2,0:0:0:0:
218,172,42577,2,0,P|234:243|226:291,1,100,2|2,3:2|3:2,0:0:0:0:
267,362,43351,2,0,B|333:326|333:326|414:348,1,150,0|2,0:0|3:2,0:0:0:0:
451,325,44125,6,0,B|465:253|465:253|415:217|415:217|432:143,1,200,0|0,3:2|3:2,0:0:0:0:
449,55,45287,1,2,3:2:0:0:
347,54,45674,2,0,B|279:71|279:71|237:34|237:34|150:57,1,200,2|0,3:2|3:2,3:0:0:0:
69,80,46835,1,2,3:2:0:0:
111,170,47222,6,0,L|98:290,1,100,2|0,3:2|3:0,0:0:0:0:
50,356,47996,2,0,L|155:366,1,100,0|2,3:0|3:2,0:0:0:0:
242,328,48770,2,0,B|311:302|311:302|438:337,1,200,8|0,3:2|3:0,0:0:0:0:
479,140,50319,5,2,3:2:0:0:
384,172,50706,1,0,3:2:0:0:
289,138,51093,2,0,L|172:148,1,100,2|0,3:2|3:2,0:0:0:0:
167,243,51867,1,2,3:2:0:0:
69,220,52254,2,0,B|108:122|3:126|55:19,1,200,0|2,3:2|3:2,0:0:0:0:
140,72,53415,5,2,3:2:0:0:
234,38,53802,1,0,3:2:0:0:
313,101,54189,2,0,L|430:91,1,100,2|2,3:2|3:1,0:0:0:0:
483,170,54964,1,2,3:2:0:0:
483,170,55351,1,2,3:2:0:0:
422,249,55738,2,0,P|450:294|357:280,1,200,0|2,3:2|3:2,0:0:0:0:
337,196,56900,5,0,3:2:0:0:
239,219,57287,2,0,L|131:206,1,100,2|2,3:2|3:1,0:0:0:0:
76,284,58061,1,0,3:2:0:0:
148,353,58448,2,0,B|247:299|245:392|356:331,1,200,0|2,3:2|3:2,0:0:0:0:
439,351,59609,5,0,3:2:0:0:
455,252,59996,1,0,3:2:0:0:
408,153,60383,1,0,3:2:0:0:
428,55,60770,1,0,3:2:0:0:
256,192,61158,12,12,62706,3:2:0:0:
94,318,65803,6,0,L|85:211,1,100,4|10,3:2|0:2,0:0:0:0:
36,131,66577,2,0,B|86:115|86:115|140:131,1,100,2|8,0:2|0:2,0:0:0:0:
215,191,67351,1,2,3:2:0:0:
215,191,67738,1,10,3:2:0:0:
281,116,68125,2,0,B|366:124|366:124|392:107|392:107|484:115,1,200,8|0,1:2|0:2,0:0:0:0:
448,357,71996,6,0,L|439:258,1,100,4|10,3:2|0:2,0:0:0:0:
489,171,72770,2,0,B|442:154|442:154|380:168,1,100,2|8,0:2|0:2,0:0:0:0:
323,237,73545,1,2,1:2:0:0:
323,237,73932,2,0,P|268:198|185:214,1,150,10|0,1:2|3:2,0:0:0:0:
99,329,75093,1,4,3:2:0:0:
256,192,81287,12,2,84383,3:2:0:0:
448,138,85932,6,0,L|439:237,1,100,2|0,3:2|1:2,0:0:0:0:
353,288,86706,2,0,L|347:236,1,50,2|8,0:2|0:2,0:0:0:0:
190,43,87867,5,4,3:2:0:0:
97,80,88254,2,0,B|118:127|118:127|98:182,1,100,2|2,3:2|3:2,0:0:0:0:
42,253,89029,1,2,3:2:0:0:
115,321,89416,2,0,B|223:362|213:269|311:306,1,200,2|0,3:2|0:0,0:0:0:0:
393,351,90577,6,0,L|405:250,1,100,2|0,3:2|3:2,0:0:0:0:
483,190,91351,2,0,L|471:89,1,100,2|0,3:2|3:2,0:0:0:0:
388,34,92125,2,0,P|346:59|288:61,2,100,10|2|2,3:2|3:2|3:2,0:0:0:0:
324,224,93674,6,0,P|266:199|215:202,1,100,2|0,3:2|3:2,0:0:0:0:
154,263,94448,2,0,B|166:316|166:316|145:377,1,100,2|2,3:2|3:2,0:0:0:0:
65,308,95222,1,2,3:2:0:0:
47,209,95609,2,0,B|36:130|36:130|48:104|48:104|33:-3,1,200,2|2,3:2|3:2,0:0:0:0:
132,37,96770,6,0,P|193:57|240:60,1,100,2|0,3:2|3:2,0:0:0:0:
283,143,97545,2,0,P|233:149|186:166,1,100,2|0,3:2|3:2,0:0:0:0:
122,355,98706,6,0,L|23:339,2,100,2|2|0,1:2|1:2|1:2,0:0:0:0:
203,297,99867,5,2,3:2:0:0:
288,349,100254,2,0,B|342:339|342:339|421:377|485:321,1,200,0|2,3:2|3:2,0:0:0:0:
462,227,101416,1,2,3:2:0:0:
483,129,101803,2,0,B|429:139|429:139|350:101|292:151,1,200,0|2,3:2|3:2,0:0:0:0:
193,150,102964,6,0,L|185:48,1,100,2|0,3:2|3:2,0:0:0:0:
89,20,103738,2,0,L|81:119,1,100,2|0,3:2|3:2,0:0:0:0:
112,214,104512,2,0,P|56:204|3:217,2,100,10|2|2,3:2|3:2|3:2,0:0:0:0:
224,379,106061,5,2,3:2:0:0:
251,282,106448,2,0,B|267:221|267:221|192:190|208:102,1,200,0|2,3:2|3:2,0:0:0:0:
259,26,107609,1,2,3:2:0:0:
351,63,107996,2,0,B|334:122|334:122|411:153|395:232,1,200,0|2,3:2|3:2,0:0:0:0:
430,325,109158,6,0,P|360:316|331:321,1,100,2|0,3:2|3:2,0:0:0:0:
245,264,109932,2,0,P|196:273|146:268,1,100,2|0,3:2|3:2,0:0:0:0:
53,232,110706,1,0,1:2:0:0:
65,132,111093,1,2,3:2:0:0:
76,32,111480,2,0,B|126:53|126:53|191:46,1,100,0|2,3:2|3:2,0:0:0:0:
269,29,112254,5,0,3:2:0:0:
269,29,114190,6,0,B|207:181|344:169|266:335,1,300,8|0,3:2|0:0,0:0:0:0:
