osu file format v14

[General]
AudioFilename: audio.mp3
AudioLeadIn: 0
PreviewTime: 87287
Countdown: 0
SampleSet: Drum
StackLeniency: 0.3
Mode: 0
LetterboxInBreaks: 0
EpilepsyWarning: 1
WidescreenStoryboard: 1

[Editor]
Bookmarks: 771,13158,25545,50319,62706,75093,81287,87867,98319,99867,112254,115351
DistanceSpacing: 1.3
BeatDivisor: 4
GridSize: 4
TimelineZoom: 1

[Metadata]
Title:Alt Futur
TitleUnicode:Alt Futur
Artist:Silentroom
ArtistUnicode:Silentroom
Creator:SaltyLucario
Version:Astronic's Insane
Source:osu!
Tags:saltking salty jamesjan3 dtm9 nowa dtm9_nowa astronic mbc #8 monthly beatmapping contest august featured artist fa mappers' guild electronic hi-tech edm dance rhythm game instrumental memory waves juliana techno ジュリアナテクノ bms ジャンルシャッフル3 genre-shuffle genre shuffle 3
BeatmapID:2680363
BeatmapSetID:1265982

[Difficulty]
HPDrainRate:4.6
CircleSize:3.6
OverallDifficulty:7.8
ApproachRate:9
SliderMultiplier:1.2
SliderTickRate:1

[Events]
//Background and Video events
0,0,"bg.jpg",0,0
//Break Periods
2,75293,80687
//Storyboard Layer 0 (Background)
//Storyboard Layer 1 (Fail)
//Storyboard Layer 2 (Pass)
//Storyboard Layer 3 (Foreground)
Sprite,Foreground,Centre,"sb/w.png",304,108 S,2,37158,37458,1,0.2 F,2,37158,37458,1,0 P,0,37158,37458,A C,0,37158,,4,219,192
Sprite,Foreground,Centre,"sb/w.png",340,96 S,2,37254,37554,1,0.2 F,2,37254,37554,1,0 P,0,37254,37554,A C,0,37254,,4,219,192
Sprite,Foreground,Centre,"sb/w.png",0,0 S,2,37351,37747,1,0.2 F,2,37351,37747,1,0 P,0,37351,37747,A C,0,37351,,4,219,192 M,0,37351,37399,372,84,373.8605,69.11583 M,0,37399,37447,373.8605,69.11583,375.721,54.23167
Sprite,Foreground,Centre,"sb/w.png",0,0 S,2,37545,37941,1,0.2 F,2,37545,37941,1,0 P,0,37545,37941,A C,0,37545,,4,219,192 M,0,37545,37593,232,152,229.0583,166.7087 M,0,37593,37641,229.0583,166.7087,226.1165,181.4174
Sprite,Foreground,Centre,"sb/w.png",0,0 S,2,37738,38134,1,0.2 F,2,37738,38134,1,0 P,0,37738,38134,A C,0,37738,,4,219,192 M,0,37738,37786,338,284,340.466,269.2041 M,0,37786,37834,340.466,269.2041,342.932,254.4082
Sprite,Foreground,Centre,"sb/a.png",0,0 S,0,771,,2.5 C,0,771,,0,0,0 F,2,771,,0,1 M,7,771,,272,248 M,7,771,1061,272,248,352,208 M,7,1061,1351,352,208,344,296 M,7,1351,2320,344,296,296,206 M,7,2320,2610,296,206,370,255 M,7,2610,2900,370,255,290,292 M,7,2900,3867,290,292,248,248 M,7,3867,4157,248,248,368,188 M,7,4157,4447,368,188,356,320 M,7,4447,5416,356,320,284,185 M,7,5416,5706,284,185,395,259 M,7,5706,5996,395,259,275,315 M,7,5996,6190,275,315,372,364 M,7,6190,6287,372,364,380,348 M,7,6287,6383,380,348,388,332 M,7,6383,6480,388,332,396,316 M,7,6480,6577,396,316,428,272 M,7,6577,6674,428,272,421,250 M,7,6674,6770,421,250,415,230 M,7,6770,6867,415,230,409,209 S,19,6964,,2.5,12.5 F,0,6964,7064,1,0
Sprite,Foreground,Centre,"sb/w.png",0,0 S,2,99867,100457,1,0.2 F,2,99867,100457,1,0 P,0,99867,100457,A C,0,99867,,4,219,192 M,0,99867,99915,432,428,420.6769,405.2613 M,0,99915,99963,420.6769,405.2613,403.3628,386.6915 M,0,99963,100012,403.3628,386.6915,381.4924,373.8194 M,0,100012,100060,381.4924,373.8194,356.8748,367.7021 M,0,100060,100108,356.8748,367.7021,331.5443,368.8393 M,0,100108,100157,331.5443,368.8393,307.5923,377.1314
Sprite,Foreground,Centre,"sb/w.png",0,0 S,2,100254,100650,1,0.2 F,2,100254,100650,1,0 P,0,100254,100650,A C,0,100254,,4,219,192 M,0,100254,100302,224,400,248.1914,408.0638 M,0,100302,100350,248.1914,408.0638,272,416
Sprite,Foreground,Centre,"sb/w.png",296,332 S,2,100448,100748,1,0.2 F,2,100448,100748,1,0 P,0,100448,100748,A C,0,100448,,4,219,192
Sprite,Foreground,Centre,"sb/w.png",248,312 S,2,100545,100845,1,0.2 F,2,100545,100845,1,0 P,0,100545,100845,A C,0,100545,,4,219,192
Sprite,Foreground,Centre,"sb/w.png",200,316 S,2,100641,100941,1,0.2 F,2,100641,100941,1,0 P,0,100641,100941,A C,0,100641,,4,219,192
Sprite,Foreground,Centre,"sb/w.png",172,332 S,2,100738,101038,1,0.2 F,2,100738,101038,1,0 P,0,100738,101038,A C,0,100738,,4,219,192
Sprite,Foreground,Centre,"sb/w.png",152,352 S,2,100835,101135,1,0.2 F,2,100835,101135,1,0 P,0,100835,101135,A C,0,100835,,4,219,192
Sprite,Foreground,Centre,"sb/w.png",136,372 S,2,100932,101232,1,0.2 F,2,100932,101232,1,0 P,0,100932,101232,A C,0,100932,,4,219,192
Sprite,Foreground,Centre,"sb/w.png",128,384 S,2,101029,101329,1,0.2 F,2,101029,101329,1,0 P,0,101029,101329,A C,0,101029,,4,219,192
Sprite,Foreground,Centre,"sb/w.png",124,400 S,2,101125,101425,1,0.2 F,2,101125,101425,1,0 P,0,101125,101425,A C,0,101125,,4,219,192
Sprite,Foreground,Centre,"sb/w.png",124,408 S,2,101222,101522,1,0.2 F,2,101222,101522,1,0 P,0,101222,101522,A C,0,101222,,4,219,192
Sprite,Foreground,Centre,"sb/w.png",124,416 S,2,101319,101619,1,0.2 F,2,101319,101619,1,0 P,0,101319,101619,A C,0,101319,,4,219,192
Sprite,Foreground,Centre,"sb/w.png",0,0 S,2,101416,102103,1,0.2 F,2,101416,102103,1,0 P,0,101416,102103,A C,0,101416,,255,121,162 M,0,101416,101464,124,424,132.5766,399.9856 M,0,101464,101512,132.5766,399.9856,141.1532,375.9712 M,0,101512,101561,141.1532,375.9712,141.7776,351.1099 M,0,101561,101609,141.7776,351.1099,138.451,325.8278 M,0,101609,101657,138.451,325.8278,135.1244,300.5457 M,0,101657,101706,135.1244,300.5457,131.7979,275.2636 M,0,101706,101754,131.7979,275.2636,128.4713,249.9815 M,0,101754,101803,128.4713,249.9815,125.1447,224.6994
Sprite,Foreground,Centre,"sb/w.png",160,80 S,2,101996,102296,1,0.2 F,2,101996,102296,1,0 P,0,101996,102296,A C,0,101996,,255,121,162
Sprite,Foreground,Centre,"sb/w.png",192,116 S,2,102093,102393,1,0.2 F,2,102093,102393,1,0 P,0,102093,102393,A C,0,102093,,255,121,162
Sprite,Foreground,Centre,"sb/w.png",228,128 S,2,102190,102490,1,0.2 F,2,102190,102490,1,0 P,0,102190,102490,A C,0,102190,,255,121,162
Sprite,Foreground,Centre,"sb/w.png",268,124 S,2,102287,102587,1,0.2 F,2,102287,102587,1,0 P,0,102287,102587,A C,0,102287,,255,121,162
Sprite,Foreground,Centre,"sb/w.png",308,112 S,2,102383,102683,1,0.2 F,2,102383,102683,1,0 P,0,102383,102683,A C,0,102383,,255,121,162
Sprite,Foreground,Centre,"sb/w.png",340,104 S,2,102480,102780,1,0.2 F,2,102480,102780,1,0 P,0,102480,102780,A C,0,102480,,255,121,162
Sprite,Foreground,Centre,"sb/w.png",364,112 S,2,102577,102877,1,0.2 F,2,102577,102877,1,0 P,0,102577,102877,A C,0,102577,,255,121,162
Sprite,Foreground,Centre,"sb/w.png",384,124 S,2,102674,102974,1,0.2 F,2,102674,102974,1,0 P,0,102674,102974,A C,0,102674,,255,121,162
Sprite,Foreground,Centre,"sb/w.png",392,132 S,2,102770,103070,1,0.2 F,2,102770,103070,1,0 P,0,102770,103070,A C,0,102770,,255,121,162
Sprite,Foreground,Centre,"sb/w.png",400,140 S,2,102867,103167,1,0.2 F,2,102867,103167,1,0 P,0,102867,103167,A C,0,102867,,255,121,162
Sprite,Foreground,Centre,"sb/w.png",0,0 S,2,102964,103651,1,0.2 F,2,102964,103651,1,0 P,0,102964,103651,A C,0,102964,,255,210,0 M,0,102964,103012,404,148,384.2641,164.1476 M,0,103012,103060,384.2641,164.1476,364.5282,180.2951 M,0,103060,103109,364.5282,180.2951,363.5597,203.3242 M,0,103109,103157,363.5597,203.3242,368.1794,228.4022 M,0,103157,103205,368.1794,228.4022,372.799,253.4803 M,0,103205,103254,372.799,253.4803,377.4186,278.5583 M,0,103254,103302,377.4186,278.5583,382.0383,303.6364 M,0,103302,103351,382.0383,303.6364,386.6579,328.7145
Sprite,Foreground,Centre,"sb/w.png",544,272 S,2,103545,103845,1,0.2 F,2,103545,103845,1,0 P,0,103545,103845,A C,0,103545,,255,210,0
Sprite,Foreground,Centre,"sb/w.png",536,240 S,2,103641,103941,1,0.2 F,2,103641,103941,1,0 P,0,103641,103941,A C,0,103641,,255,210,0
Sprite,Foreground,Centre,"sb/w.png",0,0 S,2,103738,104425,1,0.2 F,2,103738,104425,1,0 P,0,103738,104425,A C,0,103738,,255,210,0 M,0,103738,103786,528,208,502.6149,210.4176 M,0,103786,103834,502.6149,210.4176,477.2297,212.8353 M,0,103834,103883,477.2297,212.8353,451.8446,215.2529 M,0,103883,103931,451.8446,215.2529,431.5408,228.4592 M,0,103931,103979,431.5408,228.4592,412.4939,244.3339 M,0,103979,104028,412.4939,244.3339,387.1088,246.7515 M,0,104028,104076,387.1088,246.7515,361.7237,249.1692 M,0,104076,104125,361.7237,249.1692,336.3385,251.5868
Sprite,Foreground,Centre,"sb/w.png",0,0 S,2,104319,104715,1,0.2 F,2,104319,104715,1,0 P,0,104319,104715,A C,0,104319,,255,210,0 M,0,104319,104367,264,384,289.3253,381.0205 M,0,104367,104415,289.3253,381.0205,314.6507,378.0411
Sprite,Foreground,Centre,"sb/w.png",0,0 S,2,104512,104908,1,0.2 F,2,104512,104908,1,0 P,0,104512,104908,A C,0,104512,,4,219,192 M,0,104512,104560,256,256,251.3574,281.0675 M,0,104560,104608,251.3574,281.0675,245.3324,305.8363
Sprite,Foreground,Centre,"sb/w.png",140,188 S,2,104706,105006,1,0.2 F,2,104706,105006,1,0 P,0,104706,105006,A C,0,104706,,4,219,192
Sprite,Foreground,Centre,"sb/w.png",180,176 S,2,104803,105103,1,0.2 F,2,104803,105103,1,0 P,0,104803,105103,A C,0,104803,,4,219,192
Sprite,Foreground,Centre,"sb/w.png",0,0 S,2,104900,105296,1,0.2 F,2,104900,105296,1,0 P,0,104900,105296,A C,0,104900,,4,219,192 M,0,104900,104948,224,164,249.0048,169.001 M,0,104948,104996,249.0048,169.001,274.0096,174.0019
Sprite,Foreground,Centre,"sb/w.png",0,0 S,2,105093,105489,1,0.2 F,2,105093,105489,1,0 P,0,105093,105489,A C,0,105093,,4,219,192 M,0,105093,105141,160,276,134.9368,271.3007 M,0,105141,105189,134.9368,271.3007,109.8735,266.6013
Sprite,Foreground,Centre,"sb/w.png",0,0 S,2,105287,105877,1,0.2 F,2,105287,105877,1,0 P,0,105287,105877,A C,0,105287,,4,219,192 M,0,105287,105335,240,136,265.0632,140.6994 M,0,105335,105383,265.0632,140.6994,290.1265,145.3987 M,0,105383,105432,290.1265,145.3987,312.0502,156.0502 M,0,105432,105480,312.0502,156.0502,330.0814,174.0814 M,0,105480,105528,330.0814,174.0814,354.3442,180.4688 M,0,105528,105577,354.3442,180.4688,379.3491,185.4698
Sprite,Foreground,Centre,"sb/w.png",460,160 S,2,105674,105974,1,0.2 F,2,105674,105974,1,0 P,0,105674,105974,A C,0,105674,,4,219,192
Sprite,Foreground,Centre,"sb/w.png",428,172 S,2,105770,106070,1,0.2 F,2,105770,106070,1,0 P,0,105770,106070,A C,0,105770,,4,219,192
Sprite,Foreground,Centre,"sb/w.png",404,196 S,2,105867,106167,1,0.2 F,2,105867,106167,1,0 P,0,105867,106167,A C,0,105867,,4,219,192
Sprite,Foreground,Centre,"sb/w.png",392,240 S,2,105964,106264,1,0.2 F,2,105964,106264,1,0 P,0,105964,106264,A C,0,105964,,4,219,192
Sprite,Foreground,Centre,"sb/w.png",0,0 S,2,106061,106748,1,0.2 F,2,106061,106748,1,0 P,0,106061,106748,A C,0,106061,,255,121,162 M,0,106061,106109,408,288,412.4315,313.112 M,0,106109,106157,412.4315,313.112,416.863,338.224 M,0,106157,106206,416.863,338.224,421.2946,363.3359 M,0,106206,106254,421.2946,363.3359,425.7261,388.4479 M,0,106254,106302,425.7261,388.4479,430.1576,413.5599 M,0,106302,106351,430.1576,413.5599,439.3522,411.0505 M,0,106351,106399,439.3522,411.0505,455.6195,391.5049 M,0,106399,106448,455.6195,391.5049,476.9117,377.6971
Sprite,Foreground,Centre,"sb/w.png",336,316 S,2,106641,106941,1,0.2 F,2,106641,106941,1,0 P,0,106641,106941,A C,0,106641,,255,121,162
Sprite,Foreground,Centre,"sb/w.png",300,292 S,2,106738,107038,1,0.2 F,2,106738,107038,1,0 P,0,106738,107038,A C,0,106738,,255,121,162
Sprite,Foreground,Centre,"sb/w.png",260,284 S,2,106835,107135,1,0.2 F,2,106835,107135,1,0 P,0,106835,107135,A C,0,106835,,255,121,162
Sprite,Foreground,Centre,"sb/w.png",224,292 S,2,106931,107231,1,0.2 F,2,106931,107231,1,0 P,0,106931,107231,A C,0,106931,,255,121,162
Sprite,Foreground,Centre,"sb/w.png",200,308 S,2,107028,107328,1,0.2 F,2,107028,107328,1,0 P,0,107028,107328,A C,0,107028,,255,121,162
Sprite,Foreground,Centre,"sb/w.png",180,324 S,2,107125,107425,1,0.2 F,2,107125,107425,1,0 P,0,107125,107425,A C,0,107125,,255,121,162
Sprite,Foreground,Centre,"sb/w.png",164,344 S,2,107222,107522,1,0.2 F,2,107222,107522,1,0 P,0,107222,107522,A C,0,107222,,255,121,162
Sprite,Foreground,Centre,"sb/w.png",156,368 S,2,107318,107618,1,0.2 F,2,107318,107618,1,0 P,0,107318,107618,A C,0,107318,,255,121,162
Sprite,Foreground,Centre,"sb/w.png",152,384 S,2,107415,107715,1,0.2 F,2,107415,107715,1,0 P,0,107415,107715,A C,0,107415,,255,121,162
Sprite,Foreground,Centre,"sb/w.png",152,396 S,2,107512,107812,1,0.2 F,2,107512,107812,1,0 P,0,107512,107812,A C,0,107512,,255,121,162
Sprite,Foreground,Centre,"sb/w.png",0,0 S,2,107609,108296,1,0.2 F,2,107609,108296,1,0 P,0,107609,108296,A C,0,107609,,255,210,0 M,0,107609,107657,152,404,167.9297,384.0878 M,0,107657,107705,167.9297,384.0878,183.8595,364.1757 M,0,107705,107754,183.8595,364.1757,182.9254,338.7478 M,0,107754,107802,182.9254,338.7478,181.8413,313.2709 M,0,107802,107850,181.8413,313.2709,180.7572,287.7939 M,0,107850,107899,180.7572,287.7939,179.6731,262.317 M,0,107899,107947,179.6731,262.317,178.5889,236.8401 M,0,107947,107996,178.5889,236.8401,177.5048,211.3631
Sprite,Foreground,Centre,"sb/w.png",152,96 S,2,108190,108490,1,0.2 F,2,108190,108490,1,0 P,0,108190,108490,A C,0,108190,,255,210,0
Sprite,Foreground,Centre,"sb/w.png",192,68 S,2,108287,108587,1,0.2 F,2,108287,108587,1,0 P,0,108287,108587,A C,0,108287,,255,210,0
Sprite,Foreground,Centre,"sb/w.png",240,68 S,2,108383,108683,1,0.2 F,2,108383,108683,1,0 P,0,108383,108683,A C,0,108383,,255,210,0
Sprite,Foreground,Centre,"sb/w.png",280,80 S,2,108480,108780,1,0.2 F,2,108480,108780,1,0 P,0,108480,108780,A C,0,108480,,255,210,0
Sprite,Foreground,Centre,"sb/w.png",308,100 S,2,108577,108877,1,0.2 F,2,108577,108877,1,0 P,0,108577,108877,A C,0,108577,,255,210,0
Sprite,Foreground,Centre,"sb/w.png",328,114 S,2,108674,108974,1,0.2 F,2,108674,108974,1,0 P,0,108674,108974,A C,0,108674,,255,210,0
Sprite,Foreground,Centre,"sb/w.png",0,0 S,2,108770,109166,1,0.2 F,2,108770,109166,1,0 P,0,108770,109166,A C,0,108770,,255,210,0 M,0,108770,108818,336,124,361.4249,122.0442 M,0,108818,108866,361.4249,122.0442,386.8498,120.0885
Sprite,Foreground,Centre,"sb/w.png",520,108 S,2,108964,109264,1,0.2 F,2,108964,109264,1,0 P,0,108964,109264,A C,0,108964,,255,210,0
Sprite,Foreground,Centre,"sb/w.png",516,128 S,2,109061,109361,1,0.2 F,2,109061,109361,1,0 P,0,109061,109361,A C,0,109061,,255,210,0
Sprite,Foreground,Centre,"sb/w.png",0,0 S,2,109158,109845,1,0.2 F,2,109158,109845,1,0 P,0,109158,109845,A C,0,109158,,4,219,192 M,0,109158,109206,508,136,506.5313,161.4577 M,0,109206,109254,506.5313,161.4577,505.0626,186.9153 M,0,109254,109303,505.0626,186.9153,503.5939,212.373 M,0,109303,109351,503.5939,212.373,502.1252,237.8307 M,0,109351,109399,502.1252,237.8307,500.6564,263.2883 M,0,109399,109448,500.6564,263.2883,499.1877,288.746 M,0,109448,109496,499.1877,288.746,497.719,314.2037 M,0,109496,109545,497.719,314.2037,496.2503,339.6613
Sprite,Foreground,Centre,"sb/w.png",296,388 S,2,109738,110038,1,0.2 F,2,109738,110038,1,0 P,0,109738,110038,A C,0,109738,,4,219,192
Sprite,Foreground,Centre,"sb/w.png",304,348 S,2,109835,110135,1,0.2 F,2,109835,110135,1,0 P,0,109835,110135,A C,0,109835,,4,219,192
Sprite,Foreground,Centre,"sb/w.png",0,0 S,2,109932,110619,1,0.2 F,2,109932,110619,1,0 P,0,109932,110619,A C,0,109932,,4,219,192 M,0,109932,109980,312,312,315.2982,286.7142 M,0,109980,110028,315.2982,286.7142,318.5963,261.4284 M,0,110028,110077,318.5963,261.4284,321.8944,236.1426 M,0,110077,110125,321.8944,236.1426,329.1147,212.3279 M,0,110125,110173,329.1147,212.3279,340.7289,190.1691 M,0,110173,110222,340.7289,190.1691,343.8918,164.866 M,0,110222,110270,343.8918,164.866,347.0546,139.5629 M,0,110270,110319,347.0546,139.5629,350.2175,114.2598
Sprite,Foreground,Centre,"sb/w.png",180,220 S,2,110512,110812,1,0.2 F,2,110512,110812,1,0 P,0,110512,110812,A C,0,110512,,4,219,192
Sprite,Foreground,Centre,"sb/w.png",216,200 S,2,110609,110909,1,0.2 F,2,110609,110909,1,0 P,0,110609,110909,A C,0,110609,,4,219,192
Sprite,Foreground,Centre,"sb/w.png",0,0 S,2,110706,111780,1,0.2 F,2,110706,111780,1,0 P,0,110706,111780,A C,0,110706,,255,121,162 M,0,110706,110754,248,184,268.2474,168.6297 M,0,110754,110802,268.2474,168.6297,291.6685,158.7878 M,0,110802,110851,291.6685,158.7878,316.7886,155.0863 M,0,110851,110899,316.7886,155.0863,342.0281,157.7518 M,0,110899,110947,342.0281,157.7518,365.8009,166.6119 M,0,110947,110996,365.8009,166.6119,386.6143,181.1056 M,0,110996,111044,386.6143,181.1056,403.1616,200.3194 M,0,111044,111093,403.1616,200.3194,414.4043,223.0438 M,0,111093,111141,414.4043,223.0438,403.1616,200.3194 M,0,111141,111189,403.1616,200.3194,386.6143,181.1056 M,0,111189,111238,386.6143,181.1056,365.8009,166.6119 M,0,111238,111286,365.8009,166.6119,342.0281,157.7518 M,0,111286,111335,342.0281,157.7518,316.7886,155.0863 M,0,111335,111383,316.7886,155.0863,291.6685,158.7878 M,0,111383,111431,291.6685,158.7878,268.2474,168.6297 M,0,111431,111480,268.2474,168.6297,248,184
Sprite,Foreground,Centre,"sb/w.png",408,304 S,2,111674,111974,1,0.2 F,2,111674,111974,1,0 P,0,111674,111974,A C,0,111674,,255,121,162
Sprite,Foreground,Centre,"sb/w.png",0,0 S,2,111867,112457,1,0.2 F,2,111867,112457,1,0 P,0,111867,112457,A C,0,111867,,255,121,162 M,0,111867,111915,152,400,150.3756,374.5518 M,0,111915,111963,150.3756,374.5518,148.7513,349.1036 M,0,111963,112012,148.7513,349.1036,147.1269,323.6554 M,0,112012,112060,147.1269,323.6554,145.5026,298.2072 M,0,112060,112108,145.5026,298.2072,143.8782,272.7589 M,0,112108,112157,143.8782,272.7589,142.2539,247.3107
Sprite,Foreground,Centre,"sb/w.png",0,0 S,2,114383,114779,1,0.2 F,2,114383,114779,1,0 P,0,114383,114779,A C,0,114383,,4,219,192 M,0,114383,114431,252,128,249.534,142.7959 M,0,114431,114479,249.534,142.7959,247.068,157.5918
Sprite,Foreground,Centre,"sb/w.png",228,252 S,2,114577,114877,1,0.2 F,2,114577,114877,1,0 P,0,114577,114877,A C,0,114577,,4,219,192
Sprite,Foreground,Centre,"sb/w.png",256,249 S,2,114674,114974,1,0.2 F,2,114674,114974,1,0 P,0,114674,114974,A C,0,114674,,4,219,192
Sprite,Foreground,Centre,"sb/w.png",296,245 S,2,114770,115070,1,0.2 F,2,114770,115070,1,0 P,0,114770,115070,A C,0,114770,,4,219,192
Sprite,Foreground,Centre,"sb/w.png",350,240 S,2,114867,115167,1,0.2 F,2,114867,115167,1,0 P,0,114867,115167,A C,0,114867,,4,219,192
Sprite,Foreground,Centre,"sb/w.png",0,0 S,2,114964,115360,1,0.2 F,2,114964,115360,1,0 P,0,114964,115360,A C,0,114964,,4,219,192 M,0,114964,115012,428,234,430.466,219.2041 M,0,115012,115060,430.466,219.2041,432.932,204.4082
Sprite,Foreground,Centre,"sb/w.png",0,0 S,2,115158,115554,1,0.2 F,2,115158,115554,1,0 P,0,115158,115554,A C,0,115158,,4,219,192 M,0,115158,115206,337,322,339.6833,336.7581 M,0,115206,115254,339.6833,336.7581,342.3666,351.5161
Sprite,Foreground,Centre,"sb/f.jpg",488,264 S,19,98706,98906,2,1 F,2,98996,99196,1,0 C,0,98706,,255,210,0
Sprite,Foreground,Centre,"sb/f.jpg",468,292 S,19,99093,99293,2,1 F,2,99383,99583,1,0 C,0,99093,,255,210,0
Sprite,Foreground,Centre,"sb/f.jpg",448,312 S,19,99480,99680,2,1 F,2,99673,99873,1,0 C,0,99480,,255,210,0
Sprite,Foreground,Centre,"sb/f.jpg",452,160 S,19,49061,49261,2,1 F,2,49061,49261,1,0 C,0,49061,,4,219,192
Sprite,Foreground,Centre,"sb/w.png",124,260 S,19,16254,16604,1,0.7 F,2,16254,16604,1,0
Sprite,Foreground,Centre,"sb/w.png",264,88 S,19,15867,16217,1,0.7 F,2,15867,16217,1,0
Sprite,Foreground,Centre,"sb/w.png",0,0 S,2,6964,7457,1,0.2 F,2,6964,7457,1,0 P,0,6964,7457,A C,0,6964,,255,121,162 M,0,6964,7012,408,152,429.2132,130.7868 M,0,7012,7060,429.2132,130.7868,454.5073,122.6377 M,0,7060,7109,454.5073,122.6377,484.0234,128.0043 M,0,7109,7157,484.0234,128.0043,513.5396,133.3708
Sprite,Foreground,Centre,"sb/w.png",0,0 S,2,7254,7747,1,0.2 F,2,7254,7747,1,0 P,0,7254,7747,A C,0,7254,,255,121,162 M,0,7254,7302,384,240,355.0571,232.1065 M,0,7302,7350,355.0571,232.1065,335.2197,214.424 M,0,7350,7399,335.2197,214.424,325.256,186.127 M,0,7399,7447,325.256,186.127,315.2922,157.8299
Sprite,Foreground,Centre,"sb/w.png",0,0 S,2,7545,8038,1,0.2 F,2,7545,8038,1,0 P,0,7545,8038,A C,0,7545,,255,121,162 M,0,7545,7593,477,217,484.435,246.0641 M,0,7593,7641,484.435,246.0641,477.9416,271.9443 M,0,7641,7690,477.9416,271.9443,458.6176,294.8917 M,0,7690,7738,458.6176,294.8917,440,317
Sprite,Foreground,Centre,"sb/w.png",0,0 S,2,7835,8328,1,0.2 F,2,7835,8328,1,0 P,0,7835,8328,A C,0,7835,,255,210,0 M,0,7835,7883,359,325,373.2303,329.7434 M,0,7883,7931,373.2303,329.7434,387.4605,334.4868 M,0,7931,7980,387.4605,334.4868,401.6907,339.2303 M,0,7980,8028,401.6907,339.2303,415.921,343.9737
Sprite,Foreground,Centre,"sb/w.png",280,296 S,2,8125,8425,1,0.2 F,2,8125,8425,1,0 P,0,8125,8425,A C,0,8125,,4,219,192
Sprite,Foreground,Centre,"sb/w.png",497,373 S,2,8319,8619,1,0.2 F,2,8319,8619,1,0 P,0,8319,8619,A C,0,8319,,4,219,192
Sprite,Foreground,Centre,"sb/w.png",0,0 S,2,8512,9005,1,0.2 F,2,8512,9005,1,0 P,0,8512,9005,A C,0,8512,,255,121,162 M,0,8512,8560,192,272,170.7868,250.7868 M,0,8560,8608,170.7868,250.7868,162.6377,225.4927 M,0,8608,8657,162.6377,225.4927,168.0043,195.9766 M,0,8657,8705,168.0043,195.9766,173.3708,166.4605
Sprite,Foreground,Centre,"sb/w.png",0,0 S,2,8802,9295,1,0.2 F,2,8802,9295,1,0 P,0,8802,9295,A C,0,8802,,255,121,162 M,0,8802,8850,280,296,271.936,324.8959 M,0,8850,8898,271.936,324.8959,253.5148,344.1004 M,0,8898,8947,253.5148,344.1004,225.2177,354.0642 M,0,8947,8995,225.2177,354.0642,197,364
Sprite,Foreground,Centre,"sb/w.png",0,0 S,2,9093,9586,1,0.2 F,2,9093,9586,1,0 P,0,9093,9586,A C,0,9093,,255,121,162 M,0,9093,9141,257,203,285.8959,194.936 M,0,9141,9189,285.8959,194.936,311.7467,200.892 M,0,9189,9238,311.7467,200.892,334.6941,220.216 M,0,9238,9286,334.6941,220.216,357,239
Sprite,Foreground,Centre,"sb/w.png",0,0 S,2,9383,9876,1,0.2 F,2,9383,9876,1,0 P,0,9383,9876,A C,0,9383,,255,210,0 M,0,9383,9431,248,120,262.5728,116.4457 M,0,9431,9479,262.5728,116.4457,277.1456,112.8913 M,0,9479,9528,277.1456,112.8913,291.7184,109.337 M,0,9528,9576,291.7184,109.337,306.2912,105.7826
Sprite,Foreground,Centre,"sb/w.png",456,72 S,2,9674,9974,1,0.2 F,2,9674,9974,1,0 P,0,9674,9974,A C,0,9674,,4,219,192
Sprite,Foreground,Centre,"sb/w.png",257,203 S,2,9867,10167,1,0.2 F,2,9867,10167,1,0 P,0,9867,10167,A C,0,9867,,4,219,192
Sprite,Foreground,Centre,"sb/w.png",0,0 S,2,10061,10554,1,0.2 F,2,10061,10554,1,0 P,0,10061,10554,A C,0,10061,,255,121,162 M,0,10061,10109,461,164,482.2132,185.2132 M,0,10109,10157,482.2132,185.2132,490.3623,210.5073 M,0,10157,10206,490.3623,210.5073,484.9957,240.0234 M,0,10206,10254,484.9957,240.0234,479.6292,269.5395
Sprite,Foreground,Centre,"sb/w.png",0,0 S,2,10351,10844,1,0.2 F,2,10351,10844,1,0 P,0,10351,10844,A C,0,10351,,255,121,162 M,0,10351,10399,373,140,380.2761,110.8957 M,0,10399,10447,380.2761,110.8957,397.8145,91.13575 M,0,10447,10496,397.8145,91.13575,426.1115,81.172 M,0,10496,10544,426.1115,81.172,454.4086,71.20824
Sprite,Foreground,Centre,"sb/w.png",0,0 S,2,10642,11135,1,0.2 F,2,10642,11135,1,0 P,0,10642,11135,A C,0,10642,,255,121,162 M,0,10642,10690,396,233,366.8957,240.2761 M,0,10690,10738,366.8957,240.2761,340.7972,234.5661 M,0,10738,10787,340.7972,234.5661,317.8499,215.242 M,0,10787,10835,317.8499,215.242,295,196
Sprite,Foreground,Centre,"sb/w.png",232,120 S,2,10932,11232,1,0.2 F,2,10932,11232,1,0 P,0,10932,11232,A C,0,10932,,255,210,0
Sprite,Foreground,Centre,"sb/w.png",216,136 S,2,11028,11328,1,0.2 F,2,11028,11328,1,0 P,0,11028,11328,A C,0,11028,,255,210,0
Sprite,Foreground,Centre,"sb/w.png",200,152 S,2,11125,11425,1,0.2 F,2,11125,11425,1,0 P,0,11125,11425,A C,0,11125,,255,210,0
Sprite,Foreground,Centre,"sb/w.png",184,168 S,2,11222,11522,1,0.2 F,2,11222,11522,1,0 P,0,11222,11522,A C,0,11222,,255,210,0
Sprite,Foreground,Centre,"sb/w.png",168,184 S,2,11319,11619,1,0.2 F,2,11319,11619,1,0 P,0,11319,11619,A C,0,11319,,255,210,0
Sprite,Foreground,Centre,"sb/w.png",152,200 S,2,11416,11716,1,0.2 F,2,11416,11716,1,0 P,0,11416,11716,A C,0,11416,,255,210,0
Sprite,Foreground,Centre,"sb/w.png",136,216 S,2,11512,11812,1,0.2 F,2,11512,11812,1,0 P,0,11512,11812,A C,0,11512,,255,210,0
Sprite,Foreground,Centre,"sb/w.png",112,216 S,2,11609,11909,1,0.2 F,2,11609,11909,1,0 P,0,11609,11909,A C,0,11609,,4,219,192
Sprite,Foreground,Centre,"sb/w.png",117,245 S,2,11705,12005,1,0.2 F,2,11705,12005,1,0 P,0,11705,12005,A C,0,11705,,4,219,192
Sprite,Foreground,Centre,"sb/w.png",123,274 S,2,11802,12102,1,0.2 F,2,11802,12102,1,0 P,0,11802,12102,A C,0,11802,,4,219,192
Sprite,Foreground,Centre,"sb/w.png",129,304 S,2,11899,12199,1,0.2 F,2,11899,12199,1,0 P,0,11899,12199,A C,0,11899,,4,219,192
Sprite,Foreground,Centre,"sb/w.png",112,344 S,2,11996,12296,1,0.2 F,2,11996,12296,1,0 P,0,11996,12296,A C,0,11996,,255,121,162
Sprite,Foreground,Centre,"sb/w.png",148,351 S,2,12093,12393,1,0.2 F,2,12093,12393,1,0 P,0,12093,12393,A C,0,12093,,255,121,162
Sprite,Foreground,Centre,"sb/w.png",183,358 S,2,12190,12490,1,0.2 F,2,12190,12490,1,0 P,0,12190,12490,A C,0,12190,,255,121,162
Sprite,Foreground,Centre,"sb/w.png",218,364 S,2,12286,12586,1,0.2 F,2,12286,12586,1,0 P,0,12286,12586,A C,0,12286,,255,121,162
Sprite,Foreground,Centre,"sb/w.png",0,0 S,2,12383,12779,1,0.2 F,2,12383,12779,1,0 P,0,12383,12779,A C,0,12383,,255,121,162 M,0,12383,12431,256,372,250.2026,350.2597 M,0,12431,12479,250.2026,350.2597,244.4052,328.5194
Sprite,Foreground,Centre,"sb/w.png",0,0 S,2,12577,12973,1,0.2 F,2,12577,12973,1,0 P,0,12577,12973,A C,0,12577,,255,121,162 M,0,12577,12625,336,188,329.952,209.6719 M,0,12625,12673,329.952,209.6719,324,231
Sprite,Foreground,Centre,"sb/w.png",328,316 S,2,12770,13070,1,0.2 F,2,12770,13070,1,0 P,0,12770,13070,A C,0,12770,,255,210,0
Sprite,Foreground,Centre,"sb/w.png",357,314 S,2,12866,13166,1,0.2 F,2,12866,13166,1,0 P,0,12866,13166,A C,0,12866,,255,210,0
Sprite,Foreground,Centre,"sb/w.png",385,302 S,2,12963,13263,1,0.2 F,2,12963,13263,1,0 P,0,12963,13263,A C,0,12963,,255,210,0
Sprite,Foreground,Centre,"sb/w.png",405,281 S,2,13060,13360,1,0.2 F,2,13060,13360,1,0 P,0,13060,13360,A C,0,13060,,255,210,0
Sprite,Foreground,Centre,"sb/w.png",417,253 S,2,13157,13457,1,0.2 F,2,13157,13457,1,0 P,0,13157,13457,A C,0,13157,,4,219,192
Sprite,Foreground,Centre,"sb/w.png",372,76 S,19,14706,15056,1,0.7 F,2,14706,15056,1,0
Sprite,Foreground,Centre,"sb/w.png",172,172 S,19,17125,17475,1,0.7 F,2,17125,17475,1,0
Sprite,Foreground,Centre,"sb/w.png",232,248 S,19,17415,17765,1,0.7 F,2,17415,17765,1,0
Sprite,Foreground,Centre,"sb/w.png",244,212 S,19,17609,17959,1,0.7 F,2,17609,17959,1,0
Sprite,Foreground,Centre,"sb/w.png",204,328 S,19,17803,18153,1,0.7 F,2,18093,18443,1,0
Sprite,Foreground,Centre,"sb/f.jpg",336,165 S,19,49351,49551,2,1 F,2,49351,49551,1,0 C,0,49351,,4,219,192
Sprite,Foreground,Centre,"sb/f.jpg",344,197 S,19,49448,49648,2,1 F,2,49448,49648,1,0 C,0,49448,,4,219,192
Sprite,Foreground,Centre,"sb/f.jpg",352,229 S,19,49545,49745,2,1 F,2,49641,49841,1,0 C,0,49545,,4,219,192
Sprite,Foreground,Centre,"sb/f.jpg",384,76 S,19,49738,49938,2,1 F,2,49834,50034,1,0 C,0,49738,,4,219,192
Sprite,Foreground,Centre,"sb/f.jpg",208,128 S,19,49932,50132,2,1 F,2,49932,50132,1,0 C,0,49932,,4,219,192
Sprite,Foreground,Centre,"sb/f.jpg",368,320 S,19,50125,50325,2,1 F,2,50125,50325,1,0 C,0,50125,,4,219,192
Sprite,Foreground,Centre,"sb/w.png",320,248 S,2,69287,71909,1,0.2 F,2,69287,71909,1,0 P,0,69287,71909,A C,0,69287,,255,121,162
Sprite,Foreground,Centre,"sb/w.png",376,348 S,2,19351,19651,1,0.2 F,2,19351,19651,1,0 P,0,19351,19651,A C,0,19351,,4,219,192
Sprite,Foreground,Centre,"sb/w.png",320,256 S,2,19641,19941,1,0.2 F,2,19641,19941,1,0 P,0,19641,19941,A C,0,19641,,4,219,192
Sprite,Foreground,Centre,"sb/w.png",408,336 S,2,19932,20232,1,0.2 F,2,19932,20232,1,0 P,0,19932,20232,A C,0,19932,,255,121,162
Sprite,Foreground,Centre,"sb/w.png",352,244 S,2,20222,20522,1,0.2 F,2,20222,20522,1,0 P,0,20222,20522,A C,0,20222,,255,121,162
Sprite,Foreground,Centre,"sb/w.png",460,264 S,2,20512,20812,1,0.2 F,2,20512,20812,1,0 P,0,20512,20812,A C,0,20512,,255,210,0
Sprite,Foreground,Centre,"sb/w.png",440,236 S,2,20706,21006,1,0.2 F,2,20706,21006,1,0 P,0,20706,21006,A C,0,20706,,255,210,0
Sprite,Foreground,Centre,"sb/w.png",548,164 S,2,20900,21200,1,0.2 F,2,20900,21200,1,0 P,0,20900,21200,A C,0,20900,,4,219,192
Sprite,Foreground,Centre,"sb/w.png",520,332 S,2,21190,21490,1,0.2 F,2,21190,21490,1,0 P,0,21190,21490,A C,0,21190,,4,219,192
Sprite,Foreground,Centre,"sb/w.png",524,172 S,2,21480,21780,1,0.2 F,2,21480,21780,1,0 P,0,21480,21780,A C,0,21480,,255,121,162
Sprite,Foreground,Centre,"sb/w.png",496,340 S,2,21770,22070,1,0.2 F,2,21770,22070,1,0 P,0,21770,22070,A C,0,21770,,255,121,162
Sprite,Foreground,Centre,"sb/w.png",440,236 S,2,22061,22361,1,0.2 F,2,22061,22361,1,0 P,0,22061,22361,A C,0,22061,,255,210,0
Sprite,Foreground,Centre,"sb/w.png",460,264 S,2,22255,22555,1,0.2 F,2,22255,22555,1,0 P,0,22255,22555,A C,0,22255,,255,210,0
Sprite,Foreground,Centre,"sb/w.png",0,0 S,2,22448,23038,1,0.2 F,2,22448,23038,1,0 P,0,22448,23038,A C,0,22448,,4,219,192 M,0,22448,22496,548,80,533.7061,84.54806 M,0,22496,22544,533.7061,84.54806,519.4122,89.09612 M,0,22544,22593,519.4122,89.09612,505.1183,93.64417 M,0,22593,22641,505.1183,93.64417,490.8245,98.19222 M,0,22641,22689,490.8245,98.19222,476.5306,102.7403 M,0,22689,22738,476.5306,102.7403,462.2367,107.2883
Sprite,Foreground,Centre,"sb/w.png",320,248 S,2,23029,25458,1,0.2 F,2,23029,25458,1,0 P,0,23029,25458,A C,0,23029,,4,219,192
Sprite,Foreground,Centre,"sb/e.jpg",320,248 S,19,25545,25745,3,1 F,2,25545,25745,1,0 C,0,25545,,255,121,162
Sprite,Foreground,Centre,"sb/e.jpg",320,248 S,19,25932,26132,3,1 F,2,26222,26422,1,0 C,0,25932,,255,121,162
Sprite,Foreground,Centre,"sb/e.jpg",344,128 S,19,26319,26519,3,1 F,2,26512,26712,1,0 C,0,26319,,255,121,162
Sprite,Foreground,Centre,"sb/e.jpg",400,264 S,19,26609,26809,3,1 F,2,26609,26809,1,0 C,0,26609,,255,121,162
Sprite,Foreground,Centre,"sb/e.jpg",400,264 S,19,26706,26906,3,1 F,2,26996,27196,1,0 C,0,26706,,255,121,162
Sprite,Foreground,Centre,"sb/e.jpg",556,308 S,19,27093,27293,3,1 F,2,27383,27583,1,0 C,0,27093,,255,210,0
Sprite,Foreground,Centre,"sb/e.jpg",440,396 S,19,27480,27680,3,1 F,2,27673,27873,1,0 C,0,27480,,255,210,0
Sprite,Foreground,Centre,"sb/e.jpg",376,340 S,19,27770,27970,3,1 F,2,27770,27970,1,0 C,0,27770,,255,210,0
Sprite,Foreground,Centre,"sb/e.jpg",376,340 S,19,27867,28067,3,1 F,2,27867,28067,1,0 C,0,27867,,255,210,0
Sprite,Foreground,Centre,"sb/e.jpg",264,404 S,19,28061,28261,3,1 F,2,28061,28261,1,0 C,0,28061,,255,210,0
Sprite,Foreground,Centre,"sb/e.jpg",244,396 S,19,28158,28358,3,1 F,2,28158,28358,1,0 C,0,28158,,255,210,0
Sprite,Foreground,Centre,"sb/e.jpg",220,384 S,19,28254,28454,3,1 F,2,28350,28550,1,0 C,0,28254,,255,210,0
Sprite,Foreground,Centre,"sb/e.jpg",300,264 S,19,28448,28648,3,1 F,2,28544,28744,1,0 C,0,28448,,4,219,192
Sprite,Foreground,Centre,"sb/e.jpg",256,188 S,19,28641,28841,3,1 F,2,28931,29131,1,0 C,0,28641,,255,121,162
Sprite,Foreground,Centre,"sb/e.jpg",244,164 S,19,29029,29229,3,1 F,2,29319,29519,1,0 C,0,29029,,255,121,162
Sprite,Foreground,Centre,"sb/e.jpg",236,128 S,19,29416,29616,3,1 F,2,29609,29809,1,0 C,0,29416,,255,121,162
Sprite,Foreground,Centre,"sb/e.jpg",124,208 S,19,29706,29906,3,1 F,2,29706,29906,1,0 C,0,29706,,255,121,162
Sprite,Foreground,Centre,"sb/e.jpg",124,208 S,19,29803,30003,3,1 F,2,30093,30293,1,0 C,0,29803,,255,121,162
Sprite,Foreground,Centre,"sb/e.jpg",208,316 S,19,30190,30390,3,1 F,2,30286,30486,1,0 C,0,30190,,255,210,0
Sprite,Foreground,Centre,"sb/e.jpg",276,420 S,19,30383,30583,3,1 F,2,30479,30679,1,0 C,0,30383,,255,210,0
Sprite,Foreground,Centre,"sb/e.jpg",292,328 S,19,30577,30777,3,1 F,2,30770,30970,1,0 C,0,30577,,4,219,192
Sprite,Foreground,Centre,"sb/e.jpg",368,420 S,19,30867,31067,3,1 F,2,30867,31067,1,0 C,0,30867,,4,219,192
Sprite,Foreground,Centre,"sb/e.jpg",368,420 S,19,30964,31164,3,1 F,2,31254,31454,1,0 C,0,30964,,255,121,162
Sprite,Foreground,Centre,"sb/e.jpg",336,228 S,19,31351,31551,3,1 F,2,31641,31841,1,0 C,0,31351,,255,210,0
Sprite,Foreground,Centre,"sb/e.jpg",444,144 S,19,31738,31938,3,1 F,2,32028,32228,1,0 C,0,31738,,4,219,192
Sprite,Foreground,Centre,"sb/e.jpg",444,124 S,19,32125,32325,3,1 F,2,32415,32615,1,0 C,0,32125,,4,219,192
Sprite,Foreground,Centre,"sb/e.jpg",472,120 S,19,32512,32712,3,1 F,2,32705,32905,1,0 C,0,32512,,4,219,192
Sprite,Foreground,Centre,"sb/e.jpg",540,204 S,19,32803,33003,3,1 F,2,32803,33003,1,0 C,0,32803,,4,219,192
Sprite,Foreground,Centre,"sb/e.jpg",540,204 S,19,32900,33100,3,1 F,2,33190,33390,1,0 C,0,32900,,4,219,192
Sprite,Foreground,Centre,"sb/e.jpg",318,306 S,19,33287,33487,3,1 F,2,33577,33777,1,0 C,0,33287,,255,121,162
Sprite,Foreground,Centre,"sb/e.jpg",288,312 S,19,33674,33874,3,1 F,2,33964,34164,1,0 C,0,33674,,255,121,162
Sprite,Foreground,Centre,"sb/e.jpg",288,344 S,19,34061,34261,3,1 F,2,34157,34357,1,0 C,0,34061,,255,121,162
Sprite,Foreground,Centre,"sb/e.jpg",216,252 S,19,34254,34454,3,1 F,2,34350,34550,1,0 C,0,34254,,255,121,162
Sprite,Foreground,Centre,"sb/e.jpg",272,432 S,19,34448,34648,3,1 F,2,34544,34744,1,0 C,0,34448,,255,121,162
Sprite,Foreground,Centre,"sb/e.jpg",200,340 S,19,34641,34841,3,1 F,2,34737,34937,1,0 C,0,34641,,255,121,162
Sprite,Foreground,Centre,"sb/e.jpg",392,396 S,19,34835,35035,3,1 F,2,35125,35325,1,0 C,0,34835,,255,210,0
Sprite,Foreground,Centre,"sb/e.jpg",416,384 S,19,35222,35422,3,1 F,2,35512,35712,1,0 C,0,35222,,255,210,0
Sprite,Foreground,Centre,"sb/e.jpg",416,408 S,19,35609,35809,3,1 F,2,35802,36002,1,0 C,0,35609,,255,210,0
Sprite,Foreground,Centre,"sb/e.jpg",548,336 S,19,35900,36100,3,1 F,2,35900,36100,1,0 C,0,35900,,255,210,0
Sprite,Foreground,Centre,"sb/e.jpg",548,336 S,19,35996,36196,3,1 F,2,36286,36486,1,0 C,0,35996,,255,210,0
Sprite,Foreground,Centre,"sb/w.png",0,0 S,2,50319,50812,1,0.2 F,2,50319,50812,1,0 P,0,50319,50812,A C,0,50319,,255,121,162 M,0,50319,50367,144,184,153.4446,207.5735 M,0,50367,50415,153.4446,207.5735,155.7377,232.8455 M,0,50415,50464,155.7377,232.8455,150.6973,257.6981 M,0,50464,50512,150.6973,257.6981,138.8777,280.153
Sprite,Foreground,Centre,"sb/w.png",88,376 S,2,50609,50909,1,0.2 F,2,50609,50909,1,0 P,0,50609,50909,A C,0,50609,,255,121,162
Sprite,Foreground,Centre,"sb/w.png",0,0 S,2,50706,51102,1,0.2 F,2,50706,51102,1,0 P,0,50706,51102,A C,0,50706,,255,121,162 M,0,50706,50754,88,376,112.934,370.657 M,0,50754,50802,112.934,370.657,137.8679,365.314
Sprite,Foreground,Centre,"sb/w.png",0,0 S,2,50900,51296,1,0.2 F,2,50900,51296,1,0 P,0,50900,51296,A C,0,50900,,255,121,162 M,0,50900,50948,252,432,226.7965,428.1225 M,0,50948,50996,226.7965,428.1225,201.593,424.2451
Sprite,Foreground,Centre,"sb/w.png",0,0 S,2,51093,51586,1,0.2 F,2,51093,51586,1,0 P,0,51093,51586,A C,0,51093,,255,121,162 M,0,51093,51141,256,248,240.6796,268.2527 M,0,51141,51189,240.6796,268.2527,232.0596,292.1268 M,0,51189,51238,232.0596,292.1268,230.909,317.4719 M,0,51238,51286,230.909,317.4719,237.2469,342.0483
Sprite,Foreground,Centre,"sb/w.png",328,376 S,2,51383,51683,1,0.2 F,2,51383,51683,1,0 P,0,51383,51683,A C,0,51383,,255,121,162
Sprite,Foreground,Centre,"sb/w.png",0,0 S,2,51480,51876,1,0.2 F,2,51480,51876,1,0 P,0,51480,51876,A C,0,51480,,255,121,162 M,0,51480,51528,328,376,324.8371,350.6969 M,0,51528,51576,324.8371,350.6969,321.6742,325.3938
Sprite,Foreground,Centre,"sb/w.png",0,0 S,2,51674,52070,1,0.2 F,2,51674,52070,1,0 P,0,51674,52070,A C,0,51674,,255,121,162 M,0,51674,51722,420,432,423.6062,406.7563 M,0,51722,51770,423.6062,406.7563,427.2125,381.5126
Sprite,Foreground,Centre,"sb/w.png",0,0 S,2,51867,52360,1,0.2 F,2,51867,52360,1,0 P,0,51867,52360,A C,0,51867,,255,210,0 M,0,51867,51915,488,244,482.8986,268.892 M,0,51915,51963,482.8986,268.892,484.5659,294.2285 M,0,51963,52012,484.5659,294.2285,492.8745,318.2054 M,0,52012,52060,492.8745,318.2054,507.2256,339.1169
Sprite,Foreground,Centre,"sb/w.png",0,0 S,2,52158,52554,1,0.2 F,2,52158,52554,1,0 P,0,52158,52554,A C,0,52158,,255,210,0 M,0,52158,52206,568,156,542.7563,159.6062 M,0,52206,52254,542.7563,159.6062,517.5126,163.2125
Sprite,Foreground,Centre,"sb/w.png",400,224 S,2,52351,52651,1,0.2 F,2,52351,52651,1,0 P,0,52351,52651,A C,0,52351,,255,210,0
Sprite,Foreground,Centre,"sb/w.png",0,0 S,2,52448,52844,1,0.2 F,2,52448,52844,1,0 P,0,52448,52844,A C,0,52448,,255,210,0 M,0,52448,52496,400,224,425.0632,228.6994 M,0,52496,52544,425.0632,228.6994,450.1265,233.3987
Sprite,Foreground,Centre,"sb/w.png",472,92 S,2,52641,52941,1,0.2 F,2,52641,52941,1,0 P,0,52641,52941,A C,0,52641,,255,210,0
Sprite,Foreground,Centre,"sb/w.png",0,0 S,2,52738,53134,1,0.2 F,2,52738,53134,1,0 P,0,52738,53134,A C,0,52738,,255,210,0 M,0,52738,52786,472,92,446.9952,97.00096 M,0,52786,52834,446.9952,97.00096,421.9904,102.0019
Sprite,Foreground,Centre,"sb/w.png",0,0 S,2,52932,53328,1,0.2 F,2,52932,53328,1,0 P,0,52932,53328,A C,0,52932,,255,210,0 M,0,52932,52980,300,180,324.5571,173.4607 M,0,52980,53028,324.5571,173.4607,346.4872,160.6233
Sprite,Foreground,Centre,"sb/w.png",240,72 S,2,53125,53425,1,0.2 F,2,53125,53425,1,0 P,0,53125,53425,A C,0,53125,,255,210,0
Sprite,Foreground,Centre,"sb/w.png",0,0 S,2,53222,53618,1,0.2 F,2,53222,53618,1,0 P,0,53222,53618,A C,0,53222,,255,210,0 M,0,53222,53270,196,92,199.8775,117.2035 M,0,53270,53318,199.8775,117.2035,203.7549,142.407
Sprite,Foreground,Centre,"sb/w.png",0,0 S,2,53416,53812,1,0.2 F,2,53416,53812,1,0 P,0,53416,53812,A C,0,53416,,4,219,192 M,0,53416,53464,104,232,129.3031,228.8371 M,0,53464,53512,129.3031,228.8371,154.6062,225.6742
Sprite,Foreground,Centre,"sb/w.png",220,312 S,2,53609,53909,1,0.2 F,2,53609,53909,1,0 P,0,53609,53909,A C,0,53609,,4,219,192
Sprite,Foreground,Centre,"sb/w.png",0,0 S,2,53706,54102,1,0.2 F,2,53706,54102,1,0 P,0,53706,54102,A C,0,53706,,4,219,192 M,0,53706,53754,220,312,194.6969,315.1629 M,0,53754,53802,194.6969,315.1629,169.3938,318.3258
Sprite,Foreground,Centre,"sb/w.png",0,0 S,2,53900,54393,1,0.2 F,2,53900,54393,1,0 P,0,53900,54393,A C,0,53900,,4,219,192 M,0,53900,53948,120,416,145.2035,412.1225 M,0,53948,53996,145.2035,412.1225,170.407,408.2451 M,0,53996,54045,170.407,408.2451,195.6104,404.3676 M,0,54045,54093,195.6104,404.3676,220.8139,400.4902
Sprite,Foreground,Centre,"sb/w.png",0,0 S,2,54190,54683,1,0.2 F,2,54190,54683,1,0 P,0,54190,54683,A C,0,54190,,4,219,192 M,0,54190,54238,336,296,320.7113,316.3054 M,0,54238,54286,320.7113,316.3054,310.8738,339.7199 M,0,54286,54335,310.8738,339.7199,307.0781,364.8158 M,0,54335,54383,307.0781,364.8158,309.549,390.0649
Sprite,Foreground,Centre,"sb/w.png",448,368 S,2,54480,54780,1,0.2 F,2,54480,54780,1,0 P,0,54480,54780,A C,0,54480,,4,219,192
Sprite,Foreground,Centre,"sb/w.png",0,0 S,2,54577,54973,1,0.2 F,2,54577,54973,1,0 P,0,54577,54973,A C,0,54577,,4,219,192 M,0,54577,54625,448,368,422.7338,364.5546 M,0,54625,54673,422.7338,364.5546,397.4677,361.1092
Sprite,Foreground,Centre,"sb/w.png",0,0 S,2,54770,55166,1,0.2 F,2,54770,55166,1,0 P,0,54770,55166,A C,0,54770,,4,219,192 M,0,54770,54818,348,260,373.3184,263.0382 M,0,54818,54866,373.3184,263.0382,398,266
Sprite,Foreground,Centre,"sb/w.png",0,0 S,2,54964,55457,1,0.2 F,2,54964,55457,1,0 P,0,54964,55457,A C,0,54964,,255,121,162 M,0,54964,55012,540,376,515.0654,371.6581 M,0,55012,55060,515.0654,371.6581,493.7044,358.1484 M,0,55060,55109,493.7044,358.1484,479.1337,337.5345 M,0,55109,55157,479.1337,337.5345,473.5396,312.9463
Sprite,Foreground,Centre,"sb/w.png",480,220 S,2,55254,55554,1,0.2 F,2,55254,55554,1,0 P,0,55254,55554,A C,0,55254,,255,121,162
Sprite,Foreground,Centre,"sb/w.png",0,0 S,2,55351,55747,1,0.2 F,2,55351,55747,1,0 P,0,55351,55747,A C,0,55351,,255,121,162 M,0,55351,55399,480,220,504.8221,225.8405 M,0,55399,55447,504.8221,225.8405,529.6443,231.681
Sprite,Foreground,Centre,"sb/w.png",0,0 S,2,55545,55941,1,0.2 F,2,55545,55941,1,0 P,0,55545,55941,A C,0,55545,,255,121,162 M,0,55545,55593,416,148,391.1779,142.1595 M,0,55593,55641,391.1779,142.1595,366.3557,136.319
Sprite,Foreground,Centre,"sb/w.png",0,0 S,2,55738,56134,1,0.2 F,2,55738,56134,1,0 P,0,55738,56134,A C,0,55738,,255,121,162 M,0,55738,55786,480,88,505.112,92.43153 M,0,55786,55834,505.112,92.43153,530.224,96.86305
Sprite,Foreground,Centre,"sb/w.png",0,0 S,2,55932,56328,1,0.2 F,2,55932,56328,1,0 P,0,55932,56328,A C,0,55932,,255,210,0 M,0,55932,55980,320,64,325.7364,92.68198 M,0,55980,56028,325.7364,92.68198,331.4728,121.364
Sprite,Foreground,Centre,"sb/w.png",0,0 S,2,56125,56521,1,0.2 F,2,56125,56521,1,0 P,0,56125,56521,A C,0,56125,,255,210,0 M,0,56125,56173,392,240,397.3904,211.251 M,0,56173,56221,397.3904,211.251,402.7809,182.502
Sprite,Foreground,Centre,"sb/w.png",0,0 S,2,56319,56715,1,0.2 F,2,56319,56715,1,0 P,0,56319,56715,A C,0,56319,,255,210,0 M,0,56319,56367,236,84,241.0832,112.8049 M,0,56367,56415,241.0832,112.8049,246.1664,141.6098
Sprite,Foreground,Centre,"sb/w.png",0,0 S,2,56512,57005,1,0.2 F,2,56512,57005,1,0 P,0,56512,57005,A C,0,56512,,4,219,192 M,0,56512,56560,320,280,341.0567,265.889 M,0,56560,56608,341.0567,265.889,365.5667,259.5731 M,0,56608,56657,365.5667,259.5731,390.7547,261.7459 M,0,56657,56705,390.7547,261.7459,413.7742,272.1459
Sprite,Foreground,Centre,"sb/w.png",524,392 S,2,56803,57103,1,0.2 F,2,56803,57103,1,0 P,0,56803,57103,A C,0,56803,,4,219,192
Sprite,Foreground,Centre,"sb/w.png",0,0 S,2,56900,57296,1,0.2 F,2,56900,57296,1,0 P,0,56900,57296,A C,0,56900,,4,219,192 M,0,56900,56948,524,392,498.6747,389.0205 M,0,56948,56996,498.6747,389.0205,473.3493,386.0411
Sprite,Foreground,Centre,"sb/w.png",0,0 S,2,57093,57489,1,0.2 F,2,57093,57489,1,0 P,0,57093,57489,A C,0,57093,,4,219,192 M,0,57093,57141,356,400,362.0748,375.2354 M,0,57141,57189,362.0748,375.2354,368.9312,350.6759
Sprite,Foreground,Centre,"sb/w.png",0,0 S,2,57287,57780,1,0.2 F,2,57287,57780,1,0 P,0,57287,57780,A C,0,57287,,4,219,192 M,0,57287,57335,268,224,279.6017,246.6591 M,0,57335,57383,279.6017,246.6591,286.9346,271.0258 M,0,57383,57432,286.9346,271.0258,289.7632,296.3057 M,0,57432,57480,289.7632,296.3057,287.9979,321.6759
Sprite,Foreground,Centre,"sb/w.png",248,420 S,2,57577,57877,1,0.2 F,2,57577,57877,1,0 P,0,57577,57877,A C,0,57577,,4,219,192
Sprite,Foreground,Centre,"sb/w.png",0,0 S,2,57674,58070,1,0.2 F,2,57674,58070,1,0 P,0,57674,58070,A C,0,57674,,4,219,192 M,0,57674,57722,248,420,222.6969,416.8371 M,0,57722,57770,222.6969,416.8371,197.3938,413.6742
Sprite,Foreground,Centre,"sb/w.png",0,0 S,2,57867,58263,1,0.2 F,2,57867,58263,1,0 P,0,57867,58263,A C,0,57867,,4,219,192 M,0,57867,57915,104,304,129.3031,300.8371 M,0,57915,57963,129.3031,300.8371,154.6062,297.6742
Sprite,Foreground,Centre,"sb/w.png",0,0 S,2,58061,58457,1,0.2 F,2,58061,58457,1,0 P,0,58061,58457,A C,0,58061,,255,121,162 M,0,58061,58109,264,184,238.6266,186.5373 M,0,58109,58157,238.6266,186.5373,213.2531,189.0747
Sprite,Foreground,Centre,"sb/w.png",0,0 S,2,58254,58747,1,0.2 F,2,58254,58747,1,0 P,0,58254,58747,A C,0,58254,,255,121,162 M,0,58254,58302,300,104,299.3718,129.3111 M,0,58302,58350,299.3718,129.3111,307.8399,153.1238 M,0,58350,58399,307.8399,153.1238,324.257,172.2931 M,0,58399,58447,324.257,172.2931,346.4326,184.2924
Sprite,Foreground,Centre,"sb/w.png",436,96 S,2,58545,58845,1,0.2 F,2,58545,58845,1,0 P,0,58545,58845,A C,0,58545,,255,121,162
Sprite,Foreground,Centre,"sb/w.png",0,0 S,2,58641,59037,1,0.2 F,2,58641,59037,1,0 P,0,58641,59037,A C,0,58641,,255,121,162 M,0,58641,58689,436,96,410.6969,99.16289 M,0,58689,58737,410.6969,99.16289,385.3938,102.3258
Sprite,Foreground,Centre,"sb/w.png",0,0 S,2,58835,59231,1,0.2 F,2,58835,59231,1,0 P,0,58835,59231,A C,0,58835,,255,121,162 M,0,58835,58883,440,232,436.3938,206.7563 M,0,58883,58931,436.3938,206.7563,432.7875,181.5126
Sprite,Foreground,Centre,"sb/w.png",528,92 S,2,59029,59329,1,0.2 F,2,59029,59329,1,0 P,0,59029,59329,A C,0,59029,,255,121,162
Sprite,Foreground,Centre,"sb/w.png",0,0 S,2,59125,59521,1,0.2 F,2,59125,59521,1,0 P,0,59125,59521,A C,0,59125,,255,121,162 M,0,59125,59173,528,92,526.3038,117.4435 M,0,59173,59221,526.3038,117.4435,524.6075,142.887
Sprite,Foreground,Centre,"sb/w.png",520,272 S,2,59319,59619,1,0.2 F,2,59319,59619,1,0 P,0,59319,59619,A C,0,59319,,255,121,162
Sprite,Foreground,Centre,"sb/w.png",0,0 S,2,59416,59812,1,0.2 F,2,59416,59812,1,0 P,0,59416,59812,A C,0,59416,,255,121,162 M,0,59416,59464,536,232,510.5497,233.5907 M,0,59464,59512,510.5497,233.5907,485.0993,235.1813
Sprite,Foreground,Centre,"sb/w.png",0,0 S,2,59609,60005,1,0.2 F,2,59609,60005,1,0 P,0,59609,60005,A C,0,59609,,255,210,0 M,0,59609,59657,440,356,469.974,354.7511 M,0,59657,59705,469.974,354.7511,499.948,353.5022
Sprite,Foreground,Centre,"sb/w.png",0,0 S,2,59803,60199,1,0.2 F,2,59803,60199,1,0 P,0,59803,60199,A C,0,59803,,255,210,0 M,0,59803,59851,436,388,465.974,386.7511 M,0,59851,59899,465.974,386.7511,495.948,385.5022
Sprite,Foreground,Centre,"sb/w.png",0,0 S,2,59996,60392,1,0.2 F,2,59996,60392,1,0 P,0,59996,60392,A C,0,59996,,255,210,0 M,0,59996,60044,360,264,330.026,262.7511 M,0,60044,60092,330.026,262.7511,300.052,261.5022
Sprite,Foreground,Centre,"sb/w.png",0,0 S,2,60190,60586,1,0.2 F,2,60190,60586,1,0 P,0,60190,60586,A C,0,60190,,255,210,0 M,0,60190,60238,364,296,334.026,294.7511 M,0,60238,60286,334.026,294.7511,304.052,293.5022
Sprite,Foreground,Centre,"sb/w.png",0,0 S,2,60383,60779,1,0.2 F,2,60383,60779,1,0 P,0,60383,60779,A C,0,60383,,4,219,192 M,0,60383,60431,240,420,269.9538,418.3359 M,0,60431,60479,269.9538,418.3359,299.9076,416.6718
Sprite,Foreground,Centre,"sb/w.png",0,0 S,2,60577,60973,1,0.2 F,2,60577,60973,1,0 P,0,60577,60973,A C,0,60577,,4,219,192 M,0,60577,60625,232,388,261.9626,386.5019 M,0,60625,60673,261.9626,386.5019,291.9251,385.0038
Sprite,Foreground,Centre,"sb/w.png",0,0 S,2,60770,61166,1,0.2 F,2,60770,61166,1,0 P,0,60770,61166,A C,0,60770,,4,219,192 M,0,60770,60818,188,256,158.0462,254.3359 M,0,60818,60866,158.0462,254.3359,128.0924,252.6718
Sprite,Foreground,Centre,"sb/w.png",0,0 S,2,60964,61360,1,0.2 F,2,60964,61360,1,0 P,0,60964,61360,A C,0,60964,,4,219,192 M,0,60964,61012,196,224,166.0374,222.5019 M,0,61012,61060,166.0374,222.5019,136.0749,221.0037
Sprite,Foreground,Centre,"sb/w.png",124,352 S,2,61158,61458,1,0.2 F,2,61158,61458,1,0 P,0,61158,61458,A C,0,61158,,255,121,162
Sprite,Foreground,Centre,"sb/w.png",140,356 S,2,61254,61554,1,0.2 F,2,61254,61554,1,0 P,0,61254,61554,A C,0,61254,,255,121,162
Sprite,Foreground,Centre,"sb/w.png",152,360 S,2,61351,61651,1,0.2 F,2,61351,61651,1,0 P,0,61351,61651,A C,0,61351,,255,121,162
Sprite,Foreground,Centre,"sb/w.png",168,364 S,2,61448,61748,1,0.2 F,2,61448,61748,1,0 P,0,61448,61748,A C,0,61448,,255,121,162
Sprite,Foreground,Centre,"sb/w.png",220,392 S,2,61545,61845,1,0.2 F,2,61545,61845,1,0 P,0,61545,61845,A C,0,61545,,255,210,0
Sprite,Foreground,Centre,"sb/w.png",240,388 S,2,61641,61941,1,0.2 F,2,61641,61941,1,0 P,0,61641,61941,A C,0,61641,,255,210,0
Sprite,Foreground,Centre,"sb/w.png",260,384 S,2,61738,62038,1,0.2 F,2,61738,62038,1,0 P,0,61738,62038,A C,0,61738,,255,210,0
Sprite,Foreground,Centre,"sb/w.png",284,380 S,2,61835,62135,1,0.2 F,2,61835,62135,1,0 P,0,61835,62135,A C,0,61835,,255,210,0
Sprite,Foreground,Centre,"sb/w.png",324,332 S,2,61932,62232,1,0.2 F,2,61932,62232,1,0 P,0,61932,62232,A C,0,61932,,4,219,192
Sprite,Foreground,Centre,"sb/w.png",377,309 S,2,62028,62328,1,0.2 F,2,62028,62328,1,0 P,0,62028,62328,A C,0,62028,,4,219,192
Sprite,Foreground,Centre,"sb/w.png",431,332 S,2,62125,62425,1,0.2 F,2,62125,62425,1,0 P,0,62125,62425,A C,0,62125,,4,219,192
Sprite,Foreground,Centre,"sb/w.png",452,387 S,2,62222,62522,1,0.2 F,2,62222,62522,1,0 P,0,62222,62522,A C,0,62222,,4,219,192
Sprite,Foreground,Centre,"sb/w.png",0,0 S,2,62319,62715,1,0.2 F,2,62319,62715,1,0 P,0,62319,62715,A C,0,62319,,4,219,192 M,0,62319,62367,428,440,398.4565,434.7864 M,0,62367,62415,398.4565,434.7864,368.913,429.5729
Sprite,Foreground,Centre,"sb/w.png",0,0 S,2,62512,62908,1,0.2 F,2,62512,62908,1,0 P,0,62512,62908,A C,0,62512,,4,219,192 M,0,62512,62560,516,328,545.7683,324.279 M,0,62560,62608,545.7683,324.279,575.5367,320.5579
Sprite,Foreground,Centre,"sb/f.jpg",144,264 S,19,37932,38132,2,1 F,2,38222,38422,1,0 C,0,37932,,255,121,162
Sprite,Foreground,Centre,"sb/f.jpg",168,388 S,19,38319,38519,2,1 F,2,38415,38615,1,0 C,0,38319,,255,121,162
Sprite,Foreground,Centre,"sb/f.jpg",264,236 S,19,38512,38712,2,1 F,2,38705,38905,1,0 C,0,38512,,255,121,162
Sprite,Foreground,Centre,"sb/f.jpg",336,404 S,19,38803,39003,2,1 F,2,38803,39003,1,0 C,0,38803,,255,121,162
Sprite,Foreground,Centre,"sb/f.jpg",336,404 S,19,38899,39099,2,1 F,2,38995,39195,1,0 C,0,38899,,255,121,162
Sprite,Foreground,Centre,"sb/f.jpg",192,428 S,19,39093,39293,2,1 F,2,39189,39389,1,0 C,0,39093,,255,121,162
Sprite,Foreground,Centre,"sb/f.jpg",216,228 S,19,39287,39487,2,1 F,2,39383,39583,1,0 C,0,39287,,255,121,162
Sprite,Foreground,Centre,"sb/f.jpg",396,344 S,19,39480,39680,2,1 F,2,39770,39970,1,0 C,0,39480,,255,210,0
Sprite,Foreground,Centre,"sb/f.jpg",364,264 S,19,39867,40067,2,1 F,2,39963,40163,1,0 C,0,39867,,255,210,0
Sprite,Foreground,Centre,"sb/f.jpg",520,152 S,19,40061,40261,2,1 F,2,40254,40454,1,0 C,0,40061,,255,210,0
Sprite,Foreground,Centre,"sb/f.jpg",436,120 S,19,40351,40551,2,1 F,2,40351,40551,1,0 C,0,40351,,255,210,0
Sprite,Foreground,Centre,"sb/f.jpg",436,120 S,19,40448,40648,2,1 F,2,40544,40744,1,0 C,0,40448,,255,210,0
Sprite,Foreground,Centre,"sb/f.jpg",336,264 S,19,40641,40841,2,1 F,2,40737,40937,1,0 C,0,40641,,255,210,0
Sprite,Foreground,Centre,"sb/f.jpg",300,88 S,19,40835,41035,2,1 F,2,40931,41131,1,0 C,0,40835,,255,210,0
Sprite,Foreground,Centre,"sb/f.jpg",232,212 S,19,41029,41229,2,1 F,2,41222,41422,1,0 C,0,41029,,4,219,192
Sprite,Foreground,Centre,"sb/f.jpg",88,300 S,19,41319,41519,2,1 F,2,41319,41519,1,0 C,0,41319,,4,219,192
Sprite,Foreground,Centre,"sb/f.jpg",88,300 S,19,41416,41616,2,1 F,2,41512,41712,1,0 C,0,41416,,4,219,192
Sprite,Foreground,Centre,"sb/f.jpg",256,328 S,19,41609,41809,2,1 F,2,41802,42002,1,0 C,0,41609,,4,219,192
Sprite,Foreground,Centre,"sb/f.jpg",284,428 S,19,41900,42100,2,1 F,2,42093,42293,1,0 C,0,41900,,4,219,192
Sprite,Foreground,Centre,"sb/f.jpg",260,216 S,19,42190,42390,2,1 F,2,42286,42486,1,0 C,0,42190,,4,219,192
Sprite,Foreground,Centre,"sb/f.jpg",408,336 S,19,42383,42583,2,1 F,2,42479,42679,1,0 C,0,42383,,4,219,192
Sprite,Foreground,Centre,"sb/f.jpg",392,184 S,19,42577,42777,2,1 F,2,42673,42873,1,0 C,0,42577,,255,121,162
Sprite,Foreground,Centre,"sb/f.jpg",384,100 S,19,42770,42970,2,1 F,2,42866,43066,1,0 C,0,42770,,255,121,162
Sprite,Foreground,Centre,"sb/f.jpg",480,196 S,19,42964,43164,2,1 F,2,43157,43357,1,0 C,0,42964,,255,121,162
Sprite,Foreground,Centre,"sb/f.jpg",392,184 S,19,43254,43454,2,1 F,2,43447,43647,1,0 C,0,43254,,255,121,162
Sprite,Foreground,Centre,"sb/f.jpg",492,384 S,19,43545,43745,2,1 F,2,43835,44035,1,0 C,0,43545,,255,121,162
Sprite,Foreground,Centre,"sb/f.jpg",340,344 S,19,43932,44132,2,1 F,2,44028,44228,1,0 C,0,43932,,255,121,162
Sprite,Foreground,Centre,"sb/f.jpg",244,400 S,19,44125,44325,2,1 F,2,44318,44518,1,0 C,0,44125,,255,210,0
Sprite,Foreground,Centre,"sb/f.jpg",168,272 S,19,44416,44616,2,1 F,2,44416,44616,1,0 C,0,44416,,255,210,0
Sprite,Foreground,Centre,"sb/f.jpg",168,272 S,19,44512,44712,2,1 F,2,44608,44808,1,0 C,0,44512,,255,210,0
Sprite,Foreground,Centre,"sb/f.jpg",84,348 S,19,44706,44906,2,1 F,2,44899,45099,1,0 C,0,44706,,255,210,0
Sprite,Foreground,Centre,"sb/f.jpg",244,314 S,19,44996,45196,2,1 F,2,44996,45196,1,0 C,0,44996,,255,210,0
Sprite,Foreground,Centre,"sb/f.jpg",244,314 S,19,45093,45293,2,1 F,2,45189,45389,1,0 C,0,45093,,255,210,0
Sprite,Foreground,Centre,"sb/f.jpg",384,380 S,19,45287,45487,2,1 F,2,45383,45583,1,0 C,0,45287,,255,210,0
Sprite,Foreground,Centre,"sb/f.jpg",308,192 S,19,45480,45680,2,1 F,2,45576,45776,1,0 C,0,45480,,255,210,0
Sprite,Foreground,Centre,"sb/f.jpg",468,332 S,19,45674,45874,2,1 F,2,45867,46067,1,0 C,0,45674,,4,219,192
Sprite,Foreground,Centre,"sb/f.jpg",400,168 S,19,45964,46164,2,1 F,2,45964,46164,1,0 C,0,45964,,4,219,192
Sprite,Foreground,Centre,"sb/f.jpg",400,168 S,19,46061,46261,2,1 F,2,46157,46357,1,0 C,0,46061,,4,219,192
Sprite,Foreground,Centre,"sb/f.jpg",344,242 S,19,46254,46454,2,1 F,2,46254,46454,1,0 C,0,46254,,4,219,192
Sprite,Foreground,Centre,"sb/f.jpg",344,242 S,19,46351,46551,2,1 F,2,46447,46647,1,0 C,0,46351,,4,219,192
Sprite,Foreground,Centre,"sb/f.jpg",304,100 S,19,46545,46745,2,1 F,2,46545,46745,1,0 C,0,46545,,255,121,162
Sprite,Foreground,Centre,"sb/f.jpg",304,100 S,19,46641,46841,2,1 F,2,46737,46937,1,0 C,0,46641,,255,121,162
Sprite,Foreground,Centre,"sb/f.jpg",216,256 S,19,46835,47035,2,1 F,2,46931,47131,1,0 C,0,46835,,255,121,162
Sprite,Foreground,Centre,"sb/f.jpg",216,72 S,19,47029,47229,2,1 F,2,47125,47325,1,0 C,0,47029,,255,121,162
Sprite,Foreground,Centre,"sb/f.jpg",128,264 S,19,47222,47422,2,1 F,2,47415,47615,1,0 C,0,47222,,255,210,0
Sprite,Foreground,Centre,"sb/f.jpg",160,388 S,19,47512,47712,2,1 F,2,47512,47712,1,0 C,0,47512,,255,210,0
Sprite,Foreground,Centre,"sb/f.jpg",160,388 S,19,47609,47809,2,1 F,2,47705,47905,1,0 C,0,47609,,255,210,0
Sprite,Foreground,Centre,"sb/f.jpg",296,256 S,19,47803,48003,2,1 F,2,47996,48196,1,0 C,0,47803,,255,210,0
Sprite,Foreground,Centre,"sb/f.jpg",404,420 S,19,48093,48293,2,1 F,2,48093,48293,1,0 C,0,48093,,255,210,0
Sprite,Foreground,Centre,"sb/f.jpg",404,420 S,19,48190,48390,2,1 F,2,48286,48486,1,0 C,0,48190,,255,210,0
Sprite,Foreground,Centre,"sb/f.jpg",396,240 S,19,48383,48583,2,1 F,2,48479,48679,1,0 C,0,48383,,255,210,0
Sprite,Foreground,Centre,"sb/f.jpg",536,364 S,19,48577,48777,2,1 F,2,48673,48873,1,0 C,0,48577,,255,210,0
Sprite,Foreground,Centre,"sb/f.jpg",536,192 S,19,48770,48970,2,1 F,2,48963,49163,1,0 C,0,48770,,4,219,192
Sprite,Foreground,Centre,"sb/w.png",372,232 S,2,62706,63006,1,0.2 F,2,62706,63006,1,0 P,0,62706,63006,A C,0,62706,,255,121,162
Sprite,Foreground,Centre,"sb/w.png",320,248 S,2,62900,65716,1,0.2 F,2,62900,65716,1,0 P,0,62900,65716,A C,0,62900,,255,121,162
//Storyboard Sound Samples

[TimingPoints]
771,387.096774193548,4,3,0,70,1,0
771,-100,4,3,0,70,0,0
6964,-50,4,3,0,70,0,0
7835,-100,4,3,0,70,0,0
8125,-50,4,3,0,70,0,0
9383,-100,4,3,0,70,0,0
10061,-50,4,3,0,70,0,0
11996,-40,4,3,0,70,0,0
12383,-66.6666666666667,4,3,0,70,0,0
12577,-66.6666666666667,4,3,0,70,0,0
12674,-100,4,3,0,70,0,0
13158,-100,4,3,0,70,0,0
13738,-181.818181818182,4,3,0,70,0,0
17803,-100,4,3,0,70,0,0
25545,-100,4,3,0,85,0,0
28448,-50,4,3,0,85,0,0
28641,-100,4,3,0,85,0,0
30190,-50,4,3,0,85,0,0
30577,-100,4,3,0,85,0,0
31351,-50,4,3,0,85,0,0
31738,-100,4,3,0,85,0,0
37932,-66.6666666666667,4,3,0,85,0,0
42577,-50,4,3,0,85,0,0
44125,-66.6666666666667,4,3,0,85,0,0
46641,-57.1428571428571,4,3,0,85,0,0
47222,-66.6666666666667,4,3,0,85,0,0
50319,-58.8235294117647,4,3,0,85,0,1
55932,-51.2820512820513,4,3,0,85,0,1
56512,-58.8235294117647,4,3,0,85,0,1
59609,-50,4,3,0,85,0,1
62706,-100,4,3,0,85,0,0
65803,-66.6666666666667,4,3,0,85,0,0
74512,-133.333333333333,4,3,0,85,0,0
74996,-133.333333333333,4,3,0,5,0,0
75093,-133.333333333333,4,3,0,85,0,0
81287,-100,4,3,0,60,0,0
82061,-100,4,3,0,65,0,0
82835,-100,4,3,0,70,0,0
83609,-100,4,3,0,75,0,0
84383,-100,4,3,0,80,0,0
85158,-100,4,3,0,80,0,0
85932,-100,4,3,0,80,0,0
87287,-133.333333333333,4,3,0,100,0,0
87770,-133.333333333333,4,3,0,5,0,0
87867,-58.8235294117647,4,3,0,100,0,1
98319,-100,4,3,0,100,0,0
99867,-58.8235294117647,4,3,0,100,0,0
112254,-100,4,3,0,100,0,0
114093,-100,4,3,0,80,0,0
114383,-100,4,3,0,80,0,0

[Colours]
Combo1 : 4,219,192
Combo2 : 255,121,162
Combo3 : 255,210,0

[HitObjects]
208,192,771,5,6,1:1:0:0:
288,152,1061,1,2,1:3:0:0:
280,240,1351,1,2,1:3:0:0:
232,150,2320,5,4,1:3:0:0:
306,199,2610,1,0,1:3:0:0:
226,236,2900,1,0,1:3:0:0:
184,192,3867,5,4,1:3:0:0:
304,132,4157,1,0,1:3:0:0:
292,264,4447,1,0,1:3:0:0:
220,129,5416,5,4,1:3:0:0:
331,203,5706,1,0,1:2:0:0:
211,259,5996,1,0,1:2:0:0:
308,308,6190,5,2,0:2:0:0:
316,292,6287,1,2,0:2:0:0:
324,276,6383,1,2,0:2:0:0:
332,260,6480,1,2,0:2:0:0:
364,216,6577,5,2,0:2:0:0:
357,194,6674,1,2,0:2:0:0:
351,174,6770,1,2,0:2:0:0:
345,153,6867,1,2,0:2:0:0:
344,96,6964,6,0,B|376:64|376:64|464:80,1,120,4|0,1:3|0:0,0:0:0:0:
320,184,7254,2,0,B|276:172|276:172|251:101,1,120,4|0,1:3|0:0,0:0:0:0:
413,161,7545,2,0,B|424:204|424:204|376:261,1,120,4|2,1:3|0:0,0:0:0:0:
295,269,7835,6,0,L|367:293,1,60,4|2,0:0|0:0,0:0:0:0:
216,240,8125,5,4,0:0:0:0:
433,317,8319,1,4,0:0:0:0:
128,216,8512,6,0,B|96:184|96:184|112:96,1,120,4|0,1:3|0:0,0:0:0:0:
216,240,8802,2,0,B|204:283|204:283|133:308,1,120,4|0,1:3|0:0,0:0:0:0:
193,147,9093,2,0,B|236:135|236:135|293:183,1,120,4|2,1:3|0:0,0:0:0:0:
184,64,9383,6,0,L|266:44,1,60,4|0,0:0|0:0,0:0:0:0:
392,16,9674,5,4,0:0:0:0:
193,147,9867,1,4,1:3:0:0:
397,108,10061,6,0,B|429:140|429:140|413:228,1,120,4|0,1:1|0:0,0:0:0:0:
309,84,10351,2,0,B|320:40|320:40|391:15,1,120
332,177,10642,2,0,B|288:188|288:188|231:140,1,120,4|0,0:0|0:0,0:0:0:0:
168,64,10932,5,0,0:0:0:0:
152,80,11028,1,0,0:0:0:0:
136,96,11125,1,0,0:0:0:0:
120,112,11222,1,0,0:0:0:0:
104,128,11319,1,0,0:0:0:0:
88,144,11416,1,0,0:0:0:0:
72,160,11512,1,0,0:0:0:0:
48,160,11609,5,0,0:0:0:0:
53,189,11705,1,2,0:2:0:0:
59,218,11802,1,2,0:2:0:0:
65,248,11899,1,2,0:2:0:0:
48,288,11996,5,2,0:2:0:0:
84,295,12093,1,2,0:2:0:0:
119,302,12190,1,2,0:2:0:0:
154,308,12286,1,2,0:2:0:0:
192,316,12383,2,0,L|176:256,1,45.0000017166138,0|2,1:0|0:2,0:0:0:0:
272,132,12577,2,0,L|260:175,1,45.0000017166138,4|0,0:0|1:0,0:0:0:0:
264,260,12770,5,2,0:2:0:0:
293,258,12866,1,0,1:0:0:0:
321,246,12963,1,4,0:0:0:0:
341,225,13060,1,2,0:2:0:0:
353,197,13157,5,4,1:1:0:0:
384,208,13738,6,0,L|376:72,1,132.00000402832,0|4,0:0|0:0,0:0:0:0:
308,20,14706,5,4,0:0:0:0:
284,104,14996,1,0,0:0:0:0:
284,24,15287,5,0,0:0:0:0:
260,108,15577,1,0,0:0:0:0:
200,32,15867,5,4,0:0:0:0:
188,68,16061,1,0,0:0:0:0:
60,204,16254,5,4,0:0:0:0:
84,120,16544,1,0,0:0:0:0:
84,200,16835,5,0,0:0:0:0:
108,116,17125,1,4,0:0:0:0:
168,192,17415,5,4,0:0:0:0:
180,156,17609,1,4,0:0:0:0:
140,272,17803,6,0,L|240:284,1,90,4|0,0:0|0:0,0:0:0:0:
128,304,18383,2,0,L|228:316,1,90
120,336,18964,2,0,L|184:344,1,60
312,292,19351,5,2,1:1:0:0:
256,200,19641,1,0,0:0:0:0:
344,280,19932,5,0,0:0:0:0:
288,188,20222,1,0,0:0:0:0:
396,208,20512,5,0,0:0:0:0:
376,180,20706,1,0,0:0:0:0:
484,108,20900,5,2,1:1:0:0:
456,276,21190,1,0,0:0:0:0:
460,116,21480,5,0,0:0:0:0:
432,284,21770,1,0,0:0:0:0:
376,180,22061,5,0,0:0:0:0:
396,208,22255,1,0,0:0:0:0:
484,24,22448,6,0,L|396:52,1,90,2|0,1:1|0:0,0:0:0:0:
256,192,23029,12,4,25158,0:0:0:0:
256,192,25545,5,4,1:1:0:0:
256,192,25932,2,0,B|272:148|272:148|256:96,1,90,4|0,1:3|0:0,0:0:0:0:
280,72,26319,2,0,L|304:144,1,60,4|0,1:3|0:0,0:0:0:0:
336,208,26609,1,0,1:3:0:0:
336,208,26706,2,0,B|380:224|380:224|432:208,1,90
492,252,27093,6,0,B|448:236|448:236|396:252,1,90,4|0,1:3|0:0,0:0:0:0:
376,340,27480,2,0,L|448:324,1,60,4|0,1:3|0:0,0:0:0:0:
312,284,27770,1,0,1:3:0:0:
312,284,27867,1,0,0:0:0:0:
200,348,28061,1,2,0:0:0:0:
180,340,28158,1,2,0:0:0:0:
156,328,28254,2,0,L|148:280,1,30,6|2,0:0|0:0,0:0:0:0:
236,208,28448,6,0,L|224:276,1,60
192,132,28641,6,0,B|212:168|212:168|276:180,1,90,4|0,1:3|0:0,0:0:0:0:
180,108,29029,2,0,B|144:128|144:128|132:192,1,90,4|0,1:3|0:0,0:0:0:0:
172,72,29416,2,0,L|108:100,1,60,4|0,1:3|0:0,0:0:0:0:
60,152,29706,1,0,1:3:0:0:
60,152,29803,2,0,B|52:216|52:216|68:248,1,90
144,260,30190,6,0,P|108:272|76:284,1,60,4|0,1:3|0:0,0:0:0:0:
212,364,30383,2,0,P|183:353|155:344,1,60,0|0,1:3|0:0,0:0:0:0:
228,272,30577,6,0,P|220:320|216:352,1,60,4|0,1:3|0:0,0:0:0:0:
304,364,30867,1,0,0:0:0:0:
304,364,30964,6,0,P|308:334|316:272,1,90,2|0,0:1|0:0,0:0:0:0:
272,172,31351,6,0,P|328:248|417:227,1,180,2|0,0:1|0:0,0:0:0:0:
380,88,31738,6,0,B|352:112|352:112|360:176,1,90,4|0,1:3|0:0,0:0:0:0:
380,68,32125,2,0,B|356:40|356:40|292:48,1,90,4|0,1:3|0:0,0:0:0:0:
408,64,32512,2,0,L|480:56,1,60,4|0,1:3|0:0,0:0:0:0:
476,148,32803,1,0,1:3:0:0:
476,148,32900,2,0,L|380:160,1,90
254,250,33287,6,0,B|278:230|278:230|270:158,1,90,4|0,1:3|0:0,0:0:0:0:
224,256,33674,2,0,B|226:224|226:224|170:179,1,90,4|0,1:3|1:3,0:0:0:0:
224,288,34061,2,0,L|268:280,1,30
152,196,34254,2,0,L|122:201,1,30,2|0,0:0|0:0,0:0:0:0:
208,376,34448,2,0,L|252:368,1,30,6|0,0:0|0:0,0:0:0:0:
136,284,34641,2,0,L|106:289,1,30,2|0,0:0|0:0,0:0:0:0:
328,340,34835,6,0,B|304:316|304:316|312:248,1,90,4|0,1:3|0:0,0:0:0:0:
352,328,35222,2,0,B|376:304|376:304|444:312,1,90,4|0,1:3|0:0,0:0:0:0:
352,352,35609,2,0,L|432:360,1,60,4|0,1:3|0:0,0:0:0:0:
484,280,35900,1,0,1:3:0:0:
484,280,35996,2,0,L|372:272,1,90
268,288,36383,6,0,L|276:212,1,60,6|2,0:0|0:0,0:0:0:0:
324,120,36674,1,2,0:0:0:0:
348,132,36770,2,0,L|356:196,1,60
248,88,37061,1,2,0:0:0:0:
240,52,37158,1,2,0:2:0:0:
276,40,37254,1,2,0:2:0:0:
308,28,37351,2,0,L|312:-4,1,30,2|2,0:2|0:2,0:0:0:0:
168,96,37545,2,0,L|160:136,1,30,0|0,0:1|0:0,0:0:0:0:
274,228,37738,2,0,L|279:198,1,30
80,208,37932,6,0,P|144:200|192:248,1,135.000005149841,4|0,1:3|1:3,0:0:0:0:
104,332,38319,2,0,L|112:276,1,45.0000017166138,4|0,0:0|0:0,0:0:0:0:
200,180,38512,2,0,L|188:284,1,90.0000034332277,0|0,1:3|0:0,0:0:0:0:
272,348,38803,1,0,1:3:0:0:
272,348,38899,2,0,L|268:288,1,45.0000017166138
128,372,39093,2,0,L|136:316,1,45.0000017166138,4|0,1:3|0:0,0:0:0:0:
152,172,39287,2,0,L|212:184,1,45.0000017166138,0|0,1:3|0:0,0:0:0:0:
332,288,39480,6,0,B|368:256|368:256|492:276,1,135.000005149841,4|0,1:3|1:3,0:0:0:0:
300,208,39867,2,0,L|296:152,1,45.0000017166138,4|0,0:0|0:0,0:0:0:0:
456,96,40061,2,0,L|444:196,1,90.0000034332277,0|0,1:3|0:0,0:0:0:0:
372,64,40351,1,0,1:3:0:0:
372,64,40448,2,0,L|364:120,1,45.0000017166138,0|0,1:3|0:0,0:0:0:0:
272,208,40641,2,0,L|268:152,1,45.0000017166138,4|0,1:3|0:0,0:0:0:0:
236,32,40835,2,0,L|300:40,1,45.0000017166138,0|0,1:3|0:0,0:0:0:0:
168,156,41029,6,0,L|56:148,1,90.0000034332277,4|0,1:3|0:0,0:0:0:0:
24,244,41319,1,0,1:3:0:0:
24,244,41416,2,0,L|80:236,1,45.0000017166138,4|0,0:0|0:0,0:0:0:0:
192,272,41609,2,0,P|132:256|92:276,1,90.0000034332277,0|0,1:3|0:0,0:0:0:0:
220,372,41900,2,0,P|216:316|212:264,1,90.0000034332277,0|0,1:3|0:0,0:0:0:0:
196,160,42190,2,0,L|252:168,1,45.0000017166138,4|0,1:3|0:0,0:0:0:0:
344,280,42383,2,0,L|292:284,1,45.0000017166138,0|0,1:3|0:0,0:0:0:0:
328,128,42577,6,0,L|336:204,1,60,4|0,1:3|0:0,0:0:0:0:
320,44,42770,2,0,L|244:52,1,60,0|0,1:3|0:0,0:0:0:0:
416,140,42964,2,0,L|400:16,1,120,4|0,1:3|0:0,0:0:0:0:
328,128,43254,2,0,L|344:272,1,120,4|0,1:3|0:0,0:0:0:0:
428,328,43545,2,0,B|416:196|416:196|364:160,1,180,4|0,1:3|0:0,0:0:0:0:
276,288,43932,2,0,P|312:280|356:284,1,60,4|0,1:3|0:0,0:0:0:0:
180,344,44125,6,0,P|192:296|176:252,1,90.0000034332277,4|0,1:3|0:0,0:0:0:0:
104,216,44416,1,0,1:3:0:0:
104,216,44512,2,0,L|112:160,1,45.0000017166138,4|0,0:0|0:0,0:0:0:0:
20,292,44706,2,0,L|128:304,1,90.0000034332277,0|0,1:3|0:0,0:0:0:0:
180,258,44996,1,0,1:3:0:0:
180,258,45093,2,0,L|252:266,1,45.0000017166138
320,324,45287,2,0,L|316:272,1,45.0000017166138,4|0,1:3|0:0,0:0:0:0:
244,136,45480,2,0,L|236:180,1,45.0000017166138,0|0,1:3|0:0,0:0:0:0:
404,276,45674,6,0,P|384:220|340:196,1,90.0000034332277,4|0,1:3|0:0,0:0:0:0:
336,112,45964,1,0,1:3:0:0:
336,112,46061,2,0,L|392:120,1,45.0000017166138,4|0,0:0|0:0,0:0:0:0:
280,186,46254,1,0,1:3:0:0:
280,186,46351,2,0,L|235:179,1,45.0000017166138
240,44,46545,5,0,1:3:0:0:
240,44,46641,2,0,L|244:104,1,52.500000500679,0|0,1:3|0:0,0:0:0:0:
152,200,46835,2,0,L|156:144,1,52.500000500679,4|0,1:3|0:0,0:0:0:0:
152,16,47029,2,0,L|148:72,1,52.500000500679,0|0,1:3|0:0,0:0:0:0:
64,208,47222,6,0,P|112:200|156:224,1,90.0000034332277,4|0,1:3|0:0,0:0:0:0:
96,332,47512,1,0,1:3:0:0:
96,332,47609,2,0,L|92:272,1,45.0000017166138,4|0,0:0|0:0,0:0:0:0:
232,200,47803,2,0,L|220:292,1,90.0000034332277,0|0,1:3|0:0,0:0:0:0:
340,364,48093,1,0,1:3:0:0:
340,364,48190,2,0,L|336:312,1,45.0000017166138
332,184,48383,2,0,L|380:192,1,45.0000017166138,4|0,1:3|0:0,0:0:0:0:
472,308,48577,2,0,L|412:312,1,45.0000017166138,0|0,1:3|0:0,0:0:0:0:
472,136,48770,6,0,P|464:184|476:232,1,90.0000034332277,6|2,1:3|0:0,0:0:0:0:
388,104,49061,1,6,0:0:0:0:
388,104,49158,2,0,P|396:76|396:52,1,45.0000017166138,0|0,1:3|0:0,0:0:0:0:
272,109,49351,1,6,1:3:0:0:
280,141,49448,1,2,1:3:0:0:
288,173,49545,2,0,L|336:185,1,45.0000017166138,0|0,1:0|0:0,0:0:0:0:
320,20,49738,2,0,L|264:32,1,45.0000017166138,14|0,0:0|0:0,0:0:0:0:
144,72,49932,1,6,0:0:0:0:
304,264,50125,1,4,0:0:0:0:
80,128,50319,6,0,P|92:172|72:228,1,102.000001945496,4|2,0:1|1:3,0:0:0:0:
24,320,50609,1,0,0:0:0:0:
24,320,50706,2,0,L|80:308,1,51.0000009727478,4|2,0:0|1:3,0:0:0:0:
188,376,50900,2,0,L|136:368,1,51.0000009727478
192,192,51093,2,0,P|168:236|176:292,1,102.000001945496,4|2,1:3|0:0,0:0:0:0:
264,320,51383,1,0,0:0:0:0:
264,320,51480,2,0,L|256:256,1,51.0000009727478,4|0,0:0|0:0,0:0:0:0:
356,376,51674,2,0,L|364:320,1,51.0000009727478,2|2,1:3|0:0,0:0:0:0:
424,188,51867,6,0,P|420:236|452:292,1,102.000001945496,4|2,0:0|1:3,0:0:0:0:
504,100,52158,2,0,L|448:108,1,51.0000009727478,0|4,0:0|0:0,0:0:0:0:
336,168,52351,1,2,1:3:0:0:
336,168,52448,2,0,L|400:180,1,51.0000009727478
408,36,52641,1,4,1:3:0:0:
408,36,52738,2,0,L|348:48,1,51.0000009727478,0|2,0:0|0:0,0:0:0:0:
236,124,52932,2,0,P|264:116|288:100,1,51.0000009727478,0|4,0:0|0:0,0:0:0:0:
176,16,53125,1,0,0:0:0:0:
132,36,53222,2,0,L|140:88,1,51.0000009727478,2|0,1:1|0:0,0:0:0:0:
40,176,53416,6,0,L|104:168,1,51.0000009727478,4|0,0:0|0:0,0:0:0:0:
156,256,53609,1,2,1:3:0:0:
156,256,53706,2,0,L|92:264,1,51.0000009727478,0|4,0:0|0:0,0:0:0:0:
56,360,53900,2,0,L|160:344,1,102.000001945496,2|0,1:3|0:0,0:0:0:0:
272,240,54190,2,0,P|244:296|248:344,1,102.000001945496,4|2,1:3|0:0,0:0:0:0:
384,312,54480,1,0,0:0:0:0:
384,312,54577,2,0,L|296:300,1,51.0000009727478,4|0,0:0|0:0,0:0:0:0:
284,204,54770,2,0,L|334:210,1,51.0000009727478,2|2,1:3|0:0,0:0:0:0:
476,320,54964,6,0,P|416:284|412:236,1,102.000001945496,4|0,0:0|1:3,0:0:0:0:
416,164,55254,1,0,0:0:0:0:
416,164,55351,2,0,L|484:180,1,51.0000009727478,4|0,0:0|1:3,0:0:0:0:
352,92,55545,2,0,L|284:76,1,51.0000009727478
416,32,55738,2,0,L|484:44,1,51.0000009727478,4|0,1:3|0:0,0:0:0:0:
256,8,55932,6,0,L|272:88,1,58.5000002231598,0|0,1:3|0:0,0:0:0:0:
328,184,56125,2,0,L|340:120,1,58.5000002231598,4|0,1:3|0:0,0:0:0:0:
172,28,56319,2,0,L|184:96,1,58.5000002231598,0|0,1:3|0:0,0:0:0:0:
256,224,56512,6,0,P|320:204|364:228,1,102.000001945496,4|2,0:0|1:3,0:0:0:0:
460,336,56803,1,0,0:0:0:0:
460,336,56900,2,0,L|392:328,1,51.0000009727478,4|2,0:0|1:3,0:0:0:0:
292,344,57093,2,0,P|300:312|312:272,1,51.0000009727478
204,168,57287,2,0,P|224:220|220:284,1,102.000001945496,4|2,1:3|0:0,0:0:0:0:
184,364,57577,1,0,0:0:0:0:
184,364,57674,2,0,L|120:356,1,51.0000009727478,4|0,0:0|0:0,0:0:0:0:
40,248,57867,2,0,L|104:240,1,51.0000009727478,2|2,1:3|0:0,0:0:0:0:
200,128,58061,6,0,L|120:136,1,51.0000009727478,4|0,0:0|0:0,0:0:0:0:
236,48,58254,2,0,P|248:104|300:132,1,102.000001945496,2|4,1:3|0:0,0:0:0:0:
372,40,58545,1,2,1:3:0:0:
372,40,58641,2,0,L|308:48,1,51.0000009727478
376,176,58835,2,0,L|368:120,1,51.0000009727478,4|0,1:3|0:0,0:0:0:0:
464,36,59029,1,2,0:0:0:0:
464,36,59125,2,0,L|460:96,1,51.0000009727478,0|4,0:0|0:0,0:0:0:0:
456,216,59319,1,0,0:0:0:0:
472,176,59416,2,0,L|408:180,1,51.0000009727478,2|0,0:1|0:0,0:0:0:0:
376,300,59609,6,0,L|472:296,1,60,4|0,0:0|0:0,0:0:0:0:
372,332,59803,2,0,L|468:328,1,60,4|0,0:0|0:0,0:0:0:0:
296,208,59996,2,0,L|200:204,1,60,4|0,0:0|0:0,0:0:0:0:
300,240,60190,2,0,L|204:236,1,60,4|0,0:0|0:0,0:0:0:0:
176,364,60383,6,0,L|248:360,1,60,4|0,0:0|0:0,0:0:0:0:
168,332,60577,2,0,L|248:328,1,60,4|0,0:0|0:0,0:0:0:0:
124,200,60770,2,0,L|52:196,1,60,4|0,0:0|0:0,0:0:0:0:
132,168,60964,2,0,L|52:164,1,60,4|0,0:0|0:0,0:0:0:0:
60,296,61158,5,4,0:0:0:0:
76,300,61254,1,4,0:0:0:0:
88,304,61351,1,4,0:0:0:0:
104,308,61448,1,4,0:0:0:0:
156,336,61545,5,4,0:0:0:0:
176,332,61641,1,4,0:0:0:0:
196,328,61738,1,4,0:0:0:0:
220,324,61835,1,4,0:0:0:0:
260,276,61932,5,4,0:0:0:0:
313,253,62028,1,4,0:0:0:0:
367,276,62125,1,4,0:0:0:0:
388,331,62222,1,4,0:0:0:0:
364,384,62319,2,0,L|296:372,1,60,4|4,0:0|0:0,0:0:0:0:
452,272,62512,2,0,L|516:264,1,60,4|4,0:0|0:0,0:0:0:0:
308,176,62706,5,4,0:1:0:0:
256,192,62900,12,0,65416,0:0:0:0:
100,64,65803,6,0,L|104:116,1,45.0000017166138,4|0,0:0|0:0,0:0:0:0:
60,200,65996,2,0,L|156:192,1,90.0000034332277,2|0,1:3|0:0,0:0:0:0:
232,108,66287,1,2,1:3:0:0:
232,108,66383,2,0,L|180:112,1,45.0000017166138,4|0,0:0|0:0,0:0:0:0:
180,268,66577,2,0,P|228:232|236:200,1,90.0000034332277,2|4,1:3|0:0,0:0:0:0:
320,104,66867,1,0,0:0:0:0:
320,104,66964,2,0,P|316:144|312:168,1,45.0000017166138,4|0,0:0|0:0,0:0:0:0:
408,216,67158,2,0,P|404:192|396:160,1,45.0000017166138,6|2,1:3|0:0,0:0:0:0:
328,284,67351,6,0,P|368:260|432:268,1,90.0000034332277,4|0,0:0|1:3,0:0:0:0:
496,344,67641,1,0,0:0:0:0:
500,328,67738,1,2,0:0:0:0:
504,312,67835,2,0,L|452:320,1,45.0000017166138,0|0,1:3|0:0,0:0:0:0:
339,373,68029,1,0,0:0:0:0:
339,373,68125,2,0,L|332:300,1,45.0000017166138,4|0,1:3|0:0,0:0:0:0:
268,188,68319,2,0,L|328:196,1,45.0000017166138,4|0,1:3|0:0,0:0:0:0:
204,304,68512,2,0,L|248:298,1,45.0000017166138,4|0,1:3|0:0,0:0:0:0:
144,168,68706,2,0,L|188:173,1,45.0000017166138,4|0,1:3|0:0,0:0:0:0:
124,316,68900,5,10,0:3:0:0:
256,192,69287,12,0,71609,0:0:0:0:
288,348,71996,6,0,L|388:340,1,90.0000034332277,4|2,0:0|1:3,0:0:0:0:
456,260,72287,2,0,L|404:252,1,45.0000017166138,4|0,0:0|0:0,0:0:0:0:
296,260,72480,1,2,1:3:0:0:
296,260,72577,2,0,L|304:200,1,45.0000017166138,4|0,0:0|0:0,0:0:0:0:
380,124,72770,2,0,L|392:224,1,90.0000034332277,2|4,0:0|0:0,0:0:0:0:
248,124,73061,1,4,1:3:0:0:
248,124,73158,2,0,L|296:132,1,45.0000017166138,4|0,0:0|0:0,0:0:0:0:
208,244,73351,2,0,L|156:236,1,45.0000017166138,6|2,1:3|0:0,0:0:0:0:
92,384,73545,6,0,P|124:364|144:288,1,90.0000034332277,4|0,0:0|1:3,0:0:0:0:
56,252,73835,1,0,0:0:0:0:
56,252,73932,2,0,L|60:312,1,45.0000017166138,0|0,1:0|1:0,0:0:0:0:
132,212,74125,2,0,L|128:156,1,45.0000017166138,4|0,1:3|1:0,0:0:0:0:
120,88,74319,1,0,1:0:0:0:
144,296,74512,2,0,B|192:292|192:292|216:308|216:308|268:304,1,112.500004291535,8|0,2:3|0:0,0:0:0:0:
284,300,75093,5,4,1:1:0:0:
256,192,81287,12,4,85932,0:0:0:0:
172,180,86706,5,4,0:0:0:0:
256,192,86900,1,8,0:1:0:0:
276,168,87287,6,0,B|320:180|320:180|332:204|332:204|380:224,1,112.500004291535,4|0,0:0|0:0,0:0:0:0:
408,236,87867,1,4,0:0:0:0:
248,88,88061,6,0,L|196:96,1,51.0000009727478,2|0,0:0|0:0,0:0:0:0:
184,224,88254,2,0,L|240:240,1,51.0000009727478,4|0,0:0|0:0,0:0:0:0:
120,112,88448,2,0,L|68:120,1,51.0000009727478,2|0,0:0|0:0,0:0:0:0:
32,268,88641,5,6,0:0:0:0:
52,288,88738,1,2,0:0:0:0:
100,288,88835,5,2,0:0:0:0:
120,304,88932,1,2,0:0:0:0:
132,340,89029,6,0,L|184:320,1,51.0000009727478
312,368,89222,2,0,L|256:348,1,51.0000009727478,2|0,0:0|0:0,0:0:0:0:
336,292,89416,5,6,0:3:0:0:
364,304,89512,1,2,0:3:0:0:
404,280,89609,5,2,0:3:0:0:
440,292,89706,1,2,0:3:0:0:
476,276,89803,6,0,L|484:220,1,51.0000009727478
424,124,89996,1,2,0:0:0:0:
384,144,90093,2,0,L|400:200,1,51.0000009727478,2|0,0:0|0:0,0:0:0:0:
500,104,90287,1,2,0:0:0:0:
512,60,90383,2,0,L|448:44,1,51.0000009727478,2|0,0:1|0:0,0:0:0:0:
320,8,90577,6,0,B|284:52|284:52|128:32,1,204.000003890991,4|0,0:0|0:0,0:0:0:0:
48,176,91158,1,0,0:0:0:0:
88,184,91254,1,0,0:0:0:0:
128,160,91351,2,0,B|156:120|156:120|328:140,1,204.000003890991,6|0,0:0|0:0,0:0:0:0:
200,268,91932,2,0,L|192:200,1,51.0000009727478
340,140,92125,6,0,L|332:196,1,51.0000009727478,6|0,0:0|0:0,0:0:0:0:
312,340,92319,1,2,0:0:0:0:
328,308,92416,1,0,0:0:0:0:
344,276,92512,2,0,L|280:280,1,51.0000009727478,6|0,0:0|0:0,0:0:0:0:
188,172,92706,2,0,L|264:184,1,51.0000009727478,2|0,0:0|0:0,0:0:0:0:
392,116,92900,2,0,L|224:88,1,153.000002918243,6|0,0:0|0:0,0:0:0:0:
136,20,93287,5,6,0:0:0:0:
144,36,93383,1,2,0:0:0:0:
116,64,93480,5,2,0:0:0:0:
96,96,93577,1,2,0:0:0:0:
112,140,93674,6,0,B|132:176|132:176|96:344,1,204.000003890991,6|0,0:0|0:0,0:0:0:0:
224,208,94254,2,0,L|168:216,1,51.0000009727478
180,352,94448,2,0,L|244:340,1,51.0000009727478,6|0,0:0|0:0,0:0:0:0:
244,176,94641,2,0,L|188:184,1,51.0000009727478,2|0,0:0|0:0,0:0:0:0:
196,332,94835,5,6,0:0:0:0:
224,312,94932,1,2,0:0:0:0:
280,324,95029,5,2,0:0:0:0:
312,300,95125,1,2,0:0:0:0:
360,308,95222,6,0,L|352:368,1,51.0000009727478
476,284,95416,2,0,L|468:224,1,51.0000009727478,2|0,0:0|0:0,0:0:0:0:
444,68,95609,1,6,0:0:0:0:
392,56,95706,1,2,0:0:0:0:
316,40,95803,2,0,L|324:120,1,51.0000009727478,2|2,0:0|0:0,0:0:0:0:
396,196,95996,2,0,L|392:140,1,51.0000009727478
252,176,96190,2,0,P|284:169|312:172,1,51.0000009727478,2|0,0:0|0:0,0:0:0:0:
416,280,96383,2,0,P|390:280|365:274,1,51.0000009727478,4|0,0:0|0:0,0:0:0:0:
220,176,96577,1,2,0:0:0:0:
228,208,96674,1,2,0:0:0:0:
236,236,96770,6,0,B|208:280|208:280|52:260,1,204.000003890991,6|0,0:0|0:0,0:0:0:0:
124,56,97351,1,0,0:0:0:0:
128,88,97448,1,0,0:0:0:0:
132,128,97545,2,0,B|172:80|172:80|324:100,1,204.000003890991,6|0,0:0|0:0,0:0:0:0:
448,112,98125,2,0,L|444:56,1,51.0000009727478,0|2,0:0|0:0,0:0:0:0:
364,32,98319,5,0,0:0:0:0:
364,32,98416,1,0,0:0:0:0:
424,208,98706,2,0,L|412:104,1,90,4|0,1:3|0:0,0:0:0:0:
404,236,99093,2,0,L|392:132,1,90,4|0,1:3|0:0,0:0:0:0:
384,256,99480,2,0,L|376:184,1,60,4|0,1:3|0:0,0:0:0:0:
368,372,99867,6,0,P|336:328|232:328,1,153.000002918243,4|0,0:1|0:0,0:0:0:0:
160,344,100254,2,0,L|208:360,1,51.0000009727478
232,276,100448,1,0,0:0:0:0:
184,256,100545,1,2,0:2:0:0:
136,260,100641,1,4,0:0:0:0:
108,276,100738,1,2,0:2:0:0:
88,296,100835,1,2,0:2:0:0:
72,316,100932,1,2,0:2:0:0:
64,328,101029,1,4,0:0:0:0:
60,344,101125,1,2,0:2:0:0:
60,352,101222,1,2,0:2:0:0:
60,360,101319,1,2,0:2:0:0:
60,368,101416,6,0,B|80:312|80:312|60:160,1,204.000003890991,4|0,0:0|0:0,0:0:0:0:
96,24,101996,1,0,0:0:0:0:
128,60,102093,1,2,0:2:0:0:
164,72,102190,1,4,0:0:0:0:
204,68,102287,1,2,0:2:0:0:
244,56,102383,1,2,0:2:0:0:
276,48,102480,1,2,0:2:0:0:
300,56,102577,1,4,0:0:0:0:
320,68,102674,1,2,0:2:0:0:
328,76,102770,1,2,0:2:0:0:
336,84,102867,1,2,0:2:0:0:
340,92,102964,6,0,B|296:128|296:128|324:280,1,204.000003890991,4|0,0:0|0:0,0:0:0:0:
480,216,103545,1,0,0:0:0:0:
472,184,103641,1,0,0:0:0:0:
464,152,103738,2,0,B|380:160|380:160|352:188|352:188|268:196,1,204.000003890991,6|0,0:0|0:0,0:0:0:0:
200,328,104319,2,0,L|268:320,1,51.0000009727478
192,200,104512,6,0,P|184:240|176:268,1,51.0000009727478,4|0,0:0|0:0,0:0:0:0:
76,132,104706,1,2,0:0:0:0:
116,120,104803,1,2,0:0:0:0:
160,108,104900,2,0,L|220:120,1,51.0000009727478,6|0,0:0|0:0,0:0:0:0:
96,220,105093,2,0,L|32:208,1,51.0000009727478,2|0,0:0|0:0,0:0:0:0:
176,80,105287,2,0,B|240:92|240:92|268:120|268:120|328:132,1,153.000002918243,6|0,0:0|0:0,0:0:0:0:
396,104,105674,1,6,0:0:0:0:
364,116,105770,1,2,0:0:0:0:
340,140,105867,1,2,0:0:0:0:
328,184,105964,1,2,0:0:0:0:
344,232,106061,6,0,B|368:368|368:368|392:320|436:316,1,204.000003890991,6|0,0:0|0:0,0:0:0:0:
272,260,106641,1,0,0:0:0:0:
236,236,106738,1,2,0:2:0:0:
196,228,106835,1,4,0:0:0:0:
160,236,106931,1,2,0:2:0:0:
136,252,107028,1,2,0:2:0:0:
116,268,107125,1,2,0:2:0:0:
100,288,107222,1,4,0:0:0:0:
92,312,107318,1,2,0:2:0:0:
88,328,107415,1,2,0:2:0:0:
88,340,107512,1,2,0:2:0:0:
88,348,107609,6,0,B|120:308|120:308|112:120,1,204.000003890991,4|0,0:0|0:0,0:0:0:0:
88,40,108190,1,0,0:0:0:0:
128,12,108287,1,2,0:2:0:0:
176,12,108383,1,4,0:0:0:0:
216,24,108480,1,2,0:2:0:0:
244,44,108577,1,2,0:2:0:0:
264,58,108674,1,2,0:2:0:0:
272,68,108770,2,0,L|324:64,1,51.0000009727478,4|2,0:0|0:2,0:0:0:0:
456,52,108964,1,2,0:2:0:0:
452,72,109061,1,2,0:2:0:0:
444,80,109158,6,0,L|432:288,1,204.000003890991,4|0,0:0|0:0,0:0:0:0:
232,332,109738,1,0,0:0:0:0:
240,292,109835,1,0,0:0:0:0:
248,256,109932,2,0,B|260:164|260:164|276:140|276:140|288:44,1,204.000003890991,6|0,0:0|0:0,0:0:0:0:
116,164,110512,1,0,0:0:0:0:
152,144,110609,1,0,0:0:0:0:
184,128,110706,6,0,P|240:100|356:208,2,204.000003890991,6|4|4,0:0|0:0|0:0,0:0:0:0:
344,248,111674,1,2,0:1:0:0:
88,344,111867,2,0,L|76:156,1,153.000002918243,6|0,0:0|0:0,0:0:0:0:
76,148,112254,5,4,0:0:0:0:
328,68,113996,6,0,L|332:24,2,30,0|0|0,0:0|1:0|1:0,0:0:0:0:
188,72,114383,2,0,L|180:120,1,30,2|2,0:2|0:2,0:0:0:0:
164,196,114577,1,2,0:2:0:0:
192,193,114674,1,2,0:2:0:0:
232,189,114770,1,2,0:1:0:0:
286,184,114867,1,2,0:1:0:0:
364,178,114964,2,0,L|372:130,1,30,2|2,0:1|0:1,0:0:0:0:
273,266,115158,2,0,L|281:310,1,30,2|0,0:1|0:0,0:0:0:0:
299,374,115351,5,8,0:0:0:0:
