osu file format v14

[General]
AudioFilename: audio.mp3
AudioLeadIn: 0
PreviewTime: 87238
Countdown: 0
SampleSet: Soft
StackLeniency: 0.7
Mode: 0
LetterboxInBreaks: 0
WidescreenStoryboard: 1

[Editor]
Bookmarks: 6964,13158,25545,37932,50319,62706,75093,87287,88061,96770,98706,99867,112254
DistanceSpacing: 0.9
BeatDivisor: 4
GridSize: 16
TimelineZoom: 1.500001

[Metadata]
Title:Alt Futur
TitleUnicode:Alt Futur
Artist:Silentroom
ArtistUnicode:Silentroom
Creator:Lasse
Version:Normal
Source:
Tags:mappers' guild mpg mbc 2020 monthly beatmapping contest august featured artist electronic instrumental english バンバンアカウント作成太郎 ジュリアナテクノ BMS GENRE-SHUFFLE 3
BeatmapID:2880390
BeatmapSetID:1266007

[Difficulty]
HPDrainRate:3
CircleSize:3.4
OverallDifficulty:5
ApproachRate:6
SliderMultiplier:0.99999990463257
SliderTickRate:1

[Events]
//Background and Video events
0,0,"3.jpg",0,0
//Break Periods
2,62916,64763
2,69109,70956
2,75302,80247
//Storyboard Layer 0 (Background)
//Storyboard Layer 1 (Fail)
//Storyboard Layer 2 (Pass)
//Storyboard Layer 3 (Foreground)
//Storyboard Layer 4 (Overlay)
//Storyboard Sound Samples

[TimingPoints]
781,387.096774193548,4,2,1,60,1,0
781,-111.111111111111,4,2,1,60,0,0
6974,-111.111111111111,4,2,1,65,0,0
12587,-111.111111111111,4,2,1,70,0,0
13168,-111.111111111111,4,2,1,60,0,0
22458,-100,4,2,1,65,0,0
23232,-100,4,2,1,70,0,0
24006,-100,4,2,1,75,0,0
25168,-100,4,2,1,50,0,0
25555,-100,4,2,1,60,0,0
30200,-100,4,2,1,65,0,0
30974,-100,4,2,1,70,0,0
31748,-100,4,2,1,60,0,0
36393,-100,4,2,1,65,0,0
36442,-100,4,2,1,55,0,0
37555,-100,4,2,1,60,0,0
37942,-100,4,2,1,65,0,0
43942,-100,4,2,1,60,0,0
44135,-100,4,2,1,65,0,0
50329,-100,4,2,1,70,0,0
59619,-100,4,2,1,72,0,0
60393,-100,4,2,1,73,0,0
61168,-100,4,2,1,75,0,0
62135,-100,4,2,1,72,0,0
62329,-100,4,2,1,68,0,0
62522,-100,4,2,1,64,0,0
62716,-111.111111111111,4,2,1,60,0,0
65813,-100,4,2,1,70,0,0
68910,-111.111111111111,4,2,1,62,0,0
72006,-100,4,2,1,72,0,0
74329,-111.111111111111,4,2,1,64,0,0
74571,-100,4,2,1,30,0,0
75103,-100,4,2,1,65,0,0
81297,-111.111111111111,4,2,1,58,0,0
82071,-111.111111111111,4,2,1,60,0,0
82845,-111.111111111111,4,2,1,62,0,0
83619,-111.111111111111,4,2,1,64,0,0
84393,-111.111111111111,4,2,1,66,0,0
85168,-100,4,2,1,68,0,0
85942,-90.9090909090909,4,2,1,70,0,0
87297,-100,4,2,1,72,0,0
88071,-90.9090909090909,4,2,1,72,0,0
98716,-90.9090909090909,4,2,1,74,0,0
99103,-90.9090909090909,4,2,1,76,0,0
99490,-111.111111111111,4,2,1,78,0,0
99877,-90.9090909090909,4,2,1,74,0,0
105684,-90.9090909090909,4,2,1,70,0,0
106071,-90.9090909090909,4,2,1,76,0,0
114006,-90.9090909090909,4,2,1,60,0,0
114393,-90.9090909090909,4,2,1,74,0,0
114490,-90.9090909090909,4,2,1,72,0,0
114587,-90.9090909090909,4,2,1,70,0,0
114684,-90.9090909090909,4,2,1,68,0,0
114780,-90.9090909090909,4,2,1,66,0,0
114877,-90.9090909090909,4,2,1,64,0,0
114974,-90.9090909090909,4,2,1,62,0,0
115071,-90.9090909090909,4,2,1,60,0,0
115168,-90.9090909090909,4,2,1,58,0,0
115264,-90.9090909090909,4,2,1,56,0,0
115361,-90.9090909090909,4,2,1,54,0,0
115410,-90.9090909090909,4,2,1,20,0,0
116910,-90.9090909090909,4,2,1,15,0,0
117684,-90.9090909090909,4,2,1,10,0,0
118458,-90.9090909090909,4,2,1,5,0,0

[Colours]
Combo1 : 140,140,140
Combo2 : 131,253,100
Combo3 : 70,185,240
Combo4 : 255,102,255
Combo5 : 210,210,210
Combo6 : 45,227,168
Combo7 : 22,237,254
Combo8 : 255,62,158

[HitObjects]
120,176,781,22,0,L|45:173,2,67.4999915027622,14|2|2,0:1|0:1|0:1,0:0:0:0:
256,325,2329,2,0,L|323:327,1,67.4999915027622,14|2,0:1|0:1,0:0:0:0:
371,368,2910,1,2,0:1:0:0:
495,209,3877,54,0,L|505:126,2,67.4999915027622,14|2|2,0:1|0:1|0:1,0:0:0:0:
297,317,5426,2,0,L|307:400,2,67.4999915027622,14|2|2,0:1|0:1|0:1,0:0:0:0:
265,284,6200,1,2,2:2:0:0:
182,320,6587,1,2,3:2:0:0:
117,251,6974,54,0,P|117:208|130:169,2,67.4999915027622,14|10|10,0:1|0:1|0:1,0:0:0:0:
291,356,8522,2,0,P|298:323|297:289,1,67.4999915027622,14|10,0:1|0:1,0:0:0:0:
271,228,9103,1,10,0:1:0:0:
133,142,9877,53,10,0:2:0:0:
133,142,10071,2,0,P|85:146|62:129,2,67.4999915027622,14|10|10,0:1|0:1|0:1,0:0:0:0:
342,58,11619,2,0,P|391:42|438:48,1,89.9999886703496,10|2,2:2|2:2,0:0:0:0:
480,118,12393,2,0,L|472:199,2,67.4999915027622,6|6|6,1:3|1:3|1:3,0:0:0:0:
458,77,13168,85,14,0:1:0:0:
458,77,14522,2,0,L|454:140,1,44.9999943351748,8|14,0:2|0:2,0:0:0:0:
354,343,15877,54,0,P|305:353|252:332,1,89.9999886703496,8|14,0:0|0:1,0:0:0:0:
165,186,17135,2,0,L|157:109,1,67.4999915027622,8|8,0:0|0:0,0:0:0:0:
145,80,17619,2,0,P|122:70|91:73,1,44.9999943351748,8|14,0:0|0:2,0:0:0:0:
11,297,19361,54,0,L|2:379,2,67.4999915027622,14|2|2,1:1|0:1|1:0,0:0:0:0:
46,268,20135,1,2,1:2:0:0:
123,314,20522,1,2,1:2:0:0:
197,262,20910,2,0,P|204:214|197:180,1,67.4999915027622,2|2,1:1|1:1,0:0:0:0:
169,150,21490,1,2,1:1:0:0:
169,150,21684,2,0,B|124:159|124:159|84:138,1,89.9999886703496,2|2,1:2|1:0,0:0:0:0:
4,75,22458,69,2,1:1:0:0:
88,22,22845,1,2,1:1:0:0:
168,81,23232,1,2,1:0:0:0:
266,46,23619,1,2,1:1:0:0:
266,46,23813,1,2,1:2:0:0:
266,46,24006,2,0,L|248:212,2,149.999985694886,10|2|12,1:1|0:2|1:2,0:0:0:0:
359,2,25555,5,14,0:1:0:0:
433,68,25942,1,10,0:1:0:0:
354,129,26329,2,0,L|258:115,1,74.9999928474428,10|2,0:1|0:1,0:0:0:0:
174,185,27103,1,14,0:1:0:0:
225,270,27490,2,0,P|255:284|315:271,1,74.9999928474428,10|2,0:1|0:1,0:0:0:0:
448,115,28651,53,14,0:1:0:0:
362,62,29039,1,10,0:1:0:0:
272,107,29426,2,0,P|233:117|194:100,1,74.9999928474428,10|2,0:1|0:1,0:0:0:0:
110,36,30200,1,14,0:1:0:0:
110,36,30393,1,2,0:1:0:0:
110,36,30587,2,0,P|90:76|91:117,2,74.9999928474428,10|2|2,0:1|0:1|0:2,0:0:0:0:
257,9,31748,53,14,0:1:0:0:
324,83,32135,1,10,0:1:0:0:
257,157,32522,2,0,P|222:148|178:150,1,74.9999928474428,10|2,0:1|0:1,0:0:0:0:
94,237,33297,1,14,0:1:0:0:
159,312,33684,2,0,P|194:321|238:319,1,74.9999928474428,10|2,0:1|0:1,0:0:0:0:
456,294,34845,53,14,0:1:0:0:
397,374,35232,1,10,0:1:0:0:
303,339,35619,2,0,P|294:302|304:246,1,74.9999928474428,10|2,0:1|0:1,0:0:0:0:
364,159,36393,2,0,P|407:163|467:131,1,99.999990463257,14|0,0:1|1:0,0:0:0:0:
491,56,37168,1,2,0:1:0:0:
413,10,37555,1,2,1:2:0:0:
334,71,37942,102,0,P|300:71|244:57,1,74.9999928474428,14|2,0:1|0:1,0:0:0:0:
184,39,38522,2,0,P|150:39|94:53,1,74.9999928474428,2|2,0:1|0:1,0:0:0:0:
36,75,39103,1,10,0:1:0:0:
86,166,39490,2,0,P|128:164|174:148,1,74.9999928474428,14|2,0:1|0:1,0:0:0:0:
233,180,40071,2,0,P|247:219|247:269,1,74.9999928474428,2|2,0:1|0:1,0:0:0:0:
231,329,40651,1,10,0:1:0:0:
135,373,41039,54,0,L|51:365,1,74.9999928474428,14|2,0:1|0:1,0:0:0:0:
5,309,41619,2,0,P|5:272|18:234,1,74.9999928474428,2|2,0:1|0:1,0:0:0:0:
70,178,42200,1,10,0:1:0:0:
167,241,42587,1,14,0:1:0:0:
167,241,42780,1,2,0:1:0:0:
167,241,42974,2,0,P|200:250|246:225,2,74.9999928474428,10|10|10,0:1|0:3|0:1,0:0:0:0:
70,178,43942,1,10,0:1:0:0:
56,140,44135,54,0,P|62:87|83:62,1,74.9999928474428,14|2,0:1|0:1,0:0:0:0:
142,31,44716,2,0,L|230:26,1,74.9999928474428,2|2,0:1|0:1,0:0:0:0:
285,65,45297,1,10,0:1:0:0:
227,153,45684,2,0,P|216:190|237:244,1,74.9999928474428,14|2,0:1|0:1,0:0:0:0:
280,279,46264,2,0,L|365:269,1,74.9999928474428,2|2,0:1|0:1,0:0:0:0:
418,316,46845,1,10,0:1:0:0:
493,242,47232,54,0,P|492:201|480:160,1,74.9999928474428,14|2,0:1|0:1,0:0:0:0:
429,111,47813,2,0,L|336:100,1,74.9999928474428,2|2,0:1|0:1,0:0:0:0:
278,124,48393,1,10,0:1:0:0:
221,36,48780,1,14,2:1:0:0:
115,42,49168,1,2,2:1:0:0:
83,142,49555,2,0,L|75:208,2,49.9999952316285,2|8|0,1:3|1:0|1:0,0:0:0:0:
165,77,50329,85,14,0:1:0:0:
190,107,50522,2,0,P|231:112|272:86,1,74.9999928474428,2|2,0:3|0:3,0:0:0:0:
329,59,51103,2,0,P|363:44|399:50,2,74.9999928474428,10|2|2,0:1|0:1|0:1,0:0:0:0:
263,140,52071,2,0,L|256:220,1,74.9999928474428,2|2,0:3|0:3,0:0:0:0:
285,287,52651,2,0,P|312:304|367:308,1,74.9999928474428,10|2,0:1|0:1,0:0:0:0:
432,304,53232,1,2,0:1:0:0:
499,223,53619,54,0,L|489:137,1,74.9999928474428,2|2,0:3|0:3,0:0:0:0:
434,93,54200,2,0,L|424:7,2,74.9999928474428,10|2|2,0:1|0:1|0:1,0:0:0:0:
400,133,54974,1,14,0:1:0:0:
301,98,55361,1,10,0:0:0:0:
266,197,55748,1,10,0:1:0:0:
365,232,56135,1,10,0:1:0:0:
289,305,56522,53,14,0:1:0:0:
259,331,56716,2,0,P|229:337|181:320,1,74.9999928474428,2|2,0:3|0:3,0:0:0:0:
122,279,57297,2,0,L|115:196,2,74.9999928474428,10|2|2,0:1|0:1|0:1,0:0:0:0:
188,360,58264,2,0,P|223:360|273:346,1,74.9999928474428,2|2,0:3|0:3,0:0:0:0:
334,319,58845,2,0,P|369:319|419:333,2,74.9999928474428,10|2|2,0:1|0:1|0:1,0:0:0:0:
286,341,59619,53,14,0:1:0:0:
199,282,60006,1,10,0:3:0:0:
228,181,60393,1,14,0:1:0:0:
333,177,60780,1,10,0:3:0:0:
369,275,61168,1,14,0:1:0:0:
256,192,61264,12,10,62716,0:3:0:0:
254,360,65813,53,14,0:1:0:0:
228,330,66006,2,0,P|217:298|238:252,1,74.9999928474428,2|2,0:3|0:3,0:0:0:0:
293,214,66587,2,0,L|376:206,2,74.9999928474428,2|2|10,0:1|0:1|1:1,0:0:0:0:
256,175,67361,1,14,0:1:0:0:
307,83,67748,1,2,0:0:0:0:
214,33,68135,2,0,P|161:23|102:21,2,99.999990463257,2|2|12,0:1|1:0|0:1,0:0:0:0:
258,24,72006,117,14,0:1:0:0:
284,54,72200,2,0,P|295:86|274:132,1,74.9999928474428,2|2,0:3|0:3,0:0:0:0:
219,170,72780,2,0,L|136:178,2,74.9999928474428,2|2|2,0:1|0:1|1:1,0:0:0:0:
247,214,73555,1,14,3:1:0:0:
190,295,73942,1,6,3:0:0:0:
273,358,74329,1,10,3:0:0:0:
273,358,74522,2,0,B|325:350|325:350|339:337|339:337|406:325,1,134.999983005524,12|14,3:2|1:0,0:0:0:0:
256,192,81297,12,14,84393,0:2:0:0:
256,192,84490,12,14,85942,0:0:0:0:
239,325,87297,118,0,P|207:341|95:325,1,149.999985694886,14|8,0:1|1:3,0:0:0:0:
60,285,88071,2,0,P|74:233|65:179,1,109.999992866516,2|2,0:2|0:2,0:0:0:0:
39,131,88651,1,10,0:1:0:0:
98,38,89039,1,8,0:0:0:0:
189,98,89426,2,0,P|256:103|301:79,1,109.999992866516,10|8,0:1|0:0,0:0:0:0:
347,96,90006,2,0,P|397:75|451:83,1,109.999992866516,2|2,0:2|0:1,0:0:0:0:
480,129,90587,54,0,L|460:257,1,109.999992866516,10|10,0:1|0:3,0:0:0:0:
488,292,91168,1,2,2:0:0:0:
488,292,91361,2,0,P|437:313|384:305,1,109.999992866516,10|10,0:1|0:3,0:0:0:0:
280,268,92135,1,8,0:1:0:0:
326,168,92522,1,10,0:1:0:0:
251,86,92910,1,10,0:2:0:0:
157,136,93297,53,10,0:2:0:0:
157,136,93490,1,2,0:2:0:0:
157,136,93684,2,0,L|148:270,1,109.999992866516,14|10,0:1|0:3,0:0:0:0:
121,292,94264,2,0,B|69:317|69:317|29:282,1,109.999992866516,2|2,0:2|0:2,0:0:0:0:
10,231,94845,1,10,0:1:0:0:
54,130,95233,1,8,0:0:0:0:
158,164,95620,2,0,P|219:163|272:135,1,109.999992866516,10|0,0:1|0:0,0:0:0:0:
302,105,96200,1,2,0:1:0:0:
399,155,96587,53,2,0:1:0:0:
399,155,96781,2,0,P|411:215|390:277,1,109.999992866516,10|10,0:2|0:3,0:0:0:0:
365,304,97362,1,2,0:2:0:0:
316,328,97555,2,0,L|197:311,2,109.999992866516,10|10|10,0:1|0:3|3:3,0:0:0:0:
424,384,98716,21,10,0:1:0:0:
437,274,99103,1,10,0:1:0:0:
450,164,99490,2,0,L|457:107,1,44.9999943351748,10|2,0:1|0:1,0:0:0:0:
461,64,99877,22,0,P|429:93|348:77,1,109.999992866516,14|2,0:1|0:3,0:0:0:0:
326,69,100458,1,2,0:0:0:0:
293,39,100651,1,10,0:0:0:0:
188,73,101039,1,10,0:0:0:0:
250,163,101426,2,0,P|264:212|242:285,1,109.999992866516,14|10,0:1|0:3,0:0:0:0:
227,305,102006,1,2,0:2:0:0:
190,329,102200,1,10,0:2:0:0:
83,357,102587,1,10,0:2:0:0:
18,267,102974,54,0,L|37:140,1,109.999992866516,14|10,0:1|0:3,0:0:0:0:
82,129,103555,1,2,0:0:0:0:
82,129,103748,2,0,P|126:142|193:117,1,109.999992866516,10|8,0:1|0:0,0:0:0:0:
216,91,104329,1,2,0:1:0:0:
246,59,104522,1,10,0:1:0:0:
349,22,104910,1,10,0:3:0:0:
445,73,105297,1,10,0:3:0:0:
478,177,105684,2,0,P|474:204|458:255,1,54.999996433258,10|2,0:2|0:2,0:0:0:0:
444,280,106071,54,0,L|322:257,1,109.999992866516,14|10,0:1|0:3,0:0:0:0:
293,272,106651,1,2,0:0:0:0:
257,246,106845,2,0,P|249:193|281:126,1,109.999992866516,10|10,0:0|0:0,0:0:0:0:
304,115,107426,1,2,0:2:0:0:
304,71,107619,2,0,P|255:49|181:55,1,109.999992866516,14|10,0:1|0:3,0:0:0:0:
115,120,108393,2,0,L|126:247,1,109.999992866516,10|10,0:2|0:0,0:0:0:0:
128,273,108974,1,2,0:2:0:0:
151,310,109168,54,0,P|214:329|256:310,1,109.999992866516,14|10,0:1|0:3,0:0:0:0:
286,285,109748,1,2,0:2:0:0:
307,246,109942,2,0,L|312:125,1,109.999992866516,10|10,0:1|0:3,0:0:0:0:
373,45,110716,1,10,0:3:0:0:
478,75,111103,1,10,0:3:0:0:
481,184,111490,1,10,0:3:0:0:
378,220,111877,1,10,0:1:0:0:
311,136,112264,1,14,0:1:0:0:
160,363,114006,22,0,L|153:298,1,54.999996433258,0|4,3:0|3:3,0:0:0:0:
150,258,114393,2,0,P|97:261|136:115,1,274.99998216629,10|12,1:2|2:1,0:0:0:0:
256,192,115458,12,0,118458,0:0:0:0:
