osu file format v14

[General]
AudioFilename: audio.mp3
AudioLeadIn: 0
PreviewTime: 44542
Countdown: 0
SampleSet: None
StackLeniency: 0.7
Mode: 2
LetterboxInBreaks: 0
WidescreenStoryboard: 1

[Editor]
DistanceSpacing: 1.2
BeatDivisor: 4
GridSize: 16
TimelineZoom: 3.699998

[Metadata]
Title:Anhedonia
TitleUnicode:Anhedonia
Artist:Silent Spica
ArtistUnicode:Silent Spica
Creator:raianshimuzu
Version:Feeling
Source:BMS
Tags:FRENZ2012 bof2012 a_hisa Kazetoki Spiritual Core
BeatmapID:1168531
BeatmapSetID:551699

[Difficulty]
HPDrainRate:6
CircleSize:4
OverallDifficulty:9.3
ApproachRate:9.3
SliderMultiplier:1.9
SliderTickRate:2

[Events]
//Background and Video events
0,0,"59719307_p0.jpg",0,0
//Break Periods
//Storyboard Layer 0 (Background)
//Storyboard Layer 1 (Fail)
//Storyboard Layer 2 (Pass)
//Storyboard Layer 3 (Foreground)
//Storyboard Sound Samples

[TimingPoints]
1559,666.666666666667,4,2,0,5,1,0
11892,333.333333333333,4,2,0,40,1,0
12876,333.333333333333,4,2,3,40,1,0
35542,-100,4,2,0,5,0,0
35709,-100,4,2,3,40,0,0
40875,-100,4,2,0,5,0,0
41042,-100,4,2,3,40,0,0
44875,-100,4,2,4,55,0,1
66209,-100,4,2,2,55,0,0
75542,-100,4,2,1,40,0,0
84209,-100,4,2,3,40,0,0
87542,-100,4,2,4,55,0,1
108875,-100,4,2,2,30,0,0

[Colours]
Combo1 : 0,128,255
Combo2 : 255,255,0
Combo3 : 255,128,64
Combo4 : 128,255,255

[HitObjects]
80,144,12876,6,0,L|272:112,1,190,2|8,0:0|0:0,0:0:0:0:
320,96,13709,1,2,0:0:0:0:
192,128,13875,2,0,L|80:128,1,95,8|0,0:0|0:0,0:0:0:0:
240,96,14209,6,0,P|288:112|336:256,1,190,2|8,0:0|0:0,0:0:0:0:
208,224,14709,1,0,0:0:0:0:
112,160,14875,2,0,L|48:160,1,47.5
112,160,15042,2,0,L|208:160,1,95,2|8,0:0|0:0,0:0:0:0:
336,112,15542,6,0,L|128:144,1,190,2|8,0:0|0:0,0:0:0:0:
352,176,16375,1,2,0:0:0:0:
240,176,16542,2,0,L|128:176,1,95,8|0,0:0|0:0,0:0:0:0:
288,128,16875,6,0,L|416:128,1,95,2|0,0:0|0:0,0:0:0:0:
224,160,17209,2,0,L|112:160,1,95,8|0,0:0|0:0,0:0:0:0:
288,144,17542,1,0,0:0:0:0:
336,144,17625,1,0,0:0:0:0:
384,144,17709,1,2,0:0:0:0:
336,144,17792,1,0,0:0:0:0:
288,144,17875,1,8,0:0:0:0:
96,128,18209,6,0,P|80:176|192:256,1,190,2|8,0:0|0:0,0:0:0:0:
368,208,19042,1,8,0:0:0:0:
480,160,19209,2,0,L|352:160,1,95,2|0,0:0|0:0,0:0:0:0:
240,144,19542,6,0,L|144:144,1,95,2|0,0:0|0:0,0:0:0:0:
272,112,19875,2,0,L|160:112,1,95,8|0,0:0|0:0,0:0:0:0:
336,128,20209,2,0,L|400:128,1,47.5
336,128,20375,2,0,L|208:128,1,95,2|8,0:0|0:0,0:0:0:0:
48,80,20875,6,0,P|112:144|64:240,1,190,2|8,0:0|0:0,0:0:0:0:
272,224,21709,1,2,0:0:0:0:
400,192,21875,2,0,L|304:192,1,95,8|0,0:0|0:0,0:0:0:0:
160,128,22209,6,0,L|272:128,1,95,2|0,0:0|0:0,0:0:0:0:
128,96,22542,2,0,L|16:96,1,95,8|0,0:0|0:0,0:0:0:0:
176,80,22875,2,0,L|224:80,1,47.5
384,80,23042,2,0,L|448:80,1,47.5,2|0,0:0|0:0,0:0:0:0:
176,80,23209,1,8,0:0:0:0:
304,128,23542,6,0,L|400:128,2,95
208,128,24042,1,0,0:0:0:0:
48,128,24209,1,0,0:0:0:0:
176,112,24375,2,0,L|272:96,2,95
448,128,24875,6,0,L|496:240,1,95
368,192,25209,1,0,0:0:0:0:
240,160,25375,1,0,0:0:0:0:
96,112,25542,2,0,L|48:112,2,47.5
240,112,25875,2,0,L|336:112,1,95
48,112,26209,6,0,L|144:112,1,95
272,112,26542,2,0,L|176:112,2,95
416,112,27042,1,0,0:0:0:0:
272,112,27209,1,0,0:0:0:0:
128,112,27375,1,0,0:0:0:0:
288,112,27542,6,0,L|176:112,1,95
272,160,27875,1,0,0:0:0:0:
320,224,28042,1,0,0:0:0:0:
176,224,28209,2,0,L|96:224,2,47.5
368,208,28459,2,0,L|448:208,1,47.5
192,160,28875,6,0,L|64:160,2,95
320,128,29375,2,0,L|208:128,2,95
464,96,29875,2,0,L|368:96,1,95
112,96,30209,6,0,L|16:96,1,95
176,112,30542,1,0,0:0:0:0:
320,112,30709,1,0,0:0:0:0:
448,160,30875,2,0,L|496:160,1,47.5
448,160,31042,2,0,L|352:160,1,95
192,160,31375,1,0,0:0:0:0:
480,128,31542,6,0,L|384:128,1,95
256,96,31875,2,0,L|352:96,1,95
480,96,32209,1,0,0:0:0:0:
192,80,32375,2,0,L|80:80,2,95
448,112,32875,6,0,L|336:112|336:112,1,95
176,96,33209,1,0,0:0:0:0:
80,96,33375,1,0,0:0:0:0:
192,96,33542,2,0,L|256:96,1,47.5
272,144,33709,2,0,L|192:144,1,47.5
48,144,33875,2,0,L|16:96,1,47.5
304,160,34042,2,0,L|384:160,1,47.5
112,80,34209,6,0,P|64:128|128:240,1,190
240,224,34709,2,0,P|272:176|192:64,1,190
80,128,35209,2,0,L|192:128,1,95
448,128,35542,5,0,0:0:0:0:
448,128,35584,1,0,0:0:0:0:
448,128,35625,1,0,0:0:0:0:
448,128,35667,1,0,0:0:0:0:
448,128,35709,1,0,0:0:0:0:
320,128,35875,5,0,0:0:0:0:
400,144,36042,1,0,0:0:0:0:
464,176,36209,1,0,0:0:0:0:
496,224,36375,1,0,0:0:0:0:
496,256,36542,2,0,L|432:352,1,95
176,272,36875,6,0,L|368:208,1,190
192,192,37375,2,0,L|384:128,1,190
224,112,37875,2,0,L|320:96,1,95
368,96,38125,1,0,0:0:0:0:
160,112,38209,6,0,L|64:112,1,95
128,128,38542,1,0,0:0:0:0:
176,176,38709,1,0,0:0:0:0:
176,240,38875,1,0,0:0:0:0:
128,288,39042,1,0,0:0:0:0:
64,304,39209,2,0,L|192:304,1,95
448,240,39542,6,0,L|256:208,1,190
112,176,40042,2,0,L|320:112,1,190
432,96,40542,2,0,L|304:96,1,95
64,96,40875,5,0,0:0:0:0:
64,96,40917,1,0,0:0:0:0:
64,96,40959,1,0,0:0:0:0:
64,96,41000,1,0,0:0:0:0:
64,96,41042,1,0,0:0:0:0:
160,96,41209,5,0,0:0:0:0:
240,128,41375,1,0,0:0:0:0:
304,176,41542,1,0,0:0:0:0:
352,240,41709,1,0,0:0:0:0:
400,304,41875,2,0,L|272:304,1,95
16,192,42209,5,0,0:0:0:0:
272,192,42542,2,0,L|352:96,1,95
112,176,43042,2,0,L|48:96,1,95
288,128,43875,5,0,0:0:0:0:
336,128,43959,1,0,0:0:0:0:
384,128,44042,2,0,L|288:128,1,95
128,128,44375,1,0,0:0:0:0:
400,128,44542,1,0,0:0:0:0:
80,128,44709,1,0,0:0:0:0:
352,144,44875,6,0,L|448:192,1,95
480,192,45125,1,0,0:0:0:0:
192,192,45209,2,0,L|128:192,1,47.5,8|0,0:0|0:0,0:0:0:0:
336,192,45375,2,0,L|384:192,1,47.5
336,192,45542,2,0,L|240:192,2,95,0|8|0,0:0|0:0|0:0,0:0:0:0:
432,192,46042,1,0,0:0:0:0:
160,192,46209,6,0,L|64:192,1,95
16,192,46459,1,0,0:0:0:0:
224,144,46542,2,0,L|336:144,1,95,8|0,0:0|0:0,0:0:0:0:
448,144,46875,1,0,0:0:0:0:
320,144,47042,2,0,L|224:144,1,95,8|0,0:0|0:0,0:0:0:0:
128,128,47375,2,0,L|80:128,1,47.5
288,128,47542,6,0,L|448:80,1,142.5
240,96,47875,2,0,L|96:80,1,142.5,8|0,0:0|0:0,0:0:0:0:
320,112,48209,2,0,L|416:112,1,95,0|8,0:0|0:0,0:0:0:0:
112,112,48542,1,0,0:0:0:0:
416,112,48709,1,0,0:0:0:0:
80,192,48875,6,0,L|208:192,1,95
224,192,49125,1,0,0:0:0:0:
400,192,49209,2,0,L|448:192,1,47.5,8|0,0:0|0:0,0:0:0:0:
464,144,49375,2,0,L|416:144,1,47.5
224,128,49542,2,0,L|96:128,1,95,0|8,0:0|0:0,0:0:0:0:
288,128,49875,1,8,0:0:0:0:
448,128,50042,1,0,0:0:0:0:
112,208,50209,6,0,L|112:96,1,95
288,208,50459,2,0,L|288:112,1,95
112,112,50709,2,0,L|112:64,1,47.5
416,96,50875,1,0,0:0:0:0:
288,112,51209,2,0,L|192:112,1,95
144,112,51459,1,0,0:0:0:0:
384,160,51542,6,0,L|432:160,1,47.5
448,224,51709,2,0,L|384:224,1,47.5
160,224,51875,2,0,L|224:224,1,47.5,8|0,0:0|0:0,0:0:0:0:
416,192,52042,2,0,L|368:192,1,47.5
144,192,52209,6,0,L|176:96,1,95,0|8,0:0|0:0,0:0:0:0:
336,192,52459,2,0,L|384:96,1,95
176,96,52709,2,0,L|208:48,1,47.5
432,96,52875,6,0,L|320:96,1,95
176,96,53209,1,8,0:0:0:0:
256,96,53375,2,0,L|352:96,1,95
448,96,53709,2,0,L|384:96,1,47.5,8|0,0:0|0:0,0:0:0:0:
192,112,53875,2,0,L|112:112,1,47.5
368,112,54042,2,0,L|416:112,1,47.5
240,128,54209,6,0,L|32:144,1,190,0|8,0:0|0:0,0:0:0:0:
304,160,54709,1,0,0:0:0:0:
352,160,54792,1,0,0:0:0:0:
400,160,54875,1,0,0:0:0:0:
144,160,55042,2,0,L|48:160,1,95,8|0,0:0|0:0,0:0:0:0:
256,160,55292,1,8,0:0:0:0:
304,160,55375,1,8,0:0:0:0:
352,160,55459,1,8,0:0:0:0:
128,192,55542,6,0,L|112:96,1,95
320,160,55792,2,0,L|416:128,1,95
160,128,56042,2,0,L|96:128,1,47.5
384,192,56209,2,0,L|400:96,1,95
192,160,56459,2,0,L|96:128,1,95
352,128,56709,2,0,L|416:128,1,47.5
112,112,56875,6,0,L|240:128,1,95
416,112,57125,2,0,L|304:112,1,95
80,128,57375,2,0,L|128:128,1,47.5
400,176,57542,6,0,L|336:176,1,47.5
112,208,57709,2,0,L|159:208,1,47.5,8|0,0:0|0:0,0:0:0:0:
368,176,57875,2,0,L|304:176,1,47.5
144,208,58042,2,0,L|191:208,1,47.5
448,224,58209,5,0,0:0:0:0:
336,192,58375,1,0,0:0:0:0:
288,192,58459,1,0,0:0:0:0:
240,192,58542,1,8,0:0:0:0:
112,176,58709,2,0,L|64:176,1,47.5
224,128,58875,2,0,L|320:128,1,95,0|8,0:0|0:0,0:0:0:0:
480,224,59125,2,0,L|480:112,1,95
304,112,59375,2,0,L|256:112,1,47.5
16,96,59542,6,0,L|128:96,1,95
272,96,59875,1,8,0:0:0:0:
432,112,60042,2,8,L|336:112,2,95,0|0|0,0:0|0:0|0:0,0:0:0:0:
288,96,60542,2,0,L|384:96,1,95
112,64,60875,6,0,B|16:128|16:128|112:192,1,190,0|8,0:0|0:0,0:0:0:0:
128,176,61292,1,0,0:0:0:0:
367,160,61375,2,0,L|320:160,1,47.5
112,128,61542,2,0,L|240:128,1,95,0|8,0:0|0:0,0:0:0:0:
416,112,61792,2,0,L|320:112,1,95
128,96,62042,2,0,L|192:96,1,47.5
432,96,62209,5,0,0:0:0:0:
176,64,62292,1,0,0:0:0:0:
128,80,62375,1,0,0:0:0:0:
96,112,62459,1,0,0:0:0:0:
80,144,62542,2,0,L|64:192,3,47.5,8|0|0|0,0:0|0:0|0:0|0:0,0:0:0:0:
272,224,62875,6,0,L|320:224,1,47.5
368,224,63042,2,0,L|240:224,1,95,8|0,0:0|0:0,0:0:0:0:
128,192,63375,1,0,0:0:0:0:
416,176,63542,6,0,L|304:176,1,95
176,176,63792,2,0,L|80:176,1,95
288,128,64042,2,0,L|336:128,1,47.5
32,112,64209,2,0,L|128:112,1,95
320,112,64459,2,0,L|432:112,1,95
192,64,64709,2,0,L|144:64,1,47.5
464,96,64875,5,0,0:0:0:0:
352,96,65042,2,0,L|304:96,1,47.5
112,96,65209,2,0,L|64:96,1,47.5
112,96,65375,2,0,L|176:96,1,47.5
112,96,65542,2,0,L|64:96,1,47.5
112,96,65709,2,0,L|224:96,1,95
256,96,65959,1,0,0:0:0:0:
416,96,66042,2,0,L|464:96,1,47.5
208,112,66209,5,8,0:0:0:0:
112,96,66375,1,0,0:0:0:0:
272,112,66542,1,0,0:0:0:0:
176,96,66709,1,0,0:0:0:0:
32,144,67042,1,0,0:0:0:0:
192,160,67209,1,0,0:0:0:0:
96,128,67375,1,0,0:0:0:0:
240,144,67542,6,0,L|448:144,1,190,8|0,0:0|0:0,0:0:0:0:
336,144,68042,2,0,L|240:144,1,95,0|8,0:0|0:0,0:0:0:0:
144,144,68375,1,0,0:0:0:0:
288,128,68542,2,0,L|192:128,1,95
336,96,68875,5,8,0:0:0:0:
432,80,69042,1,0,0:0:0:0:
256,112,69209,2,0,L|368:96,1,95
496,208,69709,1,0,0:0:0:0:
336,240,69875,2,0,L|432:224,1,95
272,208,70209,5,0,0:0:0:0:
112,192,70375,2,0,L|224:192,1,95,8|0,0:0|0:0,0:0:0:0:
144,176,70709,1,0,0:0:0:0:
80,128,70875,1,8,0:0:0:0:
48,64,71042,1,0,0:0:0:0:
192,80,71209,2,0,L|80:64,1,95
272,160,71542,5,8,0:0:0:0:
368,144,71709,1,0,0:0:0:0:
272,160,71875,1,0,0:0:0:0:
176,176,72042,2,0,P|128:144|208:64,1,190
288,96,72542,2,0,L|176:112,1,95
384,160,72875,6,0,L|496:160,1,95,8|0,0:0|0:0,0:0:0:0:
304,160,73209,2,0,L|412:188,1,95
240,160,73542,2,0,L|336:216,1,95,8|0,0:0|0:0,0:0:0:0:
176,160,73875,2,0,L|255:239,1,95
416,224,74209,5,0,0:0:0:0:
320,176,74375,1,0,0:0:0:0:
416,224,74542,1,0,0:0:0:0:
256,160,74709,2,0,P|144:128|144:64,1,190
256,80,75209,2,0,L|352:80,1,95
112,64,75542,6,0,L|64:64,2,47.5
208,80,75875,2,0,L|240:80,6,23.75
272,80,76209,2,0,L|304:80,6,23.75
320,80,76542,2,0,L|368:80,3,47.5
80,96,76875,6,0,L|176:96,1,95
272,112,77209,1,2,0:0:0:0:
320,128,77292,1,2,0:0:0:0:
352,160,77375,1,2,0:0:0:0:
384,208,77459,1,0,0:0:0:0:
208,224,77542,6,0,L|144:224,1,47.5,8|2,0:0|0:0,0:0:0:0:
144,176,77709,2,2,L|208:176,1,47.5
352,240,77875,2,0,L|400:240,1,47.5,2|2,0:0|0:0,0:0:0:0:
400,192,78042,2,0,L|352:192,1,47.5
96,160,78209,6,2,L|48:160,1,47.5
336,176,78375,2,2,L|384:128,1,47.5
96,160,78542,2,0,L|48:160,1,47.5,2|0,0:0|0:0,0:0:0:0:
320,176,78709,2,0,L|368:128,1,47.5
160,144,78875,2,0,L|48:144,2,95,8|0|0,0:0|0:0|0:0,0:0:0:0:
256,144,79375,1,0,0:0:0:0:
416,160,79542,5,0,0:0:0:0:
320,176,79709,1,0,0:0:0:0:
224,192,79875,2,2,L|224:240,1,47.5
80,192,80042,2,2,L|64:256,1,47.5
384,192,80209,6,0,L|448:160,1,47.5,8|0,0:0|0:0,0:0:0:0:
272,176,80375,2,0,L|272:112,1,47.5
112,192,80542,2,0,L|96:144,1,47.5
384,192,80709,2,0,L|416:144,1,47.5
128,192,80875,6,0,L|112:144,1,47.5
384,192,81042,2,0,L|432:144,1,47.5,8|0,0:0|0:0,0:0:0:0:
256,192,81209,2,0,L|256:128,1,47.5
80,192,81375,2,0,L|32:144,1,47.5
368,192,81542,6,0,L|384:144,1,47.5,8|0,0:0|0:0,0:0:0:0:
112,160,81709,2,0,L|48:160,1,47.5
304,160,81875,2,0,L|384:160,1,47.5
128,160,82042,2,0,L|64:160,1,47.5
416,192,82209,6,0,L|448:144,1,47.5
288,192,82375,2,0,L|288:144,1,47.5
128,208,82542,2,0,L|96:160,1,47.5
368,208,82709,2,0,L|400:160,1,47.5
128,144,82875,6,0,L|64:144,1,47.5,8|0,0:0|0:0,0:0:0:0:
384,144,83042,2,0,L|432:144,1,47.5
144,144,83209,2,0,L|80:144,1,47.5
368,144,83376,2,0,L|416:144,1,47.5
176,144,83542,6,0,L|64:144,1,95
272,144,83792,2,0,L|368:144,1,95
144,128,84042,2,0,L|96:128,1,47.5
320,96,84209,1,0,0:0:0:0:
384,144,84375,1,0,0:0:0:0:
416,208,84542,1,0,0:0:0:0:
432,272,84709,1,0,0:0:0:0:
256,256,84875,5,0,0:0:0:0:
160,224,85042,1,0,0:0:0:0:
64,192,85209,1,0,0:0:0:0:
208,176,85375,2,0,L|400:160,2,190
256,192,86209,12,4,87209,0:0:0:0:
208,144,87542,6,0,L|80:144,1,95
336,112,87792,2,0,L|384:112,1,47.5
128,112,88042,2,0,L|16:112,1,95
224,96,88292,2,0,L|288:96,1,47.5
432,128,88542,2,0,L|320:128,1,95
80,144,88875,6,0,L|192:160,1,95
368,176,89125,2,0,L|448:176,1,47.5
320,144,89375,2,0,L|208:144,1,95
64,144,89625,2,0,L|0:144,1,47.5
112,144,89875,1,0,0:0:0:0:
384,144,90042,2,0,L|432:144,1,47.5
208,160,90209,6,0,L|64:160,2,142.5
352,144,90875,2,0,L|256:144,1,95
208,144,91125,1,0,0:0:0:0:
64,112,91375,2,0,L|128:112,1,47.5
320,112,91542,6,0,L|448:112,1,95
464,112,91792,1,0,0:0:0:0:
160,112,91875,1,0,0:0:0:0:
432,160,92042,2,0,L|480:144,1,47.5
144,144,92292,2,0,L|96:144,1,47.5
336,144,92542,2,0,L|400:144,1,47.5
160,144,92709,2,0,L|112:144,1,47.5
304,144,92875,6,0,L|432:144,1,95
448,144,93125,1,0,0:0:0:0:
272,144,93209,1,0,0:0:0:0:
176,144,93375,2,0,L|80:144,1,95
32,144,93625,1,0,0:0:0:0:
304,144,93709,1,0,0:0:0:0:
416,144,93875,2,0,L|480:256,1,95
304,224,94209,5,0,0:0:0:0:
144,224,94375,2,0,L|48:224,2,95
288,192,94875,1,0,0:0:0:0:
336,192,94959,1,0,0:0:0:0:
384,192,95042,1,0,0:0:0:0:
240,144,95209,2,0,L|128:144,1,95
384,128,95542,6,0,L|496:128,1,95
432,128,95792,1,0,0:0:0:0:
384,128,95875,1,0,0:0:0:0:
224,128,96042,2,0,L|320:128,1,95
272,128,96292,1,0,0:0:0:0:
224,128,96375,1,0,0:0:0:0:
80,128,96542,2,0,L|176:128,1,95
448,128,96875,6,0,L|320:128,1,95
304,128,97125,1,0,0:0:0:0:
96,128,97209,1,0,0:0:0:0:
384,144,97375,2,0,L|432:144,1,47.5
272,112,97625,2,0,L|336:112,1,47.5
160,96,97875,2,0,L|224:96,1,47.5
432,96,98042,2,0,L|368:96,1,47.5
96,112,98209,6,0,L|96:224,1,95
304,208,98459,2,0,L|304:128,1,47.5
208,160,98709,2,0,L|208:272,1,95
416,256,98959,2,0,L|416:208,1,47.5
176,192,99209,2,0,L|64:192,1,95
352,176,99542,6,0,L|448:176,1,95
224,144,99792,2,0,L|160:144,1,47.5
288,128,100042,2,0,L|384:128,1,95
96,128,100292,2,0,L|48:128,1,47.5
144,112,100542,1,0,0:0:0:0:
416,128,100709,1,0,0:0:0:0:
160,128,100875,5,0,0:0:0:0:
112,128,100959,1,0,0:0:0:0:
64,128,101042,1,0,0:0:0:0:
320,144,101125,2,0,L|400:144,1,47.5
128,144,101375,1,0,0:0:0:0:
80,144,101459,1,0,0:0:0:0:
32,144,101542,1,0,0:0:0:0:
256,144,101625,2,0,L|304:144,1,47.5
176,144,101875,2,0,L|128:144,2,47.5
464,128,102209,6,0,L|352:128,1,95
160,128,102459,2,0,L|48:128,1,95
224,112,102709,2,0,L|320:112,1,95
400,112,102959,2,0,L|496:112,1,95
288,112,103209,2,0,L|224:112,1,47.5
96,112,103375,2,0,L|48:112,1,47.5
240,144,103542,6,0,L|352:144,1,95
384,144,103792,1,0,0:0:0:0:
432,144,103875,1,0,0:0:0:0:
176,144,104042,2,0,L|288:144,1,95
320,144,104292,1,0,0:0:0:0:
368,144,104375,1,0,0:0:0:0:
208,144,104542,2,0,L|64:144,1,142.5
272,176,104875,6,0,L|400:176,1,95
288,48,105209,1,0,0:0:0:0:
208,80,105375,1,0,0:0:0:0:
144,144,105542,1,0,0:0:0:0:
96,208,105709,1,0,0:0:0:0:
128,272,105875,2,0,L|224:272,1,95
480,272,106209,6,0,L|480:176,1,95
240,176,106459,2,0,L|240:128,1,47.5
336,176,106709,2,0,L|336:80,1,95
128,160,106959,2,0,L|128:224,1,47.5
256,208,107209,2,0,L|352:208,1,95
80,160,107542,6,0,L|192:160,2,95
224,96,108042,2,0,L|336:96,2,95
96,96,108542,2,0,L|208:96,1,95
448,64,108875,6,0,P|448:128|352:240,1,190
320,240,109292,1,0,0:0:0:0:
144,224,109375,2,0,L|32:208,1,95
144,144,109709,2,0,L|192:144,1,47.5
352,144,109875,2,0,L|400:144,1,47.5
416,96,110042,2,0,L|352:96,1,47.5
160,96,110209,6,0,L|64:112,1,95
112,128,110459,1,0,0:0:0:0:
160,160,110542,1,0,0:0:0:0:
176,192,110625,1,0,0:0:0:0:
176,224,110709,1,0,0:0:0:0:
160,256,110792,1,0,0:0:0:0:
128,272,110875,1,0,0:0:0:0:
368,256,111042,6,0,L|416:256|416:256,1,47.5
224,192,111209,2,0,L|160:192,1,47.5
160,144,111375,2,0,L|224:144,1,47.5
368,224,111542,5,0,0:0:0:0:
416,224,111625,1,0,0:0:0:0:
464,224,111709,2,0,L|416:224,1,47.5
176,208,111875,1,0,0:0:0:0:
128,192,111959,1,0,0:0:0:0:
96,160,112042,1,0,0:0:0:0:
80,128,112125,1,0,0:0:0:0:
96,96,112209,5,0,0:0:0:0:
128,80,112292,1,0,0:0:0:0:
176,80,112375,1,0,0:0:0:0:
208,112,112459,1,0,0:0:0:0:
208,160,112542,1,0,0:0:0:0:
176,192,112625,1,0,0:0:0:0:
128,208,112709,1,0,0:0:0:0:
80,192,112792,1,0,0:0:0:0:
416,128,112875,6,0,L|464:128,1,47.5
176,128,113042,2,0,L|112:112,1,47.5
416,128,113209,2,0,L|464:128,1,47.5
192,128,113376,2,0,L|128:112,1,47.5
416,128,113542,6,0,L|464:128,1,47.5
208,128,113709,2,0,L|144:112,1,47.5
416,128,113875,2,0,L|464:128,1,47.5
224,128,114042,2,0,L|160:112,1,47.5
