osu file format v14

[General]
AudioFilename: audio.ogg
AudioLeadIn: 0
PreviewTime: 44163
Countdown: 0
SampleSet: Normal
StackLeniency: 0.7
Mode: 1
LetterboxInBreaks: 0
WidescreenStoryboard: 0

[Editor]
Bookmarks: 44663,55330,65997,87330,97997,108663
DistanceSpacing: 0.8
BeatDivisor: 4
GridSize: 32
TimelineZoom: 1.299999

[Metadata]
Title:Anhedonia
TitleUnicode:Anhedonia
Artist:Silent Spica
ArtistUnicode:Silent Spica
Creator:Vulkin
Version:Zetera's Oni
Source:THE BMS OF FIGHTERS 2012 -Ein Neuer Heiliger Krieg-
Tags:a_hisa Spiritual Core BOF2012 Electronic Instrumental Breakcore Artcore FRENZ Zetera
BeatmapID:1440686
BeatmapSetID:681379

[Difficulty]
HPDrainRate:6
CircleSize:7
OverallDifficulty:6
ApproachRate:10
SliderMultiplier:1.4
SliderTickRate:1

[Events]
//Background and Video events
0,0,"71487563_p0.jpg",0,0
//Break Periods
//Storyboard Layer 0 (Background)
//Storyboard Layer 1 (Fail)
//Storyboard Layer 2 (Pass)
//Storyboard Layer 3 (Foreground)
//Storyboard Layer 4 (Overlay)
//Storyboard Sound Samples

[TimingPoints]
-9335,666.666666666667,4,1,0,40,1,0
11998,666.666666666667,4,1,0,40,1,8
12623,-100,4,1,0,50,0,0
12664,333.333333333333,4,1,0,50,1,0
23288,-100,4,1,0,55,0,0
33955,-100,4,1,0,60,0,0
41955,-100,4,1,0,50,0,0
43955,-100,4,1,0,65,0,0
44622,-100,4,1,0,70,0,0
44663,-100,4,1,0,70,0,1
65997,-100,4,1,0,70,0,0
66038,-100,4,1,0,60,0,0
76622,-100,4,1,0,65,0,0
84622,-100,4,1,0,50,0,0
86288,-100,4,1,0,55,0,0
86622,-100,4,1,0,60,0,0
86955,-100,4,1,0,65,0,0
87288,-100,4,1,0,70,0,0
87330,-100,4,1,0,70,0,1
108663,-100,4,1,0,70,0,0
108705,-100,4,1,0,60,0,0

[HitObjects]
288,224,12664,5,8,0:0:0:0:
288,224,12997,1,8,0:0:0:0:
288,224,13497,1,8,0:0:0:0:
288,224,13830,1,8,0:0:0:0:
288,224,14163,1,8,0:0:0:0:
288,224,14497,1,8,0:0:0:0:
320,192,14663,1,0,0:0:0:0:
352,192,14747,1,0,0:0:0:0:
352,192,14830,1,0,0:0:0:0:
352,128,14997,1,8,0:0:0:0:
256,192,15330,1,8,0:0:0:0:
320,160,15663,1,8,0:0:0:0:
160,192,16163,1,8,0:0:0:0:
288,160,16497,1,8,0:0:0:0:
288,160,16830,1,8,0:0:0:0:
288,160,17163,1,8,0:0:0:0:
352,128,17330,1,0,0:0:0:0:
352,128,17413,1,0,0:0:0:0:
352,128,17497,1,0,0:0:0:0:
352,128,17580,1,0,0:0:0:0:
320,128,17663,1,8,0:0:0:0:
320,160,17997,1,8,0:0:0:0:
224,160,18330,1,8,0:0:0:0:
320,160,18830,1,8,0:0:0:0:
320,160,19163,1,8,0:0:0:0:
320,160,19497,1,8,0:0:0:0:
320,160,19830,1,8,0:0:0:0:
352,96,19997,1,0,0:0:0:0:
320,128,20080,1,0,0:0:0:0:
320,160,20163,1,0,0:0:0:0:
352,128,20330,1,8,0:0:0:0:
448,192,20663,1,8,0:0:0:0:
352,192,20997,1,8,0:0:0:0:
192,160,21497,1,8,0:0:0:0:
288,160,21830,1,8,0:0:0:0:
192,160,22163,1,8,0:0:0:0:
320,160,22497,1,8,0:0:0:0:
256,160,22663,1,0,0:0:0:0:
224,160,22747,1,0,0:0:0:0:
224,192,22830,1,0,0:0:0:0:
224,192,22913,1,0,0:0:0:0:
256,160,22997,1,8,0:0:0:0:
352,160,23330,1,0,0:0:0:0:
320,192,23663,1,8,0:0:0:0:
320,192,23830,1,8,0:0:0:0:
352,160,23997,1,0,0:0:0:0:
416,160,24163,1,8,0:0:0:0:
384,160,24330,1,8,0:0:0:0:
384,160,24497,1,0,0:0:0:0:
352,160,24663,1,0,0:0:0:0:
384,160,24830,1,8,0:0:0:0:
384,160,24997,1,8,0:0:0:0:
384,160,25163,1,8,0:0:0:0:
416,160,25330,1,0,0:0:0:0:
256,128,25413,1,0,0:0:0:0:
384,160,25497,1,8,0:0:0:0:
384,160,25663,1,8,0:0:0:0:
384,160,25830,1,0,0:0:0:0:
384,160,25997,1,0,0:0:0:0:
320,160,26330,1,8,0:0:0:0:
288,160,26497,1,8,0:0:0:0:
320,128,26663,1,0,0:0:0:0:
384,160,26830,1,8,0:0:0:0:
384,160,26997,1,8,0:0:0:0:
384,160,27163,1,0,0:0:0:0:
384,160,27330,1,0,0:0:0:0:
416,160,27497,1,8,0:0:0:0:
416,160,27663,1,8,0:0:0:0:
416,160,27830,1,8,0:0:0:0:
416,160,27997,1,0,0:0:0:0:
416,160,28080,1,0,0:0:0:0:
384,128,28163,1,8,0:0:0:0:
352,128,28247,1,0,0:0:0:0:
352,128,28330,1,8,0:0:0:0:
416,160,28497,1,0,0:0:0:0:
448,128,28663,1,0,0:0:0:0:
416,160,28997,1,8,0:0:0:0:
416,160,29163,1,0,0:0:0:0:
384,128,29330,1,8,0:0:0:0:
384,128,29497,1,8,0:0:0:0:
448,160,29663,1,0,0:0:0:0:
416,128,29830,1,8,0:0:0:0:
416,128,29997,1,0,0:0:0:0:
352,128,30163,1,8,0:0:0:0:
320,128,30330,1,8,0:0:0:0:
384,160,30497,1,0,0:0:0:0:
320,160,30663,1,8,0:0:0:0:
320,160,30747,1,8,0:0:0:0:
320,160,30830,1,8,0:0:0:0:
352,160,30997,1,8,0:0:0:0:
288,128,31163,1,0,0:0:0:0:
288,192,31330,1,8,0:0:0:0:
224,160,31663,1,8,0:0:0:0:
256,192,31830,1,8,0:0:0:0:
288,160,31997,1,8,0:0:0:0:
352,160,32163,1,0,0:0:0:0:
320,128,32330,1,8,0:0:0:0:
320,160,32497,1,0,0:0:0:0:
320,160,32663,1,0,0:0:0:0:
288,160,32830,1,8,0:0:0:0:
256,128,32997,1,8,0:0:0:0:
192,160,33163,1,0,0:0:0:0:
256,160,33330,1,8,0:0:0:0:
256,160,33497,1,0,0:0:0:0:
288,160,33663,1,0,0:0:0:0:
288,160,33747,1,0,0:0:0:0:
288,160,33830,1,0,0:0:0:0:
288,160,33913,1,0,0:0:0:0:
256,160,33997,1,12,0:0:0:0:
288,192,34330,1,8,0:0:0:0:
256,160,34497,1,0,0:0:0:0:
352,128,34830,1,8,0:0:0:0:
320,160,34997,1,0,0:0:0:0:
320,160,35330,1,0,0:0:0:0:
320,160,35413,1,0,0:0:0:0:
320,160,35497,1,0,0:0:0:0:
256,160,35663,1,8,0:0:0:0:
224,192,35747,1,8,0:0:0:0:
256,192,35830,1,0,0:0:0:0:
224,160,35997,1,0,0:0:0:0:
288,160,36163,1,0,0:0:0:0:
288,160,36247,1,0,0:0:0:0:
320,160,36330,1,8,0:0:0:0:
288,160,36497,1,0,0:0:0:0:
224,128,36663,1,8,0:0:0:0:
288,192,36997,1,8,0:0:0:0:
352,160,37163,1,0,0:0:0:0:
352,160,37497,1,0,0:0:0:0:
416,160,37663,1,8,0:0:0:0:
320,160,37997,1,8,0:0:0:0:
320,160,38080,1,8,0:0:0:0:
416,160,38163,1,0,0:0:0:0:
352,160,38330,1,8,0:0:0:0:
416,160,38497,1,0,0:0:0:0:
352,160,38663,1,0,0:0:0:0:
384,160,38747,1,8,0:0:0:0:
384,160,38830,1,0,0:0:0:0:
448,128,38997,1,8,0:0:0:0:
448,128,39080,1,8,0:0:0:0:
384,160,39163,1,8,0:0:0:0:
384,160,39330,1,8,0:0:0:0:
288,192,39663,1,8,0:0:0:0:
384,160,39830,1,0,0:0:0:0:
512,128,40163,1,8,0:0:0:0:
448,160,40330,1,0,0:0:0:0:
416,64,40663,1,0,0:0:0:0:
416,64,40747,1,0,0:0:0:0:
416,64,40830,1,0,0:0:0:0:
416,128,40997,1,8,0:0:0:0:
416,160,41080,1,8,0:0:0:0:
448,160,41163,1,0,0:0:0:0:
416,160,41330,1,0,0:0:0:0:
352,160,41497,1,0,0:0:0:0:
384,160,41580,1,0,0:0:0:0:
384,160,41663,1,8,0:0:0:0:
384,160,41747,1,8,0:0:0:0:
384,192,41830,1,0,0:0:0:0:
352,160,41997,1,12,0:0:0:0:
256,160,43997,1,0,0:0:0:0:
256,160,44163,1,8,0:0:0:0:
320,128,44330,1,8,0:0:0:0:
320,128,44497,1,8,0:0:0:0:
320,128,44663,1,4,0:0:0:0:
256,160,44830,1,8,0:0:0:0:
224,160,44913,1,8,0:0:0:0:
224,160,44997,1,8,0:0:0:0:
256,160,45163,1,0,0:0:0:0:
320,160,45330,1,0,0:0:0:0:
288,160,45497,1,0,0:0:0:0:
288,160,45580,1,0,0:0:0:0:
288,192,45663,1,8,0:0:0:0:
256,160,45997,1,0,0:0:0:0:
256,160,46080,1,0,0:0:0:0:
288,160,46163,1,8,0:0:0:0:
320,160,46247,1,8,0:0:0:0:
256,160,46330,1,0,0:0:0:0:
288,160,46497,1,8,0:0:0:0:
320,160,46663,1,0,0:0:0:0:
320,192,46830,1,0,0:0:0:0:
256,192,46997,1,8,0:0:0:0:
320,192,47080,1,0,0:0:0:0:
352,192,47163,1,8,0:0:0:0:
352,192,47247,1,8,0:0:0:0:
288,160,47330,1,0,0:0:0:0:
320,160,47497,1,0,0:0:0:0:
320,160,47580,1,0,0:0:0:0:
320,192,47663,1,8,0:0:0:0:
352,160,47830,1,0,0:0:0:0:
384,160,47997,1,0,0:0:0:0:
416,160,48163,1,8,0:0:0:0:
384,96,48330,1,0,0:0:0:0:
384,160,48497,1,8,0:0:0:0:
288,160,48663,1,8,0:0:0:0:
352,160,48830,1,8,0:0:0:0:
320,160,48913,1,8,0:0:0:0:
352,160,48997,1,0,0:0:0:0:
352,160,49163,1,0,0:0:0:0:
320,160,49247,1,8,0:0:0:0:
288,160,49413,1,0,0:0:0:0:
288,160,49497,1,0,0:0:0:0:
288,160,49663,1,8,0:0:0:0:
288,160,49830,1,8,0:0:0:0:
352,160,49997,1,4,0:0:0:0:
288,160,50163,1,8,0:0:0:0:
352,160,50247,1,0,0:0:0:0:
352,160,50413,1,8,0:0:0:0:
352,160,50497,1,0,0:0:0:0:
352,160,50663,1,8,0:0:0:0:
256,128,50997,1,0,0:0:0:0:
320,160,51163,1,8,0:0:0:0:
320,160,51247,1,8,0:0:0:0:
320,160,51330,1,0,0:0:0:0:
352,160,51413,1,0,0:0:0:0:
352,160,51497,1,8,0:0:0:0:
320,160,51663,1,0,0:0:0:0:
320,160,51830,1,8,0:0:0:0:
320,192,51913,1,0,0:0:0:0:
352,192,51997,1,8,0:0:0:0:
288,192,52163,1,0,0:0:0:0:
256,192,52247,1,8,0:0:0:0:
320,160,52413,1,0,0:0:0:0:
288,160,52497,1,8,0:0:0:0:
288,96,52663,1,8,0:0:0:0:
288,192,52997,1,8,0:0:0:0:
288,160,53163,1,0,0:0:0:0:
256,160,53330,1,0,0:0:0:0:
233,146,53413,1,0,0:0:0:0:
260,150,53497,1,8,0:0:0:0:
262,167,53663,1,8,0:0:0:0:
286,180,53747,1,8,0:0:0:0:
310,192,53830,1,0,0:0:0:0:
310,192,53913,1,0,0:0:0:0:
310,192,53997,1,8,0:0:0:0:
287,154,54330,1,0,0:0:0:0:
256,106,54497,1,8,0:0:0:0:
256,106,54580,1,0,0:0:0:0:
282,115,54663,1,8,0:0:0:0:
217,132,54830,1,0,0:0:0:0:
334,170,54997,1,8,0:0:0:0:
287,154,55080,1,8,0:0:0:0:
287,154,55163,1,8,0:0:0:0:
249,138,55330,1,4,0:0:0:0:
288,160,55580,1,8,0:0:0:0:
320,160,55663,1,0,0:0:0:0:
341,111,55830,1,8,0:0:0:0:
415,141,55997,1,8,0:0:0:0:
347,159,56247,1,0,0:0:0:0:
318,206,56330,1,0,0:0:0:0:
336,184,56497,1,8,0:0:0:0:
313,145,56663,1,0,0:0:0:0:
293,179,56830,1,8,0:0:0:0:
293,179,56913,1,8,0:0:0:0:
224,192,56997,1,8,0:0:0:0:
224,160,57163,1,0,0:0:0:0:
313,145,57330,1,8,0:0:0:0:
288,160,57413,1,0,0:0:0:0:
265,169,57497,1,8,0:0:0:0:
265,169,57663,1,0,0:0:0:0:
265,169,57830,1,8,0:0:0:0:
320,162,57997,1,0,0:0:0:0:
312,188,58330,1,8,0:0:0:0:
320,162,58497,1,0,0:0:0:0:
292,172,58580,1,0,0:0:0:0:
320,162,58663,1,8,0:0:0:0:
265,169,58830,1,0,0:0:0:0:
320,160,58913,1,8,0:0:0:0:
320,162,58997,1,0,0:0:0:0:
352,192,59163,1,8,0:0:0:0:
320,162,59330,1,8,0:0:0:0:
384,160,59497,1,0,0:0:0:0:
352,160,59580,1,0,0:0:0:0:
352,160,59663,1,8,0:0:0:0:
320,162,59830,1,0,0:0:0:0:
320,162,59997,1,8,0:0:0:0:
320,96,60163,1,0,0:0:0:0:
352,160,60330,1,8,0:0:0:0:
352,160,60413,1,8,0:0:0:0:
352,160,60497,1,0,0:0:0:0:
384,160,60663,1,4,0:0:0:0:
256,160,60997,1,0,0:0:0:0:
224,160,61080,1,0,0:0:0:0:
256,160,61163,1,8,0:0:0:0:
288,160,61247,1,8,0:0:0:0:
288,192,61330,1,8,0:0:0:0:
256,160,61497,1,0,0:0:0:0:
256,192,61580,1,8,0:0:0:0:
224,192,61747,1,0,0:0:0:0:
224,160,61830,1,0,0:0:0:0:
288,160,61997,1,8,0:0:0:0:
288,160,62080,1,8,0:0:0:0:
288,160,62163,1,8,0:0:0:0:
288,160,62247,1,8,0:0:0:0:
288,160,62330,1,0,0:0:0:0:
320,96,62497,1,8,0:0:0:0:
256,96,62663,1,0,0:0:0:0:
224,160,62830,1,8,0:0:0:0:
288,160,62913,1,8,0:0:0:0:
256,160,62997,1,8,0:0:0:0:
288,160,63163,1,8,0:0:0:0:
352,160,63330,1,0,0:0:0:0:
256,192,63497,1,0,0:0:0:0:
416,192,63580,1,8,0:0:0:0:
288,160,63830,1,0,0:0:0:0:
288,160,63997,1,8,0:0:0:0:
352,160,64163,1,8,0:0:0:0:
352,160,64247,1,8,0:0:0:0:
320,160,64497,1,0,0:0:0:0:
352,160,64663,1,12,0:0:0:0:
0,160,65663,1,8,0:0:0:0:
32,160,65747,1,8,0:0:0:0:
64,160,65830,1,8,0:0:0:0:
128,160,65997,1,4,0:0:0:0:
352,128,66663,1,8,0:0:0:0:
256,160,66997,1,0,0:0:0:0:
256,160,67163,1,0,0:0:0:0:
320,160,67330,1,8,0:0:0:0:
352,96,67830,1,0,0:0:0:0:
93,180,67997,1,8,0:0:0:0:
141,161,68163,1,0,0:0:0:0:
195,163,68330,1,8,0:0:0:0:
249,164,68497,1,0,0:0:0:0:
309,166,68663,1,0,0:0:0:0:
211,206,68997,1,8,0:0:0:0:
245,197,69163,1,0,0:0:0:0:
390,166,69330,1,8,0:0:0:0:
225,151,69830,1,0,0:0:0:0:
273,155,69997,1,0,0:0:0:0:
314,145,70163,1,8,0:0:0:0:
186,120,70497,1,0,0:0:0:0:
217,124,70663,1,8,0:0:0:0:
320,164,70997,1,0,0:0:0:0:
236,93,71330,1,0,0:0:0:0:
380,180,71830,1,0,0:0:0:0:
426,204,71997,1,8,0:0:0:0:
398,190,72163,1,0,0:0:0:0:
359,162,72330,1,8,0:0:0:0:
315,139,72497,1,8,0:0:0:0:
359,155,72663,1,0,0:0:0:0:
359,155,72997,1,0,0:0:0:0:
359,155,73163,1,8,0:0:0:0:
359,155,73330,1,0,0:0:0:0:
361,145,73663,1,8,0:0:0:0:
271,82,73997,1,0,0:0:0:0:
330,133,74497,1,8,0:0:0:0:
330,133,74663,1,8,0:0:0:0:
320,128,74830,1,0,0:0:0:0:
259,127,74997,1,0,0:0:0:0:
366,150,75330,1,8,0:0:0:0:
309,147,75497,1,0,0:0:0:0:
309,147,75580,1,0,0:0:0:0:
281,153,75663,1,0,0:0:0:0:
262,150,75830,1,0,0:0:0:0:
309,147,75997,1,8,0:0:0:0:
338,143,76163,1,8,0:0:0:0:
319,138,76247,1,0,0:0:0:0:
373,133,76330,1,8,0:0:0:0:
370,137,76497,1,0,0:0:0:0:
338,134,76663,1,4,0:0:0:0:
167,108,77163,1,0,0:0:0:0:
230,111,77330,1,12,0:0:0:0:
235,298,77830,1,0,0:0:0:0:
238,242,77997,1,0,0:0:0:0:
239,214,78080,1,0,0:0:0:0:
241,186,78163,1,0,0:0:0:0:
294,168,78330,1,8,0:0:0:0:
350,168,78497,1,0,0:0:0:0:
303,137,78663,1,12,0:0:0:0:
149,139,79163,1,0,0:0:0:0:
201,138,79330,1,0,0:0:0:0:
311,119,79663,1,0,0:0:0:0:
311,119,79747,1,0,0:0:0:0:
311,119,79830,1,0,0:0:0:0:
327,172,79997,1,12,0:0:0:0:
347,62,80330,1,0,0:0:0:0:
337,116,80497,1,0,0:0:0:0:
332,143,80580,1,0,0:0:0:0:
332,143,80663,1,0,0:0:0:0:
386,131,80830,1,12,0:0:0:0:
332,143,80997,1,0,0:0:0:0:
332,143,81163,1,0,0:0:0:0:
386,131,81330,1,12,0:0:0:0:
288,160,81497,1,8,0:0:0:0:
274,138,81663,1,0,0:0:0:0:
274,138,81747,1,0,0:0:0:0:
290,160,81830,1,8,0:0:0:0:
317,160,81913,1,8,0:0:0:0:
317,160,81997,1,0,0:0:0:0:
290,160,82330,1,0,0:0:0:0:
290,160,82497,1,0,0:0:0:0:
288,192,82580,1,0,0:0:0:0:
317,153,82663,1,12,0:0:0:0:
288,192,82997,1,0,0:0:0:0:
460,86,83163,1,0,0:0:0:0:
411,114,83330,1,0,0:0:0:0:
387,128,83413,1,0,0:0:0:0:
363,143,83497,1,8,0:0:0:0:
316,173,83663,1,0,0:0:0:0:
371,168,83830,1,0,0:0:0:0:
363,143,83997,1,12,0:0:0:0:
251,130,84330,1,0,0:0:0:0:
223,127,84413,1,0,0:0:0:0:
250,134,84497,1,8,0:0:0:0:
316,173,84663,1,0,0:0:0:0:
85,119,85330,1,8,0:0:0:0:
302,169,85997,1,8,0:0:0:0:
83,120,86663,1,8,0:0:0:0:
192,130,86997,1,0,0:0:0:0:
293,125,87330,1,12,0:0:0:0:
235,167,87663,1,8,0:0:0:0:
286,145,87830,1,0,0:0:0:0:
286,145,87913,1,0,0:0:0:0:
286,145,87997,1,8,0:0:0:0:
307,162,88163,1,8,0:0:0:0:
252,146,88330,1,0,0:0:0:0:
252,146,88413,1,0,0:0:0:0:
268,168,88497,1,8,0:0:0:0:
268,168,88663,1,0,0:0:0:0:
291,217,88830,1,8,0:0:0:0:
293,189,88913,1,0,0:0:0:0:
320,128,89080,1,0,0:0:0:0:
321,182,89163,1,8,0:0:0:0:
319,125,89330,1,8,0:0:0:0:
344,170,89663,1,0,0:0:0:0:
292,163,89830,1,0,0:0:0:0:
265,172,89997,1,8,0:0:0:0:
317,152,90163,1,0,0:0:0:0:
343,143,90247,1,8,0:0:0:0:
288,128,90413,1,0,0:0:0:0:
319,155,90497,1,8,0:0:0:0:
343,143,90663,1,0,0:0:0:0:
343,143,90830,1,8,0:0:0:0:
288,128,90997,1,0,0:0:0:0:
317,152,91163,1,8,0:0:0:0:
319,155,91247,1,8,0:0:0:0:
319,155,91330,1,8,0:0:0:0:
288,128,91497,1,0,0:0:0:0:
288,160,91580,1,8,0:0:0:0:
288,128,91747,1,0,0:0:0:0:
320,192,91830,1,8,0:0:0:0:
352,160,91997,1,0,0:0:0:0:
288,160,92163,1,8,0:0:0:0:
224,160,92247,1,0,0:0:0:0:
224,160,92413,1,8,0:0:0:0:
160,128,92497,1,0,0:0:0:0:
192,128,92663,1,12,0:0:0:0:
288,160,92997,1,8,0:0:0:0:
224,160,93163,1,0,0:0:0:0:
224,160,93247,1,0,0:0:0:0:
224,160,93330,1,8,0:0:0:0:
256,192,93497,1,8,0:0:0:0:
256,224,93663,1,0,0:0:0:0:
288,192,93830,1,8,0:0:0:0:
320,160,93913,1,8,0:0:0:0:
288,192,93997,1,0,0:0:0:0:
288,192,94080,1,0,0:0:0:0:
288,160,94163,1,8,0:0:0:0:
224,160,94330,1,0,0:0:0:0:
224,160,94497,1,8,0:0:0:0:
224,160,94580,1,8,0:0:0:0:
224,160,94663,1,8,0:0:0:0:
288,160,94830,1,8,0:0:0:0:
224,128,94997,1,0,0:0:0:0:
288,192,95080,1,0,0:0:0:0:
192,128,95163,1,8,0:0:0:0:
192,128,95330,1,0,0:0:0:0:
288,160,95663,1,8,0:0:0:0:
320,96,95830,1,0,0:0:0:0:
288,160,95997,1,0,0:0:0:0:
320,160,96080,1,0,0:0:0:0:
288,160,96163,1,8,0:0:0:0:
288,160,96330,1,0,0:0:0:0:
320,128,96497,1,8,0:0:0:0:
320,128,96580,1,8,0:0:0:0:
288,128,96663,1,0,0:0:0:0:
256,96,96997,1,8,0:0:0:0:
288,160,97163,1,0,0:0:0:0:
256,128,97247,1,0,0:0:0:0:
256,128,97330,1,0,0:0:0:0:
256,128,97413,1,0,0:0:0:0:
288,128,97497,1,8,0:0:0:0:
224,160,97663,1,0,0:0:0:0:
224,96,97997,1,12,0:0:0:0:
288,160,98330,1,8,0:0:0:0:
352,160,98497,1,0,0:0:0:0:
320,192,98580,1,0,0:0:0:0:
320,160,98663,1,8,0:0:0:0:
288,192,98830,1,8,0:0:0:0:
320,160,98997,1,0,0:0:0:0:
256,160,99080,1,0,0:0:0:0:
256,160,99163,1,8,0:0:0:0:
320,160,99330,1,0,0:0:0:0:
270,178,99497,1,8,0:0:0:0:
365,180,99580,1,0,0:0:0:0:
288,128,99747,1,0,0:0:0:0:
334,192,99830,1,8,0:0:0:0:
301,192,99997,1,0,0:0:0:0:
357,210,100330,1,0,0:0:0:0:
321,204,100497,1,8,0:0:0:0:
321,204,100580,1,0,0:0:0:0:
321,204,100663,1,8,0:0:0:0:
291,160,100830,1,0,0:0:0:0:
291,160,100913,1,8,0:0:0:0:
320,192,101080,1,0,0:0:0:0:
347,190,101163,1,8,0:0:0:0:
292,209,101330,1,0,0:0:0:0:
320,192,101413,1,0,0:0:0:0:
352,160,101497,1,8,0:0:0:0:
352,160,101663,1,0,0:0:0:0:
384,192,101830,1,8,0:0:0:0:
384,192,101913,1,8,0:0:0:0:
320,192,101997,1,8,0:0:0:0:
384,160,102163,1,0,0:0:0:0:
320,192,102247,1,8,0:0:0:0:
288,128,102413,1,0,0:0:0:0:
352,224,102497,1,8,0:0:0:0:
352,192,102663,1,0,0:0:0:0:
288,224,102830,1,8,0:0:0:0:
320,128,102913,1,0,0:0:0:0:
320,96,103080,1,0,0:0:0:0:
320,128,103163,1,8,0:0:0:0:
352,192,103330,1,12,0:0:0:0:
288,192,103663,1,8,0:0:0:0:
288,160,103830,1,0,0:0:0:0:
288,160,103913,1,0,0:0:0:0:
288,160,103997,1,8,0:0:0:0:
288,160,104163,1,0,0:0:0:0:
352,192,104330,1,8,0:0:0:0:
256,192,104497,1,8,0:0:0:0:
256,192,104580,1,8,0:0:0:0:
352,224,104663,1,0,0:0:0:0:
352,192,104747,1,0,0:0:0:0:
352,224,104830,1,8,0:0:0:0:
288,192,104997,1,0,0:0:0:0:
288,192,105163,1,8,0:0:0:0:
288,192,105247,1,8,0:0:0:0:
288,192,105330,1,8,0:0:0:0:
384,192,105497,1,8,0:0:0:0:
320,160,105663,1,0,0:0:0:0:
288,192,105830,1,8,0:0:0:0:
352,192,105997,1,0,0:0:0:0:
352,192,106330,1,8,0:0:0:0:
320,160,106497,1,0,0:0:0:0:
320,160,106580,1,0,0:0:0:0:
320,160,106663,1,0,0:0:0:0:
384,192,106830,1,8,0:0:0:0:
416,192,106997,1,0,0:0:0:0:
320,192,107330,1,0,0:0:0:0:
320,192,107497,1,0,0:0:0:0:
384,192,107663,1,8,0:0:0:0:
320,160,107830,1,0,0:0:0:0:
320,160,107913,1,0,0:0:0:0:
320,160,107997,1,0,0:0:0:0:
320,160,108163,1,8,0:0:0:0:
352,192,108330,1,0,0:0:0:0:
416,160,108663,1,4,0:0:0:0:
288,160,109330,1,8,0:0:0:0:
288,160,109997,1,8,0:0:0:0:
288,160,110497,1,0,0:0:0:0:
288,160,110663,1,8,0:0:0:0:
288,160,110997,1,0,0:0:0:0:
288,160,111330,1,8,0:0:0:0:
288,160,111997,1,8,0:0:0:0:
288,160,112663,1,8,0:0:0:0:
288,160,112997,1,0,0:0:0:0:
384,160,113330,1,8,0:0:0:0:
384,160,113663,1,0,0:0:0:0:
416,160,113997,1,8,0:0:0:0:
384,160,114663,1,8,0:0:0:0:
384,160,115330,1,8,0:0:0:0:
288,160,115830,1,0,0:0:0:0:
256,128,115997,1,8,0:0:0:0:
288,160,116330,1,0,0:0:0:0:
384,160,116663,1,8,0:0:0:0:
448,160,117330,1,8,0:0:0:0:
288,128,117997,1,8,0:0:0:0:
288,128,118663,1,8,0:0:0:0:
384,160,119330,1,12,0:0:0:0:
288,160,119997,1,8,0:0:0:0:
288,160,120163,1,0,0:0:0:0:
352,192,120330,1,0,0:0:0:0:
352,192,120497,1,0,0:0:0:0:
352,192,120663,1,8,0:0:0:0:
384,160,121330,1,8,0:0:0:0:
384,160,121497,1,8,0:0:0:0:
320,192,121663,1,0,0:0:0:0:
416,192,121830,1,0,0:0:0:0:
416,192,121997,1,8,0:0:0:0:
384,160,122663,1,8,0:0:0:0:
288,160,122830,1,0,0:0:0:0:
384,160,122997,1,0,0:0:0:0:
352,192,123163,1,0,0:0:0:0:
352,192,123330,1,8,0:0:0:0:
352,192,123663,1,8,0:0:0:0:
352,160,123830,1,0,0:0:0:0:
384,160,123997,1,8,0:0:0:0:
384,160,124163,1,0,0:0:0:0:
416,160,124330,1,8,0:0:0:0:
320,160,124663,1,8,0:0:0:0:
320,192,125330,1,8,0:0:0:0:
256,128,125497,1,0,0:0:0:0:
256,128,125663,1,0,0:0:0:0:
352,192,125830,1,0,0:0:0:0:
416,160,125997,1,8,0:0:0:0:
384,160,126497,1,0,0:0:0:0:
288,160,126663,1,8,0:0:0:0:
288,192,126997,1,0,0:0:0:0:
288,160,127330,1,8,0:0:0:0:
192,160,127997,1,8,0:0:0:0:
320,128,128163,1,0,0:0:0:0:
384,160,128330,1,0,0:0:0:0:
384,160,128497,1,0,0:0:0:0:
352,160,128663,1,8,0:0:0:0:
288,192,128830,1,8,0:0:0:0:
320,160,128997,1,8,0:0:0:0:
320,160,129163,1,0,0:0:0:0:
352,192,129330,1,8,0:0:0:0:
384,192,129497,1,8,0:0:0:0:
384,192,129663,1,0,0:0:0:0:
384,192,129830,1,0,0:0:0:0:
352,160,130663,1,12,0:0:0:0:
