osu file format v14

[General]
AudioFilename: audio.ogg
AudioLeadIn: 0
PreviewTime: 44163
Countdown: 0
SampleSet: Normal
StackLeniency: 0.7
Mode: 1
LetterboxInBreaks: 0
WidescreenStoryboard: 1

[Editor]
Bookmarks: 12664,23330,33997,44663,49997,55330,60663,65997,76663,87330,92663,97997,103330,108663,119330
DistanceSpacing: 0.8
BeatDivisor: 4
GridSize: 32
TimelineZoom: 1.299999

[Metadata]
Title:Anhedonia
TitleUnicode:Anhedonia
Artist:Silent Spica
ArtistUnicode:Silent Spica
Creator:Vulkin
Version:Muzukashii
Source:THE BMS OF FIGHTERS 2012 -Ein Neuer Heiliger Krieg-
Tags:a_hisa Spiritual Core BOF2012 Electronic Instrumental Breakcore Artcore FRENZ Zetera
BeatmapID:3386000
BeatmapSetID:681379

[Difficulty]
HPDrainRate:5.5
CircleSize:7
OverallDifficulty:5
ApproachRate:10
SliderMultiplier:1.4
SliderTickRate:1

[Events]
//Background and Video events
0,0,"71487563_p0.jpg",0,0
//Break Periods
//Storyboard Layer 0 (Background)
//Storyboard Layer 1 (Fail)
//Storyboard Layer 2 (Pass)
//Storyboard Layer 3 (Foreground)
//Storyboard Layer 4 (Overlay)
//Storyboard Sound Samples

[TimingPoints]
-9335,666.666666666667,4,1,0,40,1,0
11998,666.666666666667,4,1,0,40,1,8
12623,-100,4,1,0,50,0,0
12664,333.333333333333,4,1,0,50,1,0
23288,-100,4,1,0,55,0,0
33955,-100,4,1,0,60,0,0
41955,-100,4,1,0,50,0,0
43955,-100,4,1,0,65,0,0
44622,-100,4,1,0,70,0,0
44663,-100,4,1,0,70,0,1
65997,-100,4,1,0,70,0,0
66038,-100,4,1,0,60,0,0
76622,-100,4,1,0,65,0,0
84622,-100,4,1,0,50,0,0
86288,-100,4,1,0,55,0,0
86622,-100,4,1,0,60,0,0
86955,-100,4,1,0,65,0,0
87288,-100,4,1,0,70,0,0
87330,-100,4,1,0,70,0,1
108663,-100,4,1,0,70,0,0
108705,-100,4,1,0,60,0,0

[HitObjects]
256,192,12664,5,4,0:0:0:0:
256,192,12997,1,8,0:0:0:0:
256,192,13497,1,0,0:0:0:0:
256,192,13663,1,8,0:0:0:0:
256,192,13830,1,0,0:0:0:0:
256,192,14163,1,0,0:0:0:0:
256,192,14330,1,8,0:0:0:0:
256,192,14497,1,0,0:0:0:0:
256,192,14663,1,0,0:0:0:0:
256,192,14747,1,0,0:0:0:0:
256,192,14830,1,0,0:0:0:0:
256,192,14997,1,8,0:0:0:0:
256,192,15330,1,0,0:0:0:0:
256,192,15663,1,8,0:0:0:0:
256,192,16163,1,0,0:0:0:0:
256,192,16330,1,8,0:0:0:0:
256,192,16497,1,0,0:0:0:0:
256,192,16830,1,0,0:0:0:0:
256,192,16997,1,8,0:0:0:0:
256,192,17163,1,0,0:0:0:0:
256,192,17330,1,0,0:0:0:0:
256,192,17497,1,8,0:0:0:0:
256,192,17580,1,8,0:0:0:0:
256,192,17663,1,8,0:0:0:0:
256,192,17997,1,0,0:0:0:0:
256,192,18330,1,8,0:0:0:0:
256,192,18830,1,0,0:0:0:0:
256,192,18997,1,8,0:0:0:0:
256,192,19163,1,0,0:0:0:0:
256,192,19497,1,0,0:0:0:0:
256,192,19663,1,8,0:0:0:0:
256,192,19830,1,0,0:0:0:0:
256,192,19997,1,0,0:0:0:0:
256,192,20080,1,0,0:0:0:0:
256,192,20163,1,0,0:0:0:0:
256,192,20330,1,8,0:0:0:0:
256,192,20663,1,0,0:0:0:0:
256,192,20997,1,8,0:0:0:0:
256,192,21497,1,0,0:0:0:0:
256,192,21663,1,8,0:0:0:0:
256,192,21830,1,0,0:0:0:0:
256,192,22163,1,0,0:0:0:0:
256,192,22330,1,8,0:0:0:0:
256,192,22497,1,0,0:0:0:0:
256,192,22663,1,0,0:0:0:0:
256,192,22830,1,8,0:0:0:0:
256,192,22913,1,8,0:0:0:0:
256,192,22997,1,8,0:0:0:0:
256,192,23330,1,0,0:0:0:0:
256,192,23663,1,0,0:0:0:0:
256,192,23997,1,8,0:0:0:0:
256,192,24163,1,0,0:0:0:0:
256,192,24497,1,8,0:0:0:0:
256,192,24663,1,0,0:0:0:0:
256,192,24747,1,0,0:0:0:0:
256,192,24830,1,0,0:0:0:0:
256,192,24997,1,0,0:0:0:0:
256,192,25330,1,8,0:0:0:0:
256,192,25830,1,8,0:0:0:0:
256,192,25997,1,0,0:0:0:0:
256,192,26330,1,0,0:0:0:0:
256,192,26663,1,8,0:0:0:0:
256,192,26830,1,0,0:0:0:0:
256,192,27163,1,8,0:0:0:0:
256,192,27330,1,0,0:0:0:0:
256,192,27413,1,0,0:0:0:0:
256,192,27497,1,0,0:0:0:0:
256,192,27663,1,0,0:0:0:0:
256,192,27997,1,8,0:0:0:0:
256,192,28163,1,8,0:0:0:0:
256,192,28330,1,0,0:0:0:0:
256,192,28497,1,8,0:0:0:0:
256,192,28663,1,0,0:0:0:0:
256,192,28830,1,0,0:0:0:0:
256,192,28997,1,8,0:0:0:0:
256,192,29330,1,8,0:0:0:0:
256,192,29497,1,8,0:0:0:0:
256,192,29830,1,8,0:0:0:0:
256,192,29997,1,0,0:0:0:0:
256,192,30080,1,0,0:0:0:0:
256,192,30163,1,0,0:0:0:0:
256,192,30330,1,8,0:0:0:0:
256,192,30497,1,8,0:0:0:0:
256,192,30663,1,0,0:0:0:0:
256,192,30997,1,8,0:0:0:0:
256,192,31163,1,8,0:0:0:0:
256,192,31330,1,0,0:0:0:0:
256,192,31497,1,8,0:0:0:0:
256,192,31663,1,8,0:0:0:0:
256,192,31997,1,8,0:0:0:0:
256,192,32330,1,8,0:0:0:0:
256,192,32497,1,8,0:0:0:0:
256,192,32663,1,0,0:0:0:0:
256,192,32747,1,0,0:0:0:0:
256,192,32830,1,0,0:0:0:0:
256,192,32997,1,8,0:0:0:0:
256,192,33163,1,0,0:0:0:0:
256,192,33330,1,0,0:0:0:0:
256,192,33663,1,8,0:0:0:0:
256,192,33747,1,8,0:0:0:0:
256,192,33830,1,8,0:0:0:0:
256,192,33997,1,12,0:0:0:0:
256,192,34330,1,8,0:0:0:0:
256,192,34497,1,0,0:0:0:0:
256,192,34997,1,8,0:0:0:0:
256,192,35330,1,0,0:0:0:0:
256,192,35413,1,0,0:0:0:0:
256,192,35497,1,0,0:0:0:0:
256,192,35663,1,0,0:0:0:0:
256,192,35997,1,8,0:0:0:0:
256,192,36330,1,0,0:0:0:0:
256,192,36497,1,0,0:0:0:0:
256,192,36663,1,8,0:0:0:0:
256,192,36997,1,0,0:0:0:0:
256,192,37163,1,0,0:0:0:0:
256,192,37497,1,0,0:0:0:0:
256,192,37663,1,8,0:0:0:0:
256,192,37997,1,0,0:0:0:0:
256,192,38080,1,0,0:0:0:0:
256,192,38163,1,0,0:0:0:0:
256,192,38330,1,8,0:0:0:0:
256,192,38497,1,0,0:0:0:0:
256,192,38663,1,8,0:0:0:0:
256,192,38747,1,8,0:0:0:0:
256,192,38830,1,8,0:0:0:0:
256,192,38997,1,8,0:0:0:0:
256,192,39330,1,8,0:0:0:0:
256,192,39663,1,8,0:0:0:0:
256,192,39830,1,0,0:0:0:0:
256,192,40330,1,8,0:0:0:0:
256,192,40663,1,0,0:0:0:0:
256,192,40747,1,0,0:0:0:0:
256,192,40830,1,0,0:0:0:0:
256,192,40997,1,0,0:0:0:0:
256,192,41330,1,8,0:0:0:0:
256,192,41497,1,0,0:0:0:0:
256,192,41663,1,0,0:0:0:0:
256,192,41997,1,8,0:0:0:0:
256,192,42497,1,0,0:0:0:0:
256,192,42997,1,8,0:0:0:0:
256,192,43663,1,0,0:0:0:0:
256,192,43747,1,0,0:0:0:0:
256,192,43830,1,0,0:0:0:0:
256,192,43997,1,0,0:0:0:0:
256,192,44163,1,8,0:0:0:0:
256,192,44330,1,8,0:0:0:0:
256,192,44663,1,4,0:0:0:0:
256,192,44997,1,0,0:0:0:0:
256,192,45163,1,8,0:0:0:0:
256,192,45497,1,0,0:0:0:0:
256,192,45663,1,8,0:0:0:0:
256,192,45830,1,0,0:0:0:0:
256,192,45997,1,8,0:0:0:0:
256,192,46080,1,8,0:0:0:0:
256,192,46163,1,8,0:0:0:0:
256,192,46330,1,0,0:0:0:0:
256,192,46497,1,0,0:0:0:0:
256,192,46830,1,0,0:0:0:0:
256,192,46997,1,8,0:0:0:0:
256,192,47330,1,0,0:0:0:0:
256,192,47663,1,8,0:0:0:0:
256,192,47830,1,0,0:0:0:0:
256,192,47913,1,0,0:0:0:0:
256,192,47997,1,0,0:0:0:0:
256,192,48163,1,8,0:0:0:0:
256,192,48330,1,0,0:0:0:0:
256,192,48497,1,8,0:0:0:0:
256,192,48663,1,8,0:0:0:0:
256,192,48997,1,8,0:0:0:0:
256,192,49163,1,0,0:0:0:0:
256,192,49663,1,0,0:0:0:0:
256,192,49830,1,8,0:0:0:0:
256,192,49997,1,4,0:0:0:0:
256,192,50247,1,8,0:0:0:0:
256,192,50497,1,0,0:0:0:0:
256,192,50663,1,8,0:0:0:0:
256,192,50997,1,0,0:0:0:0:
256,192,51163,1,8,0:0:0:0:
256,192,51247,1,8,0:0:0:0:
256,192,51330,1,8,0:0:0:0:
256,192,51497,1,8,0:0:0:0:
256,192,51663,1,0,0:0:0:0:
256,192,51830,1,0,0:0:0:0:
256,192,51997,1,8,0:0:0:0:
256,192,52247,1,0,0:0:0:0:
256,192,52497,1,8,0:0:0:0:
256,192,52663,1,0,0:0:0:0:
256,192,52997,1,0,0:0:0:0:
256,192,53163,1,0,0:0:0:0:
256,192,53330,1,8,0:0:0:0:
256,192,53497,1,8,0:0:0:0:
256,192,53663,1,0,0:0:0:0:
256,192,53830,1,8,0:0:0:0:
256,192,53997,1,0,0:0:0:0:
256,192,54497,1,0,0:0:0:0:
256,192,54663,1,8,0:0:0:0:
256,192,54913,1,8,0:0:0:0:
256,192,55163,1,0,0:0:0:0:
256,192,55330,1,12,0:0:0:0:
256,192,55830,1,8,0:0:0:0:
256,192,55997,1,8,0:0:0:0:
256,192,56247,1,0,0:0:0:0:
256,192,56497,1,8,0:0:0:0:
256,192,56663,1,0,0:0:0:0:
256,192,56913,1,8,0:0:0:0:
256,192,57163,1,0,0:0:0:0:
256,192,57330,1,8,0:0:0:0:
256,192,57497,1,0,0:0:0:0:
256,192,57580,1,0,0:0:0:0:
256,192,57663,1,0,0:0:0:0:
256,192,57830,1,8,0:0:0:0:
256,192,57997,1,0,0:0:0:0:
256,192,58497,1,0,0:0:0:0:
256,192,58663,1,8,0:0:0:0:
256,192,58913,1,8,0:0:0:0:
256,192,59163,1,0,0:0:0:0:
256,192,59330,1,8,0:0:0:0:
256,192,59497,1,0,0:0:0:0:
256,192,59580,1,0,0:0:0:0:
256,192,59663,1,0,0:0:0:0:
256,192,59830,1,8,0:0:0:0:
256,192,59997,1,0,0:0:0:0:
256,192,60330,1,8,0:0:0:0:
256,192,60663,1,4,0:0:0:0:
256,192,60997,1,0,0:0:0:0:
256,192,61163,1,8,0:0:0:0:
256,192,61247,1,8,0:0:0:0:
256,192,61330,1,8,0:0:0:0:
256,192,61580,1,8,0:0:0:0:
256,192,61830,1,0,0:0:0:0:
256,192,61997,1,8,0:0:0:0:
256,192,62080,1,8,0:0:0:0:
256,192,62163,1,8,0:0:0:0:
256,192,62330,1,0,0:0:0:0:
256,192,62497,1,8,0:0:0:0:
256,192,62663,1,0,0:0:0:0:
256,192,62830,1,8,0:0:0:0:
256,192,62997,1,8,0:0:0:0:
256,192,63330,1,0,0:0:0:0:
256,192,63580,1,8,0:0:0:0:
256,192,63830,1,0,0:0:0:0:
256,192,63997,1,8,0:0:0:0:
256,192,64247,1,0,0:0:0:0:
256,192,64497,1,0,0:0:0:0:
256,192,64663,1,12,0:0:0:0:
256,192,65663,1,8,0:0:0:0:
256,192,65747,1,8,0:0:0:0:
256,192,65830,1,8,0:0:0:0:
256,192,65997,1,4,0:0:0:0:
256,192,66497,1,0,0:0:0:0:
256,192,66663,1,8,0:0:0:0:
256,192,67163,1,0,0:0:0:0:
256,192,67330,1,0,0:0:0:0:
256,192,67663,1,0,0:0:0:0:
256,192,67997,1,8,0:0:0:0:
256,192,68663,1,0,0:0:0:0:
256,192,69163,1,0,0:0:0:0:
256,192,69330,1,8,0:0:0:0:
256,192,69830,1,0,0:0:0:0:
256,192,69997,1,0,0:0:0:0:
256,192,70163,1,8,0:0:0:0:
256,192,70330,1,0,0:0:0:0:
256,192,70663,1,8,0:0:0:0:
256,192,70997,1,0,0:0:0:0:
256,192,71330,1,0,0:0:0:0:
256,192,71830,1,0,0:0:0:0:
256,192,71997,1,8,0:0:0:0:
256,192,72497,1,0,0:0:0:0:
256,192,72663,1,0,0:0:0:0:
256,192,72997,1,0,0:0:0:0:
256,192,73330,1,8,0:0:0:0:
256,192,73997,1,0,0:0:0:0:
256,192,74497,1,0,0:0:0:0:
256,192,74663,1,8,0:0:0:0:
256,192,75163,1,0,0:0:0:0:
256,192,75330,1,8,0:0:0:0:
256,192,75497,1,0,0:0:0:0:
256,192,75580,1,0,0:0:0:0:
256,192,75663,1,0,0:0:0:0:
256,192,75830,1,0,0:0:0:0:
256,192,75997,1,8,0:0:0:0:
256,192,76330,1,8,0:0:0:0:
256,192,76497,1,8,0:0:0:0:
256,192,76663,1,4,0:0:0:0:
256,192,77163,1,0,0:0:0:0:
256,192,77330,1,8,0:0:0:0:
256,192,77830,1,0,0:0:0:0:
256,192,77997,1,8,0:0:0:0:
256,192,78080,1,8,0:0:0:0:
256,192,78163,1,8,0:0:0:0:
256,192,78330,1,0,0:0:0:0:
256,192,78663,1,8,0:0:0:0:
256,192,79163,1,8,0:0:0:0:
256,192,79330,1,0,0:0:0:0:
256,192,79663,1,0,0:0:0:0:
256,192,79747,1,0,0:0:0:0:
256,192,79830,1,0,0:0:0:0:
256,192,79997,1,8,0:0:0:0:
256,192,80330,1,0,0:0:0:0:
256,192,80497,1,0,0:0:0:0:
256,192,80663,1,0,0:0:0:0:
256,192,80830,1,8,0:0:0:0:
256,192,80997,1,0,0:0:0:0:
256,192,81330,1,8,0:0:0:0:
256,192,81413,1,8,0:0:0:0:
256,192,81497,1,8,0:0:0:0:
256,192,81663,1,8,0:0:0:0:
256,192,81830,1,8,0:0:0:0:
256,192,81997,1,0,0:0:0:0:
256,192,82497,1,0,0:0:0:0:
256,192,82663,1,8,0:0:0:0:
256,192,83163,1,0,0:0:0:0:
256,192,83330,1,8,0:0:0:0:
256,192,83413,1,8,0:0:0:0:
256,192,83497,1,8,0:0:0:0:
256,192,83663,1,0,0:0:0:0:
256,192,83997,1,8,0:0:0:0:
256,192,84330,1,0,0:0:0:0:
256,192,84413,1,0,0:0:0:0:
256,192,84497,1,0,0:0:0:0:
256,192,84663,1,8,0:0:0:0:
256,192,85330,1,8,0:0:0:0:
256,192,85997,1,8,0:0:0:0:
256,192,86330,1,0,0:0:0:0:
256,192,86663,1,8,0:0:0:0:
256,192,86997,1,12,0:0:0:0:
256,192,87330,1,4,0:0:0:0:
256,192,87830,1,0,0:0:0:0:
256,192,87997,1,8,0:0:0:0:
256,192,88163,1,8,0:0:0:0:
256,192,88330,1,0,0:0:0:0:
256,192,88663,1,8,0:0:0:0:
256,192,88913,1,0,0:0:0:0:
256,192,89163,1,8,0:0:0:0:
256,192,89330,1,8,0:0:0:0:
256,192,89663,1,0,0:0:0:0:
256,192,89830,1,8,0:0:0:0:
256,192,89997,1,8,0:0:0:0:
256,192,90247,1,0,0:0:0:0:
256,192,90497,1,8,0:0:0:0:
256,192,90663,1,0,0:0:0:0:
256,192,90997,1,0,0:0:0:0:
256,192,91163,1,8,0:0:0:0:
256,192,91247,1,8,0:0:0:0:
256,192,91330,1,8,0:0:0:0:
256,192,91580,1,0,0:0:0:0:
256,192,91830,1,8,0:0:0:0:
256,192,91997,1,0,0:0:0:0:
256,192,92247,1,8,0:0:0:0:
256,192,92497,1,0,0:0:0:0:
256,192,92663,1,4,0:0:0:0:
256,192,93330,1,8,0:0:0:0:
256,192,93497,1,0,0:0:0:0:
256,192,93663,1,8,0:0:0:0:
256,192,93997,1,0,0:0:0:0:
256,192,94163,1,8,0:0:0:0:
256,192,94330,1,0,0:0:0:0:
256,192,94497,1,0,0:0:0:0:
256,192,94830,1,8,0:0:0:0:
256,192,94997,1,0,0:0:0:0:
256,192,95163,1,8,0:0:0:0:
256,192,95330,1,0,0:0:0:0:
256,192,95663,1,8,0:0:0:0:
256,192,95830,1,0,0:0:0:0:
256,192,95913,1,0,0:0:0:0:
256,192,95997,1,0,0:0:0:0:
256,192,96163,1,8,0:0:0:0:
256,192,96497,1,0,0:0:0:0:
256,192,96663,1,0,0:0:0:0:
256,192,96997,1,8,0:0:0:0:
256,192,97163,1,0,0:0:0:0:
256,192,97330,1,0,0:0:0:0:
256,192,97497,1,8,0:0:0:0:
256,192,97663,1,0,0:0:0:0:
256,192,97997,1,12,0:0:0:0:
256,192,98497,1,0,0:0:0:0:
256,192,98663,1,8,0:0:0:0:
256,192,98830,1,8,0:0:0:0:
256,192,98997,1,0,0:0:0:0:
256,192,99330,1,8,0:0:0:0:
256,192,99580,1,0,0:0:0:0:
256,192,99830,1,8,0:0:0:0:
256,192,99997,1,8,0:0:0:0:
256,192,100330,1,0,0:0:0:0:
256,192,100497,1,8,0:0:0:0:
256,192,100580,1,8,0:0:0:0:
256,192,100663,1,8,0:0:0:0:
256,192,100913,1,8,0:0:0:0:
256,192,101163,1,0,0:0:0:0:
256,192,101330,1,0,0:0:0:0:
256,192,101497,1,8,0:0:0:0:
256,192,101663,1,0,0:0:0:0:
256,192,101830,1,8,0:0:0:0:
256,192,101913,1,8,0:0:0:0:
256,192,101997,1,8,0:0:0:0:
256,192,102247,1,8,0:0:0:0:
256,192,102497,1,0,0:0:0:0:
256,192,102663,1,0,0:0:0:0:
256,192,102913,1,8,0:0:0:0:
256,192,103163,1,0,0:0:0:0:
256,192,103330,1,12,0:0:0:0:
256,192,103830,1,0,0:0:0:0:
256,192,103997,1,8,0:0:0:0:
256,192,104163,1,0,0:0:0:0:
256,192,104330,1,8,0:0:0:0:
256,192,104663,1,0,0:0:0:0:
256,192,104830,1,8,0:0:0:0:
256,192,104997,1,8,0:0:0:0:
256,192,105163,1,0,0:0:0:0:
256,192,105497,1,0,0:0:0:0:
256,192,105663,1,0,0:0:0:0:
256,192,105830,1,8,0:0:0:0:
256,192,105997,1,0,0:0:0:0:
256,192,106330,1,8,0:0:0:0:
256,192,106497,1,0,0:0:0:0:
256,192,106580,1,0,0:0:0:0:
256,192,106663,1,0,0:0:0:0:
256,192,106830,1,8,0:0:0:0:
256,192,107163,1,0,0:0:0:0:
256,192,107330,1,0,0:0:0:0:
256,192,107663,1,8,0:0:0:0:
256,192,107830,1,0,0:0:0:0:
256,192,107997,1,0,0:0:0:0:
256,192,108163,1,8,0:0:0:0:
256,192,108330,1,0,0:0:0:0:
256,192,108663,1,4,0:0:0:0:
256,192,109997,1,8,0:0:0:0:
256,192,110497,1,8,0:0:0:0:
256,192,110997,1,8,0:0:0:0:
256,192,111330,1,0,0:0:0:0:
256,192,112663,1,0,0:0:0:0:
256,192,112997,1,0,0:0:0:0:
256,192,113330,1,8,0:0:0:0:
256,192,113663,1,0,0:0:0:0:
256,192,113997,1,8,0:0:0:0:
256,192,115330,1,0,0:0:0:0:
256,192,115830,1,8,0:0:0:0:
256,192,116330,1,0,0:0:0:0:
256,192,116663,1,8,0:0:0:0:
256,192,118663,1,0,0:0:0:0:
256,192,119330,1,12,0:0:0:0:
256,192,119997,1,0,0:0:0:0:
256,192,120163,1,0,0:0:0:0:
256,192,120330,1,8,0:0:0:0:
256,192,120497,1,0,0:0:0:0:
256,192,120663,1,8,0:0:0:0:
256,192,121330,1,0,0:0:0:0:
256,192,121497,1,0,0:0:0:0:
256,192,121663,1,8,0:0:0:0:
256,192,121830,1,8,0:0:0:0:
256,192,121997,1,0,0:0:0:0:
256,192,122663,1,8,0:0:0:0:
256,192,122830,1,0,0:0:0:0:
256,192,122997,1,0,0:0:0:0:
256,192,123163,1,8,0:0:0:0:
256,192,123330,1,8,0:0:0:0:
256,192,123663,1,0,0:0:0:0:
256,192,123997,1,8,0:0:0:0:
256,192,124330,1,0,0:0:0:0:
256,192,124663,1,8,0:0:0:0:
256,192,125330,1,0,0:0:0:0:
256,192,125663,1,0,0:0:0:0:
256,192,125830,1,0,0:0:0:0:
256,192,125997,1,8,0:0:0:0:
256,192,126497,1,8,0:0:0:0:
256,192,126997,1,8,0:0:0:0:
256,192,127330,1,0,0:0:0:0:
256,192,127997,1,0,0:0:0:0:
256,192,128330,1,8,0:0:0:0:
256,192,128497,1,8,0:0:0:0:
256,192,128663,1,8,0:0:0:0:
256,192,128997,1,0,0:0:0:0:
256,192,129330,1,8,0:0:0:0:
256,192,129663,1,0,0:0:0:0:
256,192,129830,1,0,0:0:0:0:
256,192,130663,1,8,0:0:0:0:
