osu file format v14

[General]
AudioFilename: audio.ogg
AudioLeadIn: 0
PreviewTime: 44163
Countdown: 0
SampleSet: Normal
StackLeniency: 0.7
Mode: 1
LetterboxInBreaks: 0
WidescreenStoryboard: 1

[Editor]
Bookmarks: 12664,23330,33997,44663,49997,55330,60663,65997,76663,87330,92663,97997,103330,108663,119330
DistanceSpacing: 0.8
BeatDivisor: 4
GridSize: 32
TimelineZoom: 1.299999

[Metadata]
Title:Anhedonia
TitleUnicode:Anhedonia
Artist:Silent Spica
ArtistUnicode:Silent Spica
Creator:Vulkin
Version:Kantan
Source:THE BMS OF FIGHTERS 2012 -Ein Neuer Heiliger Krieg-
Tags:a_hisa Spiritual Core BOF2012 Electronic Instrumental Breakcore Artcore FRENZ Zetera
BeatmapID:3385999
BeatmapSetID:681379

[Difficulty]
HPDrainRate:7
CircleSize:7
OverallDifficulty:3
ApproachRate:10
SliderMultiplier:1.4
SliderTickRate:1

[Events]
//Background and Video events
0,0,"71487563_p0.jpg",0,0
//Break Periods
//Storyboard Layer 0 (Background)
//Storyboard Layer 1 (Fail)
//Storyboard Layer 2 (Pass)
//Storyboard Layer 3 (Foreground)
//Storyboard Layer 4 (Overlay)
//Storyboard Sound Samples

[TimingPoints]
-9335,666.666666666667,4,1,0,40,1,0
11998,666.666666666667,4,1,0,40,1,8
12623,-100,4,1,0,50,0,0
12664,333.333333333333,4,1,0,50,1,0
23288,-100,4,1,0,55,0,0
33955,-100,4,1,0,60,0,0
41955,-100,4,1,0,50,0,0
43955,-100,4,1,0,65,0,0
44622,-100,4,1,0,70,0,0
44663,-100,4,1,0,70,0,1
65997,-100,4,1,0,70,0,0
66038,-100,4,1,0,60,0,0
76622,-100,4,1,0,65,0,0
84622,-100,4,1,0,50,0,0
86288,-100,4,1,0,55,0,0
86622,-100,4,1,0,60,0,0
86955,-100,4,1,0,65,0,0
87288,-100,4,1,0,70,0,0
87330,-100,4,1,0,70,0,1
108663,-100,4,1,0,70,0,0
108705,-100,4,1,0,60,0,0

[HitObjects]
256,192,12664,5,4,0:0:0:0:
256,192,13997,5,0,0:0:0:0:
256,192,14330,5,8,0:0:0:0:
256,192,14663,5,0,0:0:0:0:
256,192,15330,5,0,0:0:0:0:
256,192,16663,5,0,0:0:0:0:
256,192,16997,5,0,0:0:0:0:
256,192,17330,5,8,0:0:0:0:
256,192,17997,5,0,0:0:0:0:
256,192,19330,5,0,0:0:0:0:
256,192,19663,5,8,0:0:0:0:
256,192,19997,5,0,0:0:0:0:
256,192,20663,5,0,0:0:0:0:
256,192,21997,5,0,0:0:0:0:
256,192,22330,5,0,0:0:0:0:
256,192,22663,5,8,0:0:0:0:
256,192,23330,5,0,0:0:0:0:
256,192,24330,5,8,0:0:0:0:
256,192,24663,5,0,0:0:0:0:
256,192,24997,5,0,0:0:0:0:
256,192,25330,5,8,0:0:0:0:
256,192,25997,5,0,0:0:0:0:
256,192,26663,5,8,0:0:0:0:
256,192,27330,5,0,0:0:0:0:
256,192,27663,5,0,0:0:0:0:
256,192,27997,5,8,0:0:0:0:
256,192,28330,5,8,0:0:0:0:
256,192,28663,5,0,0:0:0:0:
256,192,29663,5,8,0:0:0:0:
256,192,29997,5,0,0:0:0:0:
256,192,30330,5,8,0:0:0:0:
256,192,30663,5,8,0:0:0:0:
256,192,31330,5,0,0:0:0:0:
256,192,31997,5,8,0:0:0:0:
256,192,32663,5,0,0:0:0:0:
256,192,32997,5,0,0:0:0:0:
256,192,33330,5,8,0:0:0:0:
256,192,33663,5,0,0:0:0:0:
256,192,33997,5,12,0:0:0:0:
256,192,34497,5,0,0:0:0:0:
256,192,34997,5,8,0:0:0:0:
256,192,35997,5,0,0:0:0:0:
256,192,36663,5,8,0:0:0:0:
256,192,37163,5,8,0:0:0:0:
256,192,37663,5,8,0:0:0:0:
256,192,38663,5,0,0:0:0:0:
256,192,38997,5,0,0:0:0:0:
256,192,39330,5,8,0:0:0:0:
256,192,39830,5,0,0:0:0:0:
256,192,40330,5,8,0:0:0:0:
256,192,41330,5,0,0:0:0:0:
256,192,41997,5,8,0:0:0:0:
256,192,42497,5,0,0:0:0:0:
256,192,42997,5,8,0:0:0:0:
256,192,43997,5,8,0:0:0:0:
256,192,44663,5,4,0:0:0:0:
256,192,45663,5,8,0:0:0:0:
256,192,45997,5,0,0:0:0:0:
256,192,46663,5,8,0:0:0:0:
256,192,47330,5,0,0:0:0:0:
256,192,47997,5,0,0:0:0:0:
256,192,48330,5,0,0:0:0:0:
256,192,48663,5,8,0:0:0:0:
256,192,49330,5,8,0:0:0:0:
256,192,49997,5,4,0:0:0:0:
256,192,50997,5,0,0:0:0:0:
256,192,51330,5,8,0:0:0:0:
256,192,51997,5,8,0:0:0:0:
256,192,52663,5,0,0:0:0:0:
256,192,53330,5,8,0:0:0:0:
256,192,53663,5,8,0:0:0:0:
256,192,53997,5,0,0:0:0:0:
256,192,54663,5,0,0:0:0:0:
256,192,55330,5,12,0:0:0:0:
256,192,56330,5,0,0:0:0:0:
256,192,56663,5,0,0:0:0:0:
256,192,57330,5,8,0:0:0:0:
256,192,57997,5,0,0:0:0:0:
256,192,58663,5,8,0:0:0:0:
256,192,58997,5,0,0:0:0:0:
256,192,59330,5,8,0:0:0:0:
256,192,59997,5,0,0:0:0:0:
256,192,60663,5,4,0:0:0:0:
256,192,61663,5,0,0:0:0:0:
256,192,61997,5,8,0:0:0:0:
256,192,62663,5,0,0:0:0:0:
256,192,62997,5,8,0:0:0:0:
256,192,63330,5,0,0:0:0:0:
256,192,63997,5,8,0:0:0:0:
256,192,64330,5,0,0:0:0:0:
256,192,64663,5,12,0:0:0:0:
256,192,65663,5,8,0:0:0:0:
256,192,65997,5,4,0:0:0:0:
256,192,66663,5,8,0:0:0:0:
256,192,67330,5,0,0:0:0:0:
256,192,67997,5,8,0:0:0:0:
256,192,68663,5,0,0:0:0:0:
256,192,69997,5,0,0:0:0:0:
256,192,71330,5,0,0:0:0:0:
256,192,72663,5,0,0:0:0:0:
256,192,73330,5,8,0:0:0:0:
256,192,73997,5,0,0:0:0:0:
256,192,75330,5,8,0:0:0:0:
256,192,75663,5,0,0:0:0:0:
256,192,75997,5,8,0:0:0:0:
256,192,76663,5,4,0:0:0:0:
256,192,77997,5,0,0:0:0:0:
256,192,78330,5,0,0:0:0:0:
256,192,78663,5,8,0:0:0:0:
256,192,79330,5,0,0:0:0:0:
256,192,79997,5,8,0:0:0:0:
256,192,80330,5,8,0:0:0:0:
256,192,80663,5,0,0:0:0:0:
256,192,81330,5,8,0:0:0:0:
256,192,81997,5,0,0:0:0:0:
256,192,82997,5,0,0:0:0:0:
256,192,83330,5,0,0:0:0:0:
256,192,83997,5,0,0:0:0:0:
256,192,84663,5,8,0:0:0:0:
256,192,85997,5,8,0:0:0:0:
256,192,86663,5,8,0:0:0:0:
256,192,87330,5,4,0:0:0:0:
256,192,87997,5,8,0:0:0:0:
256,192,88330,5,8,0:0:0:0:
256,192,88663,5,0,0:0:0:0:
256,192,89330,5,8,0:0:0:0:
256,192,89997,5,8,0:0:0:0:
256,192,90330,5,8,0:0:0:0:
256,192,90663,5,0,0:0:0:0:
256,192,91330,5,8,0:0:0:0:
256,192,91997,5,0,0:0:0:0:
256,192,92330,5,8,0:0:0:0:
256,192,92663,5,4,0:0:0:0:
256,192,93997,5,8,0:0:0:0:
256,192,94663,5,0,0:0:0:0:
256,192,94997,5,0,0:0:0:0:
256,192,95330,5,8,0:0:0:0:
256,192,95997,5,0,0:0:0:0:
256,192,96663,5,8,0:0:0:0:
256,192,96997,5,8,0:0:0:0:
256,192,97330,5,0,0:0:0:0:
256,192,97997,5,12,0:0:0:0:
256,192,98663,5,8,0:0:0:0:
256,192,98997,5,0,0:0:0:0:
256,192,99330,5,8,0:0:0:0:
256,192,99997,5,0,0:0:0:0:
256,192,100663,5,8,0:0:0:0:
256,192,100997,5,8,0:0:0:0:
256,192,101330,5,0,0:0:0:0:
256,192,101997,5,8,0:0:0:0:
256,192,102663,5,0,0:0:0:0:
256,192,102997,5,0,0:0:0:0:
256,192,103330,5,12,0:0:0:0:
256,192,104663,5,8,0:0:0:0:
256,192,104997,5,8,0:0:0:0:
256,192,105330,5,0,0:0:0:0:
256,192,105997,5,0,0:0:0:0:
256,192,106663,5,8,0:0:0:0:
256,192,107330,5,0,0:0:0:0:
256,192,107663,5,0,0:0:0:0:
256,192,107997,5,8,0:0:0:0:
256,192,108663,5,4,0:0:0:0:
256,192,109997,5,8,0:0:0:0:
256,192,111330,5,0,0:0:0:0:
256,192,112663,5,0,0:0:0:0:
256,192,113330,5,8,0:0:0:0:
256,192,113997,5,8,0:0:0:0:
256,192,115330,5,0,0:0:0:0:
256,192,116663,5,8,0:0:0:0:
256,192,118663,5,0,0:0:0:0:
256,192,119330,5,12,0:0:0:0:
256,192,119997,5,0,0:0:0:0:
256,192,120663,5,8,0:0:0:0:
256,192,121997,5,0,0:0:0:0:
256,192,122663,5,0,0:0:0:0:
256,192,123330,5,8,0:0:0:0:
256,192,123997,5,8,0:0:0:0:
256,192,124663,5,8,0:0:0:0:
256,192,125997,5,8,0:0:0:0:
256,192,126663,5,8,0:0:0:0:
256,192,127330,5,0,0:0:0:0:
256,192,128663,5,8,0:0:0:0:
256,192,129330,5,0,0:0:0:0:
256,192,130663,5,8,0:0:0:0:
