osu file format v14

[General]
AudioFilename: Anhedonia.mp3
AudioLeadIn: 0
PreviewTime: 44375
Countdown: 0
SampleSet: Soft
StackLeniency: 0.7
Mode: 3
LetterboxInBreaks: 0
SpecialStyle: 0
WidescreenStoryboard: 0

[Editor]
DistanceSpacing: 0.8
BeatDivisor: 4
GridSize: 32
TimelineZoom: 2.4

[Metadata]
Title:Anhedonia
TitleUnicode:Ανηεδονια
Artist:Silent Spica
ArtistUnicode:Silent Spica
Creator:Lieselotte
Version:Lv.25
Source:BMS
Tags:a_hisa bof2013 of fighters
BeatmapID:1069799
BeatmapSetID:502701

[Difficulty]
HPDrainRate:8
CircleSize:7
OverallDifficulty:8
ApproachRate:5
SliderMultiplier:1.4
SliderTickRate:1

[Events]
//Background and Video events
0,0,"BG.jpg",0,0
//Break Periods
//Storyboard Layer 0 (Background)
//Storyboard Layer 1 (Fail)
//Storyboard Layer 2 (Pass)
//Storyboard Layer 3 (Foreground)
//Storyboard Layer 4 (Overlay)
//Storyboard Sound Samples

[TimingPoints]
1559,666.666666666667,4,2,0,30,1,0
6913,666.666666666667,4,2,0,30,1,0
10913,-128.205128205128,4,2,0,30,0,0
11579,-149.253731343284,4,2,0,30,0,0
11877,333.333333333333,4,2,0,30,1,0
12210,-178.571428571429,4,2,0,30,0,0
12876,333.333333333333,4,2,0,30,1,0
108875,-133.333333333333,4,2,0,30,0,0
119542,-200,4,2,0,30,0,0
128875,-266.666666666667,4,2,0,30,0,0
130209,-322.58064516129,4,2,0,30,0,0

[Colours]
Combo1 : 18,124,255
Combo2 : 0,202,0

[HitObjects]
256,192,1559,128,0,2892:0:0:0:0:
475,192,1559,128,0,2892:0:0:0:0:
402,192,2892,128,0,4225:0:0:0:0:
182,192,2892,128,0,4225:0:0:0:0:
36,192,3559,128,0,4225:0:0:0:0:
329,192,4225,128,0,5559:0:0:0:0:
109,192,4225,128,0,5559:0:0:0:0:
256,192,5559,128,0,6225:0:0:0:0:
36,192,5559,128,0,6892:0:0:0:0:
182,192,6225,128,0,6892:0:0:0:0:
256,192,6892,128,0,7579:0:0:0:0:
109,192,6892,128,0,8246:0:0:0:0:
329,192,7579,128,0,8246:0:0:0:0:
402,192,8246,128,0,8913:0:0:0:0:
182,192,8246,128,0,9579:0:0:0:0:
475,192,8913,128,0,9579:0:0:0:0:
329,192,9579,128,0,10579:0:0:0:0:
36,192,9579,128,0,12876:0:0:0:0:
182,192,10579,128,0,12876:0:0:0:0:
329,192,10913,128,0,12876:0:0:0:0:
475,192,11579,128,0,12876:0:0:0:0:
109,192,11877,128,0,12876:0:0:0:0:
256,192,12876,128,0,13126:0:0:0:0:
256,192,13209,1,0,0:0:0:0:
182,192,13709,128,0,13959:0:0:0:0:
182,192,14042,128,0,14292:0:0:0:0:
329,192,14375,128,0,14625:0:0:0:0:
329,192,14709,1,0,0:0:0:0:
182,192,14875,1,0,0:0:0:0:
256,192,14959,1,0,0:0:0:0:
329,192,15042,1,0,0:0:0:0:
329,192,15209,128,0,15459:0:0:0:0:
329,192,15542,128,0,15792:0:0:0:0:
329,192,15875,1,0,0:0:0:0:
182,192,16375,128,0,16625:0:0:0:0:
182,192,16709,128,0,16959:0:0:0:0:
329,192,17042,128,0,17292:0:0:0:0:
329,192,17375,1,0,0:0:0:0:
182,192,17542,1,0,0:0:0:0:
256,192,17625,1,0,0:0:0:0:
329,192,17709,1,0,0:0:0:0:
182,192,17792,1,0,0:0:0:0:
329,192,17875,128,0,18125:0:0:0:0:
329,192,18209,128,0,18459:0:0:0:0:
329,192,18542,1,0,0:0:0:0:
182,192,19042,128,0,19292:0:0:0:0:
182,192,19375,128,0,19625:0:0:0:0:
329,192,19709,128,0,19959:0:0:0:0:
329,192,20042,1,0,0:0:0:0:
182,192,20209,1,0,0:0:0:0:
256,192,20292,1,0,0:0:0:0:
329,192,20375,1,0,0:0:0:0:
329,192,20542,128,0,20792:0:0:0:0:
329,192,20875,128,0,21125:0:0:0:0:
329,192,21209,1,0,0:0:0:0:
182,192,21709,128,0,21959:0:0:0:0:
182,192,22042,128,0,22292:0:0:0:0:
329,192,22375,128,0,22625:0:0:0:0:
329,192,22709,1,0,0:0:0:0:
329,192,22875,1,0,0:0:0:0:
182,192,22959,1,0,0:0:0:0:
329,192,23042,1,0,0:0:0:0:
182,192,23125,1,0,0:0:0:0:
329,192,23209,128,0,23542:0:0:0:0:
36,192,23542,128,0,23709:0:0:0:0:
109,192,23709,128,0,23875:0:0:0:0:
182,192,23875,128,0,24042:0:0:0:0:
402,192,23875,1,0,0:0:0:0:
256,192,24042,128,0,24209:0:0:0:0:
475,192,24209,128,0,24375:0:0:0:0:
329,192,24375,128,0,24542:0:0:0:0:
402,192,24542,128,0,24709:0:0:0:0:
109,192,24542,1,0,0:0:0:0:
475,192,24709,128,0,24875:0:0:0:0:
36,192,24875,128,0,25042:0:0:0:0:
109,192,25042,128,0,25209:0:0:0:0:
182,192,25209,128,0,25375:0:0:0:0:
402,192,25209,1,0,0:0:0:0:
256,192,25375,128,0,25542:0:0:0:0:
475,192,25542,128,0,25709:0:0:0:0:
329,192,25709,128,0,25875:0:0:0:0:
402,192,25875,128,0,26042:0:0:0:0:
109,192,25875,1,0,0:0:0:0:
475,192,26042,128,0,26209:0:0:0:0:
36,192,26209,128,0,26375:0:0:0:0:
109,192,26375,128,0,26542:0:0:0:0:
182,192,26542,128,0,26709:0:0:0:0:
402,192,26542,1,0,0:0:0:0:
256,192,26709,128,0,26875:0:0:0:0:
475,192,26875,128,0,27042:0:0:0:0:
329,192,27042,128,0,27209:0:0:0:0:
402,192,27209,128,0,27375:0:0:0:0:
109,192,27209,1,0,0:0:0:0:
475,192,27375,128,0,27542:0:0:0:0:
109,192,27542,128,0,27709:0:0:0:0:
182,192,27709,128,0,27875:0:0:0:0:
256,192,27875,128,0,28042:0:0:0:0:
329,192,28042,128,0,28209:0:0:0:0:
475,192,28209,128,0,28375:0:0:0:0:
256,192,28209,128,0,28375:0:0:0:0:
402,192,28375,128,0,28542:0:0:0:0:
182,192,28375,128,0,28542:0:0:0:0:
329,192,28542,128,0,28709:0:0:0:0:
109,192,28542,128,0,28709:0:0:0:0:
36,192,28709,128,0,28875:0:0:0:0:
256,192,28709,128,0,28875:0:0:0:0:
109,192,28875,128,0,29042:0:0:0:0:
329,192,28875,128,0,29042:0:0:0:0:
402,192,29042,128,0,29209:0:0:0:0:
182,192,29042,128,0,29209:0:0:0:0:
256,192,29209,128,0,29375:0:0:0:0:
475,192,29209,128,0,29375:0:0:0:0:
329,192,29375,128,0,29542:0:0:0:0:
36,192,29375,128,0,29542:0:0:0:0:
109,192,29542,128,0,29709:0:0:0:0:
402,192,29542,128,0,29709:0:0:0:0:
182,192,29709,128,0,29875:0:0:0:0:
475,192,29709,128,0,29875:0:0:0:0:
329,192,29875,128,0,30042:0:0:0:0:
36,192,29875,128,0,30042:0:0:0:0:
182,192,30042,128,0,30209:0:0:0:0:
475,192,30042,128,0,30209:0:0:0:0:
256,192,30209,128,0,30375:0:0:0:0:
36,192,30209,128,0,30375:0:0:0:0:
109,192,30375,128,0,30542:0:0:0:0:
329,192,30375,128,0,30542:0:0:0:0:
182,192,30542,128,0,30709:0:0:0:0:
402,192,30542,128,0,30709:0:0:0:0:
256,192,30709,128,0,30875:0:0:0:0:
475,192,30709,128,0,30875:0:0:0:0:
329,192,30875,128,0,31042:0:0:0:0:
109,192,30875,128,0,31042:0:0:0:0:
256,192,31042,128,0,31209:0:0:0:0:
36,192,31042,128,0,31209:0:0:0:0:
182,192,31209,128,0,31375:0:0:0:0:
402,192,31209,128,0,31375:0:0:0:0:
256,192,31375,128,0,31542:0:0:0:0:
475,192,31375,128,0,31542:0:0:0:0:
182,192,31542,128,0,31709:0:0:0:0:
402,192,31542,128,0,31709:0:0:0:0:
256,192,31709,128,0,31875:0:0:0:0:
36,192,31709,128,0,31875:0:0:0:0:
109,192,31875,128,0,32042:0:0:0:0:
329,192,31875,128,0,32042:0:0:0:0:
402,192,32042,128,0,32209:0:0:0:0:
182,192,32042,128,0,32209:0:0:0:0:
256,192,32209,128,0,32375:0:0:0:0:
475,192,32209,128,0,32375:0:0:0:0:
402,192,32375,128,0,32542:0:0:0:0:
109,192,32375,128,0,32542:0:0:0:0:
182,192,32542,128,0,32709:0:0:0:0:
329,192,32542,128,0,32709:0:0:0:0:
475,192,32709,128,0,32875:0:0:0:0:
256,192,32709,128,0,32875:0:0:0:0:
329,192,32875,128,0,33042:0:0:0:0:
109,192,32875,128,0,33042:0:0:0:0:
182,192,33042,128,0,33209:0:0:0:0:
402,192,33042,128,0,33209:0:0:0:0:
475,192,33209,128,0,33375:0:0:0:0:
256,192,33209,128,0,33375:0:0:0:0:
402,192,33375,128,0,33542:0:0:0:0:
109,192,33375,128,0,33542:0:0:0:0:
256,192,33542,128,0,33709:0:0:0:0:
36,192,33542,128,0,33709:0:0:0:0:
182,192,33709,128,0,33875:0:0:0:0:
329,192,33709,128,0,33875:0:0:0:0:
475,192,33875,128,0,34042:0:0:0:0:
109,192,33875,128,0,34042:0:0:0:0:
182,192,34042,128,0,34209:0:0:0:0:
402,192,34042,128,0,34209:0:0:0:0:
329,192,34209,128,0,34542:0:0:0:0:
256,192,34209,1,0,0:0:0:0:
36,192,34209,1,0,0:0:0:0:
182,192,34375,1,0,0:0:0:0:
109,192,34542,1,0,0:0:0:0:
475,192,34542,128,0,34709:0:0:0:0:
36,192,34709,1,0,0:0:0:0:
329,192,34709,1,0,0:0:0:0:
182,192,34709,128,0,35042:0:0:0:0:
402,192,34792,1,0,0:0:0:0:
475,192,34875,1,0,0:0:0:0:
109,192,35042,1,0,0:0:0:0:
329,192,35042,128,0,35209:0:0:0:0:
182,192,35209,1,0,0:0:0:0:
402,192,35209,1,0,0:0:0:0:
36,192,35209,128,0,36542:0:0:0:0:
475,192,35292,1,0,0:0:0:0:
329,192,35375,1,0,0:0:0:0:
182,192,35459,1,0,0:0:0:0:
256,192,35500,1,0,0:0:0:0:
329,192,35542,1,0,0:0:0:0:
402,192,35584,1,0,0:0:0:0:
475,192,35625,1,0,0:0:0:0:
182,192,35709,128,0,35875:0:0:0:0:
256,192,35875,128,0,36042:0:0:0:0:
402,192,35875,1,0,0:0:0:0:
329,192,36042,128,0,36209:0:0:0:0:
109,192,36042,1,0,0:0:0:0:
182,192,36209,1,0,0:0:0:0:
475,192,36209,128,0,36375:0:0:0:0:
256,192,36375,1,0,0:0:0:0:
329,192,36375,128,0,36542:0:0:0:0:
475,192,36542,1,0,0:0:0:0:
182,192,36542,128,0,36709:0:0:0:0:
402,192,36709,1,0,0:0:0:0:
36,192,36709,128,0,36875:0:0:0:0:
475,192,36875,1,0,0:0:0:0:
182,192,36875,1,0,0:0:0:0:
329,192,36875,128,0,37209:0:0:0:0:
109,192,37042,1,0,0:0:0:0:
36,192,37209,1,0,0:0:0:0:
182,192,37209,1,0,0:0:0:0:
402,192,37209,128,0,37375:0:0:0:0:
256,192,37375,1,0,0:0:0:0:
109,192,37375,128,0,37709:0:0:0:0:
329,192,37542,1,0,0:0:0:0:
475,192,37625,1,0,0:0:0:0:
256,192,37709,128,0,37875:0:0:0:0:
402,192,37709,1,0,0:0:0:0:
182,192,37875,1,0,0:0:0:0:
36,192,37875,1,0,0:0:0:0:
475,192,37875,128,0,39209:0:0:0:0:
109,192,38042,1,0,0:0:0:0:
256,192,38042,1,0,0:0:0:0:
182,192,38125,1,0,0:0:0:0:
329,192,38125,1,0,0:0:0:0:
256,192,38209,1,0,0:0:0:0:
402,192,38209,1,0,0:0:0:0:
182,192,38375,128,0,38542:0:0:0:0:
256,192,38542,128,0,38709:0:0:0:0:
36,192,38542,1,0,0:0:0:0:
329,192,38709,128,0,38875:0:0:0:0:
109,192,38709,1,0,0:0:0:0:
402,192,38875,128,0,39042:0:0:0:0:
182,192,38875,1,0,0:0:0:0:
109,192,39042,1,0,0:0:0:0:
256,192,39042,128,0,39209:0:0:0:0:
36,192,39209,1,0,0:0:0:0:
329,192,39209,1,0,0:0:0:0:
182,192,39209,128,0,39375:0:0:0:0:
109,192,39375,128,0,39542:0:0:0:0:
402,192,39375,1,0,0:0:0:0:
256,192,39542,1,0,0:0:0:0:
36,192,39542,1,0,0:0:0:0:
329,192,39542,128,0,39875:0:0:0:0:
182,192,39709,1,0,0:0:0:0:
475,192,39875,128,0,40042:0:0:0:0:
109,192,39875,1,0,0:0:0:0:
36,192,40042,1,0,0:0:0:0:
329,192,40042,1,0,0:0:0:0:
182,192,40042,128,0,40375:0:0:0:0:
402,192,40125,1,0,0:0:0:0:
475,192,40209,1,0,0:0:0:0:
329,192,40375,128,0,40542:0:0:0:0:
109,192,40375,1,0,0:0:0:0:
402,192,40542,1,0,0:0:0:0:
182,192,40542,1,0,0:0:0:0:
36,192,40542,128,0,41875:0:0:0:0:
256,192,40625,1,0,0:0:0:0:
329,192,40709,1,0,0:0:0:0:
475,192,40792,1,0,0:0:0:0:
402,192,40834,1,0,0:0:0:0:
329,192,40875,1,0,0:0:0:0:
256,192,40917,1,0,0:0:0:0:
182,192,40959,1,0,0:0:0:0:
109,192,41042,128,0,41209:0:0:0:0:
182,192,41209,128,0,41375:0:0:0:0:
475,192,41209,1,0,0:0:0:0:
256,192,41375,128,0,41542:0:0:0:0:
402,192,41375,1,0,0:0:0:0:
109,192,41542,1,0,0:0:0:0:
475,192,41542,128,0,41709:0:0:0:0:
182,192,41709,1,0,0:0:0:0:
329,192,41709,128,0,41875:0:0:0:0:
256,192,41875,1,0,0:0:0:0:
182,192,41875,128,0,42042:0:0:0:0:
329,192,41959,1,0,0:0:0:0:
402,192,42042,1,0,0:0:0:0:
36,192,42042,128,0,42209:0:0:0:0:
475,192,42125,1,0,0:0:0:0:
182,192,42209,1,0,0:0:0:0:
329,192,42209,128,0,42542:0:0:0:0:
475,192,42542,1,0,0:0:0:0:
36,192,42709,128,0,43042:0:0:0:0:
182,192,42709,1,0,0:0:0:0:
256,192,43042,1,0,0:0:0:0:
329,192,43209,1,0,0:0:0:0:
475,192,43209,128,0,43792:0:0:0:0:
475,192,43875,1,0,0:0:0:0:
475,192,43959,1,0,0:0:0:0:
475,192,44042,1,0,0:0:0:0:
329,192,44209,1,0,0:0:0:0:
182,192,44209,1,0,0:0:0:0:
475,192,44375,1,0,0:0:0:0:
36,192,44375,1,0,0:0:0:0:
109,192,44542,1,0,0:0:0:0:
329,192,44542,1,0,0:0:0:0:
182,192,44709,1,0,0:0:0:0:
402,192,44709,1,0,0:0:0:0:
256,192,44875,1,0,0:0:0:0:
475,192,44875,1,0,0:0:0:0:
36,192,44875,1,0,0:0:0:0:
402,192,45042,1,0,0:0:0:0:
329,192,45125,1,0,0:0:0:0:
256,192,45209,1,0,0:0:0:0:
475,192,45209,1,0,0:0:0:0:
182,192,45292,1,0,0:0:0:0:
109,192,45375,1,0,0:0:0:0:
402,192,45375,1,0,0:0:0:0:
36,192,45459,1,0,0:0:0:0:
182,192,45542,1,0,0:0:0:0:
256,192,45709,1,0,0:0:0:0:
475,192,45709,1,0,0:0:0:0:
329,192,45875,1,0,0:0:0:0:
182,192,46042,1,0,0:0:0:0:
256,192,46209,1,0,0:0:0:0:
36,192,46209,1,0,0:0:0:0:
329,192,46292,1,0,0:0:0:0:
256,192,46375,1,0,0:0:0:0:
182,192,46459,1,0,0:0:0:0:
109,192,46542,1,0,0:0:0:0:
475,192,46542,1,0,0:0:0:0:
182,192,46625,1,0,0:0:0:0:
109,192,46709,1,0,0:0:0:0:
329,192,46709,1,0,0:0:0:0:
36,192,46792,1,0,0:0:0:0:
109,192,46875,1,0,0:0:0:0:
182,192,46959,1,0,0:0:0:0:
256,192,47042,1,0,0:0:0:0:
475,192,47042,1,0,0:0:0:0:
329,192,47125,1,0,0:0:0:0:
256,192,47209,1,0,0:0:0:0:
36,192,47209,1,0,0:0:0:0:
329,192,47292,1,0,0:0:0:0:
402,192,47375,1,0,0:0:0:0:
475,192,47459,1,0,0:0:0:0:
182,192,47542,1,0,0:0:0:0:
36,192,47542,1,0,0:0:0:0:
256,192,47625,1,0,0:0:0:0:
182,192,47709,1,0,0:0:0:0:
256,192,47792,1,0,0:0:0:0:
329,192,47875,1,0,0:0:0:0:
475,192,47875,1,0,0:0:0:0:
182,192,48042,1,0,0:0:0:0:
36,192,48042,1,0,0:0:0:0:
475,192,48209,1,0,0:0:0:0:
109,192,48209,1,0,0:0:0:0:
329,192,48292,1,0,0:0:0:0:
475,192,48375,1,0,0:0:0:0:
182,192,48375,1,0,0:0:0:0:
256,192,48542,1,0,0:0:0:0:
329,192,48709,1,0,0:0:0:0:
36,192,48792,1,0,0:0:0:0:
182,192,48875,1,0,0:0:0:0:
475,192,48875,1,0,0:0:0:0:
402,192,49042,1,0,0:0:0:0:
329,192,49125,1,0,0:0:0:0:
256,192,49209,1,0,0:0:0:0:
475,192,49209,1,0,0:0:0:0:
182,192,49292,1,0,0:0:0:0:
329,192,49375,1,0,0:0:0:0:
109,192,49375,1,0,0:0:0:0:
36,192,49459,1,0,0:0:0:0:
109,192,49542,1,0,0:0:0:0:
256,192,49542,1,0,0:0:0:0:
182,192,49709,1,0,0:0:0:0:
36,192,49709,1,0,0:0:0:0:
329,192,49709,1,0,0:0:0:0:
109,192,49875,1,0,0:0:0:0:
256,192,49875,1,0,0:0:0:0:
402,192,49875,1,0,0:0:0:0:
475,192,50042,1,0,0:0:0:0:
329,192,50042,1,0,0:0:0:0:
182,192,50042,1,0,0:0:0:0:
402,192,50209,1,0,0:0:0:0:
256,192,50209,1,0,0:0:0:0:
109,192,50375,1,0,0:0:0:0:
36,192,50459,1,0,0:0:0:0:
182,192,50459,1,0,0:0:0:0:
329,192,50459,1,0,0:0:0:0:
109,192,50709,1,0,0:0:0:0:
256,192,50709,1,0,0:0:0:0:
402,192,50709,1,0,0:0:0:0:
182,192,50875,1,0,0:0:0:0:
329,192,50875,1,0,0:0:0:0:
475,192,50875,1,0,0:0:0:0:
36,192,51042,1,0,0:0:0:0:
402,192,51375,1,0,0:0:0:0:
182,192,51375,1,0,0:0:0:0:
329,192,51459,1,0,0:0:0:0:
109,192,51459,1,0,0:0:0:0:
36,192,51542,1,0,0:0:0:0:
256,192,51542,1,0,0:0:0:0:
109,192,51625,1,0,0:0:0:0:
329,192,51625,1,0,0:0:0:0:
182,192,51709,1,0,0:0:0:0:
402,192,51709,1,0,0:0:0:0:
475,192,51792,1,0,0:0:0:0:
36,192,51792,1,0,0:0:0:0:
402,192,51875,1,0,0:0:0:0:
109,192,51875,1,0,0:0:0:0:
182,192,51959,1,0,0:0:0:0:
329,192,51959,1,0,0:0:0:0:
256,192,52042,1,0,0:0:0:0:
36,192,52042,1,0,0:0:0:0:
109,192,52125,1,0,0:0:0:0:
329,192,52125,1,0,0:0:0:0:
182,192,52209,1,0,0:0:0:0:
402,192,52209,1,0,0:0:0:0:
36,192,52375,1,0,0:0:0:0:
182,192,52459,1,0,0:0:0:0:
329,192,52459,1,0,0:0:0:0:
109,192,52625,1,0,0:0:0:0:
256,192,52709,1,0,0:0:0:0:
402,192,52709,1,0,0:0:0:0:
182,192,52792,1,0,0:0:0:0:
36,192,52792,1,0,0:0:0:0:
329,192,52875,1,0,0:0:0:0:
475,192,52875,1,0,0:0:0:0:
256,192,53209,1,0,0:0:0:0:
36,192,53209,1,0,0:0:0:0:
109,192,53292,1,0,0:0:0:0:
329,192,53292,1,0,0:0:0:0:
182,192,53375,1,0,0:0:0:0:
402,192,53375,1,0,0:0:0:0:
256,192,53459,1,0,0:0:0:0:
475,192,53459,1,0,0:0:0:0:
402,192,53542,1,0,0:0:0:0:
182,192,53542,1,0,0:0:0:0:
329,192,53625,1,0,0:0:0:0:
109,192,53625,1,0,0:0:0:0:
36,192,53709,1,0,0:0:0:0:
402,192,53709,1,0,0:0:0:0:
475,192,53792,1,0,0:0:0:0:
109,192,53792,1,0,0:0:0:0:
182,192,53875,1,0,0:0:0:0:
402,192,53875,1,0,0:0:0:0:
329,192,53959,1,0,0:0:0:0:
109,192,53959,1,0,0:0:0:0:
182,192,54042,1,0,0:0:0:0:
402,192,54042,1,0,0:0:0:0:
475,192,54125,1,0,0:0:0:0:
256,192,54125,1,0,0:0:0:0:
475,192,54209,1,0,0:0:0:0:
329,192,54209,1,0,0:0:0:0:
329,192,54709,1,0,0:0:0:0:
329,192,54792,1,0,0:0:0:0:
329,192,54875,1,0,0:0:0:0:
402,192,55125,1,0,0:0:0:0:
256,192,55125,1,0,0:0:0:0:
329,192,55375,1,0,0:0:0:0:
475,192,55375,1,0,0:0:0:0:
36,192,55542,1,0,0:0:0:0:
182,192,55542,128,0,55709:0:0:0:0:
329,192,55709,1,0,0:0:0:0:
109,192,55792,128,0,55959:0:0:0:0:
329,192,55959,1,0,0:0:0:0:
182,192,56042,128,0,56209:0:0:0:0:
475,192,56209,128,0,56375:0:0:0:0:
182,192,56375,1,0,0:0:0:0:
329,192,56459,128,0,56625:0:0:0:0:
182,192,56625,1,0,0:0:0:0:
402,192,56709,128,0,56875:0:0:0:0:
329,192,56875,128,0,57042:0:0:0:0:
182,192,57042,1,0,0:0:0:0:
475,192,57125,128,0,57375:0:0:0:0:
109,192,57292,1,0,0:0:0:0:
329,192,57375,128,0,57542:0:0:0:0:
36,192,57459,1,0,0:0:0:0:
182,192,57542,128,0,57709:0:0:0:0:
402,192,57625,1,0,0:0:0:0:
36,192,57709,128,0,57875:0:0:0:0:
329,192,57792,1,0,0:0:0:0:
475,192,57875,128,0,58042:0:0:0:0:
256,192,57959,1,0,0:0:0:0:
402,192,58042,128,0,58209:0:0:0:0:
182,192,58125,1,0,0:0:0:0:
329,192,58209,128,0,58542:0:0:0:0:
182,192,58375,1,0,0:0:0:0:
109,192,58459,1,0,0:0:0:0:
36,192,58542,1,0,0:0:0:0:
475,192,58542,1,0,0:0:0:0:
109,192,58625,1,0,0:0:0:0:
402,192,58625,1,0,0:0:0:0:
182,192,58709,1,0,0:0:0:0:
329,192,58709,1,0,0:0:0:0:
256,192,58792,1,0,0:0:0:0:
109,192,58875,128,0,59125:0:0:0:0:
329,192,59042,1,0,0:0:0:0:
475,192,59042,1,0,0:0:0:0:
182,192,59125,128,0,59375:0:0:0:0:
402,192,59292,1,0,0:0:0:0:
256,192,59375,128,0,59542:0:0:0:0:
475,192,59542,128,0,59875:0:0:0:0:
329,192,59709,1,0,0:0:0:0:
182,192,59875,128,0,60209:0:0:0:0:
329,192,60042,1,0,0:0:0:0:
36,192,60209,128,0,60542:0:0:0:0:
329,192,60375,1,0,0:0:0:0:
182,192,60542,128,0,60875:0:0:0:0:
329,192,60709,1,0,0:0:0:0:
109,192,60875,128,0,61209:0:0:0:0:
256,192,60875,1,0,0:0:0:0:
475,192,60875,1,0,0:0:0:0:
329,192,61042,1,0,0:0:0:0:
402,192,61209,1,0,0:0:0:0:
475,192,61209,1,0,0:0:0:0:
36,192,61209,1,0,0:0:0:0:
109,192,61292,1,0,0:0:0:0:
182,192,61375,1,0,0:0:0:0:
256,192,61459,1,0,0:0:0:0:
329,192,61542,128,0,61792:0:0:0:0:
475,192,61709,1,0,0:0:0:0:
109,192,61709,1,0,0:0:0:0:
256,192,61792,128,0,62042:0:0:0:0:
36,192,61959,1,0,0:0:0:0:
182,192,62042,128,0,62209:0:0:0:0:
329,192,62209,1,0,0:0:0:0:
109,192,62209,1,0,0:0:0:0:
402,192,62292,1,0,0:0:0:0:
329,192,62375,1,0,0:0:0:0:
256,192,62459,1,0,0:0:0:0:
475,192,62542,1,0,0:0:0:0:
109,192,62542,1,0,0:0:0:0:
182,192,62625,1,0,0:0:0:0:
109,192,62709,1,0,0:0:0:0:
329,192,62709,1,0,0:0:0:0:
36,192,62792,1,0,0:0:0:0:
182,192,62875,1,0,0:0:0:0:
256,192,62959,1,0,0:0:0:0:
329,192,63042,1,0,0:0:0:0:
36,192,63042,1,0,0:0:0:0:
402,192,63125,1,0,0:0:0:0:
475,192,63209,1,0,0:0:0:0:
182,192,63209,1,0,0:0:0:0:
256,192,63375,1,0,0:0:0:0:
402,192,63375,1,0,0:0:0:0:
329,192,63542,1,0,0:0:0:0:
182,192,63542,1,0,0:0:0:0:
36,192,63542,1,0,0:0:0:0:
109,192,63709,1,0,0:0:0:0:
256,192,63792,1,0,0:0:0:0:
475,192,63875,1,0,0:0:0:0:
182,192,63959,1,0,0:0:0:0:
329,192,64042,1,0,0:0:0:0:
256,192,64209,1,0,0:0:0:0:
109,192,64209,1,0,0:0:0:0:
475,192,64292,1,0,0:0:0:0:
475,192,64375,1,0,0:0:0:0:
182,192,64375,1,0,0:0:0:0:
329,192,64459,1,0,0:0:0:0:
256,192,64625,1,0,0:0:0:0:
402,192,64709,1,0,0:0:0:0:
475,192,64875,1,0,0:0:0:0:
182,192,64875,1,0,0:0:0:0:
36,192,64875,1,0,0:0:0:0:
256,192,64875,128,0,66209:0:0:0:0:
402,192,65042,1,0,0:0:0:0:
329,192,65125,1,0,0:0:0:0:
109,192,65209,1,0,0:0:0:0:
182,192,65292,1,0,0:0:0:0:
402,192,65375,1,0,0:0:0:0:
329,192,65459,1,0,0:0:0:0:
109,192,65542,1,0,0:0:0:0:
182,192,65709,1,0,0:0:0:0:
402,192,65875,1,0,0:0:0:0:
329,192,66042,1,0,0:0:0:0:
475,192,66209,1,0,0:0:0:0:
182,192,66209,1,0,0:0:0:0:
36,192,66209,1,0,0:0:0:0:
329,192,66375,1,0,0:0:0:0:
402,192,66542,1,0,0:0:0:0:
329,192,66709,1,0,0:0:0:0:
182,192,66709,1,0,0:0:0:0:
109,192,66875,1,0,0:0:0:0:
36,192,66875,1,0,0:0:0:0:
402,192,67042,1,0,0:0:0:0:
475,192,67209,1,0,0:0:0:0:
329,192,67375,1,0,0:0:0:0:
329,192,67542,1,0,0:0:0:0:
182,192,68042,1,0,0:0:0:0:
256,192,68209,1,0,0:0:0:0:
36,192,68209,1,0,0:0:0:0:
329,192,68375,1,0,0:0:0:0:
475,192,68542,1,0,0:0:0:0:
329,192,68709,1,0,0:0:0:0:
182,192,68709,1,0,0:0:0:0:
109,192,68875,1,0,0:0:0:0:
36,192,68875,1,0,0:0:0:0:
256,192,69042,1,0,0:0:0:0:
402,192,69209,1,0,0:0:0:0:
256,192,69375,1,0,0:0:0:0:
109,192,69375,1,0,0:0:0:0:
36,192,69542,1,0,0:0:0:0:
329,192,69709,1,0,0:0:0:0:
475,192,69875,1,0,0:0:0:0:
329,192,70042,1,0,0:0:0:0:
182,192,70042,1,0,0:0:0:0:
256,192,70209,1,0,0:0:0:0:
402,192,70375,1,0,0:0:0:0:
109,192,70375,1,0,0:0:0:0:
256,192,70542,1,0,0:0:0:0:
182,192,70709,1,0,0:0:0:0:
256,192,70875,1,0,0:0:0:0:
475,192,70875,1,0,0:0:0:0:
36,192,70875,1,0,0:0:0:0:
329,192,71042,1,0,0:0:0:0:
402,192,71209,1,0,0:0:0:0:
329,192,71375,1,0,0:0:0:0:
256,192,71542,1,0,0:0:0:0:
109,192,71542,1,0,0:0:0:0:
329,192,71709,1,0,0:0:0:0:
182,192,72042,1,0,0:0:0:0:
329,192,72209,1,0,0:0:0:0:
475,192,72209,1,0,0:0:0:0:
256,192,72375,1,0,0:0:0:0:
402,192,72542,1,0,0:0:0:0:
109,192,72542,1,0,0:0:0:0:
256,192,72709,1,0,0:0:0:0:
475,192,72875,1,0,0:0:0:0:
36,192,72875,1,0,0:0:0:0:
329,192,73042,1,0,0:0:0:0:
109,192,73209,1,0,0:0:0:0:
182,192,73375,1,0,0:0:0:0:
256,192,73542,1,0,0:0:0:0:
402,192,73542,1,0,0:0:0:0:
329,192,73709,1,0,0:0:0:0:
475,192,73709,1,0,0:0:0:0:
256,192,73875,1,0,0:0:0:0:
109,192,73875,1,0,0:0:0:0:
329,192,74042,1,0,0:0:0:0:
256,192,74209,1,0,0:0:0:0:
36,192,74209,1,0,0:0:0:0:
182,192,74375,1,0,0:0:0:0:
109,192,74542,1,0,0:0:0:0:
329,192,74709,1,0,0:0:0:0:
475,192,74709,1,0,0:0:0:0:
36,192,74875,1,0,0:0:0:0:
402,192,75042,1,0,0:0:0:0:
182,192,75209,1,0,0:0:0:0:
329,192,75375,1,0,0:0:0:0:
475,192,75542,1,0,0:0:0:0:
36,192,75542,1,0,0:0:0:0:
256,192,75542,128,0,76709:0:0:0:0:
402,192,75709,1,0,0:0:0:0:
109,192,75709,1,0,0:0:0:0:
36,192,75875,1,0,0:0:0:0:
329,192,75875,1,0,0:0:0:0:
182,192,76042,1,0,0:0:0:0:
402,192,76209,1,0,0:0:0:0:
475,192,76209,1,0,0:0:0:0:
109,192,76375,1,0,0:0:0:0:
36,192,76542,1,0,0:0:0:0:
329,192,76542,1,0,0:0:0:0:
475,192,76709,1,0,0:0:0:0:
475,192,76792,1,0,0:0:0:0:
256,192,76875,1,0,0:0:0:0:
109,192,76875,1,0,0:0:0:0:
329,192,77042,1,0,0:0:0:0:
402,192,77209,1,0,0:0:0:0:
329,192,77292,1,0,0:0:0:0:
256,192,77375,1,0,0:0:0:0:
182,192,77459,1,0,0:0:0:0:
109,192,77542,1,0,0:0:0:0:
36,192,77542,1,0,0:0:0:0:
329,192,77542,1,0,0:0:0:0:
402,192,77625,1,0,0:0:0:0:
475,192,77709,1,0,0:0:0:0:
402,192,77792,1,0,0:0:0:0:
329,192,77875,1,0,0:0:0:0:
256,192,77959,1,0,0:0:0:0:
182,192,78042,1,0,0:0:0:0:
109,192,78125,1,0,0:0:0:0:
475,192,78209,1,0,0:0:0:0:
402,192,78292,1,0,0:0:0:0:
329,192,78375,1,0,0:0:0:0:
256,192,78459,1,0,0:0:0:0:
329,192,78542,1,0,0:0:0:0:
256,192,78625,1,0,0:0:0:0:
182,192,78709,1,0,0:0:0:0:
109,192,78792,1,0,0:0:0:0:
36,192,78875,1,0,0:0:0:0:
402,192,78875,1,0,0:0:0:0:
475,192,78875,1,0,0:0:0:0:
329,192,78959,1,0,0:0:0:0:
256,192,79042,1,0,0:0:0:0:
182,192,79125,1,0,0:0:0:0:
329,192,79209,1,0,0:0:0:0:
256,192,79292,1,0,0:0:0:0:
182,192,79375,1,0,0:0:0:0:
109,192,79459,1,0,0:0:0:0:
36,192,79542,1,0,0:0:0:0:
109,192,79625,1,0,0:0:0:0:
182,192,79709,1,0,0:0:0:0:
256,192,79792,1,0,0:0:0:0:
329,192,79875,1,0,0:0:0:0:
475,192,79875,1,0,0:0:0:0:
256,192,80042,1,0,0:0:0:0:
109,192,80042,1,0,0:0:0:0:
329,192,80209,1,0,0:0:0:0:
402,192,80209,1,0,0:0:0:0:
182,192,80375,1,0,0:0:0:0:
109,192,80375,1,0,0:0:0:0:
256,192,80542,1,0,0:0:0:0:
402,192,80542,1,0,0:0:0:0:
182,192,80709,1,0,0:0:0:0:
36,192,80709,1,0,0:0:0:0:
329,192,80875,1,0,0:0:0:0:
256,192,80959,1,0,0:0:0:0:
182,192,81042,1,0,0:0:0:0:
109,192,81125,1,0,0:0:0:0:
256,192,81209,1,0,0:0:0:0:
182,192,81292,1,0,0:0:0:0:
109,192,81375,1,0,0:0:0:0:
36,192,81459,1,0,0:0:0:0:
182,192,81542,1,0,0:0:0:0:
256,192,81625,1,0,0:0:0:0:
329,192,81709,1,0,0:0:0:0:
402,192,81792,1,0,0:0:0:0:
475,192,81875,1,0,0:0:0:0:
402,192,81959,1,0,0:0:0:0:
329,192,82042,1,0,0:0:0:0:
256,192,82125,1,0,0:0:0:0:
36,192,82209,1,0,0:0:0:0:
109,192,82292,1,0,0:0:0:0:
182,192,82375,1,0,0:0:0:0:
256,192,82459,1,0,0:0:0:0:
329,192,82542,1,0,0:0:0:0:
256,192,82625,1,0,0:0:0:0:
182,192,82709,1,0,0:0:0:0:
109,192,82792,1,0,0:0:0:0:
475,192,82875,1,0,0:0:0:0:
402,192,82959,1,0,0:0:0:0:
329,192,83042,1,0,0:0:0:0:
256,192,83125,1,0,0:0:0:0:
182,192,83209,1,0,0:0:0:0:
109,192,83292,1,0,0:0:0:0:
36,192,83375,1,0,0:0:0:0:
182,192,83459,1,0,0:0:0:0:
329,192,83542,1,0,0:0:0:0:
475,192,83542,1,0,0:0:0:0:
109,192,83709,1,0,0:0:0:0:
256,192,83792,1,0,0:0:0:0:
402,192,83792,1,0,0:0:0:0:
36,192,83959,1,0,0:0:0:0:
182,192,84042,1,0,0:0:0:0:
329,192,84042,1,0,0:0:0:0:
256,192,84209,1,0,0:0:0:0:
402,192,84209,1,0,0:0:0:0:
109,192,84375,1,0,0:0:0:0:
182,192,84459,1,0,0:0:0:0:
329,192,84459,1,0,0:0:0:0:
36,192,84625,1,0,0:0:0:0:
109,192,84709,1,0,0:0:0:0:
256,192,84709,1,0,0:0:0:0:
402,192,84875,1,0,0:0:0:0:
329,192,85042,1,0,0:0:0:0:
182,192,85209,1,0,0:0:0:0:
475,192,85375,128,0,86209:0:0:0:0:
329,192,85709,128,0,86542:0:0:0:0:
182,192,86042,128,0,86875:0:0:0:0:
475,192,86459,128,0,86542:0:0:0:0:
402,192,86459,128,0,86542:0:0:0:0:
36,192,87209,128,0,87375:0:0:0:0:
256,192,87209,1,0,0:0:0:0:
182,192,87542,1,0,0:0:0:0:
402,192,87542,1,0,0:0:0:0:
36,192,87542,128,0,88875:0:0:0:0:
256,192,87709,1,0,0:0:0:0:
329,192,87875,1,0,0:0:0:0:
475,192,87875,1,0,0:0:0:0:
256,192,88042,1,0,0:0:0:0:
109,192,88042,1,0,0:0:0:0:
182,192,88209,1,0,0:0:0:0:
329,192,88209,1,0,0:0:0:0:
402,192,88292,1,0,0:0:0:0:
475,192,88375,1,0,0:0:0:0:
329,192,88542,1,0,0:0:0:0:
109,192,88542,1,0,0:0:0:0:
475,192,88625,1,0,0:0:0:0:
329,192,88709,1,0,0:0:0:0:
475,192,88792,1,0,0:0:0:0:
182,192,88875,1,0,0:0:0:0:
109,192,88875,1,0,0:0:0:0:
256,192,89042,1,0,0:0:0:0:
329,192,89125,1,0,0:0:0:0:
475,192,89209,1,0,0:0:0:0:
182,192,89209,1,0,0:0:0:0:
36,192,89209,1,0,0:0:0:0:
256,192,89375,1,0,0:0:0:0:
402,192,89375,1,0,0:0:0:0:
109,192,89375,1,0,0:0:0:0:
182,192,89542,1,0,0:0:0:0:
402,192,89542,1,0,0:0:0:0:
256,192,89625,1,0,0:0:0:0:
329,192,89709,1,0,0:0:0:0:
475,192,89709,1,0,0:0:0:0:
36,192,89709,1,0,0:0:0:0:
109,192,89875,1,0,0:0:0:0:
256,192,89875,1,0,0:0:0:0:
109,192,90042,1,0,0:0:0:0:
475,192,90042,1,0,0:0:0:0:
329,192,90125,1,0,0:0:0:0:
182,192,90209,1,0,0:0:0:0:
475,192,90209,1,0,0:0:0:0:
109,192,90375,1,0,0:0:0:0:
402,192,90459,1,0,0:0:0:0:
256,192,90542,1,0,0:0:0:0:
36,192,90542,1,0,0:0:0:0:
182,192,90709,1,0,0:0:0:0:
329,192,90709,1,0,0:0:0:0:
256,192,90875,1,0,0:0:0:0:
109,192,90875,1,0,0:0:0:0:
329,192,90959,1,0,0:0:0:0:
402,192,91042,1,0,0:0:0:0:
475,192,91042,1,0,0:0:0:0:
36,192,91209,1,0,0:0:0:0:
109,192,91292,1,0,0:0:0:0:
182,192,91375,1,0,0:0:0:0:
475,192,91375,1,0,0:0:0:0:
109,192,91459,1,0,0:0:0:0:
475,192,91459,1,0,0:0:0:0:
182,192,91542,1,0,0:0:0:0:
475,192,91542,1,0,0:0:0:0:
109,192,91709,1,0,0:0:0:0:
329,192,91792,1,0,0:0:0:0:
475,192,91875,1,0,0:0:0:0:
182,192,91875,1,0,0:0:0:0:
36,192,91875,1,0,0:0:0:0:
256,192,92042,1,0,0:0:0:0:
109,192,92042,1,0,0:0:0:0:
182,192,92209,1,0,0:0:0:0:
329,192,92209,1,0,0:0:0:0:
402,192,92292,1,0,0:0:0:0:
475,192,92375,1,0,0:0:0:0:
256,192,92459,1,0,0:0:0:0:
109,192,92459,1,0,0:0:0:0:
329,192,92542,1,0,0:0:0:0:
402,192,92625,1,0,0:0:0:0:
329,192,92709,1,0,0:0:0:0:
182,192,92709,1,0,0:0:0:0:
36,192,92709,1,0,0:0:0:0:
402,192,92792,1,0,0:0:0:0:
475,192,92875,1,0,0:0:0:0:
256,192,92875,1,0,0:0:0:0:
109,192,92875,1,0,0:0:0:0:
182,192,93042,1,0,0:0:0:0:
36,192,93209,1,0,0:0:0:0:
329,192,93209,1,0,0:0:0:0:
475,192,93209,1,0,0:0:0:0:
256,192,93375,1,0,0:0:0:0:
109,192,93375,1,0,0:0:0:0:
182,192,93542,1,0,0:0:0:0:
36,192,93542,1,0,0:0:0:0:
329,192,93542,1,0,0:0:0:0:
402,192,93625,1,0,0:0:0:0:
475,192,93709,1,0,0:0:0:0:
329,192,93875,1,0,0:0:0:0:
36,192,93875,1,0,0:0:0:0:
109,192,93875,1,0,0:0:0:0:
402,192,93959,1,0,0:0:0:0:
329,192,94042,1,0,0:0:0:0:
402,192,94125,1,0,0:0:0:0:
256,192,94209,1,0,0:0:0:0:
109,192,94209,1,0,0:0:0:0:
182,192,94375,1,0,0:0:0:0:
329,192,94375,1,0,0:0:0:0:
256,192,94542,1,0,0:0:0:0:
109,192,94542,1,0,0:0:0:0:
475,192,94542,1,0,0:0:0:0:
182,192,94709,1,0,0:0:0:0:
36,192,94709,1,0,0:0:0:0:
329,192,94875,1,0,0:0:0:0:
402,192,94959,1,0,0:0:0:0:
475,192,95042,1,0,0:0:0:0:
256,192,95042,1,0,0:0:0:0:
109,192,95042,1,0,0:0:0:0:
182,192,95209,1,0,0:0:0:0:
36,192,95209,1,0,0:0:0:0:
329,192,95209,1,0,0:0:0:0:
256,192,95375,1,0,0:0:0:0:
402,192,95375,1,0,0:0:0:0:
329,192,95542,1,0,0:0:0:0:
109,192,95542,1,0,0:0:0:0:
182,192,95542,128,0,97542:0:0:0:0:
256,192,95709,1,0,0:0:0:0:
402,192,95709,1,0,0:0:0:0:
475,192,95875,1,0,0:0:0:0:
329,192,95875,1,0,0:0:0:0:
36,192,95875,1,0,0:0:0:0:
256,192,96042,1,0,0:0:0:0:
109,192,96042,1,0,0:0:0:0:
329,192,96209,1,0,0:0:0:0:
402,192,96292,1,0,0:0:0:0:
475,192,96375,1,0,0:0:0:0:
36,192,96375,1,0,0:0:0:0:
329,192,96542,1,0,0:0:0:0:
475,192,96625,1,0,0:0:0:0:
329,192,96709,1,0,0:0:0:0:
475,192,96792,1,0,0:0:0:0:
256,192,96875,1,0,0:0:0:0:
109,192,96875,1,0,0:0:0:0:
402,192,97042,1,0,0:0:0:0:
475,192,97209,1,0,0:0:0:0:
329,192,97209,1,0,0:0:0:0:
36,192,97209,1,0,0:0:0:0:
402,192,97375,1,0,0:0:0:0:
109,192,97375,1,0,0:0:0:0:
329,192,97542,1,0,0:0:0:0:
36,192,97542,128,0,98209:0:0:0:0:
402,192,97625,1,0,0:0:0:0:
475,192,97709,1,0,0:0:0:0:
182,192,97875,128,0,98209:0:0:0:0:
256,192,97875,1,0,0:0:0:0:
329,192,97959,1,0,0:0:0:0:
402,192,98042,1,0,0:0:0:0:
475,192,98125,1,0,0:0:0:0:
402,192,98209,1,0,0:0:0:0:
329,192,98209,128,0,98875:0:0:0:0:
109,192,98375,1,0,0:0:0:0:
182,192,98542,1,0,0:0:0:0:
36,192,98542,1,0,0:0:0:0:
109,192,98709,1,0,0:0:0:0:
182,192,98875,1,0,0:0:0:0:
475,192,98875,128,0,99209:0:0:0:0:
109,192,98959,1,0,0:0:0:0:
36,192,99042,1,0,0:0:0:0:
109,192,99209,1,0,0:0:0:0:
256,192,99209,128,0,99542:0:0:0:0:
402,192,99292,1,0,0:0:0:0:
109,192,99375,1,0,0:0:0:0:
402,192,99459,1,0,0:0:0:0:
329,192,99542,1,0,0:0:0:0:
182,192,99542,1,0,0:0:0:0:
36,192,99542,128,0,99792:0:0:0:0:
109,192,99792,1,0,0:0:0:0:
402,192,99792,1,0,0:0:0:0:
256,192,99792,128,0,100042:0:0:0:0:
329,192,100042,1,0,0:0:0:0:
475,192,100042,1,0,0:0:0:0:
182,192,100042,1,0,0:0:0:0:
329,192,100209,1,0,0:0:0:0:
36,192,100209,1,0,0:0:0:0:
475,192,100209,128,0,100542:0:0:0:0:
109,192,100292,1,0,0:0:0:0:
182,192,100375,1,0,0:0:0:0:
256,192,100542,1,0,0:0:0:0:
109,192,100542,1,0,0:0:0:0:
36,192,100542,1,0,0:0:0:0:
475,192,100709,1,0,0:0:0:0:
329,192,100709,1,0,0:0:0:0:
329,192,100875,1,0,0:0:0:0:
182,192,100875,1,0,0:0:0:0:
475,192,100875,128,0,101125:0:0:0:0:
256,192,101125,1,0,0:0:0:0:
109,192,101125,1,0,0:0:0:0:
329,192,101125,128,0,101375:0:0:0:0:
182,192,101375,128,0,101542:0:0:0:0:
36,192,101375,1,0,0:0:0:0:
36,192,101542,128,0,101875:0:0:0:0:
329,192,101542,1,0,0:0:0:0:
402,192,101625,1,0,0:0:0:0:
475,192,101709,1,0,0:0:0:0:
36,192,102042,128,0,102209:0:0:0:0:
329,192,102042,1,0,0:0:0:0:
475,192,102042,1,0,0:0:0:0:
475,192,102125,1,0,0:0:0:0:
329,192,102125,1,0,0:0:0:0:
329,192,102209,1,0,0:0:0:0:
182,192,102209,1,0,0:0:0:0:
475,192,102209,128,0,102459:0:0:0:0:
256,192,102459,1,0,0:0:0:0:
109,192,102459,1,0,0:0:0:0:
402,192,102459,128,0,102709:0:0:0:0:
329,192,102709,128,0,102875:0:0:0:0:
182,192,102709,1,0,0:0:0:0:
36,192,102709,1,0,0:0:0:0:
256,192,102875,1,0,0:0:0:0:
475,192,102875,1,0,0:0:0:0:
109,192,102875,128,0,103125:0:0:0:0:
182,192,103125,1,0,0:0:0:0:
36,192,103125,1,0,0:0:0:0:
329,192,103125,128,0,103375:0:0:0:0:
475,192,103375,128,0,103542:0:0:0:0:
256,192,103375,1,0,0:0:0:0:
109,192,103375,1,0,0:0:0:0:
182,192,103542,1,0,0:0:0:0:
256,192,103542,128,0,104209:0:0:0:0:
402,192,103709,1,0,0:0:0:0:
109,192,103709,1,0,0:0:0:0:
36,192,103875,1,0,0:0:0:0:
475,192,103875,1,0,0:0:0:0:
402,192,104042,1,0,0:0:0:0:
109,192,104042,1,0,0:0:0:0:
36,192,104209,1,0,0:0:0:0:
329,192,104209,1,0,0:0:0:0:
182,192,104209,128,0,104542:0:0:0:0:
402,192,104292,1,0,0:0:0:0:
475,192,104375,1,0,0:0:0:0:
36,192,104542,1,0,0:0:0:0:
329,192,104542,128,0,104875:0:0:0:0:
475,192,104542,128,0,104875:0:0:0:0:
109,192,104625,1,0,0:0:0:0:
182,192,104709,1,0,0:0:0:0:
256,192,104792,1,0,0:0:0:0:
402,192,104875,128,0,105042:0:0:0:0:
109,192,104875,128,0,105042:0:0:0:0:
36,192,105042,128,0,105209:0:0:0:0:
475,192,105042,128,0,105209:0:0:0:0:
109,192,105209,128,0,105375:0:0:0:0:
402,192,105209,128,0,105375:0:0:0:0:
256,192,105375,128,0,105709:0:0:0:0:
329,192,105542,1,0,0:0:0:0:
402,192,105625,1,0,0:0:0:0:
475,192,105709,1,0,0:0:0:0:
109,192,105709,128,0,105875:0:0:0:0:
36,192,105709,128,0,105875:0:0:0:0:
182,192,105875,128,0,106042:0:0:0:0:
329,192,105875,128,0,106042:0:0:0:0:
402,192,106042,128,0,106209:0:0:0:0:
475,192,106042,128,0,106209:0:0:0:0:
109,192,106209,128,0,108125:0:0:0:0:
256,192,106209,128,0,108125:0:0:0:0:
402,192,106375,1,0,0:0:0:0:
475,192,106542,1,0,0:0:0:0:
329,192,106542,1,0,0:0:0:0:
182,192,106709,1,0,0:0:0:0:
329,192,106875,1,0,0:0:0:0:
402,192,106959,1,0,0:0:0:0:
475,192,107042,1,0,0:0:0:0:
36,192,107042,1,0,0:0:0:0:
329,192,107209,1,0,0:0:0:0:
475,192,107292,1,0,0:0:0:0:
329,192,107375,1,0,0:0:0:0:
475,192,107459,1,0,0:0:0:0:
182,192,107542,1,0,0:0:0:0:
402,192,107709,1,0,0:0:0:0:
475,192,107875,1,0,0:0:0:0:
329,192,107875,1,0,0:0:0:0:
402,192,108042,1,0,0:0:0:0:
256,192,108209,1,0,0:0:0:0:
109,192,108209,128,0,108875:0:0:0:0:
329,192,108375,1,0,0:0:0:0:
475,192,108375,1,0,0:0:0:0:
402,192,108542,128,0,108875:0:0:0:0:
475,192,108875,1,0,0:0:0:0:
329,192,108875,1,0,0:0:0:0:
256,192,108875,1,0,0:0:0:0:
182,192,108875,1,0,0:0:0:0:
36,192,108875,1,0,0:0:0:0:
109,192,109209,1,0,0:0:0:0:
182,192,109292,1,0,0:0:0:0:
256,192,109375,1,0,0:0:0:0:
329,192,109459,1,0,0:0:0:0:
36,192,109542,1,0,0:0:0:0:
109,192,109625,1,0,0:0:0:0:
182,192,109709,1,0,0:0:0:0:
256,192,109792,1,0,0:0:0:0:
182,192,109875,1,0,0:0:0:0:
256,192,109959,1,0,0:0:0:0:
329,192,110042,1,0,0:0:0:0:
402,192,110125,1,0,0:0:0:0:
36,192,110209,1,0,0:0:0:0:
109,192,110292,1,0,0:0:0:0:
182,192,110375,1,0,0:0:0:0:
256,192,110459,1,0,0:0:0:0:
182,192,110542,1,0,0:0:0:0:
256,192,110625,1,0,0:0:0:0:
329,192,110709,1,0,0:0:0:0:
402,192,110792,1,0,0:0:0:0:
109,192,110875,1,0,0:0:0:0:
182,192,110959,1,0,0:0:0:0:
256,192,111042,1,0,0:0:0:0:
329,192,111125,1,0,0:0:0:0:
256,192,111209,1,0,0:0:0:0:
329,192,111292,1,0,0:0:0:0:
402,192,111375,1,0,0:0:0:0:
475,192,111459,1,0,0:0:0:0:
36,192,111542,1,0,0:0:0:0:
109,192,111625,1,0,0:0:0:0:
182,192,111709,1,0,0:0:0:0:
256,192,111792,1,0,0:0:0:0:
329,192,111875,1,0,0:0:0:0:
256,192,111959,1,0,0:0:0:0:
182,192,112042,1,0,0:0:0:0:
256,192,112125,1,0,0:0:0:0:
329,192,112209,1,0,0:0:0:0:
256,192,112292,1,0,0:0:0:0:
182,192,112375,1,0,0:0:0:0:
109,192,112459,1,0,0:0:0:0:
182,192,112542,1,0,0:0:0:0:
256,192,112625,1,0,0:0:0:0:
329,192,112709,1,0,0:0:0:0:
402,192,112792,1,0,0:0:0:0:
475,192,112875,1,0,0:0:0:0:
256,192,112959,1,0,0:0:0:0:
402,192,113042,1,0,0:0:0:0:
182,192,113125,1,0,0:0:0:0:
329,192,113209,1,0,0:0:0:0:
109,192,113292,1,0,0:0:0:0:
256,192,113375,1,0,0:0:0:0:
36,192,113459,1,0,0:0:0:0:
402,192,113542,1,0,0:0:0:0:
182,192,113625,1,0,0:0:0:0:
329,192,113709,1,0,0:0:0:0:
109,192,113792,1,0,0:0:0:0:
256,192,113875,1,0,0:0:0:0:
36,192,113959,1,0,0:0:0:0:
182,192,114042,1,0,0:0:0:0:
36,192,114125,1,0,0:0:0:0:
109,192,114209,1,0,0:0:0:0:
36,192,114292,1,0,0:0:0:0:
109,192,114375,1,0,0:0:0:0:
182,192,114459,1,0,0:0:0:0:
256,192,114542,1,0,0:0:0:0:
329,192,114625,1,0,0:0:0:0:
402,192,114709,1,0,0:0:0:0:
475,192,114792,1,0,0:0:0:0:
36,192,114875,1,0,0:0:0:0:
182,192,114959,1,0,0:0:0:0:
256,192,115042,1,0,0:0:0:0:
402,192,115125,1,0,0:0:0:0:
109,192,115209,1,0,0:0:0:0:
256,192,115292,1,0,0:0:0:0:
329,192,115375,1,0,0:0:0:0:
475,192,115459,1,0,0:0:0:0:
402,192,115542,1,0,0:0:0:0:
256,192,115625,1,0,0:0:0:0:
329,192,115709,1,0,0:0:0:0:
182,192,115792,1,0,0:0:0:0:
256,192,115875,1,0,0:0:0:0:
109,192,115959,1,0,0:0:0:0:
182,192,116042,1,0,0:0:0:0:
36,192,116125,1,0,0:0:0:0:
475,192,116209,1,0,0:0:0:0:
329,192,116292,1,0,0:0:0:0:
402,192,116375,1,0,0:0:0:0:
256,192,116459,1,0,0:0:0:0:
329,192,116542,1,0,0:0:0:0:
182,192,116625,1,0,0:0:0:0:
256,192,116709,1,0,0:0:0:0:
109,192,116792,1,0,0:0:0:0:
36,192,116875,1,0,0:0:0:0:
109,192,116959,1,0,0:0:0:0:
182,192,117042,1,0,0:0:0:0:
256,192,117125,1,0,0:0:0:0:
182,192,117209,1,0,0:0:0:0:
109,192,117292,1,0,0:0:0:0:
36,192,117375,1,0,0:0:0:0:
109,192,117459,1,0,0:0:0:0:
182,192,117542,1,0,0:0:0:0:
256,192,117625,1,0,0:0:0:0:
329,192,117709,1,0,0:0:0:0:
402,192,117792,1,0,0:0:0:0:
475,192,117875,1,0,0:0:0:0:
402,192,117959,1,0,0:0:0:0:
329,192,118042,1,0,0:0:0:0:
402,192,118125,1,0,0:0:0:0:
475,192,118209,1,0,0:0:0:0:
256,192,118292,1,0,0:0:0:0:
329,192,118375,1,0,0:0:0:0:
402,192,118459,1,0,0:0:0:0:
329,192,118542,1,0,0:0:0:0:
182,192,118625,1,0,0:0:0:0:
256,192,118709,1,0,0:0:0:0:
329,192,118792,1,0,0:0:0:0:
256,192,118875,1,0,0:0:0:0:
109,192,118959,1,0,0:0:0:0:
182,192,119042,1,0,0:0:0:0:
256,192,119125,1,0,0:0:0:0:
182,192,119209,1,0,0:0:0:0:
36,192,119292,1,0,0:0:0:0:
109,192,119375,1,0,0:0:0:0:
182,192,119459,1,0,0:0:0:0:
256,192,119542,1,0,0:0:0:0:
402,192,119542,1,0,0:0:0:0:
475,192,119542,1,0,0:0:0:0:
36,192,119542,1,0,0:0:0:0:
329,192,119542,128,0,120875:0:0:0:0:
36,192,120209,1,0,0:0:0:0:
109,192,120375,1,0,0:0:0:0:
182,192,120542,1,0,0:0:0:0:
256,192,120709,1,0,0:0:0:0:
475,192,120875,1,0,0:0:0:0:
36,192,120875,1,0,0:0:0:0:
182,192,120875,128,0,122209:0:0:0:0:
256,192,121542,1,0,0:0:0:0:
329,192,121709,1,0,0:0:0:0:
402,192,121875,1,0,0:0:0:0:
475,192,122042,1,0,0:0:0:0:
402,192,122209,1,0,0:0:0:0:
256,192,122209,1,0,0:0:0:0:
36,192,122209,128,0,123542:0:0:0:0:
182,192,122875,128,0,124209:0:0:0:0:
475,192,122875,1,0,0:0:0:0:
402,192,123042,1,0,0:0:0:0:
329,192,123209,1,0,0:0:0:0:
256,192,123375,1,0,0:0:0:0:
475,192,123542,1,0,0:0:0:0:
329,192,123709,1,0,0:0:0:0:
402,192,123875,1,0,0:0:0:0:
256,192,124042,1,0,0:0:0:0:
475,192,124209,1,0,0:0:0:0:
36,192,124209,1,0,0:0:0:0:
329,192,124209,128,0,124875:0:0:0:0:
109,192,124375,1,0,0:0:0:0:
182,192,124542,1,0,0:0:0:0:
109,192,124709,1,0,0:0:0:0:
36,192,124875,1,0,0:0:0:0:
475,192,124875,1,0,0:0:0:0:
402,192,124875,128,0,126209:0:0:0:0:
36,192,125542,1,0,0:0:0:0:
109,192,125709,1,0,0:0:0:0:
182,192,125875,1,0,0:0:0:0:
256,192,126042,1,0,0:0:0:0:
329,192,126209,1,0,0:0:0:0:
182,192,126209,1,0,0:0:0:0:
475,192,126209,128,0,126709:0:0:0:0:
256,192,126709,1,0,0:0:0:0:
109,192,126709,1,0,0:0:0:0:
402,192,126709,128,0,127209:0:0:0:0:
329,192,127209,128,0,127542:0:0:0:0:
182,192,127209,1,0,0:0:0:0:
36,192,127209,1,0,0:0:0:0:
36,192,127542,1,0,0:0:0:0:
182,192,127542,128,0,130209:0:0:0:0:
36,192,127709,1,0,0:0:0:0:
109,192,127875,1,0,0:0:0:0:
109,192,128042,1,0,0:0:0:0:
256,192,128209,1,0,0:0:0:0:
256,192,128375,1,0,0:0:0:0:
329,192,128542,1,0,0:0:0:0:
402,192,128709,1,0,0:0:0:0:
475,192,128875,1,0,0:0:0:0:
402,192,129042,1,0,0:0:0:0:
329,192,129209,1,0,0:0:0:0:
256,192,129375,1,0,0:0:0:0:
329,192,129542,1,0,0:0:0:0:
402,192,129542,128,0,130709:0:0:0:0:
256,192,129709,1,0,0:0:0:0:
109,192,129875,1,0,0:0:0:0:
36,192,130042,1,0,0:0:0:0:
256,192,130875,1,0,0:0:0:0:
475,192,130875,1,0,0:0:0:0:
36,192,130875,1,0,0:0:0:0:
109,192,130917,1,0,0:0:0:0:
329,192,130917,1,0,0:0:0:0:
402,192,130959,1,0,0:0:0:0:
182,192,130959,1,0,0:0:0:0:
