osu file format v14

[General]
AudioFilename: audio.mp3
AudioLeadIn: 0
PreviewTime: 44542
Countdown: 1
SampleSet: Normal
StackLeniency: 0.7
Mode: 2
LetterboxInBreaks: 0
WidescreenStoryboard: 0

[Editor]
Bookmarks: 43209,43875,46375,46709,47709,48042,51375,59542,84875,87542,95542,97875,106209,108875,119542
DistanceSpacing: 1.1
BeatDivisor: 4
GridSize: 4
TimelineZoom: 2.2

[Metadata]
Title:Anhedonia
TitleUnicode:Ανηεδονια
Artist:Silent Spica
ArtistUnicode:Silent Spica
Creator:Fisicia
Version:Collab Overdose
Source:BMS
Tags:FRENZ2012 bof2012 a_hisa Kazetoki Spiritual Core Kazuyo Cera- Kamisama-
BeatmapID:1144692
BeatmapSetID:539776

[Difficulty]
HPDrainRate:6
CircleSize:4
OverallDifficulty:9.2
ApproachRate:9.2
SliderMultiplier:1.4
SliderTickRate:1

[Events]
//Background and Video events
0,0,"59719307_p0.jpg",0,0
//Break Periods
//Storyboard Layer 0 (Background)
//Storyboard Layer 1 (Fail)
//Storyboard Layer 2 (Pass)
//Storyboard Layer 3 (Foreground)
//Storyboard Layer 4 (Overlay)
//Storyboard Sound Samples

[TimingPoints]
1559,666.666666666667,4,1,0,5,1,0
11892,333.333333333333,4,2,0,40,1,0
12876,333.333333333333,4,2,0,40,1,0
42209,-200,4,2,0,40,0,0
42542,-100,4,2,0,40,0,0
43209,-83.3333333333333,4,2,0,40,0,0
55042,-100,4,2,0,40,0,0
55209,-100,4,2,0,40,0,0
55542,-58.8235294117647,4,2,0,40,0,0
56792,-100,4,2,0,40,0,0
106209,-166.666666666667,4,2,0,40,0,0
108875,-100,4,2,0,40,0,0

[HitObjects]
64,288,1559,6,0,P|128:288|192:160,1,210
320,64,2892,2,0,P|288:96|320:192,1,140
384,128,4225,2,0,P|448:160|384:320,1,280
160,320,6225,2,0,P|128:256|192:224,1,140
224,288,7559,2,0,P|288:288|288:224,1,140
68,108,8892,2,0,P|108:208|144:200,1,140
200,212,9892,1,0,0:0:0:0:
320,120,10225,1,0,0:0:0:0:
128,192,10559,5,0,0:0:0:0:
188,124,10892,2,0,L|252:224,1,105
288,128,11559,6,0,P|320:96|256:64,1,140
160,192,12308,2,0,L|224:192,6,35
64,64,12876,1,0,0:0:0:0:
256,64,13042,1,0,0:0:0:0:
288,224,13209,2,0,P|352:224|352:160,1,140
160,192,13709,1,0,0:0:0:0:
256,256,13875,2,0,L|352:256,2,70
384,192,14375,1,0,0:0:0:0:
128,224,14542,2,0,L|96:160,2,70
256,96,15042,6,0,L|352:96,1,70
128,192,15375,1,0,0:0:0:0:
384,192,15542,1,0,0:0:0:0:
256,288,15709,2,0,L|160:288,1,70
96,192,16042,1,0,0:0:0:0:
96,192,16209,1,0,0:0:0:0:
320,192,16375,1,0,0:0:0:0:
96,192,16542,1,0,0:0:0:0:
320,192,16709,1,0,0:0:0:0:
224,96,16875,6,0,L|128:96,1,70
256,192,17209,2,0,L|352:192,1,70
224,96,17542,2,0,L|288:96,2,35
224,224,17875,2,0,P|224:288|160:288,1,140
256,196,18375,1,0,0:0:0:0:
64,192,18542,1,0,0:0:0:0:
256,64,18709,1,0,0:0:0:0:
256,64,18875,2,0,L|352:64,1,70
160,192,19209,1,0,0:0:0:0:
384,192,19375,5,0,0:0:0:0:
160,288,19542,2,0,L|64:288,1,70
160,192,19875,1,0,0:0:0:0:
256,192,20042,2,0,L|320:192,4,35
320,96,20542,1,0,0:0:0:0:
384,256,20709,1,0,0:0:0:0:
384,256,20875,2,0,P|448:256|416:320,1,140
256,224,21375,1,0,0:0:0:0:
256,224,21542,6,0,L|160:224,1,70
96,160,21875,1,0,0:0:0:0:
256,160,22042,1,0,0:0:0:0:
320,256,22209,6,0,L|416:256,1,70
256,160,22542,1,0,0:0:0:0:
160,224,22709,2,0,L|96:224,4,35
256,192,23209,1,0,0:0:0:0:
192,320,23375,1,0,0:0:0:0:
352,256,23542,2,0,P|384:224|352:128,1,140
256,192,24042,1,0,0:0:0:0:
96,192,24209,1,0,0:0:0:0:
336,192,24375,6,0,L|432:192,1,70
288,192,24709,1,0,0:0:0:0:
384,192,24875,1,0,0:0:0:0:
136,192,25042,2,0,L|232:192,1,70
80,160,25375,1,0,0:0:0:0:
192,160,25542,1,0,0:0:0:0:
280,160,25709,2,0,L|376:160,1,70
320,256,26042,1,0,0:0:0:0:
192,256,26209,5,0,0:0:0:0:
400,256,26375,2,0,L|496:256,1,70
224,288,26709,1,0,0:0:0:0:
128,240,26875,1,0,0:0:0:0:
224,192,27042,2,0,L|320:192,1,70
416,192,27375,1,0,0:0:0:0:
304,192,27542,1,0,0:0:0:0:
136,192,27709,2,0,L|232:192,1,70
256,160,28042,5,0,0:0:0:0:
368,160,28209,1,0,0:0:0:0:
208,240,28375,1,0,0:0:0:0:
384,288,28542,2,0,L|480:288,1,70
384,192,28875,2,0,L|288:192,2,70
96,192,29375,2,0,L|192:192,2,70
320,64,29875,2,0,L|416:64,1,70
256,192,30209,2,0,L|160:192,2,70
352,288,30709,6,0,L|448:288,1,70
256,288,31042,1,0,0:0:0:0:
160,256,31209,2,0,P|128:224|128:192,1,70
256,128,31542,1,0,0:0:0:0:
352,256,31709,2,0,L|448:256,2,70
224,320,32209,1,0,0:0:0:0:
64,192,32375,2,0,L|160:192,1,70
192,128,32709,1,0,0:0:0:0:
288,256,32875,6,0,L|384:256,1,70
132,191,33209,1,0,0:0:0:0:
256,128,33375,2,0,L|352:128,1,70
416,256,33709,1,0,0:0:0:0:
260,304,33875,1,0,0:0:0:0:
244,316,33959,1,0,0:0:0:0:
220,316,34042,1,0,0:0:0:0:
200,304,34125,1,0,0:0:0:0:
208,280,34209,5,0,0:0:0:0:
324,136,34375,1,0,0:0:0:0:
256,192,34542,1,0,0:0:0:0:
192,128,34709,2,0,L|32:128,1,140
288,128,35209,1,0,0:0:0:0:
128,256,35375,5,0,0:0:0:0:
256,192,35542,2,0,L|320:192,2,35
384,256,35875,1,0,0:0:0:0:
448,128,36042,1,0,0:0:0:0:
256,64,36209,2,0,L|160:64,1,70
64,160,36542,1,0,0:0:0:0:
160,224,36709,2,0,L|256:224,1,70
230,224,37042,1,0,0:0:0:0:
320,96,37209,1,0,0:0:0:0:
448,200,37375,5,0,0:0:0:0:
218,192,37542,1,0,0:0:0:0:
288,192,37709,2,0,L|192:192,1,70
320,288,38042,2,0,L|384:288,1,35
387,252,38209,1,0,0:0:0:0:
359,208,38292,1,0,0:0:0:0:
336,162,38375,1,0,0:0:0:0:
288,192,38542,1,0,0:0:0:0:
256,96,38709,1,0,0:0:0:0:
416,192,38875,5,0,0:0:0:0:
352,320,39042,2,0,L|256:320,1,70
224,224,39375,2,0,L|128:224,1,70
396,128,39709,1,0,0:0:0:0:
326,128,39875,2,0,L|422:128,1,70
326,128,40209,1,0,0:0:0:0:
396,128,40375,2,0,L|300:128,1,70
256,224,40709,1,0,0:0:0:0:
256,224,40875,2,0,L|192:224,2,35
96,192,41209,5,0,0:0:0:0:
256,192,41375,1,0,0:0:0:0:
96,64,41542,5,0,0:0:0:0:
320,128,41709,1,0,0:0:0:0:
96,256,41875,1,0,0:0:0:0:
352,256,42042,1,0,0:0:0:0:
160,192,42209,2,0,L|245:192,1,70
288,128,42709,1,0,0:0:0:0:
384,192,43042,1,0,0:0:0:0:
64,160,43209,2,0,B|64:224|96:224|96:192|128:256|128:256|128:288|160:288|192:256|224:288|256:288|256:320|288:320|288:352|320:352,1,335.999989746094
320,224,43959,6,0,L|384:224,1,41.9999987182618
256,224,44209,1,0,0:0:0:0:
64,96,44375,2,0,L|160:96,2,83.9999974365235
256,192,44875,1,0,0:0:0:0:
348,268,45042,1,0,0:0:0:0:
385,233,45125,1,0,0:0:0:0:
405,180,45209,1,0,0:0:0:0:
382,129,45292,1,0,0:0:0:0:
347,85,45375,5,0,0:0:0:0:
256,192,45542,1,0,0:0:0:0:
32,64,45709,1,0,0:0:0:0:
480,352,45875,1,0,0:0:0:0:
256,320,46042,2,0,L|160:320,1,83.9999974365235
128,112,46375,1,0,0:0:0:0:
156,112,46459,1,0,0:0:0:0:
180,112,46542,1,0,0:0:0:0:
204,112,46625,5,0,0:0:0:0:
224,112,46709,1,0,0:0:0:0:
224,192,46875,2,0,L|320:192,1,83.9999974365235
256,288,47209,2,0,L|160:288,1,83.9999974365235
224,192,47542,1,0,0:0:0:0:
432,128,47709,1,0,0:0:0:0:
464,176,47792,1,0,0:0:0:0:
464,240,47875,1,0,0:0:0:0:
432,288,47959,5,0,0:0:0:0:
368,304,48042,1,0,0:0:0:0:
320,128,48209,2,0,L|224:128,1,83.9999974365235
64,256,48542,2,0,L|160:256,2,83.9999974365235
256,192,49042,1,0,0:0:0:0:
320,64,49209,2,0,L|416:64,2,83.9999974365235
426,256,49709,2,0,L|362:256,1,41.9999987182618
384,256,49875,2,0,L|448:256,1,41.9999987182618
160,160,50042,5,0,0:0:0:0:
256,64,50209,1,0,0:0:0:0:
384,160,50459,1,0,0:0:0:0:
96,256,50709,1,0,0:0:0:0:
416,224,50876,2,0,L|224:224,1,167.999994873047
196,296,51375,1,0,0:0:0:0:
224,272,51459,1,0,0:0:0:0:
252,236,51542,1,0,0:0:0:0:
264,204,51625,5,0,0:0:0:0:
264,160,51709,1,0,0:0:0:0:
248,124,51792,1,0,0:0:0:0:
228,96,51875,1,0,0:0:0:0:
148,120,51959,1,0,0:0:0:0:
76,68,52042,1,0,0:0:0:0:
352,192,52209,2,0,L|480:192,2,125.999996154785
256,96,52875,5,0,0:0:0:0:
192,224,53042,2,0,L|128:224,2,41.9999987182618
96,160,53375,1,0,0:0:0:0:
256,64,53542,2,0,L|352:64,1,83.9999974365235
320,288,53875,1,0,0:0:0:0:
160,160,54042,2,0,L|224:160,2,41.9999987182618
384,192,54375,2,0,L|480:192,1,83.9999974365235
288,192,54709,1,0,0:0:0:0:
160,192,54875,5,0,0:0:0:0:
96,96,55042,2,0,L|192:96,1,70
256,192,55542,2,0,L|384:192,1,119.000002269745
256,288,55792,2,0,L|119:289,1,119.000002269745
407,109,56042,2,0,L|265:109,1,119.000002269745
256,192,56375,2,0,L|160:192,1,59.5000011348725
160,128,56625,2,0,L|64:124,2,59.5000011348725
128,32,57042,1,0,0:0:0:0:
320,128,57209,6,0,L|416:128,2,70
256,192,57709,1,0,0:0:0:0:
64,192,57875,1,0,0:0:0:0:
160,288,58042,2,0,L|256:288,1,70
320,192,58375,2,0,L|416:192,2,70
160,192,58875,1,0,0:0:0:0:
256,96,59042,1,0,0:0:0:0:
384,192,59209,1,0,0:0:0:0:
160,192,59375,5,0,0:0:0:0:
256,160,59542,1,0,0:0:0:0:
160,128,59875,1,0,0:0:0:0:
320,96,60209,1,0,0:0:0:0:
96,64,60542,1,0,0:0:0:0:
384,32,60875,1,0,0:0:0:0:
160,192,61209,1,0,0:0:0:0:
224,192,61292,1,0,0:0:0:0:
288,192,61375,5,0,0:0:0:0:
224,192,61459,1,0,0:0:0:0:
160,192,61542,1,0,0:0:0:0:
284,128,61709,2,0,L|124:128,1,140
352,64,62209,1,0,0:0:0:0:
384,96,62292,1,0,0:0:0:0:
416,128,62375,1,0,0:0:0:0:
448,160,62459,1,0,0:0:0:0:
416,192,62542,5,0,0:0:0:0:
384,224,62625,1,0,0:0:0:0:
352,256,62709,1,0,0:0:0:0:
384,288,62792,1,0,0:0:0:0:
128,256,62875,1,0,0:0:0:0:
96,224,62959,1,0,0:0:0:0:
128,192,63042,1,0,0:0:0:0:
160,160,63125,1,0,0:0:0:0:
192,128,63209,5,0,0:0:0:0:
224,96,63292,1,0,0:0:0:0:
192,64,63375,1,0,0:0:0:0:
160,32,63459,1,0,0:0:0:0:
320,32,63542,2,0,L|192:32,1,105
416,64,63875,2,0,L|480:96,1,70
384,160,64209,2,0,L|256:192,1,105
64,224,64542,2,0,L|128:256,1,70
416,288,64875,5,0,0:0:0:0:
448,256,64959,1,0,0:0:0:0:
480,224,65042,1,0,0:0:0:0:
448,192,65125,1,0,0:0:0:0:
416,160,65209,1,0,0:0:0:0:
384,128,65292,1,0,0:0:0:0:
128,64,65375,1,0,0:0:0:0:
96,96,65459,1,0,0:0:0:0:
64,128,65542,5,0,0:0:0:0:
96,160,65625,1,0,0:0:0:0:
128,192,65709,1,0,0:0:0:0:
96,224,65792,1,0,0:0:0:0:
64,256,65875,1,0,0:0:0:0:
384,192,65959,1,0,0:0:0:0:
352,224,66042,1,0,0:0:0:0:
320,256,66125,1,0,0:0:0:0:
96,320,66209,6,0,L|0:320,2,70
384,320,66709,1,0,0:0:0:0:
160,224,66875,2,0,L|256:224,2,70
352,128,67375,2,0,L|448:128,1,70
352,192,67709,2,0,L|256:192,1,70
32,192,68042,1,0,0:0:0:0:
160,192,68209,1,0,0:0:0:0:
64,192,68375,1,0,0:0:0:0:
192,192,68542,5,0,0:0:0:0:
416,192,68709,2,0,L|512:160,1,70
416,96,69042,2,0,L|320:64,1,70
64,224,69375,2,0,L|0:192,1,70
192,192,69709,2,0,L|256:160,2,70
352,96,70209,2,0,L|288:64,2,70
416,128,70709,1,0,0:0:0:0:
320,160,70875,1,0,0:0:0:0:
448,192,71042,5,0,0:0:0:0:
128,256,71209,2,0,L|224:288,1,70
0,288,71542,2,0,L|64:320,1,70
384,192,71875,2,0,L|320:224,1,70
512,224,72209,2,0,L|448:256,1,70
352,288,72542,1,0,0:0:0:0:
32,288,72709,1,0,0:0:0:0:
128,288,72875,2,0,L|224:288,1,70
288,192,73209,6,0,L|192:192,1,70
480,96,73542,1,0,0:0:0:0:
384,96,73709,1,0,0:0:0:0:
288,96,73875,1,0,0:0:0:0:
0,288,74042,1,0,0:0:0:0:
96,288,74209,1,0,0:0:0:0:
192,288,74375,1,0,0:0:0:0:
96,288,74542,1,0,0:0:0:0:
416,224,74709,6,0,L|448:128,1,70
140,288,75042,2,0,L|112:208,1,70
32,160,75375,1,0,0:0:0:0:
128,160,75542,1,0,0:0:0:0:
32,160,75709,1,0,0:0:0:0:
256,160,75875,2,0,L|160:160,1,70
288,64,76209,2,0,L|384:64,1,70
288,160,76542,2,0,L|224:192,1,70
352,224,76875,6,0,L|416:256,1,70
64,320,77209,1,0,0:0:0:0:
0,256,77375,1,0,0:0:0:0:
320,192,77542,2,0,L|384:160,2,70
192,288,78042,2,0,L|128:256,2,70
288,288,78542,2,0,L|352:256,1,70
64,256,78875,2,0,L|96:192,1,70
448,160,79209,2,0,L|480:96,1,70
224,160,79542,5,0,0:0:0:0:
136,160,79709,1,0,0:0:0:0:
48,160,79875,1,0,0:0:0:0:
452,256,80042,1,0,0:0:0:0:
368,256,80209,1,0,0:0:0:0:
452,256,80375,1,0,0:0:0:0:
126,256,80542,2,0,L|56:256,1,70
352,256,80875,2,0,L|448:256,1,70
102,160,81209,6,0,L|32:160,1,70
384,160,81542,2,0,L|480:160,1,70
96,288,81875,1,0,0:0:0:0:
224,288,82042,1,0,0:0:0:0:
64,288,82209,1,0,0:0:0:0:
192,288,82375,1,0,0:0:0:0:
480,288,82542,2,0,L|384:288,1,70
288,192,82875,2,0,L|384:192,1,70
96,192,83209,5,0,0:0:0:0:
0,192,83375,1,0,0:0:0:0:
96,192,83542,1,0,0:0:0:0:
384,192,83709,2,0,L|480:192,1,70
352,96,84042,2,0,L|256:96,1,70
32,192,84375,2,0,L|128:192,2,70
480,192,84875,1,0,0:0:0:0:
364,192,85042,1,0,0:0:0:0:
264,192,85209,5,0,0:0:0:0:
480,192,85375,1,0,0:0:0:0:
192,192,85709,1,0,0:0:0:0:
480,192,86042,1,0,0:0:0:0:
128,224,87209,2,0,P|96:160|128:96,1,140
384,96,87709,2,0,L|288:96,2,70
52,96,88209,2,0,L|192:96,1,140
480,96,88709,1,0,0:0:0:0:
352,192,88875,6,0,L|512:192,1,140
128,192,89375,2,0,L|32:192,2,70
224,192,89875,1,0,0:0:0:0:
448,192,90042,2,0,L|512:192,1,35
160,192,90209,2,0,L|32:192,2,105
288,192,90875,2,0,L|192:192,1,70
512,192,91209,1,0,0:0:0:0:
416,192,91375,2,0,L|352:192,1,35
64,192,91542,6,0,P|32:160|64:96,2,105
160,192,92209,2,0,L|256:192,1,70
352,160,92542,2,0,L|256:160,1,70
108,168,92875,2,0,P|108:232|236:232,1,210
480,160,93542,2,0,L|384:160,2,70
160,160,94042,2,0,L|256:160,1,70
96,96,94375,2,0,L|192:96,1,70
480,96,94709,1,0,0:0:0:0:
360,96,94875,5,0,0:0:0:0:
240,96,95042,1,0,0:0:0:0:
480,96,95209,1,0,0:0:0:0:
360,96,95375,1,0,0:0:0:0:
64,96,95542,1,0,0:0:0:0:
20,128,95625,1,0,0:0:0:0:
16,192,95709,1,0,0:0:0:0:
44,244,95792,1,0,0:0:0:0:
288,224,95875,5,0,0:0:0:0:
340,192,95959,1,0,0:0:0:0:
368,132,96042,1,0,0:0:0:0:
360,72,96125,1,0,0:0:0:0:
320,28,96209,1,0,0:0:0:0:
76,160,96292,1,0,0:0:0:0:
32,200,96375,1,0,0:0:0:0:
24,268,96459,1,0,0:0:0:0:
60,320,96542,5,0,0:0:0:0:
116,344,96625,1,0,0:0:0:0:
416,160,96709,2,0,L|448:128,1,35
224,160,96875,2,0,L|192:128,1,35
456,208,97042,2,0,L|504:172,1,35
176,204,97209,2,0,L|136:168,1,35
416,256,97375,1,0,0:0:0:0:
372,216,97459,1,0,0:0:0:0:
344,172,97542,5,0,0:0:0:0:
344,112,97625,1,0,0:0:0:0:
376,64,97709,1,0,0:0:0:0:
424,32,97792,1,0,0:0:0:0:
128,128,97875,2,0,L|0:160,1,105
320,128,98209,2,0,L|224:128,2,70
128,128,98709,2,0,L|32:128,1,70
192,32,99042,1,0,0:0:0:0:
288,96,99209,5,0,0:0:0:0:
160,160,99375,1,0,0:0:0:0:
320,192,99542,2,0,L|416:96,2,105
32,192,100209,1,0,0:0:0:0:
160,192,100375,1,0,0:0:0:0:
64,192,100542,1,0,0:0:0:0:
192,192,100709,2,0,L|256:192,1,35
448,192,100875,2,0,L|320:192,2,105
128,192,101542,5,0,0:0:0:0:
32,192,101709,1,0,0:0:0:0:
160,192,101875,1,0,0:0:0:0:
320,192,102042,2,0,L|384:192,1,35
128,256,102209,2,0,L|0:256,2,105
256,256,102875,2,0,L|352:256,1,70
128,192,103209,2,0,L|64:160,2,70
272,192,103709,2,0,L|352:192,2,70
448,192,104209,5,0,0:0:0:0:
256,192,104542,1,0,0:0:0:0:
448,192,104875,1,0,0:0:0:0:
320,192,105042,1,0,0:0:0:0:
480,192,105209,1,0,0:0:0:0:
344,192,105375,1,0,0:0:0:0:
192,192,105709,1,0,0:0:0:0:
352,192,105875,1,0,0:0:0:0:
160,192,106042,5,0,0:0:0:0:
128,96,106209,6,0,P|96:160|384:160,1,587.999982055665
96,64,108875,5,0,0:0:0:0:
84,124,108959,1,0,0:0:0:0:
112,184,109042,1,0,0:0:0:0:
160,224,109125,2,0,L|224:224,1,35
352,192,109292,2,0,L|288:192,1,35
96,192,109459,2,0,L|128:160,1,35
416,160,109625,2,0,L|384:128,1,35
84,56,109792,1,0,0:0:0:0:
40,88,109875,5,0,0:0:0:0:
32,148,109959,1,0,0:0:0:0:
52,204,110042,1,0,0:0:0:0:
88,240,110125,1,0,0:0:0:0:
48,272,110209,1,0,0:0:0:0:
64,336,110292,1,0,0:0:0:0:
112,368,110375,1,0,0:0:0:0:
372,232,110459,1,0,0:0:0:0:
432,208,110543,5,0,0:0:0:0:
468,160,110626,1,0,0:0:0:0:
480,96,110709,1,0,0:0:0:0:
468,36,110793,1,0,0:0:0:0:
416,0,110876,1,0,0:0:0:0:
360,0,110959,1,0,0:0:0:0:
308,20,111043,1,0,0:0:0:0:
268,64,111126,1,0,0:0:0:0:
100,140,111209,5,0,0:0:0:0:
64,192,111293,1,0,0:0:0:0:
100,240,111376,1,0,0:0:0:0:
400,300,111459,1,0,0:0:0:0:
456,256,111542,1,0,0:0:0:0:
480,196,111625,1,0,0:0:0:0:
456,136,111709,1,0,0:0:0:0:
124,144,111792,1,0,0:0:0:0:
156,88,111875,5,0,0:0:0:0:
348,116,111959,1,0,0:0:0:0:
388,160,112042,1,0,0:0:0:0:
392,224,112125,1,0,0:0:0:0:
352,272,112209,1,0,0:0:0:0:
288,292,112292,1,0,0:0:0:0:
232,296,112375,1,0,0:0:0:0:
176,264,112459,1,0,0:0:0:0:
412,288,112542,5,0,0:0:0:0:
456,244,112625,1,0,0:0:0:0:
452,180,112709,1,0,0:0:0:0:
416,132,112792,1,0,0:0:0:0:
96,160,112875,2,0,L|32:160,1,35
256,160,113042,2,0,L|320:160,1,35
64,96,113209,2,0,L|32:64,1,35
288,96,113375,2,0,L|320:64,1,35
96,160,113542,5,0,0:0:0:0:
56,204,113625,1,0,0:0:0:0:
28,260,113709,1,0,0:0:0:0:
40,320,113792,1,0,0:0:0:0:
88,360,113875,1,0,0:0:0:0:
336,352,113959,1,0,0:0:0:0:
376,304,114042,1,0,0:0:0:0:
100,64,114125,1,0,0:0:0:0:
64,112,114209,5,0,0:0:0:0:
80,176,114292,1,0,0:0:0:0:
112,220,114375,1,0,0:0:0:0:
164,264,114459,1,0,0:0:0:0:
224,280,114542,1,0,0:0:0:0:
292,272,114625,1,0,0:0:0:0:
456,104,114709,1,0,0:0:0:0:
392,112,114792,1,0,0:0:0:0:
324,128,114875,5,0,0:0:0:0:
388,168,114959,1,0,0:0:0:0:
448,208,115042,1,0,0:0:0:0:
388,236,115125,1,0,0:0:0:0:
128,184,115209,1,0,0:0:0:0:
80,144,115292,1,0,0:0:0:0:
120,96,115375,1,0,0:0:0:0:
332,84,115459,1,0,0:0:0:0:
372,132,115542,5,0,0:0:0:0:
332,184,115625,1,0,0:0:0:0:
32,224,115709,2,0,L|64:192,1,35
288,224,115875,2,0,L|264:199,1,35
16,160,116042,2,0,L|48:128,1,35
304,144,116209,2,0,L|272:112,1,35
72,56,116375,1,0,0:0:0:0:
32,108,116459,1,0,0:0:0:0:
20,176,116542,5,0,0:0:0:0:
36,240,116625,1,0,0:0:0:0:
72,296,116709,1,0,0:0:0:0:
120,328,116792,1,0,0:0:0:0:
388,184,116876,1,0,0:0:0:0:
440,144,116959,1,0,0:0:0:0:
436,80,117043,1,0,0:0:0:0:
388,32,117125,1,0,0:0:0:0:
148,184,117209,5,0,0:0:0:0:
104,232,117292,1,0,0:0:0:0:
108,296,117375,1,0,0:0:0:0:
152,336,117459,1,0,0:0:0:0:
445,192,117542,2,0,L|480:192,1,35
288,192,117709,2,0,L|253:192,1,35
461,256,117875,2,0,L|496:256,1,35
272,256,118042,2,0,L|237:256,1,35
484,72,118209,5,0,0:0:0:0:
440,92,118292,1,0,0:0:0:0:
396,116,118375,1,0,0:0:0:0:
444,156,118459,1,0,0:0:0:0:
496,180,118542,1,0,0:0:0:0:
440,212,118625,1,0,0:0:0:0:
384,240,118709,1,0,0:0:0:0:
328,268,118792,1,0,0:0:0:0:
48,192,118875,5,0,0:0:0:0:
112,188,118959,1,0,0:0:0:0:
176,180,119042,1,0,0:0:0:0:
380,144,119125,1,0,0:0:0:0:
324,180,119209,1,0,0:0:0:0:
296,240,119292,1,0,0:0:0:0:
336,292,119375,1,0,0:0:0:0:
396,320,119459,1,0,0:0:0:0:
104,328,119542,6,0,P|168:264|72:136,1,280
128,96,120375,2,0,L|224:96,1,70
64,160,120709,2,0,L|160:160,1,70
384,224,121042,2,0,L|288:224,1,70
448,288,121375,2,0,L|352:288,1,70
32,288,121709,5,0,0:0:0:0:
160,288,121875,1,0,0:0:0:0:
64,288,122042,1,0,0:0:0:0:
192,288,122209,1,0,0:0:0:0:
480,288,122375,2,0,L|384:288,1,70
320,192,122709,2,0,L|416:192,1,70
256,160,123042,2,0,L|192:96,1,70
320,64,123375,2,0,L|384:32,1,70
96,192,123709,6,0,L|0:192,2,70
320,256,124209,2,0,L|416:256,2,70
32,288,124709,1,0,0:0:0:0:
160,288,124875,1,0,0:0:0:0:
288,288,125042,1,0,0:0:0:0:
32,288,125209,1,0,0:0:0:0:
160,288,125375,1,0,0:0:0:0:
288,288,125542,1,0,0:0:0:0:
512,192,125709,6,0,L|416:192,1,70
128,192,126042,2,0,L|32:192,1,70
160,128,126375,2,0,L|256:128,1,70
32,96,126709,1,0,0:0:0:0:
96,96,126875,1,0,0:0:0:0:
384,224,127042,1,0,0:0:0:0:
320,224,127209,1,0,0:0:0:0:
64,224,127375,2,0,L|32:160,1,70
160,160,127709,6,0,L|192:96,1,70
416,96,128042,2,0,L|320:96,1,70
192,160,128375,2,0,L|288:160,1,70
480,224,128709,2,0,L|384:224,1,70
32,288,129042,5,0,0:0:0:0:
128,288,129209,1,0,0:0:0:0:
224,288,129375,1,0,0:0:0:0:
128,288,129542,1,0,0:0:0:0:
32,288,129709,1,0,0:0:0:0:
416,288,129875,2,0,L|512:288,2,70
256,192,130875,1,0,0:0:0:0:
256,192,131042,12,0,135709,0:0:0:0:
